osu file format v14

[General]
AudioFilename: audio.ogg
AudioLeadIn: 0
PreviewTime: 136356
Countdown: 0
SampleSet: Soft
StackLeniency: 0.7
Mode: 0
LetterboxInBreaks: 0
WidescreenStoryboard: 1

[Editor]
Bookmarks: 239023
DistanceSpacing: 1.1
BeatDivisor: 4
GridSize: 16
TimelineZoom: 1.6

[Metadata]
Title:White Promise
TitleUnicode:White Promise
Artist:Nayugorou
ArtistUnicode:なゆごろう
Creator:ckharv
Version:Normal
Source:LOST:SMILE memories + promises
Tags:ロストスマイルメモリーズ プロミセス ロッスマ Rossuma life0 opening op visual novel vn galgame galge pop jpop j-pop female vocals video game japanese Ichijou Meguru 一条 めぐる Masaki Minato 真咲 湊 Mihiro-san みひろさん Yonamine Jun 与那嶺 純 zekk matsuyuki ame matsuyuki_ame rk657 ninym
BeatmapID:3615530
BeatmapSetID:1766146

[Difficulty]
HPDrainRate:3
CircleSize:3.2
OverallDifficulty:4
ApproachRate:5.5
SliderMultiplier:1
SliderTickRate:1

[Events]
//Background and Video events
0,0,"55.jpg",0,0
//Break Periods
2,22016,31524
2,83316,87524
2,131516,132858
2,155316,165524
//Storyboard Layer 0 (Background)
//Storyboard Layer 1 (Fail)
//Storyboard Layer 2 (Pass)
//Storyboard Layer 3 (Foreground)
//Storyboard Layer 4 (Overlay)
//Storyboard Sound Samples

[TimingPoints]
650,333.333333333333,4,2,1,45,1,0
650,-111.111111111111,4,2,1,45,0,0
5899,-100,4,2,1,5,0,0
5983,-111.111111111111,4,2,1,55,0,0
6649,-111.111111111111,4,2,2,55,0,0
6816,-111.111111111111,4,2,2,5,0,0
6899,-111.111111111111,4,2,2,55,0,0
7066,-111.111111111111,4,2,2,5,0,0
7149,-111.111111111111,4,2,2,55,0,0
8649,-111.111111111111,4,2,1,55,0,0
10149,-111.111111111111,4,2,1,65,0,0
10316,-111.111111111111,4,2,1,70,0,0
10483,-111.111111111111,4,2,1,75,0,0
10649,-111.111111111111,4,2,1,60,0,0
10816,-111.111111111111,4,2,1,65,0,0
10983,-111.111111111111,4,2,1,70,0,0
11149,-111.111111111111,4,2,1,75,0,0
11316,-100,4,2,1,90,0,1
11399,-100,4,2,1,85,0,0
16566,-100,4,2,1,5,0,0
16649,-100,4,2,1,85,0,0
18233,-100,4,2,1,5,0,0
18316,-100,4,2,1,85,0,0
21983,-100,4,2,1,50,0,0
25983,-100,4,2,1,50,0,0
31233,-100,4,2,1,5,0,0
31316,-100,4,2,1,55,0,0
31399,-100,4,2,1,5,0,0
31816,-100,4,2,1,55,0,0
32649,-111.111111111111,4,2,1,65,0,0
32983,-111.111111111111,4,2,2,65,0,0
36899,-111.111111111111,4,2,2,5,0,0
36983,-111.111111111111,4,2,2,65,0,0
40566,-111.111111111111,4,2,1,5,0,0
40649,-111.111111111111,4,2,1,65,0,0
43233,-111.111111111111,4,2,1,5,0,0
43316,-111.111111111111,4,2,1,65,0,0
53983,-111.111111111111,4,2,1,70,0,0
59483,-111.111111111111,4,2,1,65,0,0
59983,-111.111111111111,4,2,1,70,0,0
60483,-111.111111111111,4,2,1,75,0,0
60983,-111.111111111111,4,2,1,80,0,0
61483,-111.111111111111,4,2,1,85,0,0
62316,-111.111111111111,4,2,1,70,0,0
62649,-111.111111111111,4,2,1,75,0,0
62983,-111.111111111111,4,2,1,80,0,0
63316,-111.111111111111,4,2,1,85,0,0
63816,-111.111111111111,4,2,1,100,0,0
64316,-111.111111111111,4,2,1,5,0,0
64649,-100,4,2,1,90,0,1
65149,-100,4,2,1,85,0,1
66733,-100,4,2,1,5,0,1
66816,-100,4,2,1,85,0,1
68233,-100,4,2,1,5,0,1
68316,-100,4,2,1,85,0,1
72066,-100,4,2,1,5,0,1
72149,-100,4,2,1,85,0,1
73483,-100,4,2,1,85,0,1
73733,-100,4,2,1,5,0,1
73816,-100,4,2,1,85,0,1
74816,-100,4,2,1,75,0,1
75066,-100,4,2,1,80,0,1
75274,-100,4,2,1,85,0,0
75316,-100,4,2,1,90,0,1
75649,-100,4,2,1,85,0,1
82149,-100,4,2,1,100,0,0
88316,-100,4,2,1,70,0,0
88566,-100,4,2,1,5,0,0
88649,-100,4,2,1,75,0,0
88983,-100,4,2,1,70,0,0
89983,-100,4,2,1,75,0,0
91316,-100,4,2,1,80,0,0
92649,-100,4,2,1,85,0,0
93983,-111.111111111111,4,2,1,65,0,0
97899,-111.111111111111,4,2,1,5,0,0
97983,-111.111111111111,4,2,1,65,0,0
104566,-111.111111111111,4,2,1,5,0,0
104649,-111.111111111111,4,2,1,70,0,0
105899,-111.111111111111,4,2,1,5,0,0
105983,-111.111111111111,4,2,1,70,0,0
107233,-111.111111111111,4,2,1,5,0,0
107316,-111.111111111111,4,2,1,70,0,0
108899,-111.111111111111,4,2,1,5,0,0
108983,-111.111111111111,4,2,1,70,0,0
110566,-111.111111111111,4,2,1,5,0,0
110649,-111.111111111111,4,2,1,70,0,0
111566,-111.111111111111,4,2,1,5,0,0
111649,-111.111111111111,4,2,1,70,0,0
114316,-111.111111111111,4,2,1,70,0,0
114566,-111.111111111111,4,2,1,5,0,0
114649,-111.111111111111,4,2,1,70,0,0
115316,-111.111111111111,4,2,1,65,0,0
121566,-111.111111111111,4,2,1,5,0,0
121649,-111.111111111111,4,2,1,65,0,0
125983,-111.111111111111,4,2,1,70,0,0
126149,-111.111111111111,4,2,1,70,0,0
128649,-111.111111111111,4,2,1,75,0,0
128983,-111.111111111111,4,2,1,65,0,0
129316,-111.111111111111,4,2,1,70,0,0
129649,-111.111111111111,4,2,1,75,0,0
129983,-111.111111111111,4,2,1,80,0,0
131316,-111.111111111111,4,2,1,65,0,0
133649,-111.111111111111,4,2,1,75,0,0
133899,-111.111111111111,4,2,1,5,0,0
133983,-111.111111111111,4,2,1,75,0,0
134649,-111.111111111111,4,2,1,80,0,0
135316,-111.111111111111,4,2,1,70,0,0
135649,-111.111111111111,4,2,1,75,0,0
136149,-111.111111111111,4,2,1,70,0,0
136316,-111.111111111111,4,2,1,75,0,0
136483,-111.111111111111,4,2,1,80,0,0
136649,-100,4,2,1,90,0,1
136983,-100,4,2,1,85,0,1
138733,-100,4,2,1,5,0,1
138816,-100,4,2,1,85,0,1
140233,-100,4,2,1,5,0,1
140316,-100,4,2,1,85,0,1
144066,-100,4,2,1,5,0,1
144149,-100,4,2,1,85,0,1
145483,-100,4,2,1,85,0,1
145733,-100,4,2,1,5,0,1
145816,-100,4,2,1,85,0,1
146816,-100,4,2,1,80,0,1
147066,-100,4,2,1,85,0,1
147274,-100,4,2,1,100,0,0
147316,-100,4,2,1,90,0,1
147649,-100,4,2,1,85,0,1
147816,-100,4,2,1,85,0,1
150233,-100,4,2,1,5,0,1
150316,-100,4,2,1,85,0,1
150566,-100,4,2,1,5,0,1
150649,-100,4,2,1,85,0,1
150899,-100,4,2,1,5,0,1
150983,-100,4,2,1,85,0,1
154149,-100,4,2,1,85,0,0
166649,-117.647058823529,4,2,1,60,0,0
176649,-100,4,2,2,70,0,0
189983,-100,4,2,1,70,0,0
191649,-100,4,2,1,75,0,0
191816,-100,4,2,1,80,0,0
191983,-100,4,2,1,85,0,0
192649,-100,4,2,1,90,0,1
192983,-100,4,2,1,85,0,1
194733,-100,4,2,1,5,0,1
194816,-100,4,2,1,85,0,1
196233,-100,4,2,1,5,0,1
196316,-100,4,2,1,85,0,1
200066,-100,4,2,1,5,0,1
200149,-100,4,2,1,85,0,1
201483,-100,4,2,1,85,0,1
201733,-100,4,2,1,5,0,1
201816,-100,4,2,1,85,0,1
202066,-100,4,2,1,5,0,1
202149,-100,4,2,1,85,0,1
202816,-100,4,2,1,80,0,1
203066,-100,4,2,1,85,0,1
203274,-100,4,2,1,100,0,0
203316,-100,4,2,1,90,0,1
203649,-100,4,2,1,85,0,1
203816,-100,4,2,1,85,0,1
208316,-100,4,2,1,85,0,1
208566,-100,4,2,1,5,0,1
208649,-100,4,2,1,80,0,1
208983,-100,4,2,1,75,0,1
209816,-100,4,2,1,80,0,1
210149,-100,4,2,1,85,0,1
210983,-100,4,2,1,85,0,1
211233,-100,4,2,1,5,0,1
211274,-100,4,2,1,85,0,0
211316,-100,4,2,1,90,0,1
211649,-100,4,2,1,85,0,1
216608,-100,4,2,1,100,0,0
216649,-100,4,2,1,90,0,1
216816,-100,4,2,1,85,0,1
219316,-100,4,2,1,90,0,1
219566,-100,4,2,1,5,0,1
219649,-100,4,2,1,90,0,1
220066,-100,4,2,1,5,0,1
220149,-100,4,2,1,90,0,1
220983,-100,4,2,1,80,0,1
221733,-100,4,2,1,85,0,1
221983,-100,4,2,1,90,0,0
222316,-100,4,2,1,85,0,0
222483,-100,4,2,1,85,0,0
224566,-100,4,2,1,5,0,0
224649,-100,4,2,1,85,0,0
226983,-100,4,2,1,90,0,0
227316,-100,4,2,1,85,0,0
227566,-100,4,2,1,5,0,0
227649,-100,4,2,1,85,0,0
227899,-100,4,2,1,5,0,0
227983,-100,4,2,1,85,0,0
238983,-100,4,2,1,5,0,0

[Colours]
Combo1 : 248,237,163
Combo2 : 235,220,190
Combo3 : 241,159,148

[HitObjects]
36,358,650,6,0,P|122:332|223:319,1,179.999994506836,2|0,0:0|0:0,0:0:0:0:
295,370,1649,1,2,0:0:0:0:
376,313,1983,2,0,P|404:254|350:146,1,179.999994506836,2|2,0:0|0:0,0:0:0:0:
283,96,2983,1,2,0:0:0:0:
237,183,3316,6,0,P|197:217|67:184,1,179.999994506836,2|0,0:0|0:0,0:0:0:0:
19,120,4316,1,2,0:0:0:0:
67,33,4649,2,0,B|124:28|147:64|147:64|177:101|227:97,1,179.999994506836,2|2,0:0|0:1,0:0:0:0:
310,45,5649,1,2,0:1:0:0:
384,111,5983,6,0,L|358:219,1,89.9999972534181,2|2,1:2|1:2,0:0:0:0:
412,283,6649,2,0,L|489:265,2,67.4999979400635,8|8|8,1:2|0:0|0:0,0:0:0:0:
397,330,7316,2,0,P|367:354|312:348,1,89.9999972534181,2|0,1:2|1:0,0:0:0:0:
256,273,7983,2,0,L|267:225,2,44.999998626709,10|8|2,1:2|0:0|1:2,0:0:0:0:
180,336,8649,5,2,1:2:0:0:
84,308,8983,1,2,1:2:0:0:
48,215,9316,1,0,1:0:0:0:
98,130,9649,1,2,1:2:0:0:
195,111,9983,2,0,L|249:127,1,44.999998626709,2|10,1:2|0:0,0:0:0:0:
268,162,10316,2,0,L|323:151,1,44.999998626709,8|8,0:0|0:0,0:0:0:0:
351,122,10649,1,2,1:2:0:0:
402,335,11316,6,0,P|419:253|424:231,1,100,6|8,1:2|0:0,0:0:0:0:
494,153,11983,2,0,P|477:71|472:49,1,100,2|8,1:2|0:0,0:0:0:0:
432,23,12483,1,2,0:0:0:0:
432,23,12649,1,2,1:2:0:0:
353,100,12983,1,10,0:0:0:0:
244,115,13316,1,2,1:2:0:0:
160,40,13649,1,10,0:0:0:0:
60,87,13983,6,0,P|50:136|37:192,1,100,2|8,1:2|0:0,0:0:0:0:
55,293,14649,2,0,L|110:281,1,50,2|2,1:2|0:0,0:0:0:0:
138,238,14983,2,0,L|194:255,1,50,10|2,0:0|0:0,0:0:0:0:
209,302,15316,2,0,P|249:331|302:322,1,100,2|8,1:2|0:0,0:0:0:0:
332,282,15816,1,2,0:0:0:0:
411,365,16149,1,0,1:0:0:0:
411,365,16316,1,8,0:0:0:0:
486,285,16649,6,0,P|468:193|465:176,1,100,6|8,1:2|0:0,0:0:0:0:
486,135,17149,1,2,0:0:0:0:
432,40,17483,2,0,L|374:57,1,50,2|10,1:2|0:0,0:0:0:0:
351,98,17816,1,2,0:0:0:0:
351,98,17983,2,0,L|247:74,1,100,2|8,1:2|0:0,0:0:0:0:
170,3,18649,1,2,1:2:0:0:
62,26,18983,1,10,0:0:0:0:
8,120,19316,6,0,P|41:149|43:211,1,100,4|8,1:2|0:0,0:0:0:0:
15,247,19816,1,2,1:2:0:0:
96,320,20149,1,2,1:2:0:0:
200,285,20483,1,2,1:2:0:0:
200,285,20649,2,0,L|213:232,1,50,8|0,0:0|1:0,0:0:0:0:
247,194,20983,2,0,L|233:143,1,50,8|0,0:0|1:0,0:0:0:0:
198,103,21316,1,8,0:0:0:0:
289,40,21649,1,8,0:0:0:0:
289,40,21816,1,8,0:0:0:0:
457,71,32649,6,0,P|429:44|369:54,1,89.9999972534181,6|10,1:2|1:2,0:0:0:0:
351,85,33149,1,10,0:0:0:0:
295,168,33483,1,10,0:0:0:0:
295,168,33649,2,0,P|236:154|189:146,1,89.9999972534181,10|0,1:2|1:0,0:0:0:0:
132,86,34316,2,0,P|122:57|155:-4,2,89.9999972534181,2|10|2,1:2|1:2|1:2,0:0:0:0:
59,153,35316,6,0,L|73:208,1,44.999998626709,2|2,1:2|0:0,0:0:0:0:
104,232,35649,2,0,L|91:289,1,44.999998626709,10|10,1:2|0:0,0:0:0:0:
62,314,35983,1,10,1:2:0:0:
138,376,36316,1,10,1:2:0:0:
208,306,36649,2,0,P|254:301|289:331,1,89.9999972534181,2|8,1:2|1:2,0:0:0:0:
347,248,37316,2,0,L|334:191,1,44.999998626709,2|2,1:2|0:0,0:0:0:0:
302,168,37649,2,0,L|318:111,1,44.999998626709,10|2,1:2|0:0,0:0:0:0:
353,94,37983,5,2,1:2:0:0:
287,19,38316,1,2,1:2:0:0:
220,92,38649,2,0,B|182:97|182:97|170:103|170:103|121:111,1,89.9999972534181,10|10,1:2|1:2,0:0:0:0:
87,87,39149,1,10,0:0:0:0:
87,87,39316,1,2,1:2:0:0:
15,155,39649,1,2,1:2:0:0:
78,231,39983,2,0,L|131:245,1,44.999998626709,10|10,1:2|0:0,0:0:0:0:
167,223,40316,1,2,1:2:0:0:
196,317,40649,5,4,1:2:0:0:
278,372,40983,1,0,1:0:0:0:
374,349,41316,1,0,1:0:0:0:
433,270,41649,1,0,1:0:0:0:
386,182,41983,2,0,L|401:132,1,44.999998626709,0|0,1:0|1:0,0:0:0:0:
436,106,42316,2,0,L|411:9,1,89.9999972534181,8|8,0:0|0:0,0:0:0:0:
331,74,42983,1,4,3:0:0:0:
247,13,43316,6,0,B|190:8|167:44|167:44|137:81|87:77,1,179.999994506836,6|8,1:2|0:0,0:0:0:0:
14,143,44316,1,2,0:0:0:0:
76,219,44649,2,0,L|62:284,1,44.999998626709,0|8,0:0|0:0,0:0:0:0:
41,306,44983,1,0,1:0:0:0:
110,376,45316,1,10,0:0:0:0:
194,325,45649,2,0,L|239:333,1,44.999998626709,2|2,1:2|0:0,0:0:0:0:
279,304,45983,6,0,B|274:265|274:265|268:253|268:253|261:204,2,89.9999972534181,2|2|8,1:2|1:2|0:0,0:0:0:0:
356,374,46983,1,2,1:2:0:0:
356,374,47149,2,0,P|403:360|458:350,1,89.9999972534181,8|4,3:0|3:0,0:0:0:0:
478,317,47649,1,4,3:0:0:0:
408,245,47983,2,0,P|384:192|434:122,1,134.999995880127,10|10,0:0|1:3,0:0:0:0:
466,115,48649,5,4,1:2:0:0:
433,21,48983,1,0,1:0:0:0:
347,70,49316,2,0,L|253:88,1,89.9999972534181,10|2,0:0|0:0,0:0:0:0:
218,57,49816,1,2,0:0:0:0:
167,142,50149,2,0,L|185:200,1,44.999998626709,8|0,0:0|1:0,0:0:0:0:
219,223,50483,1,2,0:0:0:0:
219,223,50649,2,0,L|195:330,1,89.9999972534181,8|2,0:0|1:2,0:0:0:0:
121,372,51316,6,0,P|58:367|29:298,1,134.999995880127,2|2,1:2|0:0,0:0:0:0:
35,259,51983,1,10,2:0:0:0:
118,205,52316,1,2,2:0:0:0:
118,205,52483,2,0,L|217:227,1,89.9999972534181,8|0,3:0|1:0,0:0:0:0:
239,259,52983,1,4,3:0:0:0:
317,190,53316,1,10,0:0:0:0:
261,108,53649,2,0,L|251:51,1,44.999998626709,8|8,0:0|0:0,0:0:0:0:
280,22,53983,5,4,1:2:0:0:
280,22,54149,2,0,P|340:38|383:49,1,89.9999972534181,2|0,1:2|1:0,0:0:0:0:
413,28,54649,1,2,1:2:0:0:
475,105,54983,2,0,B|467:141|467:141|460:152|460:152|452:191,1,89.9999972534181,8|8,2:0|0:0,0:0:0:0:
506,273,55649,1,0,1:0:0:0:
427,333,55983,6,0,L|369:344,1,44.999998626709,2|0,1:2|0:0,0:0:0:0:
350,300,56316,2,0,B|313:292|313:292|302:285|302:285|263:277,1,89.9999972534181,8|10,0:0|0:0,0:0:0:0:
193,347,56983,1,2,1:2:0:0:
103,302,57316,2,0,L|86:243,1,44.999998626709,2|8,1:2|0:0,0:0:0:0:
57,221,57649,2,0,L|70:172,1,44.999998626709,2|8,1:2|0:0,0:0:0:0:
105,143,57983,5,2,1:2:0:0:
161,61,58316,2,0,L|209:76,1,44.999998626709,0|8,1:0|0:0,0:0:0:0:
236,111,58649,2,0,L|222:160,2,44.999998626709,2|8|2,1:2|3:0|1:2,0:0:0:0:
308,43,59316,6,0,L|403:69,1,89.9999972534181,4|8,1:2|0:0,0:0:0:0:
438,96,59816,2,0,B|436:124|417:142|417:142|399:163|403:193,1,89.9999972534181,4|8,1:2|0:0,0:0:0:0:
428,219,60316,2,0,B|430:247|449:265|449:265|467:286|463:316,1,89.9999972534181,4|8,1:2|0:0,0:0:0:0:
432,338,60816,2,0,L|337:364,1,89.9999972534181,4|8,1:2|0:0,0:0:0:0:
298,346,61316,1,4,1:2:0:0:
216,289,61649,2,0,L|153:305,1,44.999998626709,8|8,0:0|0:0,0:0:0:0:
135,333,61983,5,4,1:2:0:0:
44,293,62316,2,0,P|15:261|12:239,1,44.999998626709,10|0,0:0|1:0,0:0:0:0:
11,210,62649,2,0,P|8:168|21:149,1,44.999998626709,8|0,0:0|1:0,0:0:0:0:
45,130,62983,1,8,0:0:0:0:
113,58,63316,2,0,B|152:66|152:66|163:73|163:73|200:81,1,89.9999972534181,8|8,0:0|0:0,0:0:0:0:
243,58,63816,1,8,0:0:0:0:
458,228,64649,6,0,L|354:256,1,100,6|10,1:2|0:0,0:0:0:0:
311,230,65149,2,0,P|299:200|307:165,1,50,2|0,0:0|1:0,0:0:0:0:
334,139,65483,2,0,P|345:109|337:74,1,50,2|8,0:0|0:0,0:0:0:0:
311,53,65816,1,2,0:0:0:0:
311,53,65983,2,0,B|285:51|260:71|260:71|242:86|206:82,1,100,2|10,1:2|0:0,0:0:0:0:
176,46,66483,1,2,0:0:0:0:
79,5,66816,1,0,1:0:0:0:
79,5,66983,1,8,0:0:0:0:
9,90,67316,6,0,L|27:147,1,50,2|2,1:2|0:0,0:0:0:0:
63,176,67649,2,0,L|46:238,1,50,10|2,2:0|2:0,0:0:0:0:
15,268,67983,1,2,1:2:0:0:
85,359,68316,1,10,0:0:0:0:
85,359,68483,2,0,B|108:362|126:347|126:347|151:327|177:329,1,100,2|2,0:0|1:2,0:0:0:0:
227,352,68983,1,10,0:0:0:0:
227,352,69149,1,2,0:0:0:0:
307,276,69483,1,2,0:0:0:0:
307,276,69649,2,0,L|288:220,1,50,10|2,0:0|0:0,0:0:0:0:
251,189,69983,6,0,L|271:89,1,100,4|10,1:2|0:0,0:0:0:0:
299,44,70483,1,2,0:0:0:0:
403,8,70816,2,0,L|462:24,1,50,2|10,0:0|0:0,0:0:0:0:
487,62,71149,2,0,P|505:92|483:158,1,100,2|2,0:0|1:2,0:0:0:0:
448,187,71649,1,10,0:0:0:0:
448,187,71816,2,0,P|430:217|452:283,1,100,2|0,0:0|1:0,0:0:0:0:
490,308,72316,1,8,0:0:0:0:
396,365,72649,6,0,B|351:355|351:355|342:357|342:357|290:346,1,100,2|10,1:2|0:0,0:0:0:0:
256,311,73149,1,2,0:0:0:0:
256,311,73316,2,0,L|256:247,2,50,2|2|8,1:2|1:2|0:0,0:0:0:0:
213,346,73816,2,0,B|169:355|169:355|160:353|160:353|115:363,1,100,6|2,1:2|1:2,0:0:0:0:
72,338,74316,1,8,0:0:0:0:
72,338,74483,1,10,0:0:0:0:
27,243,74816,1,8,0:0:0:0:
27,243,74983,1,8,0:0:0:0:
42,134,75316,6,0,P|75:143|137:97,1,100,6|10,1:2|0:0,0:0:0:0:
152,62,75816,2,0,L|209:78,1,50,2|0,0:0|1:0,0:0:0:0:
237,116,76149,2,0,L|289:105,1,50,2|8,0:0|0:0,0:0:0:0:
322,63,76483,1,2,0:0:0:0:
322,63,76649,2,0,B|348:61|373:81|373:81|391:96|427:92,1,100,2|10,1:2|2:0,0:0:0:0:
459,60,77149,1,2,0:0:0:0:
501,167,77483,1,2,1:2:0:0:
501,167,77649,2,0,L|487:216,1,50,10|2,0:0|0:0,0:0:0:0:
446,253,77983,6,0,L|461:307,1,50,2|2,1:2|0:0,0:0:0:0:
471,354,78316,1,10,0:0:0:0:
364,381,78649,1,2,1:2:0:0:
288,300,78983,2,0,L|229:287,1,50,10|2,0:0|0:0,0:0:0:0:
211,241,79316,2,0,L|156:253,1,50,2|2,1:2|0:0,0:0:0:0:
118,228,79649,1,10,0:0:0:0:
118,228,79816,1,2,0:0:0:0:
168,132,80149,1,2,0:0:0:0:
168,132,80316,2,0,L|181:70,1,50,10|2,0:0|0:0,0:0:0:0:
210,38,80649,6,0,P|258:33|297:63,1,100,12|10,0:0|0:0,0:0:0:0:
332,112,81149,1,2,1:2:0:0:
332,112,81316,2,0,L|396:94,1,50,8|2,0:0|1:2,0:0:0:0:
429,121,81649,1,8,0:0:0:0:
403,230,81982,1,8,0:0:0:0:
403,230,82149,1,8,0:0:0:0:
468,73,88649,6,0,B|445:76|427:61|427:61|402:41|376:43,1,100,4|8,1:2|0:0,0:0:0:0:
339,85,89149,1,0,1:0:0:0:
339,85,89316,2,0,L|353:157,1,50,8|0,0:0|1:0,0:0:0:0:
378,180,89649,1,8,0:0:0:0:
313,269,89983,2,0,L|212:249,1,100,8|8,0:0|0:0,0:0:0:0:
178,216,90483,1,0,1:0:0:0:
178,216,90649,2,0,B|177:192|193:176|193:176|215:153|215:126,1,100,8|8,0:0|0:0,0:0:0:0:
148,38,91316,6,0,P|103:31|54:70,1,100,12|8,0:0|0:0,0:0:0:0:
18,163,91983,2,0,L|33:220,1,50,8|0,0:0|1:0,0:0:0:0:
73,246,92316,2,0,L|55:312,1,50,8|0,0:0|1:0,0:0:0:0:
80,345,92649,2,0,B|124:336|124:336|134:340|134:340|179:332,1,100,8|8,0:0|0:0,0:0:0:0:
214,291,93149,2,0,B|257:298|257:298|267:295|267:295|311:303,1,100,0|8,1:0|0:0,0:0:0:0:
350,342,93649,1,8,0:0:0:0:
443,307,93983,6,0,B|447:292|430:268|430:268|409:249|411:218,1,89.9999972534181,6|2,1:2|1:2,0:0:0:0:
442,187,94483,2,0,B|437:172|454:148|454:148|476:129|473:98,1,89.9999972534181,2|2,0:0|0:0,0:0:0:0:
452,61,94983,1,2,1:2:0:0:
373,0,95316,1,0,1:0:0:0:
295,63,95649,2,0,P|242:57|217:16,2,89.9999972534181,2|2|2,1:2|1:2|1:2,0:0:0:0:
351,144,96649,6,0,L|338:195,1,44.999998626709,2|2,1:2|0:0,0:0:0:0:
304,222,96983,2,0,L|317:280,1,44.999998626709,2|2,1:2|0:0,0:0:0:0:
344,305,97316,1,2,1:2:0:0:
283,383,97649,1,2,1:2:0:0:
195,335,97983,2,0,P|148:334|110:369,1,89.9999972534181,2|0,1:2|1:0,0:0:0:0:
67,347,98483,2,0,B|35:316|35:316|42:259,1,89.9999972534181,2|2,0:0|0:0,0:0:0:0:
66,228,98983,1,0,1:0:0:0:
123,147,99316,6,0,P|168:161|228:175,1,89.9999972534181,2|2,1:2|1:2,0:0:0:0:
231,215,99816,2,0,P|273:201|317:190,1,89.9999972534181,2|0,0:0|0:0,0:0:0:0:
357,219,100316,1,0,1:0:0:0:
435,279,100649,2,0,L|449:224,1,44.999998626709,2|2,1:2|0:0,0:0:0:0:
486,206,100983,2,0,L|460:100,1,89.9999972534181,2|2,1:2|1:2,0:0:0:0:
469,73,101483,1,2,0:0:0:0:
469,73,101649,1,2,1:2:0:0:
388,15,101983,6,0,P|346:10|303:50,1,89.9999972534181,2|2,1:2|1:2,0:0:0:0:
276,73,102483,1,2,0:0:0:0:
276,73,102649,2,0,L|224:61,2,44.999998626709,2|2|2,1:2|0:0|1:2,0:0:0:0:
349,139,103316,2,0,L|334:194,1,44.999998626709,2|2,1:2|0:0,0:0:0:0:
305,220,103649,2,0,L|324:277,1,44.999998626709,2|2,1:2|0:0,0:0:0:0:
356,295,103983,2,0,L|341:350,1,44.999998626709,2|2,1:2|1:2,0:0:0:0:
311,375,104316,1,2,1:0:0:0:
238,305,104649,6,0,P|188:303|149:340,1,89.9999972534181,6|10,1:2|0:0,0:0:0:0:
125,364,105149,2,0,P|75:366|36:329,1,89.9999972534181,2|2,0:0|0:0,0:0:0:0:
23,298,105649,2,0,L|37:247,1,44.999998626709,10|0,0:0|0:0,0:0:0:0:
22,210,105983,1,0,1:0:0:0:
77,128,106316,1,10,0:0:0:0:
156,187,106649,2,0,L|210:174,1,44.999998626709,2|0,1:2|0:0,0:0:0:0:
233,139,106983,1,10,0:0:0:0:
318,188,107316,6,0,L|305:242,1,44.999998626709,2|2,1:2|0:0,0:0:0:0:
274,268,107649,2,0,L|297:377,1,89.9999972534181,10|2,0:0|1:2,0:0:0:0:
333,384,108149,1,2,0:0:0:0:
333,384,108316,1,8,0:0:0:0:
431,375,108649,1,2,1:2:0:0:
478,287,108983,1,8,0:0:0:0:
404,221,109316,2,0,L|421:164,1,44.999998626709,2|2,1:2|0:0,0:0:0:0:
450,141,109649,2,0,L|434:87,1,44.999998626709,10|2,0:0|0:0,0:0:0:0:
402,61,109983,5,4,1:2:0:0:
320,4,110316,2,0,B|283:30|283:30|235:17,1,89.9999972534181,10|2,0:0|1:2,0:0:0:0:
200,48,110816,1,2,0:0:0:0:
200,48,110983,2,0,L|216:108,1,44.999998626709,10|2,0:0|0:0,0:0:0:0:
248,124,111316,2,0,L|228:225,1,89.9999972534181,2|10,1:2|0:0,0:0:0:0:
171,291,111983,1,2,1:2:0:0:
72,280,112316,1,8,0:0:0:0:
19,196,112649,6,0,L|36:139,1,44.999998626709,4|0,1:2|0:0,0:0:0:0:
72,124,112983,2,0,B|64:81|64:81|56:68|56:68|48:23,1,89.9999972534181,8|8,0:0|0:0,0:0:0:0:
69,2,113483,1,0,1:0:0:0:
69,2,113649,1,8,0:0:0:0:
151,57,113983,2,0,L|198:70,1,44.999998626709,0|0,1:0|1:0,0:0:0:0:
226,107,114316,2,0,L|319:85,1,89.9999972534181,12|10,0:0|3:3,0:0:0:0:
342,45,114816,1,2,1:2:0:0:
342,45,114983,1,6,3:3:0:0:
421,103,115316,6,0,B|429:151|393:188|393:188|361:219|369:279,1,179.999994506836,6|10,1:2|0:0,0:0:0:0:
321,355,116316,1,2,0:0:0:0:
242,295,116649,2,0,L|183:285,1,44.999998626709,0|8,0:0|0:0,0:0:0:0:
155,314,116983,1,0,1:0:0:0:
78,377,117316,1,10,0:0:0:0:
17,298,117649,2,0,L|32:244,1,44.999998626709,2|2,1:2|0:0,0:0:0:0:
62,217,117983,6,0,L|45:112,2,89.9999972534181,2|2|8,1:2|1:2|0:0,0:0:0:0:
153,178,118983,1,2,0:0:0:0:
153,178,119149,2,0,B|167:173|192:190|192:190|211:210|242:208,1,89.9999972534181,8|8,3:0|1:3,0:0:0:0:
281,191,119649,1,4,3:0:0:0:
306,286,119983,2,0,P|346:328|424:319,1,134.999995880127,10|10,0:0|1:3,0:0:0:0:
456,293,120649,5,4,1:2:0:0:
502,205,120983,1,0,1:0:0:0:
417,154,121316,2,0,B|398:114|398:114|423:60,1,89.9999972534181,8|2,0:0|0:0,0:0:0:0:
447,33,121816,1,2,0:0:0:0:
352,3,122149,2,0,L|250:25,1,89.9999972534181,8|2,0:0|0:0,0:0:0:0:
236,63,122649,1,8,0:0:0:0:
155,4,122983,1,2,1:2:0:0:
83,73,123316,6,0,B|81:107|109:130|109:130|134:149|133:191,1,134.999995880127,2|2,1:2|0:0,0:0:0:0:
117,239,123983,1,10,2:0:0:0:
54,315,124316,1,2,2:0:0:0:
54,315,124483,2,0,P|100:326|148:341,1,89.9999972534181,8|0,3:0|1:0,0:0:0:0:
182,365,124983,1,6,3:3:0:0:
270,321,125316,1,8,0:0:0:0:
248,224,125649,2,0,L|263:161,1,44.999998626709,2|2,0:0|1:2,0:0:0:0:
297,148,125983,5,4,1:2:0:0:
297,148,126149,2,0,L|273:53,1,89.9999972534181,2|2,1:2|0:1,0:0:0:0:
297,14,126649,1,0,1:0:0:0:
388,52,126983,2,0,L|444:42,1,44.999998626709,2|2,1:2|0:1,0:0:0:0:
476,66,127316,2,0,L|468:125,1,44.999998626709,0|2,1:0|0:1,0:0:0:0:
446,154,127649,1,0,1:0:0:0:
504,233,127983,1,2,1:2:0:0:
430,299,128316,2,0,B|393:306|393:306|384:313|384:313|337:322,1,89.9999972534181,10|6,3:0|1:2,0:0:0:0:
254,277,128983,6,0,L|268:217,1,44.999998626709,10|0,0:0|1:0,0:0:0:0:
297,196,129316,2,0,L|283:145,1,44.999998626709,10|0,0:0|1:0,0:0:0:0:
264,107,129649,1,10,0:0:0:0:
201,30,129983,2,0,P|173:19|153:23,1,44.999998626709,10|0,0:0|1:0,0:0:0:0:
131,62,130316,2,0,P|103:73|83:69,1,44.999998626709,8|2,0:0|1:2,0:0:0:0:
47,44,130649,1,10,0:0:0:0:
3,133,130983,2,0,L|17:191,1,44.999998626709,10|2,0:0|1:2,0:0:0:0:
23,225,131316,5,0,1:0:0:0:
366,344,133983,6,0,P|318:353|272:367,1,89.9999972534181,4|8,1:2|0:0,0:0:0:0:
244,336,134483,1,0,1:0:0:0:
244,336,134649,2,0,L|256:271,1,44.999998626709,8|0,0:0|1:0,0:0:0:0:
278,249,134983,1,8,0:0:0:0:
213,173,135316,2,0,B|189:171|172:186|172:186|150:202|129:200,1,89.9999972534181,8|8,3:0|3:0,0:0:0:0:
89,181,135816,1,4,3:0:0:0:
89,181,135983,2,0,P|96:133|106:76,1,89.9999972534181,2|8,1:0|0:0,0:0:0:0:
185,19,136649,6,0,P|232:14|280:61,1,100,6|10,1:2|0:0,0:0:0:0:
287,97,137149,2,0,L|265:150,1,50,2|0,0:0|1:0,0:0:0:0:
237,190,137483,2,0,L|253:250,1,50,2|8,0:0|0:0,0:0:0:0:
278,290,137816,1,2,0:0:0:0:
278,290,137983,2,0,B|300:292|322:276|322:276|342:257|371:261,1,100,2|10,1:2|0:0,0:0:0:0:
416,291,138483,1,2,0:0:0:0:
489,210,138816,1,0,1:0:0:0:
489,210,138983,1,8,0:0:0:0:
430,117,139316,6,0,L|380:131,1,50,2|2,1:2|0:0,0:0:0:0:
345,171,139649,2,0,L|285:155,1,50,10|2,0:0|0:0,0:0:0:0:
258,118,139983,1,2,1:2:0:0:
189,204,140316,1,8,0:0:0:0:
189,204,140483,2,0,P|203:256|212:304,1,100,2|2,0:0|1:2,0:0:0:0:
230,358,140983,1,10,0:0:0:0:
230,358,141149,1,2,0:0:0:0:
126,383,141482,1,2,0:0:0:0:
126,383,141649,2,0,L|65:369,1,50,10|2,0:0|0:0,0:0:0:0:
26,349,141983,6,0,P|9:315|36:243,1,100,4|10,1:2|0:0,0:0:0:0:
51,209,142483,1,2,0:0:0:0:
141,270,142816,2,0,L|195:280,1,50,2|10,0:0|0:0,0:0:0:0:
236,249,143149,2,0,B|237:222|217:200|217:200|201:182|201:145,1,100,2|2,0:0|1:2,0:0:0:0:
159,130,143649,1,10,0:0:0:0:
159,130,143816,2,0,B|157:103|177:81|177:81|193:63|193:26,1,100,2|0,0:0|1:0,0:0:0:0:
235,4,144316,1,8,0:0:0:0:
298,95,144649,6,0,P|350:123|399:105,1,100,2|10,1:2|0:0,0:0:0:0:
433,82,145149,1,0,0:0:0:0:
433,82,145316,2,0,L|410:15,2,50,2|2|8,1:2|1:2|0:0,0:0:0:0:
468,123,145816,2,0,L|446:240,1,100,6|2,1:2|1:2,0:0:0:0:
467,273,146316,1,8,0:0:0:0:
467,273,146483,1,10,0:0:0:0:
399,360,146816,1,8,0:0:0:0:
399,360,146983,1,8,0:0:0:0:
319,283,147316,6,0,P|288:271|227:308,1,100,6|10,1:2|0:0,0:0:0:0:
208,349,147816,2,0,L|152:334,1,50,2|0,0:0|1:0,0:0:0:0:
114,304,148149,2,0,L|61:324,1,50,2|8,0:0|0:0,0:0:0:0:
26,293,148483,1,2,0:0:0:0:
26,293,148649,2,0,B|34:245|34:245|41:240|41:240|48:194,1,100,2|10,1:2|2:0,0:0:0:0:
27,146,149149,1,2,0:0:0:0:
114,77,149483,1,2,1:2:0:0:
114,77,149649,2,0,L|163:93,1,50,8|2,0:0|0:0,0:0:0:0:
193,137,149983,6,0,L|305:113,1,100,2|10,1:2|0:0,0:0:0:0:
326,74,150483,1,0,0:0:0:0:
326,74,150649,1,2,1:2:0:0:
417,12,150983,2,0,P|450:21|475:25,1,50,10|2,0:0|0:0,0:0:0:0:
497,68,151316,2,0,L|486:126,1,50,2|2,1:2|0:0,0:0:0:0:
462,167,151649,1,10,0:0:0:0:
462,167,151816,1,2,0:0:0:0:
398,257,152149,1,2,0:0:0:0:
398,257,152316,2,0,L|417:316,1,50,10|2,0:0|0:0,0:0:0:0:
387,353,152649,6,0,P|353:375|280:360,1,100,12|10,0:0|0:0,0:0:0:0:
255,332,153149,1,2,1:2:0:0:
255,332,153316,2,0,L|269:266,1,50,8|2,0:0|1:2,0:0:0:0:
293,235,153649,1,8,0:0:0:0:
216,155,153983,1,8,0:0:0:0:
216,155,154149,1,8,0:0:0:0:
233,302,166649,6,0,P|295:313|399:344,2,170.000003242493,2|2|2,0:0|0:0|0:0,0:0:0:0:
62,224,168649,2,0,P|113:215|232:180,1,170.000003242493,2|0,0:0|0:0,0:0:0:0:
300,124,169649,1,0,1:0:0:0:
261,38,169983,6,0,P|212:6|93:31,1,170.000003242493,2|2,0:0|0:0,0:0:0:0:
37,84,170983,1,2,0:0:0:0:
94,157,171316,2,0,B|111:203|75:245|75:245|48:274|59:333,1,170.000003242493,2|2,0:0|0:0,0:0:0:0:
132,370,172316,1,2,0:0:0:0:
203,310,172649,6,0,P|262:296|297:289,1,85.0000016212464,2|2,0:0|0:0,0:0:0:0:
308,250,173149,2,0,P|367:266|405:272,1,85.0000016212464,2|2,0:0|0:0,0:0:0:0:
420,306,173649,1,2,0:0:0:0:
492,246,173983,2,0,P|509:204|499:154,1,85.0000016212464,2|0,0:0|0:0,0:0:0:0:
427,111,174649,6,0,B|358:130|358:130|347:145|347:145|260:169,2,170.000003242493,2|2|2,0:0|0:0|0:0,0:0:0:0:
484,36,176316,1,0,0:0:0:0:
377,9,176649,6,0,L|316:27,1,50,2|2,1:2|1:2,0:0:0:0:
292,64,176983,1,10,0:0:0:0:
194,12,177316,2,0,P|147:3|101:35,1,100,10|2,0:0|0:0,0:0:0:0:
30,110,177983,2,0,L|47:163,1,50,2|0,1:2|1:0,0:0:0:0:
30,210,178316,1,2,0:0:0:0:
124,266,178649,2,0,L|102:366,1,100,8|8,0:0|0:0,0:0:0:0:
211,350,179316,6,0,L|261:338,1,50,2|2,1:2|1:2,0:0:0:0:
302,304,179649,1,10,0:0:0:0:
222,228,179983,2,0,P|207:193|227:126,1,100,10|2,0:0|0:0,0:0:0:0:
291,51,180649,2,0,L|345:63,1,50,2|0,1:2|1:0,0:0:0:0:
389,38,180983,1,2,0:0:0:0:
468,113,181316,2,0,L|419:132,1,50,2|0,1:2|1:0,0:0:0:0:
384,171,181649,1,10,0:0:0:0:
293,233,181983,6,0,L|350:250,1,50,2|0,1:2|1:0,0:0:0:0:
381,284,182316,1,8,0:0:0:0:
304,363,182649,1,8,0:0:0:0:
194,348,182983,1,2,0:0:0:0:
116,278,183316,5,0,1:0:0:0:
116,278,183483,2,0,L|142:169,1,100,0|8,1:0|0:0,0:0:0:0:
127,126,183983,1,8,0:0:0:0:
195,40,184316,1,10,0:0:0:0:
289,95,184649,6,0,L|343:110,1,50,0|0,1:0|1:0,0:0:0:0:
376,147,184983,2,0,L|429:135,1,50,8|0,0:0|0:0,0:0:0:0:
465,99,185316,1,8,0:0:0:0:
509,199,185649,1,0,0:0:0:0:
439,284,185983,2,0,L|383:301,1,50,2|0,1:2|1:0,0:0:0:0:
361,344,186316,2,0,L|304:333,1,50,2|10,0:0|0:0,0:0:0:0:
268,300,186649,2,0,P|276:247|286:195,2,100,10|2|2,0:0|0:0|1:2,0:0:0:0:
461,199,189983,6,0,P|475:246|494:293,1,100,0|0,1:0|1:0,0:0:0:0:
416,370,190649,2,0,P|367:359|317:352,1,100,0|0,1:0|1:0,0:0:0:0:
269,252,191316,2,0,P|302:215|333:175,1,100,0|0,1:0|1:0,0:0:0:0:
388,82,191983,1,8,0:0:0:0:
388,82,192149,1,8,0:0:0:0:
254,1,192649,6,0,P|216:-6|153:40,1,100,6|10,1:2|0:0,0:0:0:0:
139,71,193149,2,0,L|157:123,1,50,2|0,0:0|1:0,0:0:0:0:
194,155,193483,2,0,L|176:218,1,50,2|8,0:0|0:0,0:0:0:0:
143,244,193816,1,2,0:0:0:0:
143,244,193983,2,0,B|118:247|99:234|99:234|73:216|47:220,1,100,2|10,1:2|0:0,0:0:0:0:
3,188,194483,1,2,0:0:0:0:
49,90,194816,1,0,1:0:0:0:
49,90,194983,1,8,0:0:0:0:
155,118,195316,6,0,L|213:104,1,50,2|2,1:2|0:0,0:0:0:0:
234,60,195649,2,0,L|299:75,1,50,10|2,0:0|0:0,0:0:0:0:
318,113,195983,2,0,B|308:156|308:156|315:170|315:170|304:219,1,100,2|10,1:2|0:0,0:0:0:0:
265,245,196483,2,0,B|275:288|275:288|268:302|268:302|279:351,1,100,2|2,0:0|1:2,0:0:0:0:
316,384,196983,1,10,0:0:0:0:
316,384,197149,1,2,0:0:0:0:
430,383,197483,1,2,0:0:0:0:
430,383,197649,2,0,L|448:325,1,50,10|2,0:0|0:0,0:0:0:0:
489,302,197983,6,0,L|462:186,1,100,4|8,1:2|0:0,0:0:0:0:
443,154,198483,1,2,0:0:0:0:
355,220,198816,2,0,L|302:208,1,50,2|8,0:0|0:0,0:0:0:0:
267,169,199149,2,0,B|241:169|224:184|224:184|200:205|174:204,1,100,2|2,0:0|1:2,0:0:0:0:
146,250,199649,1,10,0:0:0:0:
146,250,199816,2,0,B|121:250|97:229|97:229|80:214|55:214,1,100,2|0,0:0|1:0,0:0:0:0:
0,224,200316,1,8,0:0:0:0:
37,120,200649,6,0,P|50:56|55:21,1,100,0|8,1:0|0:0,0:0:0:0:
106,3,201149,1,2,0:0:0:0:
106,3,201316,2,0,L|158:23,1,50,2|2,1:2|1:2,0:0:0:0:
186,64,201649,1,8,0:0:0:0:
186,64,201816,2,0,P|249:51|297:46,1,100,6|2,1:2|1:2,0:0:0:0:
325,9,202316,1,8,0:0:0:0:
325,9,202483,1,10,0:0:0:0:
437,31,202816,1,8,0:0:0:0:
437,31,202983,1,8,0:0:0:0:
465,137,203316,6,0,P|453:190|443:247,1,100,6|10,1:2|0:0,0:0:0:0:
430,288,203816,2,0,L|380:303,1,50,2|0,0:0|1:0,0:0:0:0:
342,264,204149,2,0,L|271:248,1,50,2|8,0:0|0:0,0:0:0:0:
253,222,204483,1,2,0:0:0:0:
253,222,204649,2,0,B|251:196|265:178|265:178|284:153|281:127,1,100,2|10,1:2|0:0,0:0:0:0:
257,79,205149,1,2,0:0:0:0:
183,4,205483,1,2,1:2:0:0:
183,4,205649,2,0,L|123:16,1,50,10|2,0:0|0:0,0:0:0:0:
78,16,205983,6,0,L|92:85,1,50,2|2,1:2|0:0,0:0:0:0:
104,117,206316,1,10,0:0:0:0:
26,194,206649,1,2,1:2:0:0:
59,298,206983,1,10,0:0:0:0:
158,345,207316,2,0,L|217:330,1,50,2|2,1:2|0:0,0:0:0:0:
250,298,207649,1,10,0:0:0:0:
250,298,207816,2,0,L|354:322,1,100,2|0,0:0|1:2,0:0:0:0:
385,360,208316,1,8,0:0:0:0:
464,284,208649,6,0,B|465:258|451:240|451:240|432:215|435:189,1,100,4|0,1:2|1:2,0:0:0:0:
460,143,209149,1,2,0:0:0:0:
460,143,209316,1,8,0:0:0:0:
399,58,209649,1,0,1:0:0:0:
399,58,209816,2,0,P|363:68|337:74,1,50,0|8,1:0|0:0,0:0:0:0:
322,118,210149,1,0,1:0:0:0:
322,118,210316,2,0,L|258:105,1,50,8|0,0:0|1:0,0:0:0:0:
225,136,210649,1,8,3:0:0:0:
290,224,210983,1,4,3:0:0:0:
204,293,211316,6,0,B|160:301|160:301|151:310|151:310|104:321,1,100,6|8,1:2|0:0,0:0:0:0:
61,307,211816,1,0,1:0:0:0:
61,307,211983,2,0,P|37:272|47:212,1,100,8|8,0:0|0:0,0:0:0:0:
86,181,212483,1,0,1:0:0:0:
86,181,212649,1,8,0:0:0:0:
14,97,212983,1,8,0:0:0:0:
92,20,213316,2,0,P|122:30|196:48,1,100,10|8,0:0|0:0,0:0:0:0:
214,94,213816,1,2,1:2:0:0:
214,94,213983,6,0,P|268:79|314:70,1,100,8|8,0:0|0:0,0:0:0:0:
345,27,214483,1,0,1:0:0:0:
345,27,214649,1,8,0:0:0:0:
453,44,214983,1,8,0:0:0:0:
481,150,215316,1,8,0:0:0:0:
406,230,215649,2,0,L|351:247,1,50,10|2,0:0|1:2,0:0:0:0:
312,276,215983,2,0,L|254:259,1,50,10|0,0:0|1:0,0:0:0:0:
229,219,216316,1,10,0:0:0:0:
304,138,216649,6,0,P|294:91|284:32,1,100,14|8,0:0|0:0,0:0:0:0:
239,8,217149,1,0,1:0:0:0:
239,8,217316,2,0,P|179:23|132:39,1,100,8|8,0:0|0:0,0:0:0:0:
95,19,217816,1,0,1:0:0:0:
95,19,217983,1,8,0:0:0:0:
16,95,218316,2,0,L|36:148,1,50,8|0,0:0|1:0,0:0:0:0:
79,172,218649,2,0,L|54:285,1,100,10|8,0:0|0:0,0:0:0:0:
77,320,219149,1,0,1:0:0:0:
77,320,219316,6,0,B|101:324|127:307|127:307|146:294|172:297,1,100,6|8,1:2|0:0,0:0:0:0:
218,327,219816,1,6,1:2:0:0:
297,251,220149,2,0,L|279:188,1,50,2|8,1:2|0:0,0:0:0:0:
259,153,220483,1,6,0:0:0:0:
342,81,220816,1,0,1:0:0:0:
342,81,220983,2,0,L|398:96,1,50,8|0,0:0|1:0,0:0:0:0:
438,66,221316,2,0,L|424:11,2,50,8|8|8,3:0|0:0|0:0,0:0:0:0:
477,112,221816,1,0,1:0:0:0:
477,112,221983,6,0,L|447:230,1,100,6|8,1:2|0:0,0:0:0:0:
478,315,222649,2,0,L|431:330,1,50,0|0,1:0|1:0,0:0:0:0:
390,369,222983,1,8,0:0:0:0:
303,305,223316,2,0,L|244:290,1,50,2|0,1:2|1:0,0:0:0:0:
217,251,223649,2,0,B|225:209|225:209|234:203|234:203|247:152,1,100,10|2,0:0|1:2,0:0:0:0:
233,104,224149,1,0,1:0:0:0:
233,104,224316,1,10,0:0:0:0:
143,49,224649,6,0,P|91:65|33:79,2,100,2|8|2,1:2|0:0|1:2,0:0:0:0:
170,0,225483,2,0,L|221:14,1,50,2|8,1:2|0:0,0:0:0:0:
248,59,225816,2,0,P|279:91|346:72,1,100,2|0,1:2|1:0,0:0:0:0:
370,47,226316,1,10,0:0:0:0:
456,115,226649,2,0,L|444:176,1,50,2|0,1:2|1:0,0:0:0:0:
442,219,226983,1,12,0:0:0:0:
485,320,227316,5,10,0:0:0:0:
391,378,227649,1,10,0:0:0:0:
310,303,227983,2,0,L|249:315,1,50,10|2,0:0|1:2,0:0:0:0:
228,356,228316,2,0,L|167:341,1,50,8|2,0:0|1:2,0:0:0:0:
143,302,228649,2,0,B|143:275|159:258|159:258|179:235|178:211,1,100,10|10,0:0|0:0,0:0:0:0:
220,174,229149,2,0,B|219:147|203:130|203:130|183:107|184:83,1,100,2|2,1:2|1:2,0:0:0:0:
207,33,229649,1,8,0:0:0:0:
100,4,229983,5,10,0:0:0:0:
100,4,230149,1,10,0:0:0:0:
24,83,230483,1,10,0:0:0:0:
24,83,230649,1,8,0:0:0:0:
94,167,230983,1,8,0:0:0:0:
94,167,231149,2,0,P|139:152|199:137,1,100,6|2,0:0|1:2,0:0:0:0:
227,98,231649,2,0,L|282:116,1,50,2|2,1:2|1:2,0:0:0:0:
314,151,231983,1,10,0:0:0:0:
340,267,232316,1,10,0:0:0:0:
340,267,232483,1,10,0:0:0:0:
340,267,232649,6,0,L|320:326,1,50,8|8,3:0|3:0,0:0:0:0:
305,366,232983,1,6,1:2:0:0:
256,192,233149,12,0,238983,0:0:0:0:
