osu file format v14

[General]
AudioFilename: audio.ogg
AudioLeadIn: 0
PreviewTime: 136356
Countdown: 0
SampleSet: Soft
StackLeniency: 0.4
Mode: 0
LetterboxInBreaks: 0
WidescreenStoryboard: 1

[Editor]
Bookmarks: 650,11316,21983,32649,43316,53983,64649,83316,93983,104649,115316,125983,136649,155316,165983,176649,187316,189983,192649,211316,221983,232983,238983
DistanceSpacing: 1.1
BeatDivisor: 4
GridSize: 8
TimelineZoom: 1.6

[Metadata]
Title:White Promise
TitleUnicode:White Promise
Artist:Nayugorou
ArtistUnicode:なゆごろう
Creator:ckharv
Version:Ninym's Hard
Source:LOST:SMILE memories + promises
Tags:ロストスマイルメモリーズ プロミセス ロッスマ Rossuma life0 opening op visual novel vn galgame galge pop jpop j-pop female vocals video game japanese Ichijou Meguru 一条 めぐる Masaki Minato 真咲 湊 Mihiro-san みひろさん Yonamine Jun 与那嶺 純 zekk matsuyuki ame matsuyuki_ame rk657 ninym
BeatmapID:3623048
BeatmapSetID:1766146

[Difficulty]
HPDrainRate:4
CircleSize:3.5
OverallDifficulty:6.5
ApproachRate:8
SliderMultiplier:1.4
SliderTickRate:1

[Events]
//Background and Video events
0,0,"1701.jpg",0,0
//Break Periods
2,22016,30491
2,83316,87491
2,155316,165824
//Storyboard Layer 0 (Background)
//Storyboard Layer 1 (Fail)
//Storyboard Layer 2 (Pass)
//Storyboard Layer 3 (Foreground)
//Storyboard Layer 4 (Overlay)
//Storyboard Sound Samples

[TimingPoints]
650,333.333333333333,4,2,1,45,1,0
650,-133.333333333333,4,2,1,45,0,0
5899,-133.333333333333,4,2,1,5,0,0
5983,-117.647058823529,4,2,1,55,0,0
6649,-117.647058823529,4,2,2,55,0,0
6816,-117.647058823529,4,2,2,5,0,0
6899,-117.647058823529,4,2,2,55,0,0
7066,-117.647058823529,4,2,2,5,0,0
7149,-117.647058823529,4,2,2,55,0,0
8649,-117.647058823529,4,2,1,55,0,0
10149,-117.647058823529,4,2,1,65,0,0
10316,-117.647058823529,4,2,1,70,0,0
10483,-117.647058823529,4,2,1,75,0,0
10649,-117.647058823529,4,2,1,60,0,0
10816,-117.647058823529,4,2,1,65,0,0
10983,-117.647058823529,4,2,1,70,0,0
11149,-117.647058823529,4,2,1,75,0,0
11316,-100,4,2,1,90,0,1
11399,-100,4,2,1,85,0,0
16566,-100,4,2,1,5,0,0
16649,-100,4,2,1,85,0,0
18233,-100,4,2,1,5,0,0
18316,-100,4,2,1,85,0,0
21983,-100,4,2,1,50,0,0
31233,-100,4,2,1,5,0,0
31316,-133.333333333333,4,2,1,55,0,0
31399,-133.333333333333,4,2,1,5,0,0
31816,-133.333333333333,4,2,1,55,0,0
32649,-117.647058823529,4,2,1,65,0,0
32983,-117.647058823529,4,2,2,65,0,0
34233,-117.647058823529,4,2,2,5,0,0
34316,-117.647058823529,4,2,2,65,0,0
36899,-117.647058823529,4,2,2,5,0,0
36983,-117.647058823529,4,2,2,65,0,0
40566,-117.647058823529,4,2,1,5,0,0
40649,-117.647058823529,4,2,1,65,0,0
43233,-117.647058823529,4,2,1,5,0,0
43316,-133.333333333333,4,2,1,65,0,0
53983,-133.333333333333,4,2,1,70,0,0
54983,-117.647058823529,4,2,1,70,0,0
59483,-117.647058823529,4,2,1,65,0,0
59983,-117.647058823529,4,2,1,70,0,0
60483,-117.647058823529,4,2,1,75,0,0
60983,-117.647058823529,4,2,1,80,0,0
61483,-117.647058823529,4,2,1,85,0,0
62316,-117.647058823529,4,2,1,70,0,0
62649,-117.647058823529,4,2,1,75,0,0
62983,-117.647058823529,4,2,1,80,0,0
63316,-117.647058823529,4,2,1,85,0,0
63816,-133.333333333333,4,2,1,100,0,0
64316,-133.333333333333,4,2,1,5,0,0
64649,-100,4,2,1,90,0,1
65149,-100,4,2,1,85,0,1
66733,-100,4,2,1,5,0,1
66816,-100,4,2,1,85,0,1
68233,-100,4,2,1,5,0,1
68316,-100,4,2,1,85,0,1
72066,-100,4,2,1,5,0,1
72149,-100,4,2,1,85,0,1
73733,-100,4,2,1,5,0,1
73816,-90.9090909090909,4,2,1,85,0,1
74649,-100,4,2,1,85,0,1
74816,-100,4,2,1,75,0,1
75066,-100,4,2,1,80,0,1
75274,-100,4,2,1,85,0,1
75316,-90.9090909090909,4,2,1,90,0,1
75649,-90.9090909090909,4,2,1,85,0,1
75816,-100,4,2,1,85,0,1
82149,-100,4,2,1,100,0,0
88316,-133.333333333333,4,2,1,70,0,0
88566,-133.333333333333,4,2,1,5,0,0
88649,-100,4,2,1,75,0,0
88983,-100,4,2,1,70,0,0
89983,-100,4,2,1,75,0,0
91316,-100,4,2,1,80,0,0
92649,-100,4,2,1,85,0,0
93983,-117.647058823529,4,2,1,65,0,0
97899,-117.647058823529,4,2,1,5,0,0
97983,-117.647058823529,4,2,1,65,0,0
104566,-117.647058823529,4,2,1,5,0,0
104649,-111.111111111111,4,2,1,70,0,0
105899,-111.111111111111,4,2,1,5,0,0
105983,-111.111111111111,4,2,1,70,0,0
107233,-111.111111111111,4,2,1,5,0,0
107316,-111.111111111111,4,2,1,70,0,0
108899,-111.111111111111,4,2,1,5,0,0
108983,-111.111111111111,4,2,1,70,0,0
110566,-111.111111111111,4,2,1,5,0,0
110649,-111.111111111111,4,2,1,70,0,0
111566,-111.111111111111,4,2,1,5,0,0
111649,-111.111111111111,4,2,1,70,0,0
114316,-105.263157894737,4,2,1,70,0,0
114566,-105.263157894737,4,2,1,5,0,0
114649,-105.263157894737,4,2,1,70,0,0
114983,-117.647058823529,4,2,1,70,0,0
115316,-133.333333333333,4,2,1,65,0,0
121566,-133.333333333333,4,2,1,5,0,0
121649,-133.333333333333,4,2,1,65,0,0
125983,-133.333333333333,4,2,1,70,0,0
126983,-117.647058823529,4,2,1,70,0,0
128233,-117.647058823529,4,2,1,5,0,0
128316,-117.647058823529,4,2,1,70,0,0
128649,-117.647058823529,4,2,1,75,0,0
128983,-117.647058823529,4,2,1,65,0,0
129316,-117.647058823529,4,2,1,70,0,0
129649,-117.647058823529,4,2,1,75,0,0
129983,-117.647058823529,4,2,1,80,0,0
131316,-153.846153846153,4,2,1,65,0,0
133649,-153.846153846153,4,2,1,75,0,0
133899,-153.846153846153,4,2,1,5,0,0
133983,-153.846153846153,4,2,1,75,0,0
134316,-117.647058823529,4,2,1,75,0,0
134649,-117.647058823529,4,2,1,80,0,0
135316,-117.647058823529,4,2,1,70,0,0
135649,-117.647058823529,4,2,1,75,0,0
136149,-117.647058823529,4,2,1,70,0,0
136316,-117.647058823529,4,2,1,75,0,0
136483,-117.647058823529,4,2,1,80,0,0
136649,-100,4,2,1,90,0,1
136983,-100,4,2,1,85,0,1
138733,-100,4,2,1,5,0,1
138816,-100,4,2,1,85,0,1
140233,-100,4,2,1,5,0,1
140316,-100,4,2,1,85,0,1
144066,-100,4,2,1,5,0,1
144149,-100,4,2,1,85,0,1
145733,-100,4,2,1,5,0,1
145816,-100,4,2,1,85,0,1
146816,-100,4,2,1,80,0,1
147066,-100,4,2,1,85,0,1
147274,-100,4,2,1,100,0,1
147316,-90.9090909090909,4,2,1,90,0,1
147649,-90.9090909090909,4,2,1,85,0,1
147816,-100,4,2,1,85,0,1
150233,-100,4,2,1,5,0,1
150316,-100,4,2,1,85,0,1
150566,-100,4,2,1,5,0,1
150649,-100,4,2,1,85,0,1
150899,-100,4,2,1,5,0,1
150983,-100,4,2,1,85,0,1
154149,-100,4,2,1,85,0,0
166649,-153.846153846154,4,2,1,60,0,0
176649,-153.846153846154,4,2,2,70,0,0
176983,-142.857142857143,4,2,2,70,0,0
187233,-142.857142857143,4,2,2,5,0,0
187316,-142.857142857143,4,2,2,70,0,0
188316,-100,4,2,2,70,0,0
188649,-100,4,2,2,50,0,0
189983,-142.857142857143,4,2,1,70,0,0
191649,-142.857142857143,4,2,1,75,0,0
191816,-142.857142857143,4,2,1,80,0,0
191983,-142.857142857143,4,2,1,85,0,0
192649,-95.2380952380952,4,2,1,90,0,1
192983,-95.2380952380952,4,2,1,85,0,1
194733,-95.2380952380952,4,2,1,5,0,1
194816,-95.2380952380952,4,2,1,85,0,1
196233,-95.2380952380952,4,2,1,5,0,1
196316,-95.2380952380952,4,2,1,85,0,1
200066,-95.2380952380952,4,2,1,5,0,1
200149,-95.2380952380952,4,2,1,85,0,1
201733,-95.2380952380952,4,2,1,5,0,1
201816,-95.2380952380952,4,2,1,85,0,1
202066,-95.2380952380952,4,2,1,5,0,1
202149,-95.2380952380952,4,2,1,85,0,1
202816,-95.2380952380952,4,2,1,80,0,1
203066,-95.2380952380952,4,2,1,85,0,1
203274,-95.2380952380952,4,2,1,100,0,1
203316,-86.9565217391304,4,2,1,90,0,1
203649,-86.9565217391304,4,2,1,85,0,1
203816,-95.2380952380952,4,2,1,85,0,1
206566,-95.2380952380952,4,2,1,5,0,1
206649,-95.2380952380952,4,2,1,85,0,1
208566,-95.2380952380952,4,2,1,5,0,1
208649,-95.2380952380952,4,2,1,80,0,1
208816,-100,4,2,1,80,0,1
208983,-100,4,2,1,75,0,1
209816,-100,4,2,1,80,0,1
210149,-100,4,2,1,85,0,1
211274,-100,4,2,1,85,0,1
211316,-95.2380952380952,4,2,1,90,0,1
211649,-95.2380952380952,4,2,1,85,0,1
216594,-95.2380952380952,4,2,1,85,0,0
216608,-95.2380952380952,4,2,1,100,0,0
216649,-95.2380952380952,4,2,1,90,0,1
216816,-95.2380952380952,4,2,1,85,0,1
219316,-95.2380952380952,4,2,1,90,0,1
219566,-95.2380952380952,4,2,1,5,0,1
219649,-95.2380952380952,4,2,1,90,0,1
220066,-95.2380952380952,4,2,1,5,0,1
220149,-95.2380952380952,4,2,1,90,0,1
220983,-95.2380952380952,4,2,1,80,0,1
221733,-95.2380952380952,4,2,1,85,0,1
221983,-100,4,2,1,90,0,0
222316,-100,4,2,1,85,0,0
224566,-100,4,2,1,5,0,0
224649,-100,4,2,1,85,0,0
226983,-100,4,2,1,90,0,0
227316,-95.2380952380952,4,2,1,85,0,0
227566,-95.2380952380952,4,2,1,5,0,0
227649,-95.2380952380952,4,2,1,85,0,0
227899,-95.2380952380952,4,2,1,5,0,0
227983,-95.2380952380952,4,2,1,85,0,0
232649,-117.647058823529,4,2,1,85,0,0
238983,-117.647058823529,4,2,1,5,0,0

[Colours]
Combo1 : 248,237,163
Combo2 : 235,220,190
Combo3 : 241,159,148

[HitObjects]
148,63,650,6,0,L|96:71,2,52.5000000000001,2|2|2,0:0|0:0|0:0,0:0:0:0:
218,12,1149,2,0,P|235:63|220:113,1,105,2|2,0:0|0:0,0:0:0:0:
158,160,1649,1,2,0:0:0:0:
158,160,1983,5,2,0:0:0:0:
94,208,2149,2,0,L|78:312,1,105,2|2,0:0|0:0,0:0:0:0:
142,368,2649,1,2,0:0:0:0:
270,304,2983,1,2,0:0:0:0:
406,319,3316,6,0,L|458:327,2,52.5000000000001,2|2|2,0:0|0:0|0:0,0:0:0:0:
338,371,3816,2,0,P|321:320|336:270,1,105,2|2,0:0|0:0,0:0:0:0:
398,223,4316,1,2,0:0:0:0:
398,223,4649,5,2,0:0:0:0:
462,175,4816,2,0,L|478:71,1,105,2|2,0:0|1:2,0:0:0:0:
398,16,5316,2,0,L|390:68,1,52.5000000000001,2|0,0:1|1:0,0:0:0:0:
392,90,5566,1,2,0:0:0:0:
392,90,5649,1,2,0:1:0:0:
238,37,5983,6,0,P|182:20|131:47,1,119,2|2,1:2|1:2,0:0:0:0:
65,103,6483,1,2,0:0:0:0:
65,103,6649,2,0,L|78:191,2,89.2500000000003,8|8|8,1:2|0:0|0:0,0:0:0:0:
158,144,7316,1,2,1:2:0:0:
222,208,7483,2,0,P|239:264|212:315,1,119,2|2,0:0|0:0,0:0:0:0:
140,255,7983,1,10,1:2:0:0:
62,304,8149,1,8,0:0:0:0:
62,304,8316,2,0,L|53:362,1,59.5000000000002,2|0,1:2|0:0,0:0:0:0:
158,336,8649,6,0,L|275:317,1,119,2|2,1:2|1:2,0:0:0:0:
446,160,9316,2,0,L|328:178,1,119,0|2,1:0|1:2,0:0:0:0:
162,81,9983,5,2,1:2:0:0:
244,147,10149,1,10,0:0:0:0:
244,147,10233,1,8,0:0:0:0:
244,147,10316,2,0,L|248:176,3,29.7500000000001,8|8|8|8,0:0|0:0|0:0|0:0,0:0:0:0:
286,192,10649,2,0,L|345:183,1,59.5000000000002,2|2,1:2|0:0,0:0:0:0:
403,118,10983,2,0,L|394:59,1,59.5000000000002,2|2,0:0|0:0,0:0:0:0:
287,40,11316,6,0,P|217:31|150:10,1,140,6|8,1:2|0:0,0:0:0:0:
47,46,11816,1,0,0:0:0:0:
128,120,11983,2,0,P|162:178|146:245,1,140,2|8,1:2|0:0,0:0:0:0:
59,309,12483,1,2,0:0:0:0:
160,368,12649,6,0,P|194:368|225:353,1,70,2|0,1:2|0:0,0:0:0:0:
288,272,12983,2,0,P|283:237|273:203,1,70,10|0,0:0|0:0,0:0:0:0:
172,141,13316,2,0,P|138:140|107:155,1,70,2|0,1:2|0:0,0:0:0:0:
44,237,13649,2,0,P|49:271|59:305,1,70,10|0,0:0|0:0,0:0:0:0:
175,292,13983,6,0,P|234:257|300:274,1,140,2|8,1:2|0:0,0:0:0:0:
371,353,14483,1,0,0:0:0:0:
400,248,14650,2,0,P|395:213|385:179,1,70,2|2,1:2|0:0,0:0:0:0:
471,117,14983,2,0,P|480:150|485:185,1,70,10|2,0:0|0:0,0:0:0:0:
496,304,15316,6,0,P|428:284|359:274,1,140,2|8,1:2|0:0,0:0:0:0:
304,192,15816,2,0,P|294:122|274:55,1,140,2|0,0:0|1:0,0:0:0:0:
177,95,16316,2,0,P|191:145|199:197,1,105,8|0,0:0|0:0,0:0:0:0:
176,224,16649,6,0,P|108:211|65:158,1,140,6|8,1:2|0:0,0:0:0:0:
0,64,17149,2,0,P|69:54|136:34,1,140,2|2,0:0|1:2,0:0:0:0:
272,16,17649,1,10,0:0:0:0:
224,112,17816,1,2,0:0:0:0:
320,160,17983,6,0,P|335:191|335:225,1,70,2|0,1:2|0:0,0:0:0:0:
263,304,18316,2,0,P|229:313|194:318,1,70,8|0,0:0|0:0,0:0:0:0:
98,270,18649,2,0,P|82:238|82:204,1,70,2|0,1:2|0:0,0:0:0:0:
155,126,18983,2,0,P|188:116|223:111,1,70,10|0,0:0|0:0,0:0:0:0:
320,160,19316,6,0,P|373:116|385:49,1,140,6|8,1:2|0:0,0:0:0:0:
278,61,19816,2,0,P|244:70|209:75,1,70,2|0,1:2|1:0,0:0:0:0:
128,16,20149,2,0,P|94:7|59:2,1,70,2|0,1:2|1:0,0:0:0:0:
81,104,20483,5,2,1:2:0:0:
81,104,20566,1,2,0:0:0:0:
81,104,20649,2,0,P|113:163|90:227,1,140,8|8,0:0|0:0,0:0:0:0:
15,308,21149,1,0,1:0:0:0:
110,362,21316,2,0,P|144:366|178:375,1,70,8|0,0:0|1:0,0:0:0:0:
283,332,21649,1,8,0:0:0:0:
395,362,21816,1,8,0:0:0:0:
288,168,31316,6,0,P|318:105|252:83,1,157.5,2|8,0:0|3:0,0:0:0:0:
168,208,32149,1,4,3:0:0:0:
303,302,32483,1,0,1:0:0:0:
303,302,32566,1,0,1:0:0:0:
303,302,32649,6,0,P|362:294|420:285,1,119,6|10,1:2|1:2,0:0:0:0:
486,197,33149,2,0,P|428:190|386:148,1,119,2|10,0:0|0:0,0:0:0:0:
369,128,33566,1,8,0:0:0:0:
369,128,33649,2,0,P|365:98|360:69,1,59.5000000000002,10|8,1:2|0:0,0:0:0:0:
256,83,33983,6,0,P|246:127|242:172,1,89.2500000000003,0|0,1:0|0:0,0:0:0:0:
216,201,34316,2,0,P|158:209|108:180,1,119,2|10,1:2|1:2,0:0:0:0:
96,91,34816,1,8,0:0:0:0:
96,91,34983,2,0,P|102:62|105:33,1,59.5000000000002,2|0,1:2|0:0,0:0:0:0:
191,82,35316,6,0,P|220:85|249:91,2,59.5000000000002,2|2|10,1:2|0:0|1:2,0:0:0:0:
96,91,35816,2,0,P|66:97|37:100,2,59.5000000000002,10|10|2,0:0|1:2|0:0,0:0:0:0:
123,121,36233,1,8,0:0:0:0:
123,121,36316,2,0,P|137:146|134:176,1,59.5000000000002,2|8,1:2|0:0,0:0:0:0:
133,277,36649,6,0,P|191:267|250:259,2,119,2|8|2,1:2|1:2|1:2,0:0:0:0:
49,311,37483,1,2,0:0:0:0:
3,238,37649,2,0,P|6:209|12:180,1,59.5000000000002,10|2,1:2|0:0,0:0:0:0:
85,98,37983,6,0,P|126:56|184:48,1,119,2|2,1:2|1:2,0:0:0:0:
253,106,38483,1,0,0:0:0:0:
323,150,38649,2,0,P|352:145|381:141,1,59.5000000000002,10|2,1:2|0:0,0:0:0:0:
409,125,38899,1,8,0:0:0:0:
409,125,38983,2,0,P|438:128|467:133,1,59.5000000000002,10|10,1:2|0:0,0:0:0:0:
466,222,39316,6,0,P|408:230|367:272,1,119,2|2,1:2|1:2,0:0:0:0:
312,346,39816,1,2,0:0:0:0:
239,290,39983,2,0,P|234:261|230:232,1,59.5000000000002,10|10,1:2|0:0,0:0:0:0:
130,213,40316,2,0,P|136:257|143:301,1,89.2500000000003,2|0,1:2|0:0,0:0:0:0:
117,322,40649,6,0,P|59:330|18:372,1,119,4|0,1:2|1:0,0:0:0:0:
17,179,41316,2,0,P|74:170|115:128,1,119,0|0,1:0|1:0,0:0:0:0:
256,46,41983,5,0,1:0:0:0:
256,46,42149,1,0,1:0:0:0:
340,70,42316,2,0,P|367:81|395:91,1,59.5000000000002,14|0,0:0|1:0,0:0:0:0:
424,91,42566,1,0,1:0:0:0:
424,91,42649,2,0,P|435:118|445:146,1,59.5000000000002,8|8,0:0|3:0,0:0:0:0:
450,238,42983,1,4,3:0:0:0:
366,268,43149,1,0,0:0:0:0:
344,166,43316,6,0,P|299:140|247:146,1,105,6|0,1:2|1:0,0:0:0:0:
107,296,43983,2,0,L|205:258,1,105,8|2,0:0|0:0,0:0:0:0:
282,229,44483,2,0,L|380:266,1,105,2|8,0:0|0:0,0:0:0:0:
459,302,44983,1,0,1:0:0:0:
459,302,45316,2,0,P|484:257|478:205,1,105,10|2,0:0|1:2,0:0:0:0:
425,139,45816,1,2,0:0:0:0:
339,181,45983,6,0,L|240:218,1,105,2|2,1:2|1:2,0:0:0:0:
171,253,46483,1,2,0:0:0:0:
171,253,46649,1,8,0:0:0:0:
25,297,46983,5,2,1:2:0:0:
25,297,47149,2,0,L|15:245,2,52.5000000000001,8|0|4,3:0|0:0|3:0,0:0:0:0:
105,319,47649,2,0,P|144:351|196:356,1,105,4|10,3:0|0:0,0:0:0:0:
287,328,48149,5,0,1:0:0:0:
287,328,48316,2,0,L|336:309,1,52.5000000000001,2|10,1:2|1:3,0:0:0:0:
427,342,48649,6,0,P|436:291|412:245,2,105,4|0|10,1:2|1:0|0:0,0:0:0:0:
346,370,49483,1,2,0:0:0:0:
346,370,49649,1,2,0:0:0:0:
273,322,49816,2,0,L|254:272,1,52.5000000000001,2|0,0:0|1:0,0:0:0:0:
285,198,50149,2,0,L|303:148,1,52.5000000000001,8|0,0:0|1:0,0:0:0:0:
307,66,50483,2,0,P|355:84|380:128,1,105,2|0,0:0|0:0,0:0:0:0:
302,148,50983,2,0,L|252:167,1,52.5000000000001,2|10,1:2|0:0,0:0:0:0:
172,186,51316,6,0,P|129:157|78:161,1,105,2|2,1:2|1:2,0:0:0:0:
106,246,51816,1,2,0:0:0:0:
164,311,51983,2,0,L|214:292,1,52.5000000000001,10|2,2:0|2:0,0:0:0:0:
294,278,52316,1,2,2:0:0:0:
370,318,52483,2,0,L|389:368,2,52.5000000000001,8|0|0,3:0|0:0|1:0,0:0:0:0:
475,310,52983,6,0,L|483:257,1,52.5000000000001,4|0,3:0|0:0,0:0:0:0:
510,163,53316,2,0,L|457:171,1,52.5000000000001,10|2,0:0|0:0,0:0:0:0:
374,195,53649,2,0,L|369:168,3,26.2500000000001,8|8|8|8,0:0|0:0|0:0|0:0,0:0:0:0:
351,144,53983,5,6,1:2:0:0:
309,299,54316,1,0,1:0:0:0:
148,307,54649,1,2,1:2:0:0:
91,157,54983,2,0,L|61:162,3,29.7500000000001,8|8|8|8,2:0|2:0|2:0|2:0,0:0:0:0:
108,124,55316,5,8,0:0:0:0:
251,53,55649,1,0,1:0:0:0:
363,169,55983,1,2,1:2:0:0:
475,55,56316,2,0,L|451:36,3,29.7500000000001,8|8|8|8,0:0|0:0|0:0|0:0,0:0:0:0:
423,20,56649,5,10,0:0:0:0:
291,122,56983,1,2,1:2:0:0:
404,243,57316,2,0,L|412:301,1,59.5000000000002,2|8,1:2|0:0,0:0:0:0:
325,316,57649,2,0,L|316:257,1,59.5000000000002,2|8,1:2|0:0,0:0:0:0:
230,297,57983,6,0,P|148:320|91:257,1,178.500000000001,2|8,1:2|0:0,0:0:0:0:
49,179,58649,2,0,P|76:168|106:169,1,59.5000000000002,2|8,1:2|3:0,0:0:0:0:
194,185,58983,1,2,1:2:0:0:
252,118,59149,1,8,3:0:0:0:
252,118,59233,1,4,3:0:0:0:
252,118,59316,6,0,B|308:143|308:143|359:116,1,119,4|8,1:2|0:0,0:0:0:0:
436,55,59816,2,0,B|468:107|468:107|449:161,1,119,4|8,1:2|0:0,0:0:0:0:
368,207,60316,2,0,B|336:259|336:259|355:313,1,119,4|8,1:2|0:0,0:0:0:0:
368,334,60733,1,8,0:0:0:0:
380,349,60816,6,0,B|327:371|327:371|272:342,1,119,4|8,1:2|0:0,0:0:0:0:
170,353,61316,2,0,L|179:294,1,59.5000000000002,6|8,1:2|0:0,0:0:0:0:
165,270,61566,1,8,0:0:0:0:
165,270,61649,1,8,0:0:0:0:
85,225,61816,2,0,L|55:230,1,29.7500000000001,8|8,0:0|0:0,0:0:0:0:
22,212,61983,6,0,P|52:161|107:141,2,119,4|10|8,1:2|0:0|0:0,0:0:0:0:
31,310,62816,1,0,1:0:0:0:
117,349,62983,2,0,L|175:358,1,59.5000000000002,8|0,0:0|1:0,0:0:0:0:
277,323,63316,5,8,0:0:0:0:
277,323,63399,1,4,3:0:0:0:
277,323,63483,2,0,L|281:293,1,29.7500000000001,4|4,3:0|3:0,0:0:0:0:
287,262,63649,1,8,0:0:0:0:
369,310,63816,2,0,P|444:311|483:247,1,157.5,8|0,0:0|0:0,0:0:0:0:
320,72,64649,6,0,B|267:64|267:64|235:85|235:85|187:79,1,140,6|10,1:2|0:0,0:0:0:0:
80,128,65149,2,0,L|67:59,1,70,2|0,0:0|1:0,0:0:0:0:
160,176,65483,2,0,L|147:244,1,70,2|8,0:0|0:0,0:0:0:0:
88,336,65816,1,2,0:0:0:0:
195,372,65983,2,0,L|263:359,2,70,2|2|10,1:2|0:0|0:0,0:0:0:0:
88,336,66483,2,0,P|49:280|70:215,1,140,2|0,0:0|1:0,0:0:0:0:
157,264,66983,2,0,L|225:251,1,70,8|2,0:0|0:0,0:0:0:0:
320,304,67316,5,2,1:2:0:0:
320,304,67483,1,2,0:0:0:0:
400,360,67649,2,0,P|416:329|414:295,1,70,10|2,2:0|2:0,0:0:0:0:
368,208,67983,2,0,P|387:139|413:71,1,140,2|10,1:2|0:0,0:0:0:0:
292,56,68483,6,0,P|226:73|166:39,1,140,2|2,0:0|1:2,0:0:0:0:
73,41,68983,1,10,0:0:0:0:
121,140,69149,2,0,P|186:157|221:216,1,140,2|2,0:0|0:0,0:0:0:0:
194,314,69649,1,10,0:0:0:0:
116,249,69816,1,2,0:0:0:0:
8,176,69983,6,0,L|34:313,1,140,4|10,1:2|0:0,0:0:0:0:
128,376,70483,2,0,P|193:359|228:300,1,140,2|2,0:0|0:0,0:0:0:0:
307,230,70983,1,10,0:0:0:0:
395,286,71149,1,2,0:0:0:0:
395,286,71233,1,2,0:0:0:0:
395,286,71316,5,0,1:0:0:0:
472,222,71483,2,0,L|485:153,1,70,2|10,0:2|0:0,0:0:0:0:
424,64,71816,2,0,P|389:123|323:140,1,140,2|0,0:0|1:0,0:0:0:0:
254,66,72316,1,8,0:0:0:0:
254,66,72483,1,2,0:0:0:0:
162,7,72649,6,0,P|127:6|95:20,1,70,2|0,1:2|0:0,0:0:0:0:
129,158,72983,2,0,P|147:128|150:93,1,70,10|2,0:0|0:0,0:0:0:0:
8,51,73316,2,0,P|24:81|53:101,2,70,2|2|8,1:2|1:2|0:0,0:0:0:0:
128,15,73816,6,0,B|201:-11|197:64|269:47,1,154,6|2,1:2|1:2,0:0:0:0:
360,4,74316,1,8,0:0:0:0:
459,59,74483,1,10,2:0:0:0:
459,59,74566,1,8,2:0:0:0:
459,59,74649,2,0,L|479:136,1,70,8|8,2:0|2:0,2:0:0:0:
485,219,74983,2,0,L|478:253,3,35,8|8|10|8,0:0|0:0|0:0|0:0,0:0:0:0:
444,281,75316,6,0,B|373:256|373:256|305:298,1,154,6|10,1:2|0:0,0:0:0:0:
236,378,75816,2,0,L|167:365,1,70,2|0,0:0|1:0,0:0:0:0:
237,284,76149,2,0,L|306:297,1,70,2|8,0:0|0:0,0:0:0:0:
406,267,76483,1,2,0:0:0:0:
356,177,76649,6,0,L|302:131,2,70,2|2|10,1:2|2:0|2:0,0:0:0:0:
456,184,77149,2,0,L|482:46,1,140,2|2,0:0|1:2,0:0:0:0:
373,22,77649,2,0,L|386:91,1,70,10|2,0:0|0:0,0:0:0:0:
298,161,77983,5,2,1:2:0:0:
298,161,78149,1,2,0:0:0:0:
213,106,78316,2,0,P|152:74|88:98,1,140,10|2,0:0|1:2,0:0:0:0:
40,200,78816,1,0,0:0:0:0:
40,200,78983,2,0,P|74:202|109:209,1,70,10|2,0:0|0:0,0:0:0:0:
184,283,79316,5,2,1:2:0:0:
248,352,79483,1,2,0:0:0:0:
168,304,79649,1,10,0:0:0:0:
256,248,79816,2,0,P|325:254|394:268,1,140,2|2,0:0|0:0,0:0:0:0:
448,168,80316,2,0,P|413:174|378:178,1,70,10|2,0:0|0:0,0:0:0:0:
328,72,80649,5,12,0:0:0:0:
238,126,80816,1,2,1:2:0:0:
142,62,80983,2,0,L|129:131,1,70,10|2,0:0|1:2,0:0:0:0:
39,201,81316,1,8,0:0:0:0:
94,303,81483,1,2,1:2:0:0:
94,303,81566,1,0,1:0:0:0:
94,303,81649,2,0,L|163:290,1,70,8|2,0:0|0:0,0:0:0:0:
256,360,81983,5,8,0:0:0:0:
360,312,82149,1,8,0:0:0:0:
208,136,88316,6,0,P|244:121|280:104,1,78.7500000000002,0|0,1:0|0:0,0:0:0:0:
311,88,88649,6,0,P|325:119|339:152,1,70,4|0,1:2|0:0,0:0:0:0:
408,212,88983,2,0,P|421:179|436:147,1,70,8|0,0:0|1:0,0:0:0:0:
486,81,89316,2,0,P|453:67|421:52,1,70,8|0,0:0|1:0,0:0:0:0:
352,16,89649,2,0,P|320:30|287:44,1,70,8|0,0:0|1:0,0:0:0:0:
216,136,89983,6,0,P|201:104|187:71,1,70,8|0,0:0|1:0,0:0:0:0:
112,4,90316,2,0,P|98:36|83:68,1,70,8|0,0:0|1:0,0:0:0:0:
61,187,90649,2,0,P|92:172|125:158,1,70,8|0,0:0|1:0,0:0:0:0:
200,224,90983,2,0,P|232:237|264:252,1,70,8|4,0:0|1:3,0:0:0:0:
363,325,91316,6,0,P|363:257|416:215,2,140,12|8|8,0:0|0:0|0:0,0:0:0:0:
456,296,92149,1,0,1:0:0:0:
512,222,92316,2,0,P|498:189|483:157,1,70,8|0,0:0|1:0,0:0:0:0:
424,64,92649,6,0,P|384:119|316:128,1,140,8|8,0:0|0:0,0:0:0:0:
206,172,93149,2,0,P|261:211|270:279,1,140,0|8,1:0|0:0,0:0:0:0:
250,308,93566,1,8,0:0:0:0:
250,308,93649,2,0,P|233:314|217:322,3,35,8|8|8|8,0:0|0:0|0:0|0:0,0:0:0:0:
184,328,93983,6,0,P|131:304|72:307,1,119,6|2,1:2|1:2,0:0:0:0:
2,249,94483,2,0,P|12:190|20:131,1,119.000002269745,2|2,0:0|0:0,0:0:0:0:
5,44,94983,2,0,P|35:45|64:54,1,59.5000000000002,2|0,1:2|0:0,0:0:0:0:
110,127,95316,1,0,1:0:0:0:
110,127,95649,2,0,P|132:180|184:207,2,119,2|2|2,1:2|1:2|1:2,0:0:0:0:
242,24,96649,6,0,P|250:52|251:82,1,59.5000000000002,2|2,1:2|0:0,0:0:0:0:
193,149,96983,2,0,P|184:177|183:207,1,59.5000000000002,2|2,1:2|0:0,0:0:0:0:
234,278,97316,2,0,P|262:286|292:287,1,59.5000000000002,2|2,1:2|0:0,0:0:0:0:
359,228,97649,2,0,P|402:220|441:239,1,89.2500000000003,2|0,1:2|0:0,0:0:0:0:
460,271,97983,2,0,P|470:212|478:153,1,119,2|0,1:2|1:0,0:0:0:0:
274,169,98649,2,0,P|282:227|291:286,1,119,0|0,1:2|1:0,0:0:0:0:
224,352,99149,1,2,0:0:0:0:
224,352,99316,6,0,P|170:376|107:365,1,119,2|2,1:2|1:2,0:0:0:0:
156,284,99816,2,0,B|165:226|173:167|173:167|129:207,1,178.500000000001,2|0,0:0|1:0,0:0:0:0:
63,271,100483,2,0,P|34:220|49:163,1,119,2|2,0:0|0:0,0:0:0:0:
18,79,100983,2,0,P|76:76|121:113,1,119,2|2,1:2|1:2,0:0:0:0:
200,163,101483,1,2,0:0:0:0:
200,163,101649,2,0,P|230:154|256:147,1,59.5000000000002,2|2,1:2|0:0,0:0:0:0:
333,81,101983,6,0,P|275:66|218:49,1,119,2|2,1:2|1:2,0:0:0:0:
136,88,102483,2,0,P|127:57|120:31,2,59.5000000000002,2|2|2,0:0|1:2|0:0,0:0:0:0:
210,138,102983,2,0,P|244:186|237:244,1,119,2|2,1:2|1:2,0:0:0:0:
148,217,103483,5,2,0:0:0:0:
148,217,103649,2,0,P|119:209|90:201,1,59.5000000000002,2|2,1:2|0:0,0:0:0:0:
30,278,103983,2,0,P|58:286|87:293,1,59.5000000000002,2|2,1:2|1:2,0:0:0:0:
120,321,104233,1,2,0:0:0:0:
144,346,104316,2,0,P|172:338|201:331,1,59.5000000000002,2|0,1:0|0:0,0:0:0:0:
312,368,104649,6,0,P|327:307|345:245,1,126,6|10,1:2|0:0,0:0:0:0:
418,189,105149,2,0,P|367:153|306:162,1,126,2|2,0:0|0:0,0:0:0:0:
222,220,105649,2,0,P|160:229|104:202,1,126,10|0,0:0|1:0,0:0:0:0:
179,129,106149,1,0,0:0:0:0:
179,129,106316,2,0,P|186:98|195:67,1,63.0000000000001,10|0,0:0|0:0,0:0:0:0:
271,16,106649,2,0,P|279:46|287:76,1,63.0000000000001,2|0,1:2|0:0,0:0:0:0:
378,137,106983,2,0,P|391:91|421:55,1,94.5000000000001,10|0,0:0|0:0,0:0:0:0:
434,34,107316,6,0,P|464:26|494:18,2,63.0000000000001,2|2|10,1:2|0:0|0:0,0:0:0:0:
331,32,107816,2,0,P|301:24|271:16,2,63.0000000000001,2|2|2,0:0|1:2|0:0,0:0:0:0:
382,110,108316,2,0,P|390:140|398:170,1,63.0000000000001,8|0,0:0|0:0,0:0:0:0:
477,236,108649,6,0,P|426:272|365:263,1,126,2|8,1:2|0:0,0:0:0:0:
296,204,109149,1,0,0:0:0:0:
237,277,109316,2,0,P|245:307|253:337,1,63.0000000000001,2|2,1:2|0:0,0:0:0:0:
159,365,109649,2,0,P|151:335|143:305,1,63.0000000000001,10|2,0:0|0:0,0:0:0:0:
56,226,109983,5,4,1:2:0:0:
56,226,110149,1,2,0:0:0:0:
93,142,110316,2,0,P|144:106|205:115,1,126,10|2,0:0|1:2,0:0:0:0:
274,174,110816,1,2,0:0:0:0:
360,209,110983,2,0,P|390:201|420:193,1,63.0000000000001,10|2,0:0|0:0,0:0:0:0:
489,114,111316,6,0,P|501:85|498:54,1,63.0000000000001,2|0,1:2|0:0,0:0:0:0:
392,53,111649,2,0,P|389:84|401:112,1,63.0000000000001,10|2,0:0|0:0,0:0:0:0:
446,204,111983,2,0,P|454:264|418:315,1,126,2|8,1:2|0:0,0:0:0:0:
362,241,112483,1,0,0:0:0:0:
280,312,112649,6,0,P|218:325|158:344,1,126,4|8,1:2|0:0,0:0:0:0:
53,353,113149,1,0,1:0:0:0:
48,256,113316,2,0,P|41:225|31:195,1,63.0000000000001,8|0,0:0|1:0,0:0:0:0:
144,248,113649,2,0,P|150:217|160:187,1,63.0000000000001,8|0,0:0|1:0,0:0:0:0:
94,112,113983,5,0,1:0:0:0:
94,112,114149,1,0,1:0:0:0:
180,49,114316,2,0,P|241:69|272:126,1,133,12|10,0:0|3:3,0:0:0:0:
234,207,114816,1,2,1:2:0:0:
201,288,114983,2,0,P|207:316|217:344,1,59.5000000000002,6|2,3:3|1:2,0:0:0:0:
344,376,115316,6,0,P|369:372|394:365,1,52.5000020027161,6|2,1:2|0:0,0:0:0:0:
440,288,115649,2,0,L|424:184,1,105,0|10,1:0|0:0,0:0:0:0:
251,274,116316,1,2,0:0:0:0:
251,274,116483,2,0,L|145:290,1,105,0|8,0:0|0:0,0:0:0:0:
129,198,116983,2,0,P|81:218|56:264,2,105,0|10|2,1:0|0:0|1:2,0:0:0:0:
220,193,117816,1,2,0:0:0:0:
292,130,117983,6,0,L|276:26,1,105,2|2,1:2|1:2,0:0:0:0:
371,59,118483,1,2,0:0:0:0:
371,59,118649,2,0,L|474:43,1,105,8|2,0:0|0:0,0:0:0:0:
433,138,119149,1,8,3:0:0:0:
433,138,119316,2,0,L|441:190,1,52.5000000000001,0|8,0:0|1:3,0:0:0:0:
474,274,119649,2,0,P|422:280|378:254,1,105,4|10,3:0|0:0,0:0:0:0:
288,240,120149,2,0,L|296:292,2,52.5000000000001,2|2|10,1:2|0:0|1:3,0:0:0:0:
318,144,120649,6,0,P|266:138|219:161,1,105,4|0,1:2|1:0,0:0:0:0:
178,241,121149,1,2,0:0:0:0:
242,306,121316,2,0,P|293:311|340:288,1,105,8|2,0:0|0:0,0:0:0:0:
383,210,121816,2,0,L|399:107,2,105,2|8|2,0:0|0:0|0:0,0:0:0:0:
338,286,122649,1,8,0:0:0:0:
384,360,122816,2,0,L|435:368,2,52.5000000000001,0|2|10,0:0|1:2|0:0,0:0:0:0:
280,352,123316,6,0,L|177:368,1,105,2|2,1:2|1:2,0:0:0:0:
88,328,123816,2,0,L|80:379,2,52.5000000000001,2|10|2,0:0|2:0|2:0,0:0:0:0:
160,280,124316,2,0,L|152:228,1,52.5000000000001,2|8,2:0|3:0,0:0:0:0:
190,149,124649,5,0,0:0:0:0:
190,149,124816,1,0,1:0:0:0:
272,175,124983,2,0,P|297:170|323:164,1,52.5000000000001,6|0,3:3|0:0,0:0:0:0:
408,132,125316,2,0,P|425:151|444:169,2,52.5000000000001,8|2|2,0:0|1:2|0:0,0:0:0:0:
337,61,125816,5,2,1:2:0:0:
337,61,125899,1,0,1:0:0:0:
337,61,125983,2,0,P|379:32|430:35,2,105,6|0|0,1:2|1:0|1:0,0:0:0:0:
296,136,126816,1,2,0:1:0:0:
296,224,126983,2,0,P|287:252|281:281,1,59.5000000000002,2|2,1:2|0:1,0:0:0:0:
203,336,127316,6,0,P|144:348|87:365,1,119,0|0,1:0|1:0,0:0:0:0:
88,168,127983,2,0,P|130:181|174:191,1,89.2500000000003,2|0,1:2|0:0,0:0:0:0:
208,184,128316,2,0,P|222:179|236:175,3,29.7500000000001,10|4|4|4,3:0|3:0|3:0|3:0,0:0:0:0:
282,191,128649,5,6,1:2:0:0:
415,237,128983,1,10,0:0:0:0:
500,124,129316,1,10,0:0:0:0:
419,5,129649,1,10,0:0:0:0:
283,48,129983,6,0,P|268:44|254:39,3,29.7500000000001,10|0|0|0,0:0|1:0|1:0|1:0,0:0:0:0:
216,29,130316,2,0,P|201:32|187:37,3,29.7500000000001,8|0|2|0,0:0|1:0|1:2|1:0,0:0:0:0:
147,58,130649,2,0,P|132:54|118:49,3,29.7500000000001,10|0|0|0,0:0|1:0|1:0|1:0,0:0:0:0:
86,21,130983,2,0,P|71:24|57:29,3,29.7500000000001,10|0|2|0,0:0|1:0|1:2|1:0,0:0:0:0:
29,61,131316,6,0,P|80:103|86:169,1,136.500000000001,0|0,1:0|1:0,0:0:0:0:
33,239,131983,1,2,0:1:0:0:
224,368,132316,2,0,P|231:365|238:364,3,15.1666666666668,0|0|0|0,1:0|1:0|1:0|1:0,0:0:0:0:
144,360,132649,2,0,P|134:315|120:272,1,91.0000000000005,0|0,1:0|1:0,0:0:0:0:
64,216,133149,2,0,P|41:211|20:204,2,45.5000000000003,2|2|2,0:0|0:0|1:2,0:0:0:0:
155,182,133649,2,0,P|187:171|220:164,1,68.2500000000004,2|0,1:2|0:0,0:0:0:0:
264,158,133983,5,6,1:2:0:0:
264,158,134316,2,0,L|273:221,1,59.5000000000002,8|0,0:0|1:0,0:0:0:0:
369,267,134649,2,0,L|360:208,1,59.5000000000002,8|0,0:0|1:0,0:0:0:0:
436,136,134983,2,0,L|444:194,1,59.5000000000002,8|0,0:0|1:0,0:0:0:0:
499,56,135316,6,0,L|469:51,3,29.7500000000001,8|4|4|4,3:0|3:0|3:0|3:0,0:0:0:0:
432,29,135649,2,0,L|402:34,3,29.7500000000001,8|4|4|4,3:0|3:0|3:0|3:0,0:0:0:0:
360,31,135983,5,2,1:0:0:0:
325,124,136149,1,4,3:0:0:0:
325,124,136233,1,8,0:0:0:0:
325,124,136316,2,0,L|329:154,3,29.7500000000001,8|8|8|8,0:0|0:0|0:0|0:0,0:0:0:0:
305,193,136649,6,0,B|278:230|278:230|296:326,1,140,6|10,1:2|0:0,0:0:0:0:
405,341,137149,2,0,L|392:272,1,70,2|0,0:0|1:0,0:0:0:0:
295,322,137483,2,0,L|226:335,1,70,2|8,0:0|0:0,0:0:0:0:
146,257,137816,1,2,0:0:0:0:
146,257,137983,2,0,L|78:270,2,70,2|2|10,1:2|0:0|0:0,0:0:0:0:
229,307,138483,2,0,P|248:242|210:187,1,140,2|0,0:0|1:0,0:0:0:0:
112,152,138983,2,0,L|43:139,1,70,8|0,0:0|0:0,0:0:0:0:
98,41,139316,5,2,1:2:0:0:
98,41,139483,1,2,0:0:0:0:
184,72,139649,2,0,P|218:75|249:59,1,70,10|2,0:0|0:0,0:0:0:0:
348,92,139983,2,0,B|384:151|384:151|353:215,1,140,2|8,1:2|0:0,0:0:0:0:
271,279,140483,6,0,P|203:287|158:339,1,140,2|2,0:0|1:2,0:0:0:0:
249,370,140983,1,10,0:0:0:0:
355,333,141149,2,0,P|374:268|336:213,1,140,2|2,0:0|0:0,0:0:0:0:
267,128,141649,2,0,P|301:123|335:115,1,70,10|2,0:0|0:0,0:0:0:0:
465,112,141983,6,0,P|445:176|484:232,1,140,4|10,1:2|0:0,0:0:0:0:
508,332,142483,2,0,P|439:318|369:311,1,140,2|2,0:0|0:0,0:0:0:0:
289,239,142983,1,10,0:0:0:0:
354,151,143149,1,2,0:0:0:0:
354,151,143233,1,2,0:0:0:0:
354,151,143316,5,0,1:0:0:0:
284,57,143483,2,0,P|249:60|214:67,1,70,2|10,0:2|0:0,0:0:0:0:
144,139,143816,2,0,P|105:83|125:19,1,140,2|0,0:0|1:0,0:0:0:0:
231,28,144316,2,0,P|265:34|300:37,1,70,8|2,0:0|0:0,0:0:0:0:
420,20,144649,6,0,P|406:51|407:86,1,70,2|0,1:2|0:0,0:0:0:0:
367,187,144983,2,0,P|317:142|249:143,1,140,10|2,0:0|1:2,0:0:0:0:
186,218,145483,1,2,1:2:0:0:
186,218,145649,1,8,0:0:0:0:
268,307,145816,6,0,B|321:299|321:299|353:320|353:320|401:314,1,140,6|2,1:2|1:2,0:0:0:0:
502,335,146316,1,8,0:0:0:0:
483,231,146483,1,10,0:0:0:0:
483,231,146566,1,8,0:0:0:0:
483,231,146649,2,0,L|413:217,1,70,8|8,0:0|0:0,0:0:0:0:
344,152,146983,2,0,L|350:117,3,35,8|8|8|8,0:0|0:0|0:0|0:0,0:0:0:0:
320,88,147316,6,0,B|247:62|251:137|179:120,1,154,6|10,1:2|0:0,0:0:0:0:
66,106,147816,2,0,P|64:71|78:39,1,70,2|0,0:0|1:0,0:0:0:0:
106,186,148149,2,0,P|74:200|39:198,1,70,2|8,0:0|0:0,0:0:0:0:
159,114,148483,1,2,0:0:0:0:
229,178,148649,2,0,P|226:212|219:247,2,70,2|2|10,1:2|2:0|2:0,0:0:0:0:
322,110,149149,2,0,P|334:178|340:248,1,140,2|2,0:0|1:2,0:0:0:0:
386,335,149649,1,8,0:0:0:0:
386,335,149816,1,2,0:0:0:0:
276,367,149983,6,0,P|226:374|181:348,1,105,2|0,1:2|0:0,0:0:0:0:
187,312,150316,2,0,P|186:243|169:175,1,140,10|2,0:0|1:2,0:0:0:0:
80,110,150816,1,0,0:0:0:0:
150,27,150983,2,0,P|183:18|218:18,1,70,10|2,0:0|0:0,0:0:0:0:
336,64,151316,5,2,1:2:0:0:
280,144,151483,1,2,0:0:0:0:
360,184,151649,1,10,0:0:0:0:
264,136,151816,2,0,P|195:149|125:156,1,140,2|2,0:0|0:0,0:0:0:0:
64,248,152316,2,0,P|98:251|133:258,1,70,10|2,0:0|0:0,0:0:0:0:
229,331,152649,5,12,0:0:0:0:
320,280,152816,1,2,1:2:0:0:
396,352,152983,2,0,L|464:339,1,70,10|2,0:0|1:2,0:0:0:0:
505,215,153316,2,0,L|437:228,1,70,8|2,0:0|1:2,0:0:0:0:
411,229,153566,1,0,1:0:0:0:
382,230,153649,2,0,L|314:217,1,70,8|0,0:0|0:0,0:0:0:0:
224,139,153983,5,8,0:0:0:0:
126,188,154149,1,8,0:0:0:0:
111,192,166649,6,0,P|162:120|249:126,1,182,2|2,0:0|0:0,0:0:0:0:
249,126,167983,1,2,0:0:0:0:
249,126,168649,2,0,B|296:164|296:164|352:128|413:142,1,182,2|0,0:0|0:0,0:0:0:0:
412,142,169983,2,0,P|404:209|400:277,1,136.5,2|2,0:0|0:0,0:0:0:0:
322,245,170649,2,0,P|299:240|276:241,2,45.5,2|2|2,0:0|0:0|0:0,0:0:0:0:
154,297,171316,6,0,P|100:227|13:235,2,182,2|2|2,0:0|0:0|0:0,0:0:0:0:
277,353,172983,1,2,0:0:0:0:
277,353,173149,2,0,P|321:357|367:359,1,90.9999999999999,2|2,0:0|0:0,0:0:0:0:
448,360,173649,1,2,0:0:0:0:
448,360,173983,6,0,B|461:310|497:286|497:286|470:244|478:199,1,182,2|2,0:0|0:0,0:0:0:0:
248,104,175316,2,0,B|293:112|335:85|335:85|359:121|409:134,1,182,2|2,0:0|0:0,0:0:0:0:
317,229,176649,5,2,1:2:0:0:
317,229,176816,1,2,1:2:0:0:
240,272,176983,2,0,P|192:266|164:227,2,97.9999999999999,10|10|2,0:0|0:0|0:0,0:0:0:0:
384,168,177983,5,2,1:2:0:0:
384,168,178149,2,0,P|431:178|480:181,1,97.9999999999999,0|10,1:0|0:0,0:0:0:0:
505,103,178649,2,0,P|454:55|391:84,1,147,8|0,0:0|0:0,0:0:0:0:
354,170,179316,5,2,1:2:0:0:
354,170,179483,1,2,1:2:0:0:
406,240,179649,2,0,P|400:287|361:315,2,97.9999999999999,10|10|2,0:0|0:0|0:0,0:0:0:0:
207,256,180649,5,2,1:2:0:0:
207,256,180816,2,0,P|159:266|110:269,1,97.9999999999999,0|0,1:0|0:0,0:0:0:0:
122,365,181316,1,2,1:2:0:0:
122,365,181483,2,0,P|169:354|218:351,1,97.9999999999999,0|0,1:0|0:0,0:0:0:0:
293,296,181983,5,2,1:2:0:0:
293,296,182149,1,0,1:0:0:0:
376,264,182316,2,0,P|423:270|451:309,2,97.9999999999999,8|8|2,0:0|0:0|0:0,0:0:0:0:
208,224,183316,5,0,1:0:0:0:
208,224,183483,2,0,P|204:175|194:127,1,97.9999999999999,0|8,1:0|0:0,0:0:0:0:
128,75,183983,2,0,P|162:42|209:45,1,97.9999999999999,8|10,0:0|0:0,0:0:0:0:
345,152,184649,5,0,1:0:0:0:
345,152,184816,1,0,1:0:0:0:
428,184,184983,2,0,P|475:178|503:139,2,97.9999999999999,8|8|0,0:0|0:0|0:0,0:0:0:0:
275,111,185983,5,2,1:2:0:0:
275,111,186149,2,0,P|226:115|178:125,1,97.9999999999999,0|10,1:0|0:0,0:0:0:0:
107,166,186649,2,0,P|82:164|58:159,1,49,10|0,0:0|0:0,0:0:0:0:
0,216,186983,2,0,P|8:251|11:288,1,73.4999999999999,2|0,0:0|0:0,0:0:0:0:
10,325,187316,6,0,P|47:295|95:296,1,97.9999999999999,2|0,1:2|0:0,0:0:0:0:
175,275,187816,2,0,P|212:305|260:304,1,97.9999999999999,2|0,0:0|0:0,0:0:0:0:
345,300,188316,2,0,P|348:311|349:322,3,23.3333333333333,0|0|0|0,1:0|1:0|1:0|1:0,0:0:0:0:
302,217,188649,5,2,0:0:0:0:
431,130,189316,1,2,0:0:0:0:
288,32,189983,6,0,P|239:26|191:17,1,97.9999999999999,0|0,1:0|1:0,0:0:0:0:
256,160,190649,2,0,P|304:154|352:146,1,97.9999999999999,0|0,1:0|1:0,0:0:0:0:
264,288,191316,2,0,P|215:278|167:272,1,97.9999999999999,0|0,1:0|1:0,0:0:0:0:
71,313,191816,1,0,1:0:0:0:
71,313,191899,1,0,1:0:0:0:
71,313,191983,1,8,0:0:0:0:
23,222,192149,1,8,0:0:0:0:
256,160,192649,6,0,B|308:138|308:138|391:172,1,147,6|10,1:2|0:0,0:0:0:0:
485,247,193149,2,0,P|482:210|497:176,1,73.5,2|0,0:0|1:0,0:0:0:0:
496,64,193483,2,0,P|465:84|428:88,1,73.5,2|8,0:0|0:0,0:0:0:0:
350,21,193816,1,2,0:0:0:0:
272,104,193983,2,0,L|282:176,2,73.5,2|2|10,1:2|0:0|0:0,0:0:0:0:
192,16,194483,2,0,P|124:-2|65:38,1,147,2|0,0:0|1:0,0:0:0:0:
151,154,194983,2,0,P|147:117|140:82,1,73.5,8|2,0:0|0:0,0:0:0:0:
46,131,195316,5,2,1:2:0:0:
46,131,195483,1,2,0:0:0:0:
139,226,195649,2,0,P|142:189|150:153,1,73.5,10|2,2:0|2:0,0:0:0:0:
32,216,195983,2,0,P|47:287|56:360,1,147,2|10,1:2|0:0,0:0:0:0:
152,336,196483,6,0,P|216:306|281:336,1,147,2|2,0:0|1:2,0:0:0:0:
376,360,196983,1,10,0:0:0:0:
352,256,197149,2,0,P|322:191|352:126,1,147,2|2,0:0|0:0,0:0:0:0:
424,191,197649,1,10,0:0:0:0:
498,249,197816,1,2,0:0:0:0:
424,336,197983,6,0,B|362:373|362:373|294:341,1,147,4|8,1:2|0:0,0:0:0:0:
288,232,198483,2,0,B|349:194|349:194|417:226,1,147,2|2,0:0|0:0,0:0:0:0:
502,151,198983,1,8,0:0:0:0:
440,64,199149,1,2,0:0:0:0:
440,64,199233,1,2,0:0:0:0:
440,64,199316,6,0,P|403:59|367:51,1,73.5,0|2,1:0|0:2,0:0:0:0:
272,8,199649,1,10,0:0:0:0:
192,64,199816,1,2,0:0:0:0:
248,152,199983,2,0,P|285:212|264:280,1,147,0|8,1:0|0:0,0:0:0:0:
184,320,200483,1,2,0:0:0:0:
112,232,200649,6,0,L|184:222,1,73.5,0|0,1:0|0:0,0:0:0:0:
120,131,200983,2,0,L|48:121,1,73.5,8|2,0:0|0:0,0:0:0:0:
72,16,201316,2,0,L|0:26,2,73.5,2|2|8,1:2|1:2|0:0,0:0:0:0:
176,56,201816,6,0,B|228:78|228:78|311:44,1,147,6|2,1:2|1:2,0:0:0:0:
418,8,202316,1,8,0:0:0:0:
484,98,202483,1,10,0:0:0:0:
484,98,202566,1,8,0:0:0:0:
484,98,202649,2,0,P|491:133|496:170,1,73.5,8|8,0:0|0:0,0:0:0:0:
432,248,202983,2,0,P|429:266|425:284,3,36.75,8|8|8|8,0:0|0:0|0:0|0:0,0:0:0:0:
392,312,203316,6,0,B|314:284|318:363|242:345,1,161,6|10,1:2|0:0,0:0:0:0:
144,264,203816,2,0,P|139:227|131:191,1,73.5,2|0,0:0|1:0,0:0:0:0:
272,192,204149,2,0,P|264:228|259:264,1,73.5,2|8,0:0|0:0,0:0:0:0:
200,136,204483,1,2,0:0:0:0:
288,80,204649,6,0,P|325:77|359:92,2,73.5,2|2|10,1:2|0:0|0:0,0:0:0:0:
200,136,205149,2,0,P|127:126|55:111,1,147,2|2,0:0|1:2,0:0:0:0:
40,232,205649,2,0,P|76:224|112:219,1,73.5,10|2,0:0|0:0,0:0:0:0:
208,280,205983,5,2,1:2:0:0:
208,280,206149,1,2,0:0:0:0:
288,336,206316,2,0,P|342:329|396:317,1,110.25,10|0,0:0|0:0,0:0:0:0:
444,324,206649,2,0,P|480:262|458:194,1,147,2|10,1:2|0:0,0:0:0:0:
378,120,207149,1,2,0:0:0:0:
440,24,207316,6,0,P|476:18|512:10,2,73.5,2|2|10,1:2|0:0|0:0,0:0:0:0:
344,96,207816,2,0,P|274:83|241:20,1,147,2|0,0:0|1:2,0:0:0:0:
152,64,208316,2,0,P|116:71|79:77,1,73.5,8|0,0:0|0:0,0:0:0:0:
16,176,208649,5,4,1:2:0:0:
16,176,208816,2,0,P|8:244|42:304,1,140,0|2,1:0|1:2,0:0:0:0:
141,286,209316,1,8,0:0:0:0:
216,352,209483,1,2,0:0:0:0:
216,352,209649,2,0,P|250:346|284:339,1,70,2|2,1:2|1:2,0:0:0:0:
384,272,209983,5,8,0:0:0:0:
480,328,210149,1,0,1:0:0:0:
480,328,210233,1,0,1:0:0:0:
480,328,210316,2,0,P|483:310|487:293,3,35,8|0|0|0,0:0|1:0|1:0|1:0,0:0:0:0:
501,254,210649,2,0,P|497:236|493:219,3,35,8|0|0|0,3:0|1:0|1:0|1:0,0:0:0:0:
470,186,210983,2,0,P|474:168|477:151,3,35,4|0|0|0,3:0|1:0|1:0|1:0,0:0:0:0:
456,103,211316,6,0,P|386:85|319:53,2,147,6|8|8,1:2|0:0|0:0,0:0:0:0:
384,192,212149,1,0,1:0:0:0:
384,192,212233,1,0,1:0:0:0:
384,192,212316,1,8,0:0:0:0:
296,144,212483,1,0,1:0:0:0:
224,208,212649,6,0,P|157:239|86:258,1,147,8|8,0:0|0:0,0:0:0:0:
88,144,213149,1,0,1:0:0:0:
88,144,213316,2,0,P|123:134|156:118,1,73.5,10|0,0:0|0:0,0:0:0:0:
120,16,213649,2,0,P|86:32|51:42,1,73.5,8|2,0:0|1:2,0:0:0:0:
88,144,213983,6,0,P|137:196|139:268,2,147,8|8|8,0:0|0:0|0:0,0:0:0:0:
176,88,214816,2,0,P|170:70|163:53,2,36.75,0|0|8,1:0|1:0|0:0,0:0:0:0:
264,128,215149,1,0,1:0:0:0:
336,64,215316,6,0,P|388:15|460:13,1,147,8|10,0:0|0:0,0:0:0:0:
425,103,215816,1,2,1:2:0:0:
425,103,215899,1,0,1:0:0:0:
425,103,215983,2,0,P|441:137|451:172,1,73.5,10|0,0:0|1:0,0:0:0:0:
449,275,216316,2,0,P|427:305|402:332,1,73.5,10|0,0:0|1:0,0:0:0:0:
290,289,216649,6,0,P|238:240|166:238,2,147,14|8|8,0:0|0:0|0:0,0:0:0:0:
214,365,217483,2,0,P|208:348|202:331,2,36.75,0|0|8,1:0|1:0|0:0,0:0:0:0:
112,336,217816,1,0,1:0:0:0:
64,248,217983,6,0,P|94:181|113:110,1,147,8|8,0:0|0:0,0:0:0:0:
196,28,218483,1,0,1:0:0:0:
196,28,218566,1,0,1:0:0:0:
196,28,218649,2,0,P|248:77|320:78,1,147,10|8,0:0|0:0,0:0:0:0:
405,32,219149,1,0,1:0:0:0:
488,99,219316,5,6,1:2:0:0:
440,176,219483,2,0,P|455:209|464:244,1,73.5,0|8,1:2|0:0,0:0:0:0:
396,330,219816,2,0,P|324:329|271:280,1,147,6|2,1:2|1:2,0:0:0:0:
331,205,220316,1,8,0:0:0:0:
440,176,220483,6,0,P|489:123|489:51,1,147,6|0,1:2|1:0,0:0:0:0:
384,40,220983,2,0,P|366:35|349:27,3,36.75,8|0|0|0,0:0|1:0|1:0|1:0,0:0:0:0:
316,18,221316,2,0,P|280:27|247:42,1,73.5,8|8,3:0|0:0,0:0:0:0:
206,45,221566,1,0,1:0:0:0:
172,33,221649,2,0,P|155:25|137:20,3,36.75,8|0|0|0,0:0|1:0|1:0|1:0,0:0:0:0:
94,31,221983,6,0,P|40:73|33:140,1,140,6|8,1:2|0:0,0:0:0:0:
133,176,222483,2,0,P|200:182|242:236,1,140,0|0,1:0|1:0,0:0:0:0:
231,338,222983,1,8,0:0:0:0:
152,280,223149,1,0,1:0:0:0:
242,236,223316,6,0,P|276:238|311:245,1,70,2|0,1:2|1:0,0:0:0:0:
400,294,223649,2,0,P|434:291|469:284,1,70,10|0,0:0|0:0,0:0:0:0:
472,184,223983,2,0,P|437:181|402:174,1,70,2|0,1:2|1:0,0:0:0:0:
314,126,224316,2,0,P|279:128|244:135,1,70,10|0,0:0|0:0,0:0:0:0:
183,226,224649,6,0,P|129:183|122:116,2,140,2|8|2,1:2|0:0|1:2,0:0:0:0:
272,294,225483,2,0,P|274:259|281:224,1,70,2|8,1:2|0:0,0:0:0:0:
232,128,225816,2,0,P|299:121|341:67,1,140,2|0,1:2|1:0,0:0:0:0:
248,32,226316,2,0,P|213:25|178:22,1,70,10|0,0:0|0:0,0:0:0:0:
64,16,226649,1,2,1:2:0:0:
117,119,226816,1,0,1:0:0:0:
117,119,226899,1,0,1:0:0:0:
117,119,226983,2,0,P|123:153|126:188,1,70,12|0,0:0|0:0,0:0:0:0:
80,304,227316,6,0,B|132:282|132:282|215:316,1,147,10|10,0:0|0:0,0:0:0:0:
308,359,227816,1,0,0:0:0:0:
409,334,227983,2,0,L|422:261,1,73.5,10|2,0:0|1:2,0:0:0:0:
429,228,228233,1,0,1:2:0:0:
429,228,228316,1,8,0:0:0:0:
360,140,228483,1,2,1:2:0:0:
264,184,228649,6,0,L|118:158,1,147,10|10,0:0|0:0,0:0:0:0:
207,80,229149,2,0,L|213:43,2,36.75,2|0|8,1:2|1:0|0:0,0:0:0:0:
312,96,229483,2,0,L|456:121,1,147,2|0,1:2|1:0,0:0:0:0:
400,16,229983,5,10,0:0:0:0:
312,96,230149,2,0,L|299:169,1,73.5,10|0,0:0|1:0,0:0:0:0:
316,270,230483,1,10,0:0:0:0:
224,316,230649,1,8,0:0:0:0:
151,243,230816,1,2,1:2:0:0:
151,243,230899,1,0,1:0:0:0:
151,243,230983,1,8,0:0:0:0:
197,151,231149,6,0,L|222:6,1,147,6|2,1:2|1:2,0:0:0:0:
112,64,231649,2,0,L|39:51,2,73.5,2|2|10,1:2|1:2|0:0,0:0:0:0:
56,152,232149,2,0,L|43:225,1,73.5,2|10,1:2|0:0,0:0:0:0:
96,312,232483,1,10,0:0:0:0:
200,288,232649,6,0,L|230:293,3,29.7500000000001,8|4|8|4,3:0|3:0|3:0|3:0,0:0:0:0:
257,296,232983,1,6,1:2:0:0:
256,192,233066,12,0,238983,0:0:0:0:
