osu file format v14

[General]
AudioFilename: audio.ogg
AudioLeadIn: 0
PreviewTime:136483
Countdown: 0
SampleSet: Soft
StackLeniency: 0.7
Mode: 0
LetterboxInBreaks: 0
WidescreenStoryboard: 0

[Editor]
Bookmarks:650,11316,21983,32649,43316,53983,64649,83316,93983,104649,115316,125983,136649,155316,165983,176649,188649,192649,211316,221983,232983,238983
DistanceSpacing: 0.9
BeatDivisor: 6
GridSize: 4
TimelineZoom: 2

[Metadata]
Title:White Promise
TitleUnicode:White Promise
Artist:Nayugorou
ArtistUnicode:なゆごろう
Creator:Shikibe Mayu
Version:Special
Source:LOST:SMILE memories + promises
Tags:shizuku- kazato asa Islet life0 とむ少佐 サウンドトラック ロストスマイル メモリーズ + プロミセス visual novel galgame vn opening full version pop japanese jpop j-pop
BeatmapID:3625574
BeatmapSetID:1769873

[Difficulty]
HPDrainRate:6
CircleSize:4
OverallDifficulty:9
ApproachRate:9.2
SliderMultiplier:1.62
SliderTickRate:2

[Events]
//Background and Video events
0,0,"1503.jpg",0,0
//Break Periods
2,155516,163413
//Storyboard Layer 0 (Background)
//Storyboard Layer 1 (Fail)
//Storyboard Layer 2 (Pass)
//Storyboard Layer 3 (Foreground)
//Storyboard Layer 4 (Overlay)
//Storyboard Sound Samples

[TimingPoints]
650,333.333333333333,4,2,20,40,1,0
1149,-117.647058823529,4,2,20,40,0,0
1316,-117.647058823529,4,2,150,40,0,0
1321,-117.647058823529,4,2,20,40,0,0
3983,-117.647058823529,4,2,150,40,0,0
3988,-117.647058823529,4,2,20,40,0,0
5649,-117.647058823529,4,2,21,40,0,0
5983,-111.111111111111,4,2,21,60,0,0
6649,-111.111111111111,4,2,20,60,0,0
7316,-111.111111111111,4,2,21,60,0,0
7983,-111.111111111111,4,2,20,60,0,0
8649,-111.111111111111,4,2,21,60,0,0
10149,-111.111111111111,4,2,20,40,0,0
10316,-111.111111111111,4,2,20,45,0,0
10483,-111.111111111111,4,2,20,50,0,0
10649,-105.263157894737,4,2,21,55,0,0
10816,-105.263157894737,4,2,22,55,0,0
10983,-105.263157894737,4,2,23,55,0,0
11149,-105.263157894737,4,2,24,55,0,0
11316,-105.263157894737,4,2,25,70,0,0
11483,-105.263157894737,4,2,151,70,0,0
11488,-105.263157894737,4,2,21,70,0,0
11649,-105.263157894737,4,2,22,70,0,0
11816,-105.263157894737,4,2,21,70,0,0
11983,-105.263157894737,4,2,26,70,0,0
12149,-105.263157894737,4,2,21,70,0,0
12316,-105.263157894737,4,2,22,70,0,0
12483,-105.263157894737,4,2,27,70,0,0
12649,-105.263157894737,4,2,28,70,0,0
12815,-105.263157894737,4,2,21,70,0,0
12983,-105.263157894737,4,2,29,70,0,0
13149,-105.263157894737,4,2,21,70,0,0
13316,-105.263157894737,4,2,30,70,0,0
13482,-105.263157894737,4,2,21,70,0,0
13649,-105.263157894737,4,2,31,70,0,0
13816,-105.263157894737,4,2,21,70,0,0
13983,-105.263157894737,4,2,32,70,0,0
14150,-105.263157894737,4,2,151,70,0,0
14155,-105.263157894737,4,2,21,70,0,0
14316,-105.263157894737,4,2,22,70,0,0
14483,-105.263157894737,4,2,21,70,0,0
14649,-105.263157894737,4,2,23,70,0,0
14816,-105.263157894737,4,2,33,70,0,0
14983,-105.263157894737,4,2,34,70,0,0
15149,-105.263157894737,4,2,35,70,0,0
15316,-105.263157894737,4,2,36,70,0,0
15482,-105.263157894737,4,2,21,70,0,0
15649,-105.263157894737,4,2,22,70,0,0
15816,-105.263157894737,4,2,37,70,0,0
15983,-105.263157894737,4,2,152,70,0,0
15988,-105.263157894737,4,2,22,70,0,0
16149,-105.263157894737,4,2,21,70,0,0
16316,-105.263157894737,4,2,38,70,0,0
16482,-105.263157894737,4,2,21,70,0,0
16649,-105.263157894737,4,2,26,70,0,0
16816,-105.263157894737,4,2,151,70,0,0
16821,-105.263157894737,4,2,21,70,0,0
16982,-105.263157894737,4,2,22,70,0,0
17149,-105.263157894737,4,2,39,70,0,0
17315,-105.263157894737,4,2,20,70,0,0
17483,-105.263157894737,4,2,40,70,0,0
17649,-105.263157894737,4,2,41,70,0,0
17816,-105.263157894737,4,2,42,70,0,0
17983,-105.263157894737,4,2,28,70,0,0
18149,-105.263157894737,4,2,21,70,0,0
18316,-105.263157894737,4,2,43,70,0,0
18482,-105.263157894737,4,2,21,70,0,0
18649,-105.263157894737,4,2,44,70,0,0
18816,-105.263157894737,4,2,21,70,0,0
18983,-105.263157894737,4,2,45,70,0,0
19149,-105.263157894737,4,2,21,70,0,0
19316,-105.263157894737,4,2,46,70,0,0
19483,-105.263157894737,4,2,153,70,0,0
19488,-105.263157894737,4,2,20,70,0,0
19649,-105.263157894737,4,2,47,70,0,0
19816,-105.263157894737,4,2,48,70,0,0
19983,-105.263157894737,4,2,49,70,0,0
20149,-105.263157894737,4,2,50,70,0,0
20316,-105.263157894737,4,2,49,70,0,0
20482,-105.263157894737,4,2,51,70,0,0
20649,-105.263157894737,4,2,22,70,0,0
20983,-105.263157894737,4,2,24,70,0,0
21149,-105.263157894737,4,2,20,70,0,0
21316,-105.263157894737,4,2,24,70,0,0
21983,-125,4,2,20,45,0,0
26650,-125,4,2,150,45,0,0
26655,-125,4,2,20,45,0,0
28150,-125,4,2,150,45,0,0
28155,-125,4,2,20,45,0,0
31316,-125,4,2,20,50,0,0
31816,-125,4,2,21,50,0,0
31983,-125,4,2,150,50,0,0
31988,-125,4,2,20,50,0,0
32483,-125,4,2,21,50,0,0
32649,-111.111111111111,4,2,20,60,0,0
33316,-111.111111111111,4,2,153,60,0,0
33321,-111.111111111111,4,2,20,60,0,0
33482,-111.111111111111,4,2,20,60,0,0
40649,-111.111111111111,4,2,21,60,0,0
42649,-111.111111111111,4,2,22,60,0,0
42816,-111.111111111111,4,2,21,60,0,0
43316,-125,4,2,23,55,0,0
43982,-125,4,2,24,55,0,0
44983,-125,4,2,154,55,0,0
44988,-125,4,2,23,55,0,0
45316,-125,4,2,24,55,0,0
45983,-125,4,2,23,55,0,0
46649,-125,4,2,24,55,0,0
47149,-125,4,2,21,55,0,0
47316,-125,4,2,23,55,0,0
47483,-125,4,2,20,55,0,0
47650,-125,4,2,155,55,0,0
47655,-125,4,2,20,55,0,0
47983,-125,4,2,24,55,0,0
48649,-125,4,2,23,55,0,0
49316,-125,4,2,24,55,0,0
49983,-125,4,2,156,55,0,0
49988,-125,4,2,24,55,0,0
50482,-125,4,2,20,55,0,0
50649,-125,4,2,24,55,0,0
51316,-125,4,2,23,55,0,0
51983,-125,4,2,24,55,0,0
52483,-125,4,2,157,55,0,0
52488,-125,4,2,21,55,0,0
52649,-125,4,2,23,55,0,0
52816,-125,4,2,20,55,0,0
53316,-125,4,2,24,55,0,0
53483,-125,4,2,20,55,0,0
53649,-125,4,2,22,55,0,0
53816,-125,4,2,21,55,0,0
53983,-111.111111111111,4,2,21,55,0,0
54983,-111.111111111111,4,2,22,55,0,0
57483,-111.111111111111,4,2,49,55,0,0
57649,-111.111111111111,4,2,20,55,0,0
57816,-111.111111111111,4,2,49,55,0,0
57983,-111.111111111111,4,2,22,55,0,0
58649,-111.111111111111,4,2,21,55,0,0
59316,-111.111111111111,4,2,22,55,0,0
59483,-111.111111111111,4,2,22,65,0,0
61149,-100,4,2,22,65,0,0
61983,-100,4,2,49,65,0,0
62149,-100,4,2,20,65,0,0
62316,-100,4,2,49,65,0,0
62483,-100,4,2,20,65,0,0
62649,-100,4,2,49,65,0,0
63399,-100,4,2,22,65,0,0
63816,-142.857142857143,4,2,21,65,0,0
64483,-142.857142857143,4,2,20,65,0,0
64649,-83.3333333333333,4,2,52,75,0,1
64815,-83.3333333333333,4,2,53,75,0,1
64983,-83.3333333333333,4,2,22,75,0,1
65149,-83.3333333333333,4,2,53,75,0,1
65315,-83.3333333333333,4,2,20,75,0,1
65483,-83.3333333333333,4,2,53,75,0,1
65649,-83.3333333333333,4,2,22,75,0,1
65816,-83.3333333333333,4,2,53,75,0,1
65899,-83.3333333333333,4,2,20,75,0,1
65983,-83.3333333333333,4,2,54,75,0,1
66149,-83.3333333333333,4,2,53,75,0,1
66316,-83.3333333333333,4,2,22,75,0,1
66483,-83.3333333333333,4,2,53,75,0,1
66649,-83.3333333333333,4,2,55,75,0,1
66816,-83.3333333333333,4,2,158,75,0,1
66821,-83.3333333333333,4,2,53,75,0,1
66982,-83.3333333333333,4,2,22,75,0,1
67149,-83.3333333333333,4,2,53,75,0,1
67233,-83.3333333333333,4,2,20,75,0,1
67316,-83.3333333333333,4,2,56,75,0,1
67482,-83.3333333333333,4,2,53,75,0,1
67649,-83.3333333333333,4,2,22,75,0,1
67815,-83.3333333333333,4,2,53,75,0,1
67983,-83.3333333333333,4,2,57,75,0,1
68149,-83.3333333333333,4,2,53,75,0,1
68316,-83.3333333333333,4,2,58,75,0,1
68483,-83.3333333333333,4,2,59,75,0,1
68566,-83.3333333333333,4,2,60,75,0,1
68649,-83.3333333333333,4,2,61,75,0,1
68815,-83.3333333333333,4,2,53,75,0,1
68983,-83.3333333333333,4,2,62,75,0,1
69149,-83.3333333333333,4,2,53,75,0,1
69316,-83.3333333333333,4,2,63,75,0,1
69483,-83.3333333333333,4,2,53,75,0,1
69649,-83.3333333333333,4,2,64,75,0,1
69816,-83.3333333333333,4,2,53,75,0,1
69983,-83.3333333333333,4,2,65,75,0,1
70149,-83.3333333333333,4,2,53,75,0,1
70316,-83.3333333333333,4,2,22,75,0,1
70483,-83.3333333333333,4,2,53,75,0,1
70649,-83.3333333333333,4,2,20,75,0,1
70816,-83.3333333333333,4,2,66,75,0,1
70983,-83.3333333333333,4,2,67,75,0,1
71149,-83.3333333333333,4,2,68,75,0,1
71233,-83.3333333333333,4,2,20,75,0,1
71316,-83.3333333333333,4,2,69,75,0,1
71482,-83.3333333333333,4,2,53,75,0,1
71649,-83.3333333333333,4,2,22,75,0,1
71816,-83.3333333333333,4,2,53,75,0,1
71983,-83.3333333333333,4,2,70,75,0,1
72150,-83.3333333333333,4,2,158,75,0,1
72155,-83.3333333333333,4,2,53,75,0,1
72316,-83.3333333333333,4,2,22,75,0,1
72483,-83.3333333333333,4,2,53,75,0,1
72566,-83.3333333333333,4,2,20,75,0,1
72649,-83.3333333333333,4,2,71,75,0,1
72816,-83.3333333333333,4,2,53,75,0,1
72983,-83.3333333333333,4,2,22,75,0,1
73149,-83.3333333333333,4,2,53,75,0,1
73316,-83.3333333333333,4,2,72,75,0,1
73483,-83.3333333333333,4,2,73,75,0,1
73649,-83.3333333333333,4,2,22,75,0,1
73816,-83.3333333333333,4,2,74,75,0,1
74149,-83.3333333333333,4,2,75,75,0,1
74316,-83.3333333333333,4,2,49,75,0,1
74483,-83.3333333333333,4,2,76,75,0,1
74649,-83.3333333333333,4,2,77,75,0,1
74816,-83.3333333333333,4,2,78,75,0,1
75149,-83.3333333333333,4,2,79,75,0,1
75316,-83.3333333333333,4,2,52,75,0,1
75482,-83.3333333333333,4,2,53,75,0,1
75649,-83.3333333333333,4,2,22,75,0,1
75816,-83.3333333333333,4,2,53,75,0,1
75982,-83.3333333333333,4,2,20,75,0,1
76149,-83.3333333333333,4,2,53,75,0,1
76316,-83.3333333333333,4,2,22,75,0,1
76483,-83.3333333333333,4,2,53,75,0,1
76649,-83.3333333333333,4,2,80,75,0,1
76815,-83.3333333333333,4,2,53,75,0,1
76983,-83.3333333333333,4,2,81,75,0,1
77149,-83.3333333333333,4,2,53,75,0,1
77316,-83.3333333333333,4,2,159,75,0,1
77321,-83.3333333333333,4,2,82,75,0,1
77482,-83.3333333333333,4,2,53,75,0,1
77649,-83.3333333333333,4,2,83,75,0,1
77816,-83.3333333333333,4,2,53,75,0,1
77899,-83.3333333333333,4,2,20,75,0,1
77983,-83.3333333333333,4,2,84,75,0,1
78149,-83.3333333333333,4,2,53,75,0,1
78316,-83.3333333333333,4,2,22,75,0,1
78482,-83.3333333333333,4,2,53,75,0,1
78649,-83.3333333333333,4,2,85,75,0,1
78816,-83.3333333333333,4,2,160,75,0,1
78821,-83.3333333333333,4,2,86,75,0,1
78982,-83.3333333333333,4,2,87,75,0,1
79149,-83.3333333333333,4,2,88,75,0,1
79316,-83.3333333333333,4,2,22,75,0,1
79483,-83.3333333333333,4,2,53,75,0,1
79649,-83.3333333333333,4,2,89,75,0,1
79816,-83.3333333333333,4,2,53,75,0,1
79899,-83.3333333333333,4,2,20,75,0,1
79983,-83.3333333333333,4,2,90,75,0,1
80149,-83.3333333333333,4,2,53,75,0,1
80316,-83.3333333333333,4,2,83,75,0,1
80483,-83.3333333333333,4,2,53,75,0,1
80649,-83.3333333333333,4,2,91,75,0,1
80816,-83.3333333333333,4,2,150,75,0,1
80821,-83.3333333333333,4,2,20,75,0,1
80983,-83.3333333333333,4,2,92,75,0,1
81149,-83.3333333333333,4,2,20,75,0,1
81316,-83.3333333333333,4,2,93,75,0,1
81483,-83.3333333333333,4,2,22,75,0,1
81649,-83.3333333333333,4,2,92,75,0,1
81816,-83.3333333333333,4,2,20,75,0,1
81983,-83.3333333333333,4,2,49,75,0,1
83316,-125,4,2,20,70,0,0
85316,-125,4,2,153,70,0,0
85321,-125,4,2,20,70,0,0
85983,-125,4,2,22,70,0,0
86815,-125,4,2,20,70,0,0
87316,-125,4,2,22,70,0,0
88149,-125,4,2,21,70,0,0
88316,-125,4,2,21,70,0,0
88649,-111.111111111111,4,2,23,70,0,0
88982,-111.111111111111,4,2,25,70,0,0
89149,-111.111111111111,4,2,24,70,0,0
89316,-111.111111111111,4,2,25,70,0,0
89482,-111.111111111111,4,2,24,70,0,0
89649,-111.111111111111,4,2,25,70,0,0
89816,-111.111111111111,4,2,24,70,0,0
89983,-111.111111111111,4,2,25,70,0,0
90149,-111.111111111111,4,2,24,70,0,0
90315,-111.111111111111,4,2,25,70,0,0
90483,-111.111111111111,4,2,24,70,0,0
90649,-111.111111111111,4,2,25,70,0,0
90816,-111.111111111111,4,2,24,70,0,0
90983,-111.111111111111,4,2,25,70,0,0
91149,-111.111111111111,4,2,24,70,0,0
91316,-100,4,2,23,70,0,0
91483,-100,4,2,161,70,0,0
91488,-100,4,2,24,70,0,0
91649,-100,4,2,25,70,0,0
91816,-100,4,2,24,70,0,0
91983,-100,4,2,25,70,0,0
92149,-100,4,2,24,70,0,0
92316,-100,4,2,25,70,0,0
92483,-100,4,2,24,70,0,0
92649,-100,4,2,25,70,0,0
92816,-100,4,2,24,70,0,0
92983,-100,4,2,25,70,0,0
93149,-100,4,2,24,70,0,0
93316,-100,4,2,21,70,0,0
93483,-100,4,2,24,70,0,0
93983,-111.111111111111,4,2,20,60,0,0
94650,-111.111111111111,4,2,153,60,0,0
94655,-111.111111111111,4,2,20,60,0,0
95150,-111.111111111111,4,3,150,60,0,0
95155,-111.111111111111,4,2,20,60,0,0
100150,-111.111111111111,4,3,150,60,0,0
100155,-111.111111111111,4,2,20,60,0,0
103983,-111.111111111111,4,2,22,60,0,0
104149,-111.111111111111,4,2,21,60,0,0
104649,-111.111111111111,4,2,21,65,0,0
104983,-111.111111111111,4,2,22,65,0,0
105149,-100,4,2,21,65,0,0
105649,-100,4,2,22,65,0,0
105816,-100,4,2,151,65,0,0
105821,-100,4,2,21,65,0,0
106149,-100,4,2,21,65,0,0
106316,-100,4,2,22,65,0,0
106482,-100,4,2,21,65,0,0
106983,-100,4,2,22,65,0,0
107149,-100,4,2,21,65,0,0
107649,-100,4,2,22,65,0,0
107816,-100,4,2,21,65,0,0
108316,-100,4,2,22,65,0,0
108482,-100,4,2,21,65,0,0
108816,-100,4,2,151,65,0,0
108821,-100,4,2,21,65,0,0
108982,-100,4,2,22,65,0,0
109149,-100,4,2,21,65,0,0
109649,-100,4,2,22,65,0,0
109816,-100,4,2,21,65,0,0
110316,-100,4,2,22,65,0,0
110483,-100,4,2,151,65,0,0
110488,-100,4,2,21,65,0,0
110816,-100,4,2,21,65,0,0
110983,-100,4,2,22,65,0,0
111149,-100,4,2,21,65,0,0
111649,-100,4,2,22,65,0,0
111816,-100,4,2,21,65,0,0
112150,-100,4,2,151,65,0,0
112155,-100,4,2,21,65,0,0
112316,-100,4,2,22,65,0,0
112482,-100,4,2,21,65,0,0
112816,-100,4,2,153,65,0,0
112821,-100,4,2,21,65,0,0
112982,-100,4,2,25,65,0,0
113149,-100,4,2,24,65,0,0
113316,-100,4,2,25,65,0,0
113483,-100,4,2,24,65,0,0
113649,-100,4,2,25,65,0,0
113816,-100,4,2,24,65,0,0
113983,-100,4,2,21,65,0,0
114316,-76.9230769230769,4,2,22,65,0,0
114983,-76.9230769230769,4,2,21,65,0,0
115316,-125,4,2,23,65,0,0
115982,-125,4,2,24,65,0,0
116983,-125,4,2,154,65,0,0
116988,-125,4,2,23,65,0,0
117316,-125,4,2,24,65,0,0
117983,-125,4,2,23,65,0,0
118649,-125,4,2,24,65,0,0
119149,-125,4,2,21,65,0,0
119315,-125,4,2,23,65,0,0
119483,-125,4,2,20,65,0,0
119650,-125,4,2,155,65,0,0
119655,-125,4,2,20,65,0,0
119983,-125,4,2,24,65,0,0
120649,-125,4,2,23,65,0,0
121316,-125,4,2,24,65,0,0
122316,-125,4,2,156,65,0,0
122321,-125,4,2,24,65,0,0
122482,-125,4,2,20,65,0,0
122649,-125,4,2,24,65,0,0
123316,-125,4,2,23,65,0,0
123983,-125,4,2,24,65,0,0
124483,-125,4,2,157,65,0,0
124488,-125,4,2,21,65,0,0
124649,-125,4,2,23,65,0,0
124815,-125,4,2,20,65,0,0
125316,-125,4,2,24,65,0,0
125483,-125,4,2,23,65,0,0
125816,-125,4,2,21,65,0,0
125983,-111.111111111111,4,2,22,65,0,0
126482,-111.111111111111,4,2,21,65,0,0
127483,-111.111111111111,4,2,151,65,0,0
127488,-111.111111111111,4,2,21,65,0,0
128649,-111.111111111111,4,2,22,65,0,0
128815,-111.111111111111,4,2,21,65,0,0
128983,-111.111111111111,4,2,25,40,0,0
129066,-111.111111111111,4,2,24,40,0,0
129316,-111.111111111111,4,2,25,45,0,0
129399,-111.111111111111,4,2,24,45,0,0
129649,-111.111111111111,4,2,25,50,0,0
129732,-111.111111111111,4,2,24,50,0,0
129983,-111.111111111111,4,2,25,55,0,0
130066,-111.111111111111,4,2,24,55,0,0
130316,-111.111111111111,4,2,25,60,0,0
130399,-111.111111111111,4,2,24,60,0,0
130649,-83.3333333333333,4,2,25,65,0,0
130732,-83.3333333333333,4,2,24,65,0,0
130983,-83.3333333333333,4,2,25,70,0,0
131066,-83.3333333333333,4,2,24,70,0,0
131316,-125,4,2,26,55,0,0
131983,-125,4,2,27,55,0,0
132316,-125,4,2,26,55,0,0
133316,-125,4,2,27,55,0,0
133483,-125,4,2,157,55,0,0
133488,-125,4,2,21,55,0,0
133649,-125,4,2,21,55,0,0
133983,-83.3333333333333,4,2,22,65,0,0
134316,-83.3333333333333,4,2,22,50,0,0
134649,-83.3333333333333,4,2,22,55,0,0
134983,-83.3333333333333,4,2,22,60,0,0
135399,-83.3333333333333,4,2,21,60,0,0
135649,-83.3333333333333,4,2,22,60,0,0
135983,-83.3333333333333,4,2,21,65,0,0
136233,-83.3333333333333,4,2,22,65,0,0
136649,-83.3333333333333,4,2,52,75,0,1
136816,-83.3333333333333,4,2,53,75,0,1
136983,-83.3333333333333,4,2,22,75,0,1
137149,-83.3333333333333,4,2,53,75,0,1
137316,-83.3333333333333,4,2,153,75,0,1
137321,-83.3333333333333,4,2,20,75,0,1
137482,-83.3333333333333,4,2,53,75,0,1
137649,-83.3333333333333,4,2,22,75,0,1
137816,-83.3333333333333,4,2,53,75,0,1
137899,-83.3333333333333,4,2,20,75,0,1
137983,-83.3333333333333,4,2,54,75,0,1
138149,-83.3333333333333,4,2,53,75,0,1
138316,-83.3333333333333,4,2,22,75,0,1
138483,-83.3333333333333,4,2,53,75,0,1
138566,-83.3333333333333,4,2,20,75,0,1
138649,-83.3333333333333,4,2,55,75,0,1
138815,-83.3333333333333,4,2,53,75,0,1
138983,-83.3333333333333,4,2,22,75,0,1
139149,-83.3333333333333,4,2,53,75,0,1
139316,-83.3333333333333,4,2,56,75,0,1
139483,-83.3333333333333,4,2,53,75,0,1
139649,-83.3333333333333,4,2,22,75,0,1
139816,-83.3333333333333,4,2,53,75,0,1
139983,-83.3333333333333,4,2,57,75,0,1
140149,-83.3333333333333,4,2,53,75,0,1
140316,-83.3333333333333,4,2,58,75,0,1
140483,-83.3333333333333,4,2,59,75,0,1
140566,-83.3333333333333,4,2,60,75,0,1
140649,-83.3333333333333,4,2,61,75,0,1
140816,-83.3333333333333,4,2,158,75,0,1
140821,-83.3333333333333,4,2,53,75,0,1
140983,-83.3333333333333,4,2,62,75,0,1
141149,-83.3333333333333,4,2,53,75,0,1
141315,-83.3333333333333,4,2,63,75,0,1
141483,-83.3333333333333,4,2,53,75,0,1
141649,-83.3333333333333,4,2,64,75,0,1
141816,-83.3333333333333,4,2,53,75,0,1
141899,-83.3333333333333,4,2,20,75,0,1
141983,-83.3333333333333,4,2,65,75,0,1
142149,-83.3333333333333,4,2,53,75,0,1
142316,-83.3333333333333,4,2,22,75,0,1
142483,-83.3333333333333,4,2,53,75,0,1
142649,-83.3333333333333,4,2,20,75,0,1
142816,-83.3333333333333,4,2,66,75,0,1
142982,-83.3333333333333,4,2,67,75,0,1
143149,-83.3333333333333,4,2,68,75,0,1
143316,-83.3333333333333,4,2,162,75,0,1
143321,-83.3333333333333,4,2,69,75,0,1
143482,-83.3333333333333,4,2,53,75,0,1
143649,-83.3333333333333,4,2,22,75,0,1
143816,-83.3333333333333,4,2,53,75,0,1
143983,-83.3333333333333,4,2,70,75,0,1
144150,-83.3333333333333,4,2,158,75,0,1
144155,-83.3333333333333,4,2,53,75,0,1
144316,-83.3333333333333,4,2,22,75,0,1
144483,-83.3333333333333,4,2,53,75,0,1
144566,-83.3333333333333,4,2,20,75,0,1
144649,-83.3333333333333,4,2,71,75,0,1
144816,-83.3333333333333,4,2,53,75,0,1
144983,-83.3333333333333,4,2,22,75,0,1
145150,-83.3333333333333,4,2,158,75,0,1
145155,-83.3333333333333,4,2,53,75,0,1
145316,-83.3333333333333,4,2,72,75,0,1
145483,-83.3333333333333,4,2,73,75,0,1
145649,-83.3333333333333,4,2,22,75,0,1
145816,-83.3333333333333,4,2,74,75,0,1
146149,-83.3333333333333,4,2,75,75,0,1
146316,-83.3333333333333,4,2,49,75,0,1
146483,-83.3333333333333,4,2,94,75,0,1
146566,-83.3333333333333,4,2,22,75,0,1
146649,-83.3333333333333,4,2,95,75,0,1
146816,-83.3333333333333,4,2,96,75,0,1
146899,-83.3333333333333,4,2,78,75,0,1
147149,-83.3333333333333,4,2,79,75,0,1
147316,-83.3333333333333,4,2,52,75,0,1
147482,-83.3333333333333,4,2,53,75,0,1
147566,-83.3333333333333,4,2,49,75,0,1
147816,-83.3333333333333,4,2,53,75,0,1
147983,-83.3333333333333,4,2,153,75,0,1
147988,-83.3333333333333,4,2,20,75,0,1
148149,-83.3333333333333,4,2,53,75,0,1
148316,-83.3333333333333,4,2,22,75,0,1
148483,-83.3333333333333,4,2,53,75,0,1
148649,-83.3333333333333,4,2,80,75,0,1
148816,-83.3333333333333,4,2,53,75,0,1
148983,-83.3333333333333,4,2,81,75,0,1
149149,-83.3333333333333,4,2,53,75,0,1
149315,-83.3333333333333,4,2,82,75,0,1
149483,-83.3333333333333,4,2,53,75,0,1
149649,-83.3333333333333,4,2,83,75,0,1
149816,-83.3333333333333,4,2,53,75,0,1
149983,-83.3333333333333,4,2,84,75,0,1
150150,-83.3333333333333,4,2,158,75,0,1
150155,-83.3333333333333,4,2,53,75,0,1
150316,-83.3333333333333,4,2,22,75,0,1
150482,-83.3333333333333,4,2,53,75,0,1
150649,-83.3333333333333,4,2,85,75,0,1
150816,-83.3333333333333,4,2,86,75,0,1
150983,-83.3333333333333,4,2,87,75,0,1
151149,-83.3333333333333,4,2,88,75,0,1
151233,-83.3333333333333,4,2,20,75,0,1
151316,-83.3333333333333,4,2,22,75,0,1
151482,-83.3333333333333,4,2,53,75,0,1
151649,-83.3333333333333,4,2,97,75,0,1
151816,-83.3333333333333,4,2,53,75,0,1
151983,-83.3333333333333,4,2,90,75,0,1
152149,-83.3333333333333,4,2,53,75,0,1
152233,-83.3333333333333,4,2,20,75,0,1
152316,-83.3333333333333,4,2,83,75,0,1
152483,-83.3333333333333,4,2,53,75,0,1
152649,-83.3333333333333,4,2,91,75,0,1
152816,-83.3333333333333,4,2,150,75,0,1
152821,-83.3333333333333,4,2,20,75,0,1
152983,-83.3333333333333,4,2,92,75,0,1
153149,-83.3333333333333,4,2,22,75,0,1
153316,-83.3333333333333,4,2,93,75,0,1
153483,-83.3333333333333,4,2,22,75,0,1
153649,-83.3333333333333,4,2,92,75,0,1
153816,-83.3333333333333,4,2,20,75,0,1
153983,-83.3333333333333,4,2,49,75,0,1
155316,-83.3333333333333,4,2,49,40,0,0
165983,-125,4,2,26,50,0,0
166316,-125,4,2,98,50,0,0
166483,-125,4,2,26,50,0,0
166649,-125,4,2,27,50,0,0
166982,-125,4,2,98,50,0,0
167149,-125,4,2,26,50,0,0
167983,-125,4,2,27,50,0,0
168316,-125,4,2,26,50,0,0
168982,-125,4,2,98,50,0,0
169149,-125,4,2,26,50,0,0
169316,-125,4,2,27,50,0,0
169649,-125,4,2,26,50,0,0
169983,-125,4,2,98,50,0,0
170150,-125,4,2,163,50,0,0
170155,-125,4,2,27,50,0,0
170316,-125,4,2,26,50,0,0
170649,-125,4,2,27,50,0,0
170816,-125,4,2,26,50,0,0
170983,-125,4,2,98,50,0,0
171149,-125,4,2,27,50,0,0
171316,-125,4,2,26,50,0,0
171649,-125,4,2,98,50,0,0
171816,-125,4,2,26,50,0,0
171983,-125,4,2,27,50,0,0
172316,-125,4,2,98,50,0,0
172483,-125,4,2,26,50,0,0
172816,-125,4,2,164,50,0,0
172821,-125,4,2,26,50,0,0
173315,-125,4,2,27,50,0,0
173649,-125,4,2,26,50,0,0
174316,-125,4,2,98,50,0,0
174483,-125,4,2,26,50,0,0
174649,-125,4,2,27,50,0,0
174983,-125,4,2,26,50,0,0
175316,-125,4,2,98,50,0,0
175483,-125,4,2,163,50,0,0
175488,-125,4,2,27,50,0,0
175649,-125,4,2,26,50,0,0
175983,-125,4,2,27,50,0,0
176150,-125,4,2,164,50,0,0
176155,-125,4,2,26,50,0,0
176316,-125,4,2,98,50,0,0
176483,-125,4,2,27,50,0,0
176649,-111.111111111111,4,2,27,60,0,0
176983,-111.111111111111,4,2,20,60,0,0
177316,-111.111111111111,4,2,27,60,0,0
177566,-111.111111111111,4,2,20,60,0,0
178150,-111.111111111111,4,2,153,60,0,0
178155,-111.111111111111,4,2,20,60,0,0
178649,-111.111111111111,4,2,27,60,0,0
178983,-111.111111111111,4,2,20,60,0,0
179149,-111.111111111111,4,2,20,60,0,0
179816,-111.111111111111,4,2,153,60,0,0
179821,-111.111111111111,4,2,20,60,0,0
179983,-111.111111111111,4,2,27,60,0,0
180316,-111.111111111111,4,2,20,60,0,0
180483,-111.111111111111,4,2,20,60,0,0
181316,-111.111111111111,4,2,27,60,0,0
181649,-111.111111111111,4,2,20,60,0,0
181815,-111.111111111111,4,2,20,60,0,0
182150,-111.111111111111,4,2,153,60,0,0
182155,-111.111111111111,4,2,20,60,0,0
182649,-111.111111111111,4,2,27,60,0,0
182816,-111.111111111111,4,2,153,60,0,0
182821,-111.111111111111,4,2,27,60,0,0
182899,-111.111111111111,4,2,20,60,0,0
183983,-111.111111111111,4,2,27,60,0,0
184150,-111.111111111111,4,2,153,60,0,0
184155,-111.111111111111,4,2,27,60,0,0
184316,-111.111111111111,4,2,20,60,0,0
184483,-111.111111111111,4,2,20,60,0,0
185150,-111.111111111111,4,2,153,60,0,0
185155,-111.111111111111,4,2,20,60,0,0
185316,-111.111111111111,4,2,27,60,0,0
185566,-111.111111111111,4,2,20,60,0,0
186150,-111.111111111111,4,2,153,60,0,0
186155,-111.111111111111,4,2,20,60,0,0
186649,-111.111111111111,4,2,27,60,0,0
186983,-111.111111111111,4,2,20,60,0,0
187150,-111.111111111111,4,3,150,60,0,0
187155,-111.111111111111,4,2,20,60,0,0
187316,-111.111111111111,4,2,26,60,0,0
187983,-111.111111111111,4,2,27,60,0,0
188316,-111.111111111111,4,2,26,50,0,0
188649,-166.666666666666,4,2,9,50,0,0
189983,-166.666666666666,4,2,22,50,0,0
191983,-166.666666666666,4,2,22,60,0,0
192483,-100,4,2,20,60,0,0
192649,-83.3333333333333,4,2,99,75,0,1
192815,-83.3333333333333,4,2,53,75,0,1
192983,-83.3333333333333,4,2,22,75,0,1
193149,-83.3333333333333,4,2,53,75,0,1
193316,-83.3333333333333,4,2,153,75,0,1
193321,-83.3333333333333,4,2,20,75,0,1
193482,-83.3333333333333,4,2,53,75,0,1
193649,-83.3333333333333,4,2,22,75,0,1
193815,-83.3333333333333,4,2,53,75,0,1
193899,-83.3333333333333,4,2,20,75,0,1
193983,-83.3333333333333,4,2,100,75,0,1
194149,-83.3333333333333,4,2,53,75,0,1
194316,-83.3333333333333,4,2,22,75,0,1
194483,-83.3333333333333,4,2,53,75,0,1
194566,-83.3333333333333,4,2,20,75,0,1
194649,-83.3333333333333,4,2,101,75,0,1
194816,-83.3333333333333,4,2,53,75,0,1
194983,-83.3333333333333,4,2,22,75,0,1
195149,-83.3333333333333,4,2,53,75,0,1
195233,-83.3333333333333,4,2,20,75,0,1
195316,-83.3333333333333,4,2,102,75,0,1
195483,-83.3333333333333,4,2,53,75,0,1
195649,-83.3333333333333,4,2,22,75,0,1
195816,-83.3333333333333,4,2,53,75,0,1
195983,-83.3333333333333,4,2,103,75,0,1
196149,-83.3333333333333,4,2,53,75,0,1
196316,-83.3333333333333,4,2,104,75,0,1
196483,-83.3333333333333,4,2,105,75,0,1
196566,-83.3333333333333,4,2,106,75,0,1
196649,-83.3333333333333,4,2,107,75,0,1
196816,-83.3333333333333,4,2,158,75,0,1
196821,-83.3333333333333,4,2,53,75,0,1
196983,-83.3333333333333,4,2,108,75,0,1
197149,-83.3333333333333,4,2,53,75,0,1
197316,-83.3333333333333,4,2,109,75,0,1
197483,-83.3333333333333,4,2,53,75,0,1
197649,-83.3333333333333,4,2,110,75,0,1
197816,-83.3333333333333,4,2,53,75,0,1
197899,-83.3333333333333,4,2,20,75,0,1
197983,-83.3333333333333,4,2,111,75,0,1
198149,-83.3333333333333,4,2,53,75,0,1
198316,-83.3333333333333,4,2,22,75,0,1
198483,-83.3333333333333,4,2,53,75,0,1
198649,-83.3333333333333,4,2,20,75,0,1
198816,-83.3333333333333,4,2,112,75,0,1
198982,-83.3333333333333,4,2,113,75,0,1
199149,-83.3333333333333,4,2,114,75,0,1
199316,-83.3333333333333,4,2,165,75,0,1
199321,-83.3333333333333,4,2,115,75,0,1
199482,-83.3333333333333,4,2,53,75,0,1
199649,-83.3333333333333,4,2,22,75,0,1
199816,-83.3333333333333,4,2,53,75,0,1
199983,-83.3333333333333,4,2,116,75,0,1
200150,-83.3333333333333,4,2,158,75,0,1
200155,-83.3333333333333,4,2,53,75,0,1
200316,-83.3333333333333,4,2,22,75,0,1
200483,-83.3333333333333,4,2,53,75,0,1
200566,-83.3333333333333,4,2,20,75,0,1
200649,-83.3333333333333,4,2,117,75,0,1
200816,-83.3333333333333,4,2,53,75,0,1
200983,-83.3333333333333,4,2,22,75,0,1
201149,-83.3333333333333,4,2,53,75,0,1
201316,-83.3333333333333,4,2,118,75,0,1
201483,-83.3333333333333,4,2,119,75,0,1
201649,-83.3333333333333,4,2,22,75,0,1
201816,-83.3333333333333,4,2,120,75,0,1
202149,-83.3333333333333,4,2,121,75,0,1
202316,-83.3333333333333,4,2,49,75,0,1
202483,-83.3333333333333,4,2,122,75,0,1
202566,-83.3333333333333,4,2,22,75,0,1
202649,-83.3333333333333,4,2,123,75,0,1
202816,-83.3333333333333,4,2,124,75,0,1
202899,-83.3333333333333,4,2,125,75,0,1
203149,-83.3333333333333,4,2,126,75,0,1
203316,-83.3333333333333,4,2,99,75,0,1
203483,-83.3333333333333,4,2,53,75,0,1
203649,-83.3333333333333,4,2,22,75,0,1
203816,-83.3333333333333,4,2,53,75,0,1
203982,-83.3333333333333,4,2,20,75,0,1
204149,-83.3333333333333,4,2,53,75,0,1
204316,-83.3333333333333,4,2,22,75,0,1
204482,-83.3333333333333,4,2,53,75,0,1
204649,-83.3333333333333,4,2,127,75,0,1
204816,-83.3333333333333,4,2,53,75,0,1
204983,-83.3333333333333,4,2,128,75,0,1
205149,-83.3333333333333,4,2,53,75,0,1
205316,-83.3333333333333,4,2,166,75,0,1
205321,-83.3333333333333,4,2,129,75,0,1
205482,-83.3333333333333,4,2,53,75,0,1
205649,-83.3333333333333,4,2,130,75,0,1
205816,-83.3333333333333,4,2,53,75,0,1
205899,-83.3333333333333,4,2,20,75,0,1
205983,-83.3333333333333,4,2,131,75,0,1
206149,-83.3333333333333,4,2,53,75,0,1
206316,-83.3333333333333,4,2,22,75,0,1
206483,-83.3333333333333,4,2,53,75,0,1
206649,-83.3333333333333,4,2,132,75,0,1
206816,-83.3333333333333,4,2,133,75,0,1
206983,-83.3333333333333,4,2,134,75,0,1
207149,-83.3333333333333,4,2,135,75,0,1
207233,-83.3333333333333,4,2,20,75,0,1
207316,-83.3333333333333,4,2,22,75,0,1
207482,-83.3333333333333,4,2,53,75,0,1
207649,-83.3333333333333,4,2,136,75,0,1
207816,-83.3333333333333,4,2,53,75,0,1
207982,-83.3333333333333,4,2,137,75,0,1
208149,-83.3333333333333,4,2,53,75,0,1
208316,-83.3333333333333,4,2,130,75,0,1
208399,-83.3333333333333,4,2,27,75,0,1
208649,-111.111111111111,4,2,138,75,0,1
208816,-111.111111111111,4,2,150,75,0,1
208821,-111.111111111111,4,2,20,75,0,1
208982,-111.111111111111,4,2,139,75,0,1
209149,-111.111111111111,4,2,22,75,0,1
209316,-111.111111111111,4,2,139,75,0,1
209483,-111.111111111111,4,2,152,75,0,1
209488,-111.111111111111,4,2,22,75,0,1
209649,-111.111111111111,4,2,139,75,0,1
209816,-111.111111111111,4,2,20,75,0,1
209983,-111.111111111111,4,2,49,75,0,1
210649,-83.3333333333333,4,2,49,75,0,1
210983,-83.3333333333333,4,2,21,75,0,1
211316,-83.3333333333333,4,2,22,75,0,1
211483,-83.3333333333333,4,2,153,75,0,1
211488,-83.3333333333333,4,2,22,75,0,1
212649,-83.3333333333333,4,2,49,75,0,1
212816,-83.3333333333333,4,2,22,75,0,1
213316,-83.3333333333333,4,2,49,75,0,1
213483,-83.3333333333333,4,2,22,75,0,1
213983,-83.3333333333333,4,2,49,75,0,1
214149,-83.3333333333333,4,2,22,75,0,1
215316,-83.3333333333333,4,2,49,75,0,1
215483,-83.3333333333333,4,2,22,75,0,1
215983,-83.3333333333333,4,2,49,75,0,1
216149,-83.3333333333333,4,2,22,75,0,1
216816,-83.3333333333333,4,2,153,75,0,1
216821,-83.3333333333333,4,2,22,75,0,1
217983,-83.3333333333333,4,2,49,75,0,1
218149,-83.3333333333333,4,2,22,75,0,1
218649,-83.3333333333333,4,2,49,75,0,1
218816,-83.3333333333333,4,2,22,75,0,1
219649,-83.3333333333333,4,2,49,75,0,1
219816,-83.3333333333333,4,2,22,75,0,1
221316,-83.3333333333333,4,2,21,75,0,1
221483,-83.3333333333333,4,2,22,75,0,1
221649,-83.3333333333333,4,2,21,75,0,1
221983,-90.9090909090909,4,2,22,70,0,0
222150,-90.9090909090909,4,2,151,70,0,0
222155,-90.9090909090909,4,2,21,70,0,0
222316,-90.9090909090909,4,2,22,70,0,0
222483,-90.9090909090909,4,2,21,70,0,0
222649,-90.9090909090909,4,2,22,70,0,0
222815,-90.9090909090909,4,2,21,70,0,0
222983,-90.9090909090909,4,2,49,70,0,0
223149,-90.9090909090909,4,2,21,70,0,0
223316,-90.9090909090909,4,2,22,70,0,0
223483,-90.9090909090909,4,2,151,70,0,0
223488,-90.9090909090909,4,2,21,70,0,0
223649,-90.9090909090909,4,2,22,70,0,0
223816,-90.9090909090909,4,2,21,70,0,0
223983,-90.9090909090909,4,2,22,70,0,0
224149,-90.9090909090909,4,2,21,70,0,0
224316,-90.9090909090909,4,2,49,70,0,0
224483,-90.9090909090909,4,2,21,70,0,0
224649,-90.9090909090909,4,2,22,70,0,0
224816,-90.9090909090909,4,2,151,70,0,0
224821,-90.9090909090909,4,2,21,70,0,0
224983,-90.9090909090909,4,2,22,70,0,0
225149,-90.9090909090909,4,2,21,70,0,0
225316,-90.9090909090909,4,2,22,70,0,0
225483,-90.9090909090909,4,2,21,70,0,0
225649,-90.9090909090909,4,2,49,70,0,0
225816,-90.9090909090909,4,2,21,70,0,0
225983,-90.9090909090909,4,2,152,70,0,0
225988,-90.9090909090909,4,2,22,70,0,0
226149,-90.9090909090909,4,2,21,70,0,0
226316,-90.9090909090909,4,2,22,70,0,0
226482,-90.9090909090909,4,2,21,70,0,0
226649,-90.9090909090909,4,2,22,70,0,0
227316,-90.9090909090909,4,2,49,70,0,0
227483,-90.9090909090909,4,2,153,70,0,0
227488,-90.9090909090909,4,2,20,70,0,0
227649,-90.9090909090909,4,2,49,70,0,0
227815,-90.9090909090909,4,2,20,70,0,0
227983,-90.9090909090909,4,2,49,70,0,0
228149,-90.9090909090909,4,2,20,70,0,0
228316,-90.9090909090909,4,2,49,70,0,0
228483,-90.9090909090909,4,2,20,70,0,0
228649,-90.9090909090909,4,2,49,70,0,0
228815,-90.9090909090909,4,2,20,70,0,0
228983,-90.9090909090909,4,2,49,70,0,0
229149,-90.9090909090909,4,2,20,70,0,0
229316,-90.9090909090909,4,2,49,70,0,0
229483,-90.9090909090909,4,2,20,70,0,0
229649,-90.9090909090909,4,2,49,70,0,0
229815,-90.9090909090909,4,2,20,70,0,0
229983,-90.9090909090909,4,2,49,70,0,0
230316,-90.9090909090909,4,2,20,70,0,0
230483,-90.9090909090909,4,2,49,70,0,0
230816,-90.9090909090909,4,2,22,70,0,0
232649,-90.9090909090909,4,2,21,70,0,0
232983,333.333333333333,4,2,22,70,1,0
234316,-100,4,2,12,60,0,0
235649,-100,4,2,12,50,0,0
236983,-100,4,2,12,40,0,0
237649,-100,4,2,12,30,0,0
238316,-100,4,2,12,20,0,0
238649,-100,4,2,12,10,0,0
238983,-100,4,2,12,5,0,0

[Colours]
Combo1 : 203,180,137
Combo2 : 227,230,157
Combo3 : 244,191,159

[HitObjects]
477,64,650,5,2,2:1:0:0:
384,102,816,1,0,2:0:0:0:
345,9,983,1,0,2:0:0:0:
380,121,1149,6,1,L|352:255,1,137.700000000001,0|0,2:0|2:0,0:0:0:0:
431,323,1649,2,1,L|503:307,1,68.8500000000003,0|0,2:0|2:0,2:0:0:0:
351,255,1983,5,2,2:1:0:0:
303,341,2149,2,1,P|230:352|167:366,1,137.700000000001,0|0,2:0|2:0,2:0:0:0:
167,365,2649,1,2,2:2:0:0:
72,329,2983,1,0,2:0:0:0:
130,209,3316,6,1,P|140:242|147:280,1,68.8500000000003,2|0,2:1|2:0,2:0:0:0:
224,218,3649,1,0,2:0:0:0:
45,172,3816,2,1,P|113:172|169:128,1,137.700000000001,0|0,2:0|2:0,0:0:0:0:
284,23,4316,2,1,P|273:61|266:94,1,68.8500000000003,0|0,2:0|2:0,2:0:0:0:
192,33,4649,5,2,2:1:0:0:
248,176,4816,2,1,P|315:158|383:144,1,137.700000000001,0|0,2:0|2:0,2:0:0:0:
464,4,5316,2,1,P|455:37|445:70,1,68.8500000000003,2|2,2:2|2:3,2:0:0:0:
444,70,5566,1,2,2:3:0:0:
444,70,5649,1,2,2:3:0:0:
481,203,5816,1,0,2:0:0:0:
400,311,5983,6,1,B|333:293|333:293|281:308,1,109.35,14|0,2:1|2:0,2:0:0:0:
276,309,6316,2,1,L|293:239,1,72.9000000000001,8|0,2:1|2:0,2:0:0:0:
244,51,6649,2,1,L|227:121,1,72.9000000000001,8|0,3:3|2:0,2:0:0:0:
219,149,6899,1,8,2:2:0:0:
218,149,6983,2,1,L|303:130,1,72.9000000000001,8|8,2:1|3:3,2:0:0:0:
34,95,7316,6,1,B|10:166|10:166|29:209,1,109.35,10|0,2:1|2:0,2:0:0:0:
40,228,7649,2,1,L|120:210,1,72.9000000000001,8|0,2:1|2:0,2:0:0:0:
243,295,7983,1,8,3:3:0:0:
135,343,8149,1,8,3:3:0:0:
243,295,8316,2,1,B|257:261|257:261|246:220,1,72.9000000000001,8|0,3:1|2:0,2:0:0:0:
203,44,8649,6,1,L|287:60,1,72.9000000000001,10|0,2:1|2:0,2:0:0:0:
334,160,8983,2,1,L|418:176,1,72.9000000000001,10|0,2:1|2:0,2:0:0:0:
247,226,9316,6,1,P|248:183|239:142,1,72.9000000000001,10|0,2:1|2:0,2:0:0:0:
358,0,9649,2,1,P|357:43|366:84,1,72.9000000000001,10|0,2:1|2:0,2:0:0:0:
471,227,9983,2,1,L|508:218,1,36.45,8|0,2:1|2:0,2:0:0:0:
429,343,10149,5,8,2:2:0:0:
407,309,10233,1,8,2:2:0:0:
371,298,10316,1,8,2:2:0:0:
332,298,10399,1,8,2:2:0:0:
299,316,10483,1,8,2:2:0:0:
262,314,10566,1,8,2:2:0:0:
229,294,10649,6,1,L|219:249,1,38.4749999999999,10|0,2:2|2:0,2:0:0:0:
259,175,10816,2,1,L|249:130,1,38.4749999999999,2|0,2:2|2:0,2:0:0:0:
348,202,10983,6,1,L|390:211,1,38.4749999999999,2|0,2:2|2:0,2:0:0:0:
469,136,11149,2,1,L|431:127,1,38.4749999999999,2|0,2:2|2:0,2:0:0:0:
264,10,11316,6,1,P|197:44|120:44,1,153.9,14|8,2:2|2:2,0:0:0:0:
19,142,11816,1,2,2:3:0:0:
133,212,11983,2,1,L|115:131,1,76.9499999999999,10|2,2:2|2:3,2:0:0:0:
261,220,12316,1,8,2:2:0:0:
366,117,12483,5,2,2:2:0:0:
366,117,12566,1,0,2:0:0:0:
366,117,12649,2,1,L|444:100,1,76.9499999999999,10|2,2:2|2:3,2:0:0:0:
317,298,12983,2,1,L|395:315,1,76.9499999999999,10|2,2:2|2:3,2:0:0:0:
491,184,13316,6,1,L|415:200,1,76.9499999999999,10|2,2:2|2:3,2:0:0:0:
306,49,13649,1,10,2:2:0:0:
261,222,13816,1,2,2:3:0:0:
45,165,13983,6,1,P|98:127|183:132,1,153.9,10|8,2:2|2:2,0:0:0:0:
261,222,14483,1,2,2:3:0:0:
376,57,14649,5,10,2:2:0:0:
209,118,14816,1,2,2:2:0:0:
373,180,14983,1,10,2:2:0:0:
272,35,15149,1,2,2:2:0:0:
170,222,15316,6,1,B|160:258|160:258|179:319,1,76.9499999999999,10|2,2:2|2:3,2:0:0:0:
259,347,15649,1,8,2:2:0:0:
121,384,15816,2,1,P|187:341|277:357,1,153.9,2|2,2:2|2:3,0:0:0:0:
353,291,16316,2,1,L|370:370,1,76.9499999999999,10|2,2:2|2:3,2:0:0:0:
500,169,16649,6,1,B|476:176|451:189|451:189|405:177|405:177|379:188|351:190,1,153.9,14|8,2:2|2:2,0:0:0:0:
176,35,17149,2,1,L|191:114,1,76.9499999999999,2|8,2:2|2:1,2:0:0:0:
223,236,17483,1,2,2:2:0:0:
303,76,17649,1,10,2:2:0:0:
123,193,17816,1,2,2:2:0:0:
313,297,17983,6,1,B|326:261|326:261|314:217,1,76.9499999999999,10|2,2:2|2:3,2:0:0:0:
155,307,18316,2,1,L|176:399,1,76.9499999999999,10|2,2:2|2:3,2:0:0:0:
223,236,18649,1,10,2:2:0:0:
159,100,18816,1,2,2:3:0:0:
48,210,18983,2,1,L|123:192,1,76.9499999999999,10|2,2:2|2:3,2:0:0:0:
306,1,19316,6,1,B|273:46|273:46|297:160,1,153.9,14|10,2:2|2:2,0:0:0:0:
285,319,19816,1,10,2:2:0:0:
423,148,19983,1,10,2:2:0:0:
456,352,20149,1,10,2:2:0:0:
223,236,20316,2,1,P|265:229|314:217,1,76.9499999999999,10|10,2:2|2:2,2:0:0:0:
444,62,20649,6,1,L|426:136,1,76.9499999999999,10|8,2:1|2:1,2:0:0:0:
236,0,20983,2,1,L|253:74,1,76.9499999999999,8|8,2:2|2:1,2:0:0:0:
144,272,21316,1,8,2:2:0:0:
41,76,21483,1,8,2:2:0:0:
220,159,21649,1,8,2:2:0:0:
16,225,21816,1,8,2:2:0:0:
125,122,21983,6,1,B|139:155|139:155|130:191,2,64.8,2|0|2,2:1|2:0|2:2,2:0:0:0:
55,83,22483,2,1,L|191:57,1,129.6,2|2,2:2|2:2,2:0:0:0:
246,13,22983,1,2,2:2:0:0:
301,186,23316,1,2,2:1:0:0:
434,143,23649,6,1,P|452:70|478:17,2,129.6,2|2|2,2:2|2:2|2:2,2:0:0:0:
465,279,24649,5,2,2:1:0:0:
376,258,24816,1,0,2:0:0:0:
396,345,24983,1,2,2:2:0:0:
460,291,25149,1,2,2:2:0:0:
364,265,25316,2,1,L|282:286,1,64.8,2|0,2:2|2:0,2:0:0:0:
205,301,25649,2,1,L|192:366,1,64.8,2|0,2:2|2:0,2:0:0:0:
301,281,25983,6,1,P|326:217|317:157,1,129.6,2|2,2:1|2:2,2:0:0:0:
267,97,26483,2,1,L|405:127,1,129.6,0|0,2:0|2:0,0:0:0:0:
434,22,26983,2,1,L|367:40,1,64.8,2|2,2:2|2:2,2:0:0:0:
200,13,27316,6,1,B|169:57|169:57|190:149,1,129.6,2|2,2:1|2:2,2:0:0:0:
238,193,27816,1,2,2:2:0:0:
238,193,27983,2,1,P|181:163|113:170,1,129.6,0|2,2:0|2:2,0:0:0:0:
59,222,28483,1,0,2:0:0:0:
0,170,28649,2,1,L|14:101,2,64.8,2|2|2,2:1|2:2|2:2,2:0:0:0:
68,374,29316,6,1,L|55:309,1,64.8,2|0,2:2|2:0,2:0:0:0:
138,238,29649,2,1,L|150:301,1,64.8,2|0,2:2|2:0,2:0:0:0:
216,367,29983,6,1,P|274:343|341:344,1,129.6,2|2,2:1|2:2,2:0:0:0:
409,299,30483,1,2,2:2:0:0:
332,261,30649,1,0,2:0:0:0:
408,380,30816,1,2,2:2:0:0:
498,317,30983,2,1,L|512:380,1,64.8,2|0,2:2|2:0,2:0:0:0:
444,224,31316,6,1,P|465:165|450:92,1,129.6,2|2,2:2|2:2,2:0:0:0:
505,38,31816,2,1,L|374:68,1,129.6,8|4,2:3|2:3,0:0:0:0:
301,16,32316,1,4,2:3:0:0:
253,128,32483,5,8,2:3:0:0:
253,128,32566,1,8,2:3:0:0:
253,128,32649,2,1,B|221:217|221:217|260:291,1,145.8,4|8,2:2|2:1,2:0:0:0:
328,290,33149,2,1,L|172:329,1,145.8,0|8,2:0|3:3,0:0:0:0:
96,287,33649,2,1,P|84:321|81:363,1,72.9000000000001,8|8,3:1|3:3,2:0:0:0:
0,201,33983,6,1,P|60:198|123:161,1,109.35,8|0,2:1|2:0,2:0:0:0:
122,162,34316,2,1,P|126:126|136:89,1,72.9000000000001,8|0,2:1|2:0,2:0:0:0:
239,2,34649,2,1,P|235:38|225:75,1,72.9000000000001,8|8,2:1|3:3,2:0:0:0:
286,146,34983,2,1,P|322:142|359:132,1,72.9000000000001,8|8,2:1|3:3,2:0:0:0:
504,239,35316,5,8,2:1:0:0:
410,205,35483,1,0,2:0:0:0:
476,143,35649,1,8,2:1:0:0:
512,227,35816,1,0,2:0:0:0:
439,298,35983,2,1,L|363:316,1,72.9000000000001,8|8,2:1|3:3,2:0:0:0:
312,368,36233,1,8,3:3:0:0:
312,368,36316,2,1,L|236:350,1,72.9000000000001,8|8,3:1|3:3,2:0:0:0:
307,248,36649,6,1,B|338:196|338:196|312:107,1,145.8,8|8,2:1|2:1,2:0:0:0:
389,10,37149,1,8,3:3:0:0:
449,75,37316,2,1,L|432:152,1,72.9000000000001,8|8,2:1|3:3,2:0:0:0:
310,100,37649,1,8,2:1:0:0:
235,173,37816,5,8,3:3:0:0:
235,173,37899,1,0,3:0:0:0:
235,173,37983,2,1,B|157:157|157:157|113:170,1,109.35,8|0,2:1|2:0,2:0:0:0:
111,170,38316,2,1,L|127:96,1,72.9000000000001,8|0,2:1|2:0,2:0:0:0:
66,294,38649,5,8,2:1:0:0:
164,252,38816,1,8,3:3:0:0:
164,252,38899,1,8,3:3:0:0:
164,252,38983,2,1,L|146:333,1,72.9000000000001,8|8,3:1|3:3,2:0:0:0:
265,363,39316,5,8,2:1:0:0:
350,333,39483,1,0,2:0:0:0:
281,275,39649,1,8,2:1:0:0:
296,186,39816,1,0,2:0:0:0:
436,225,39983,6,1,L|360:243,1,72.9000000000001,8|8,2:1|3:3,2:0:0:0:
250,109,40316,2,1,L|267:36,1,72.9000000000001,8|8,2:1|3:3,2:0:0:0:
481,101,40649,6,1,B|452:113|432:124|432:124|401:117|401:117|372:132|334:142,1,145.8,10|10,2:1|2:1,2:0:0:0:
345,138,41149,1,0,2:0:0:0:
142,85,41316,2,1,P|153:121|163:159,1,72.9000000000001,10|0,2:1|3:3,2:0:0:0:
246,267,41649,2,1,P|257:231|267:193,1,72.9000000000001,10|0,3:1|3:3,2:0:0:0:
173,339,41983,6,1,L|61:364,1,109.35,12|0,2:1|2:0,2:0:0:0:
46,366,42316,1,8,2:1:0:0:
187,242,42483,5,8,2:1:0:0:
187,242,42566,1,8,2:1:0:0:
187,242,42649,1,8,2:2:0:0:
11,174,42816,1,8,3:3:0:0:
74,279,42983,2,1,L|93:204,1,72.9000000000001,8|8,2:1|3:1,2:0:0:0:
180,43,43316,6,1,L|53:64,2,129.6,14|2|10,2:1|2:1|2:1,2:0:0:0:
331,163,44316,1,2,2:1:0:0:
245,140,44483,1,8,2:2:0:0:
267,223,44649,1,2,2:1:0:0:
303,80,44816,6,1,B|380:59|380:59|429:77,1,129.6,8|0,2:2|2:0,0:0:0:0:
494,17,45316,2,1,P|473:79|473:143,1,129.6,10|2,2:1|2:1,2:0:0:0:
383,316,45816,1,8,2:2:0:0:
472,254,45983,5,10,2:1:0:0:
355,216,46149,1,0,2:0:0:0:
461,246,46316,1,2,2:1:0:0:
384,329,46483,1,8,2:1:0:0:
266,299,46649,6,1,P|258:261|247:225,1,64.8,10|0,2:1|2:0,2:0:0:0:
355,216,46983,2,1,P|347:178|336:142,1,64.8,2|8,2:1|2:3,2:0:0:0:
271,91,47316,5,2,2:1:0:0:
341,36,47483,2,1,P|282:43|205:0,1,129.6,4|4,2:3|2:3,0:0:0:0:
148,109,47983,2,1,L|136:176,1,64.8,10|0,2:1|2:0,2:0:0:0:
51,125,48316,1,2,2:1:0:0:
225,156,48483,1,8,2:2:0:0:
57,227,48649,6,1,B|45:300|45:300|68:350,1,129.6,14|2,1:1|2:1,2:0:0:0:
165,278,49149,1,8,2:1:0:0:
217,380,49316,2,1,L|149:367,1,64.8,10|0,2:1|2:0,2:0:0:0:
256,285,49649,1,2,2:1:0:0:
306,354,49816,6,1,P|369:326|431:326,1,129.6,8|8,2:2|2:2,0:0:0:0:
486,266,50316,2,1,L|496:197,1,64.8,2|8,2:1|2:1,2:0:0:0:
368,104,50649,5,10,2:1:0:0:
394,188,50816,1,0,2:0:0:0:
451,125,50983,1,2,2:1:0:0:
425,41,51149,1,8,2:2:0:0:
278,17,51316,5,10,2:1:0:0:
269,125,51483,1,0,2:0:0:0:
268,29,51649,5,2,2:1:0:0:
283,117,51816,1,8,2:1:0:0:
185,82,51983,2,1,L|116:96,1,64.8,10|0,2:1|2:0,2:0:0:0:
24,39,52316,2,1,L|5:142,1,97.2,2|0,2:1|2:0,0:0:0:0:
3,154,52649,5,2,2:1:0:0:
75,214,52816,1,4,2:3:0:0:
152,157,52983,1,6,2:3:0:0:
197,259,53149,5,0,3:0:0:0:
197,259,53233,1,0,3:0:0:0:
197,259,53316,1,8,2:2:0:0:
84,226,53483,1,8,1:1:0:0:
98,321,53649,1,8,2:2:0:0:
100,336,53733,1,8,2:2:0:0:
103,352,53816,1,8,2:3:0:0:
106,368,53899,1,8,2:3:0:0:
109,384,53983,6,1,L|21:370,1,72.9000000000001,12|0,2:1|2:0,2:0:0:0:
220,236,54316,2,1,L|132:250,1,72.9000000000001,8|0,2:1|2:0,2:0:0:0:
308,374,54649,2,1,L|220:360,1,72.9000000000001,8|0,2:1|2:0,2:0:0:0:
381,171,54983,5,8,2:2:0:0:
381,171,55066,1,8,2:2:0:0:
381,171,55149,1,8,2:2:0:0:
381,171,55233,1,8,2:2:0:0:
381,171,55316,2,1,B|404:238|404:238|385:290,1,109.35,8|0,2:2|2:0,2:0:0:0:
412,294,55649,2,1,L|487:278,1,72.9000000000001,8|0,2:1|2:0,2:0:0:0:
315,235,55983,2,1,L|240:251,1,72.9000000000001,8|0,2:1|2:0,2:0:0:0:
443,25,56316,1,8,2:1:0:0:
439,42,56399,1,8,2:2:0:0:
435,60,56483,1,8,2:2:0:0:
432,78,56566,1,8,2:2:0:0:
428,94,56649,6,1,B|358:114|358:114|304:100,1,109.35,8|0,2:2|2:0,2:0:0:0:
304,100,56983,2,1,L|287:26,1,72.9000000000001,8|0,2:1|2:0,2:0:0:0:
210,176,57316,1,8,2:1:0:0:
182,44,57483,1,10,2:2:0:0:
124,222,57649,1,8,2:1:0:0:
78,5,57816,1,10,2:2:0:0:
0,124,57983,6,1,L|126:140,1,109.35,8|0,2:1|2:0,2:0:0:0:
107,150,58316,2,1,L|124:224,1,72.9000000000001,8|8,2:1|2:2,2:0:0:0:
255,302,58649,2,1,L|272:376,1,72.9000000000001,8|8,2:3|2:1,2:0:0:0:
340,183,58983,1,4,2:3:0:0:
158,310,59149,1,4,2:3:0:0:
358,359,59316,5,14,2:1:0:0:
220,209,59483,1,8,2:2:0:0:
224,178,59566,1,8,2:2:0:0:
229,148,59649,1,8,2:2:0:0:
234,118,59733,1,8,2:2:0:0:
238,88,59816,1,12,2:2:0:0:
478,72,59983,5,8,2:2:0:0:
463,101,60066,1,8,2:2:0:0:
433,121,60149,1,8,2:2:0:0:
397,122,60233,1,8,2:2:0:0:
368,110,60316,1,12,2:2:0:0:
242,310,60483,5,8,2:2:0:0:
274,287,60566,1,8,2:2:0:0:
317,280,60649,1,8,2:2:0:0:
357,295,60733,1,8,2:2:0:0:
378,330,60816,1,12,2:2:0:0:
494,203,60983,5,8,2:2:0:0:
494,203,61066,1,8,2:2:0:0:
494,203,61149,2,1,L|450:212,1,40.5,8|8,2:2|2:2,2:0:0:0:
272,67,61316,6,1,L|253:150,1,81,12|8,2:2|2:2,2:0:0:0:
326,224,61566,1,8,2:2:0:0:
340,217,61649,2,1,L|358:138,1,81,12|8,2:2|2:2,2:0:0:0:
463,24,61899,1,8,2:2:0:0:
456,36,61983,2,1,L|367:56,1,81,14|8,2:2|2:1,2:0:0:0:
170,86,62316,5,10,2:2:0:0:
358,138,62483,1,8,2:1:0:0:
170,86,62649,1,10,2:2:0:0:
345,256,62816,1,8,2:2:0:0:
121,222,62983,1,10,2:2:0:0:
280,47,63149,1,8,2:2:0:0:
192,320,63316,5,8,2:2:0:0:
207,318,63399,1,8,2:1:0:0:
223,323,63483,1,8,2:1:0:0:
237,330,63566,1,8,2:1:0:0:
247,343,63649,2,1,L|302:328,1,40.5,8|0,2:2|2:0,2:0:0:0:
496,204,63816,6,1,P|428:253|344:255,1,170.1,6|0,2:3|2:0,2:0:0:0:
344,255,64483,1,2,2:2:0:0:
235,27,64649,6,1,P|217:72|209:120,1,97.2,14|2,2:2|2:2,2:0:0:0:
129,54,64983,1,8,2:2:0:0:
291,185,65149,2,1,P|243:195|199:216,1,97.2,2|8,2:2|2:1,2:0:0:0:
21,157,65483,1,2,2:2:0:0:
199,216,65649,1,8,2:2:0:0:
99,358,65816,5,2,2:2:0:0:
99,358,65899,1,2,2:2:0:0:
99,358,65983,2,1,P|86:309|68:266,1,97.2,10|2,2:2|2:2,2:0:0:0:
227,135,66316,1,8,2:2:0:0:
182,307,66483,1,2,2:2:0:0:
330,222,66649,2,1,B|368:230|398:248|398:248|447:233|447:233|486:255|521:256,1,194.4,10|8,2:2|2:2,0:0:0:0:
390,54,67149,5,2,2:2:0:0:
390,54,67233,1,2,2:2:0:0:
390,54,67316,2,1,P|389:105|402:154,1,97.2,10|2,2:2|2:2,2:0:0:0:
286,384,67649,2,1,P|287:333|274:284,1,97.2,8|2,2:2|2:2,2:0:0:0:
204,118,67983,5,10,2:2:0:0:
357,224,68149,1,2,2:2:0:0:
204,118,68316,1,10,2:2:0:0:
152,286,68483,5,2,2:2:0:0:
152,286,68566,1,2,2:2:0:0:
152,286,68649,2,1,B|107:309|107:309|41:304,1,97.2,10|2,2:2|2:2,2:0:0:0:
204,118,68983,2,1,L|230:231,1,97.2,10|2,2:2|2:2,2:0:0:0:
252,340,69316,1,10,2:2:0:0:
419,194,69483,1,2,2:2:0:0:
365,384,69649,1,10,2:2:0:0:
502,299,69816,5,2,2:2:0:0:
502,299,69899,1,0,2:0:0:0:
502,299,69983,2,1,B|454:283|454:283|404:297,1,97.2,14|2,2:2|2:2,2:0:0:0:
225,212,70316,1,8,2:2:0:0:
434,116,70483,1,2,2:2:0:0:
217,52,70649,5,8,2:1:0:0:
343,230,70816,1,2,2:2:0:0:
356,19,70983,1,10,2:2:0:0:
149,142,71149,5,2,2:2:0:0:
149,142,71233,1,2,2:2:0:0:
149,142,71316,2,1,P|98:132|50:116,1,97.2,10|2,2:2|2:2,2:0:0:0:
200,47,71649,1,8,2:2:0:0:
136,229,71816,1,2,2:2:0:0:
298,117,71983,6,1,B|340:131|340:131|381:125|381:125|438:159|492:149,1,194.4,10|8,2:2|2:2,0:0:0:0:
270,353,72483,5,2,2:2:0:0:
270,353,72566,1,2,2:2:0:0:
270,353,72649,1,10,2:2:0:0:
239,249,72816,1,2,2:2:0:0:
205,144,72983,1,8,2:2:0:0:
351,281,73149,1,2,2:2:0:0:
158,370,73316,6,1,L|170:316,1,48.6,10|0,2:2|2:0,2:0:0:0:
321,193,73483,2,1,P|372:181|416:165,1,97.2,10|8,2:2|2:2,2:0:0:0:
84,271,73816,6,1,P|27:196|47:89,1,194.4,14|10,2:2|2:2,2:0:0:0:
209,14,74316,1,10,2:2:0:0:
157,171,74483,1,14,2:2:0:0:
157,171,74566,1,8,2:2:0:0:
157,171,74649,2,1,L|170:219,1,48.6,10|0,2:2|2:0,2:0:0:0:
268,143,74816,2,1,L|281:95,1,48.6,10|8,2:2|2:2,2:0:0:0:
336,290,74983,2,1,L|388:309,1,48.6,10|8,2:2|2:2,2:0:0:0:
451,158,75149,2,1,L|396:173,1,48.6,10|8,2:2|2:2,2:0:0:0:
233,340,75316,6,1,P|244:286|259:234,1,97.2,14|2,2:2|2:2,2:0:0:0:
88,80,75649,1,8,2:2:0:0:
32,192,75816,2,1,L|129:169,1,97.2,2|8,2:2|2:1,2:0:0:0:
320,131,76149,1,2,2:2:0:0:
203,26,76316,1,8,2:2:0:0:
228,219,76483,1,2,2:2:0:0:
394,7,76649,6,1,P|443:21|496:33,1,97.2,10|2,2:2|2:2,2:0:0:0:
389,230,76983,1,10,2:2:0:0:
490,167,77149,2,1,P|415:113|303:145,1,194.4,2|2,2:2|2:2,0:0:0:0:
188,246,77649,1,10,2:2:0:0:
118,133,77816,5,2,2:2:0:0:
118,133,77899,1,2,2:2:0:0:
118,133,77983,1,10,2:2:0:0:
278,207,78149,1,2,2:2:0:0:
218,20,78316,2,1,B|200:59|200:59|221:142,1,97.2,8|2,2:2|2:2,2:0:0:0:
34,277,78649,6,1,B|86:296|86:296|131:284|131:284|164:311|236:311,1,194.4,10|10,2:2|2:2,0:0:0:0:
384,182,79149,1,2,2:2:0:0:
294,384,79316,5,10,2:1:0:0:
237,188,79483,1,2,2:2:0:0:
453,252,79649,1,10,2:2:0:0:
321,290,79816,5,2,2:2:0:0:
321,290,79899,1,2,2:2:0:0:
321,290,79983,1,10,2:2:0:0:
500,151,80149,1,2,2:2:0:0:
304,61,80316,1,10,2:2:0:0:
384,182,80483,1,2,2:2:0:0:
282,373,80649,6,1,L|121:348,1,145.8,14|0,2:2|2:0,0:0:0:0:
114,343,80983,1,14,2:2:0:0:
256,276,81149,1,8,2:1:0:0:
76,220,81316,1,14,2:2:0:0:
288,140,81483,1,10,2:1:0:0:
288,140,81566,1,8,2:1:0:0:
288,140,81649,1,14,2:2:0:0:
40,96,81816,1,8,2:1:0:0:
137,350,81983,5,10,2:2:0:0:
228,56,82149,1,10,2:2:0:0:
228,56,83316,6,1,B|284:43|284:43|325:64,1,97.2,8|0,3:1|2:0,2:0:0:0:
328,64,83649,2,1,P|364:59|394:50,1,64.8,8|0,2:1|2:0,2:0:0:0:
501,143,83983,2,1,P|492:111|488:79,1,64.8,8|0,2:1|2:0,2:0:0:0:
399,137,84316,2,1,P|407:168|411:200,1,64.8,8|0,2:1|3:3,2:0:0:0:
411,200,84566,1,0,3:3:0:0:
411,200,84649,5,8,2:1:0:0:
372,294,84816,2,1,P|419:300|456:313,1,64.8,0|8,2:0|2:1,2:0:0:0:
328,203,85149,2,1,P|277:238|207:238,1,129.6,0|0,2:0|3:3,0:0:0:0:
79,227,85649,2,1,P|89:254|96:295,1,64.8,8|0,2:1|3:3,2:0:0:0:
7,187,85983,6,1,P|85:184|142:138,1,129.6,10|8,2:1|2:1,2:0:0:0:
280,48,86483,1,0,2:0:0:0:
194,14,86649,6,1,L|178:88,1,64.8,8|0,2:1|3:3,2:0:0:0:
235,147,86899,1,0,3:3:0:0:
235,147,86983,2,1,L|316:132,1,64.8,8|0,2:1|2:0,2:0:0:0:
477,41,87316,6,1,L|444:157,1,97.2,10|0,2:1|2:0,2:0:0:0:
444,157,87649,2,1,L|510:144,1,64.8,10|0,2:1|2:0,2:0:0:0:
415,250,87983,5,10,2:1:0:0:
511,326,88149,1,0,3:3:0:0:
369,372,88316,2,1,B|311:358|311:358|257:381,1,97.2,14|0,2:3|2:0,2:0:0:0:
254,384,88649,6,1,L|288:241,1,145.8,14|8,2:1|1:1,2:0:0:0:
246,114,89149,1,8,2:2:0:0:
392,172,89316,2,1,L|480:152,1,72.9000000000001,8|8,1:1|2:2,2:0:0:0:
351,54,89649,1,8,1:1:0:0:
287,242,89816,1,8,2:2:0:0:
120,150,89983,5,8,1:1:0:0:
158,314,90149,2,1,P|167:278|178:243,1,72.9000000000001,8|8,2:2|1:1,2:0:0:0:
39,112,90483,1,8,2:2:0:0:
103,10,90649,5,8,1:1:0:0:
49,205,90816,1,8,2:2:0:0:
227,122,90983,2,1,L|210:46,1,72.9000000000001,8|8,1:1|2:2,2:0:0:0:
420,227,91316,6,1,B|405:265|405:265|414:301|414:301|386:341|398:398,1,162,12|8,1:1|1:1,0:0:0:0:
496,275,91816,1,8,2:2:0:0:
354,149,91983,2,1,P|394:139|436:124,1,81,8|8,1:1|2:2,2:0:0:0:
347,52,92316,1,8,1:1:0:0:
278,236,92483,1,8,2:2:0:0:
165,62,92649,5,8,1:1:0:0:
132,284,92816,1,8,2:2:0:0:
243,121,92983,1,8,1:1:0:0:
42,226,93149,1,8,2:2:0:0:
236,383,93316,6,1,L|225:344,1,40.5,8|0,2:3|2:0,2:0:0:0:
278,236,93483,5,8,2:2:0:0:
315,222,93566,1,8,2:2:0:0:
355,228,93649,1,8,2:2:0:0:
386,253,93733,1,8,2:2:0:0:
417,277,93816,1,8,2:2:0:0:
457,283,93899,1,8,2:2:0:0:
494,270,93983,6,1,L|505:197,1,72.9000000000001,12|0,2:1|2:0,2:0:0:0:
439,136,94316,1,8,2:1:0:0:
506,43,94483,2,1,B|422:83|422:83|351:65,1,145.8,0|8,2:0|3:3,0:0:0:0:
265,31,94983,2,1,L|290:146,1,109.35,8|0,3:1|2:0,0:0:0:0:
296,151,95316,6,1,L|282:227,1,72.9000000000001,8|0,2:1|2:0,2:0:0:0:
364,275,95649,2,1,L|377:203,1,72.9000000000001,8|0,2:1|2:0,2:0:0:0:
202,155,95983,2,1,L|125:173,1,72.9000000000001,8|8,2:1|3:3,2:0:0:0:
124,263,96316,2,1,L|194:246,1,72.9000000000001,8|8,2:1|3:3,2:0:0:0:
194,246,96566,1,8,3:3:0:0:
194,246,96649,5,8,2:1:0:0:
243,361,96816,1,0,2:0:0:0:
326,264,96983,1,8,2:1:0:0:
247,345,97149,1,0,2:0:0:0:
355,379,97316,1,8,2:1:0:0:
432,297,97483,1,8,3:3:0:0:
323,251,97649,2,1,L|339:172,1,72.9000000000001,8|8,3:1|3:3,2:0:0:0:
458,32,97983,6,1,L|317:65,1,145.8,8|8,2:1|2:1,2:0:0:0:
159,109,98483,1,8,3:3:0:0:
228,0,98649,2,1,B|244:22|244:22|233:82,1,72.9000000000001,8|8,2:1|3:3,2:0:0:0:
205,200,98983,1,8,2:1:0:0:
54,134,99149,5,8,3:3:0:0:
54,134,99233,1,8,3:3:0:0:
54,134,99316,2,1,L|90:287,1,145.8,8|8,2:1|2:1,2:0:0:0:
227,381,99816,1,0,2:0:0:0:
37,350,99983,6,1,P|97:311|185:322,1,145.8,8|8,2:1|3:1,0:0:0:0:
311,244,100483,1,8,3:3:0:0:
269,384,100649,2,1,L|251:306,1,72.9000000000001,8|0,2:1|2:0,2:0:0:0:
405,130,100983,2,1,P|405:178|398:209,1,72.9000000000001,8|0,2:1|2:0,2:0:0:0:
358,334,101316,5,8,2:1:0:0:
440,278,101483,2,1,L|518:291,2,72.9000000000001,8|8|8,3:3|2:1|3:3,2:0:0:0:
311,244,101899,1,8,3:3:0:0:
307,232,101983,2,1,B|292:180|292:180|305:145|305:145|281:59,1,145.8,8|8,2:1|2:1,2:0:0:0:
269,0,102483,1,0,2:0:0:0:
358,29,102649,1,8,2:1:0:0:
290,92,102816,1,8,3:3:0:0:
198,65,102983,2,1,L|125:84,1,72.9000000000001,8|8,3:1|3:3,2:0:0:0:
24,248,103316,6,1,B|109:221|109:221|184:243,1,145.8,12|8,2:1|2:1,2:0:0:0:
275,271,103816,1,8,2:1:0:0:
246,164,103983,1,8,2:2:0:0:
193,318,104149,2,1,L|205:365,1,36.45,8|0,3:3|2:0,2:0:0:0:
291,384,104316,2,1,L|378:362,1,72.9000000000001,2|8,2:3|3:1,2:0:0:0:
460,182,104649,5,12,2:1:0:0:
275,271,104816,1,2,2:3:0:0:
468,305,104983,1,8,2:2:0:0:
353,151,105149,6,1,B|346:190|346:190|368:249,1,81,2|8,2:3|2:1,2:0:0:0:
202,353,105483,1,2,2:3:0:0:
119,310,105649,2,1,L|141:185,1,121.5,8|0,2:2|2:0,0:0:0:0:
143,176,105983,2,1,L|49:196,1,81,8|2,2:1|2:3,2:0:0:0:
275,40,106316,2,1,L|181:20,1,81,8|2,2:2|2:3,2:0:0:0:
225,228,106649,6,1,P|235:191|234:143,1,81,8|2,2:1|2:3,2:0:0:0:
387,6,106983,2,1,P|377:43|378:91,1,81,8|2,2:2|2:3,2:0:0:0:
393,113,107233,5,2,2:3:0:0:
393,113,107316,1,8,2:1:0:0:
491,133,107483,1,2,2:3:0:0:
400,278,107649,1,8,2:2:0:0:
344,196,107816,1,2,2:3:0:0:
498,246,107983,6,1,L|481:334,1,81,8|2,2:1|2:3,2:0:0:0:
294,384,108316,2,1,L|277:296,1,81,8|2,2:2|2:3,2:0:0:0:
491,133,108649,6,1,B|467:139|439:147|439:147|388:139|388:139|361:149|322:160,1,162,8|8,2:1|2:2,0:0:0:0:
189,198,109149,1,2,2:3:0:0:
265,90,109316,5,8,2:1:0:0:
269,254,109483,1,2,2:3:0:0:
275,97,109649,1,8,2:2:0:0:
258,245,109816,1,2,2:3:0:0:
92,156,109983,6,1,L|4:176,1,81,12|2,2:1|2:3,2:0:0:0:
137,384,110316,2,1,P|157:330|152:265,1,121.5,8|0,2:2|2:0,0:0:0:0:
140,246,110649,1,8,2:1:0:0:
215,188,110816,1,2,2:3:0:0:
311,215,110983,1,8,2:2:0:0:
337,298,111149,1,2,2:3:0:0:
383,149,111316,5,8,2:1:0:0:
235,282,111483,2,1,L|255:362,1,81,2|8,2:3|2:2,2:0:0:0:
311,215,111816,1,2,2:3:0:0:
483,327,111983,6,1,L|357:299,1,121.5,8|0,2:1|2:0,0:0:0:0:
337,298,112316,2,1,L|357:378,1,81,8|2,2:2|2:3,2:0:0:0:
469,218,112649,6,1,P|500:141|486:63,1,162,12|8,2:1|1:1,0:0:0:0:
374,10,113149,1,8,2:2:0:0:
280,125,113316,5,8,1:1:0:0:
202,14,113483,1,8,2:2:0:0:
385,133,113649,1,8,1:1:0:0:
194,212,113816,1,8,2:2:0:0:
328,298,113983,2,1,B|338:268|338:268|316:214,1,81,8|4,2:3|2:3,2:0:0:0:
158,111,114316,6,1,B|69:112|84:70|-7:73,1,157.95,12|0,2:2|2:0,2:0:0:0:
6,72,114649,5,8,2:2:0:0:
123,6,114816,1,8,2:2:0:0:
194,212,114983,1,8,2:3:0:0:
194,212,115316,6,1,L|61:235,2,129.6,14|2|10,2:1|2:1|2:1,2:0:0:0:
360,312,116316,1,2,2:1:0:0:
295,242,116649,5,2,2:1:0:0:
295,242,116816,2,1,B|267:313|267:313|291:368,1,129.6,8|0,2:2|2:0,0:0:0:0:
487,324,117316,2,1,P|411:323|350:308,1,129.6,10|2,2:1|2:1,2:0:0:0:
394,220,117816,1,8,2:2:0:0:
484,179,117983,6,1,P|443:235|393:219,1,129.6,10|2,2:1|2:1,2:0:0:0:
307,170,118483,1,8,2:1:0:0:
307,170,118649,2,1,P|321:114|318:37,1,129.6,10|2,2:1|2:1,2:0:0:0:
408,90,119149,2,1,L|476:74,1,64.8,8|2,2:3|2:1,2:0:0:0:
244,6,119483,2,1,L|113:32,1,129.6,4|4,2:3|2:3,0:0:0:0:
179,129,119983,5,10,2:1:0:0:
88,202,120149,1,0,2:0:0:0:
29,101,120316,2,1,L|101:116,1,64.8,2|8,2:1|2:2,2:0:0:0:
241,241,120649,6,1,B|228:308|228:308|251:396,1,129.6,14|2,1:1|2:1,2:0:0:0:
244,368,121149,1,8,2:1:0:0:
143,283,121316,2,1,L|168:135,1,129.6,10|2,2:1|2:1,2:0:0:0:
96,8,121816,2,1,L|27:23,1,64.8,8|2,2:2|2:1,2:0:0:0:
22,106,122149,6,1,P|86:90|148:78,1,129.6,8|8,2:2|2:1,0:0:0:0:
247,19,122649,1,10,2:1:0:0:
271,106,122816,1,0,2:0:0:0:
356,67,122983,2,1,L|367:-1,1,64.8,2|8,2:1|2:2,2:0:0:0:
280,203,123316,6,1,B|259:262|259:262|285:340,1,129.6,10|2,2:1|2:1,2:0:0:0:
280,325,123816,1,8,2:1:0:0:
414,273,123983,2,1,L|344:263,1,64.8,10|0,2:1|2:0,2:0:0:0:
186,363,124316,2,1,P|135:365|67:332,1,97.2,2|0,2:1|2:0,0:0:0:0:
84,343,124649,6,1,L|99:272,1,64.8,2|4,2:1|2:3,2:0:0:0:
210,204,124983,2,1,L|196:267,1,64.8,4|0,2:3|2:0,2:0:0:0:
22,227,125316,1,8,2:2:0:0:
116,187,125483,1,8,2:1:0:0:
196,267,125649,1,2,2:1:0:0:
291,155,125816,5,8,2:3:0:0:
291,155,125899,1,8,2:3:0:0:
291,155,125983,2,1,L|409:128,1,109.35,14|0,2:1|2:0,2:0:0:0:
409,129,126316,2,1,L|425:55,1,72.9000000000001,8|2,2:1|2:3,2:0:0:0:
497,282,126649,2,1,L|513:208,1,72.9000000000001,8|2,2:1|2:3,2:0:0:0:
268,292,126983,5,8,2:1:0:0:
268,292,127066,1,0,3:0:0:0:
268,292,127149,1,2,3:3:0:0:
268,292,127233,1,0,3:0:0:0:
268,292,127316,2,1,B|341:277|341:277|384:292,1,109.35,8|0,2:1|2:0,0:0:0:0:
395,299,127649,1,8,2:1:0:0:
282,158,127816,1,2,2:3:0:0:
434,176,127983,2,1,L|350:195,1,72.9000000000001,8|2,2:1|2:3,2:0:0:0:
172,38,128316,5,8,2:3:0:0:
172,38,128399,1,8,2:3:0:0:
172,38,128483,1,4,2:3:0:0:
172,38,128566,1,4,2:3:0:0:
172,38,128649,2,1,L|155:108,1,72.9000000000001,14|8,2:1|2:3,2:0:0:0:
24,292,128983,6,1,L|13:251,3,36.45,8|8|8|8,1:1|2:2|2:2|2:2,2:0:0:0:
166,209,129316,2,1,L|155:250,3,36.45,8|8|8|8,1:1|2:2|2:2|2:2,2:0:0:0:
216,374,129649,2,1,L|175:363,3,36.45,8|8|8|8,1:1|2:2|2:2|2:2,2:0:0:0:
263,285,129983,5,8,1:1:0:0:
300,267,130066,1,8,2:2:0:0:
335,263,130149,1,8,2:2:0:0:
369,274,130233,1,8,2:2:0:0:
391,304,130316,1,8,1:1:0:0:
431,328,130399,1,8,2:2:0:0:
467,325,130483,1,8,2:2:0:0:
505,302,130566,1,8,2:2:0:0:
512,260,130649,6,1,L|500:205,1,48.6,8|8,1:1|2:2,2:0:0:0:
451,85,130816,2,1,L|439:140,1,48.6,8|8,2:2|2:2,2:0:0:0:
288,191,130983,6,1,L|343:179,1,48.6,8|8,1:1|2:2,2:0:0:0:
354,19,131149,2,1,L|299:31,1,48.6,8|8,2:2|2:2,2:0:0:0:
152,8,131316,6,1,B|134:91|134:91|161:148,1,129.6,8|0,3:1|2:0,2:0:0:0:
153,131,131816,1,8,2:1:0:0:
94,204,131983,2,1,L|30:190,1,64.8,8|0,2:2|2:0,2:0:0:0:
144,340,132316,6,1,L|123:346,2,21.6,8|8|8,2:1|2:1|2:1,2:0:0:0:
216,362,132483,5,8,2:1:0:0:
223,357,132566,1,8,2:1:0:0:
231,352,132649,2,1,L|245:277,1,64.8,8|0,2:1|2:0,2:0:0:0:
332,163,132899,1,0,2:0:0:0:
345,175,132983,2,1,L|333:238,1,64.8,8|0,2:1|2:0,2:0:0:0:
477,357,133316,6,1,P|451:315|396:319,1,97.2,8|0,2:2|2:0,0:0:0:0:
380,317,133649,2,1,L|366:383,1,64.8,4|0,2:3|2:0,2:0:0:0:
171,232,133983,6,1,L|144:86,1,145.8,14|0,2:1|2:0,2:0:0:0:
139,68,134316,5,8,2:2:0:0:
314,113,134483,1,8,2:2:0:0:
174,250,134649,1,8,2:2:0:0:
241,31,134816,1,8,2:2:0:0:
306,255,134983,1,8,2:2:0:0:
62,197,135149,1,8,2:2:0:0:
264,351,135316,5,8,2:2:0:0:
272,329,135399,1,8,2:3:0:0:
294,313,135483,1,8,2:3:0:0:
315,308,135566,1,8,2:3:0:0:
339,319,135649,2,1,P|364:311|390:301,1,48.6,8|0,2:2|2:0,2:0:0:0:
506,285,135816,2,1,P|498:310|494:337,1,48.6,8|0,2:2|2:0,2:0:0:0:
420,195,135983,2,1,P|428:170|432:143,1,48.6,10|0,2:3|2:0,2:0:0:0:
277,30,136149,5,8,2:1:0:0:
259,66,136233,1,8,2:2:0:0:
230,94,136316,1,8,2:2:0:0:
194,112,136399,1,8,2:2:0:0:
154,118,136483,1,8,2:2:0:0:
114,111,136566,1,8,2:2:0:0:
79,91,136649,5,14,2:2:0:0:
166,222,136816,1,2,2:2:0:0:
178,218,136899,1,0,2:0:0:0:
190,214,136983,1,8,2:2:0:0:
17,329,137149,6,1,B|124:304|124:304|204:347,1,194.4,2|2,2:2|2:2,0:0:0:0:
380,240,137649,1,8,2:2:0:0:
307,372,137816,2,1,P|299:352|295:326,1,48.6,2|2,2:2|2:2,2:0:0:0:
490,184,137983,5,10,2:2:0:0:
294,325,138149,1,2,2:2:0:0:
461,375,138316,1,8,2:2:0:0:
282,216,138483,5,2,2:2:0:0:
282,216,138566,1,2,2:2:0:0:
282,216,138649,2,1,P|268:170|268:120,1,97.2,10|2,2:2|2:2,2:0:0:0:
428,7,138983,1,8,2:2:0:0:
267,121,139149,1,2,2:2:0:0:
484,209,139316,5,10,2:2:0:0:
278,25,139483,1,2,2:2:0:0:
501,90,139649,1,8,2:2:0:0:
282,216,139816,1,2,2:2:0:0:
376,86,139983,6,1,B|398:123|398:123|380:187,1,97.2,10|2,2:2|2:2,2:0:0:0:
317,358,140316,1,10,2:2:0:0:
52,279,140483,5,2,2:2:0:0:
52,279,140566,1,2,2:2:0:0:
52,279,140649,2,1,B|148:259|148:259|208:283,1,145.8,10|0,2:2|2:0,0:0:0:0:
214,289,140983,1,10,2:2:0:0:
383,175,141149,2,1,L|410:270,1,97.2,2|10,2:2|2:2,2:0:0:0:
502,106,141483,5,2,2:2:0:0:
283,181,141649,1,10,2:2:0:0:
355,18,141816,5,2,2:2:0:0:
361,42,141899,1,2,2:2:0:0:
367,66,141983,1,14,2:2:0:0:
222,248,142149,1,2,2:2:0:0:
172,74,142316,1,8,2:2:0:0:
383,175,142483,1,2,2:2:0:0:
131,270,142649,5,8,2:1:0:0:
255,36,142816,2,1,B|272:82|272:82|253:138,1,97.2,2|10,2:2|2:2,2:0:0:0:
497,311,143149,6,1,B|538:250|494:167|494:167|468:207,1,194.4,2|2,2:2|2:2,0:0:0:0:
395,372,143649,1,8,2:2:0:0:
296,183,143816,1,2,2:2:0:0:
211,326,143983,6,1,B|179:333|147:349|147:349|90:337|90:337|56:353|15:358,1,194.4,10|8,2:2|2:2,0:0:0:0:
189,235,144483,1,2,2:2:0:0:
189,235,144566,1,2,2:2:0:0:
189,235,144649,1,10,2:2:0:0:
5,187,144816,1,2,2:2:0:0:
119,7,144983,6,1,B|81:56|81:56|101:137,1,145.8,8|0,2:2|2:0,0:0:0:0:
110,153,145316,2,1,L|89:222,1,48.6,10|0,2:2|2:0,2:0:0:0:
244,55,145483,2,1,L|348:32,1,97.2,10|8,2:2|2:2,2:0:0:0:
508,174,145816,6,1,B|471:190|471:190|431:193|431:193|395:232|325:226,1,194.4,14|10,2:2|2:2,2:0:0:0:
112,152,146316,1,10,2:2:0:0:
278,374,146483,5,14,2:2:0:0:
278,374,146566,1,10,2:1:0:0:
278,374,146649,2,1,L|290:317,1,48.6,10|0,2:2|2:0,2:0:0:0:
216,150,146816,2,1,L|204:207,1,48.6,10|8,2:2|2:2,2:0:0:0:
181,333,146983,2,1,L|124:345,1,48.6,10|8,2:2|2:2,2:0:0:0:
5,251,147149,2,1,L|52:240,1,48.6,10|8,2:2|2:2,2:0:0:0:
285,69,147316,6,1,L|187:47,1,97.2,14|2,2:2|2:2,2:0:0:0:
190,47,147566,1,2,2:2:0:0:
190,47,147649,1,8,2:2:0:0:
355,12,147816,6,1,B|318:134|318:134|363:204,1,194.4,2|2,2:2|2:2,0:0:0:0:
427,94,148316,1,8,2:2:0:0:
239,201,148483,1,2,2:2:0:0:
408,285,148649,5,10,2:2:0:0:
319,102,148816,1,2,2:2:0:0:
416,301,148983,1,10,2:2:0:0:
252,384,149149,6,1,P|261:336|277:287,1,97.2,2|10,2:2|2:2,2:0:0:0:
123,88,149483,1,2,2:2:0:0:
100,202,149649,1,10,2:2:0:0:
77,316,149816,1,2,2:2:0:0:
292,199,149983,6,1,L|441:164,1,145.8,10|0,2:2|2:0,0:0:0:0:
450,164,150316,2,1,L|428:270,1,97.2,8|2,2:2|2:2,2:0:0:0:
267,114,150649,1,10,2:2:0:0:
315,296,150816,1,2,2:2:0:0:
261,97,150983,1,10,2:2:0:0:
167,358,151149,5,2,2:2:0:0:
167,358,151233,1,2,2:2:0:0:
167,358,151316,2,1,B|222:349|222:349|275:380,1,97.2,10|2,2:1|2:2,2:0:0:0:
381,212,151649,1,10,2:2:0:0:
139,150,151816,1,2,2:2:0:0:
282,2,151983,5,10,2:2:0:0:
214,257,152149,1,2,2:2:0:0:
214,257,152233,1,2,2:2:0:0:
214,257,152316,1,10,2:2:0:0:
282,2,152483,1,2,2:2:0:0:
498,92,152649,6,1,P|440:106|351:124,1,145.8,14|0,2:2|2:0,0:0:0:0:
334,127,152983,1,14,2:2:0:0:
502,226,153149,1,10,2:1:0:0:
269,338,153316,1,14,2:2:0:0:
399,212,153483,1,10,2:1:0:0:
399,212,153566,1,8,2:1:0:0:
399,212,153649,1,14,2:2:0:0:
194,121,153816,1,8,2:1:0:0:
434,305,153983,5,14,2:2:0:0:
97,373,154149,1,10,2:2:0:0:
97,373,155316,5,2,2:2:0:0:
256,192,163983,12,1,165649,2:0:0:0:
409,24,165983,6,1,B|383:91|383:91|416:164,1,129.6,8|2,2:1|2:2,2:0:0:0:
406,143,166483,1,8,2:1:0:0:
465,207,166649,2,1,L|334:184,1,129.6,8|2,2:2|2:2,2:0:0:0:
261,241,167149,1,8,2:1:0:0:
243,155,167316,1,0,2:0:0:0:
327,181,167483,1,8,2:1:0:0:
258,251,167649,2,1,L|240:333,1,64.8,8|8,2:1|2:1,2:0:0:0:
314,350,167983,6,1,L|176:373,1,129.6,8|8,2:2|2:1,2:0:0:0:
42,282,168649,6,1,B|70:199|70:199|50:149,1,129.6,8|2,2:1|2:2,2:0:0:0:
54,159,169149,1,8,2:1:0:0:
172,55,169316,2,1,L|155:123,1,64.8,8|0,2:2|2:0,2:0:0:0:
292,208,169649,2,1,L|287:232,2,21.6,8|8|8,2:1|2:1|2:1,2:0:0:0:
237,151,169816,5,8,2:1:0:0:
240,145,169899,1,8,2:1:0:0:
244,138,169983,2,1,L|372:114,1,129.6,2|8,2:2|2:1,0:0:0:0:
465,226,170483,1,8,2:1:0:0:
450,73,170649,1,8,2:2:0:0:
372,201,170816,1,8,2:1:0:0:
512,138,170983,1,2,2:2:0:0:
438,150,171149,1,8,2:2:0:0:
438,150,171316,6,1,L|412:284,1,129.6,8|2,2:1|2:2,2:0:0:0:
413,277,171816,1,8,2:1:0:0:
335,373,171983,5,8,2:2:0:0:
315,277,172149,1,0,2:0:0:0:
340,360,172316,1,2,2:2:0:0:
308,285,172483,1,8,2:1:0:0:
250,369,172649,6,1,L|113:343,1,129.6,0|8,2:0|2:1,0:0:0:0:
227,252,173149,2,1,L|153:271,1,64.8,8|8,2:1|2:2,2:0:0:0:
180,171,173483,5,0,2:0:0:0:
322,197,173649,2,1,L|424:215,1,97.2,8|0,2:1|2:0,2:0:0:0:
445,219,173983,6,1,P|479:162|465:86,1,129.6,8|2,2:1|2:2,2:0:0:0:
329,65,174483,1,8,2:1:0:0:
422,0,174649,2,1,L|406:70,1,64.8,8|0,2:2|2:0,2:0:0:0:
256,152,174983,2,1,L|251:132,2,21.6,8|8|8,2:1|2:1|2:1,2:0:0:0:
330,203,175149,5,8,2:1:0:0:
330,203,175233,1,8,2:1:0:0:
330,203,175316,2,1,B|320:249|320:249|330:282|330:282|316:348,1,129.6,2|8,2:2|2:1,0:0:0:0:
320,328,175816,1,8,2:1:0:0:
369,384,175983,2,1,P|311:356|237:367,1,129.6,8|2,2:2|2:2,0:0:0:0:
191,269,176483,1,8,2:2:0:0:
83,374,176649,6,1,L|153:356,1,72.9000000000001,8|8,2:1|2:1,2:0:0:0:
19,232,176983,2,1,L|89:250,1,72.9000000000001,8|8,3:3|2:1,2:0:0:0:
258,187,177316,1,8,2:2:0:0:
165,104,177483,1,8,2:1:0:0:
165,104,177566,1,8,2:3:0:0:
165,104,177649,2,1,B|156:141|156:141|172:191,1,72.9000000000001,8|8,2:1|2:3,2:0:0:0:
308,275,177983,6,1,L|461:249,1,145.8,8|8,2:1|3:3,0:0:0:0:
330,186,178483,1,8,2:1:0:0:
413,104,178649,2,1,B|427:137|427:137|410:181,1,72.9000000000001,8|8,2:2|2:1,2:0:0:0:
262,37,178983,2,1,L|161:21,1,72.9000000000001,8|8,2:1|2:3,2:0:0:0:
33,142,179316,5,8,2:1:0:0:
89,68,179483,1,8,2:1:0:0:
170,116,179649,2,1,P|172:172|143:229,1,109.35,8|0,3:3|2:0,0:0:0:0:
133,237,179983,2,1,L|154:317,1,72.9000000000001,8|8,2:2|2:1,2:0:0:0:
260,356,180316,6,1,L|255:379,2,24.2999992584229,8|8|8,2:1|2:1|2:1,2:0:0:0:
337,319,180483,1,8,2:3:0:0:
337,319,180566,1,8,2:1:0:0:
337,319,180649,2,1,L|412:300,1,72.9000000000001,8|8,2:1|2:1,2:0:0:0:
280,201,180983,2,1,L|355:220,1,72.9000000000001,8|8,3:3|2:1,2:0:0:0:
494,139,181316,5,8,2:2:0:0:
331,105,181483,1,8,2:1:0:0:
403,147,181649,2,1,B|417:113|417:113|406:66,1,72.9000000000001,8|8,2:1|2:3,2:0:0:0:
233,0,181983,6,1,L|207:146,1,145.8,8|8,2:1|3:3,0:0:0:0:
83,305,182483,1,8,2:1:0:0:
13,255,182649,2,1,P|72:222|133:232,1,109.35,8|8,2:2|2:3,0:0:0:0:
140,236,182983,1,8,2:1:0:0:
255,384,183149,2,1,L|243:338,1,36.45,8|0,2:3|2:0,2:0:0:0:
171,319,183316,5,8,2:1:0:0:
302,260,183483,1,8,2:1:0:0:
398,371,183649,5,8,3:3:0:0:
482,340,183816,1,8,2:1:0:0:
412,290,183983,2,1,P|433:221|422:148,1,145.8,8|8,2:2|2:1,0:0:0:0:
355,94,184483,1,8,2:3:0:0:
451,0,184649,6,1,L|434:75,1,72.9000000000001,8|8,2:1|2:1,2:0:0:0:
337,182,184983,2,1,L|230:207,1,109.35,8|0,3:3|2:0,0:0:0:0:
230,206,185316,2,1,L|213:282,1,72.9000000000001,8|8,2:2|2:1,2:0:0:0:
280,332,185566,1,8,2:3:0:0:
280,332,185649,2,1,L|311:325,2,24.2999992584229,8|8|8,2:1|2:1|2:1,2:0:0:0:
205,363,185816,5,8,2:3:0:0:
197,366,185899,1,8,2:1:0:0:
191,371,185983,2,1,B|143:357|143:357|98:369|98:369|43:359,1,145.8,8|8,2:1|3:3,0:0:0:0:
176,256,186483,1,8,2:1:0:0:
30,208,186649,1,8,2:2:0:0:
88,277,186816,1,8,2:1:0:0:
219,181,186983,6,1,B|290:167|290:167|338:190,1,109.35,8|0,2:1|2:0,0:0:0:0:
340,194,187316,6,1,P|381:137|381:62,1,145.8,12|0,2:1|2:0,2:0:0:0:
275,16,187816,1,8,2:1:0:0:
275,16,187983,2,1,L|292:87,1,72.9000000000001,8|0,2:2|2:0,2:0:0:0:
140,224,188316,6,1,L|146:200,2,24.2999992584229,8|8|8,2:1|2:1|2:1,2:0:0:0:
60,272,188483,1,8,2:1:0:0:
64,268,188566,1,8,2:1:0:0:
67,263,188649,2,1,B|177:237|141:321|251:290,1,194.400000000001,2|2,2:2|2:2,2:0:0:0:
481,363,189983,5,10,2:1:0:0:
494,355,190316,1,8,2:1:0:0:
500,339,190649,1,8,2:1:0:0:
496,323,190983,1,8,2:1:0:0:
489,311,191316,1,8,2:1:0:0:
479,304,191649,1,8,2:1:0:0:
328,378,191816,5,8,2:1:0:0:
328,378,191899,1,8,2:1:0:0:
328,378,191983,1,8,2:2:0:0:
395,150,192149,1,8,2:2:0:0:
395,150,192483,6,1,L|403:189,1,40.5,2|0,2:2|2:0,2:0:0:0:
237,308,192649,6,1,L|134:290,1,97.2,14|2,2:2|2:2,2:0:0:0:
67,92,192983,1,8,2:2:0:0:
3,178,193149,2,1,P|91:189|175:118,1,194.4,2|2,2:2|2:2,0:0:0:0:
342,5,193649,2,1,P|329:53|320:107,1,97.2,8|2,2:2|2:2,2:0:0:0:
315,135,193899,1,2,2:2:0:0:
315,135,193983,1,10,2:2:0:0:
505,260,194149,1,2,2:2:0:0:
293,349,194316,1,8,2:2:0:0:
505,260,194483,6,1,P|475:255|457:248,1,48.6,2|2,2:2|2:2,2:0:0:0:
267,224,194649,1,10,2:2:0:0:
441,374,194816,1,2,2:2:0:0:
405,134,194983,1,8,2:2:0:0:
220,307,195149,5,2,2:2:0:0:
220,307,195233,1,2,2:2:0:0:
220,307,195316,1,10,2:2:0:0:
273,126,195483,1,2,2:2:0:0:
105,3,195649,1,8,2:2:0:0:
177,198,195816,1,2,2:2:0:0:
379,29,195983,6,1,P|331:38|285:51,1,97.2,10|2,2:2|2:2,2:0:0:0:
265,222,196316,1,10,2:2:0:0:
33,26,196483,5,2,2:2:0:0:
33,26,196566,1,2,2:2:0:0:
33,26,196649,2,1,B|5:108|5:108|41:170,1,145.8,10|0,2:2|2:0,0:0:0:0:
46,174,196983,2,1,P|93:165|144:152,1,97.2,10|2,2:2|2:2,2:0:0:0:
328,242,197316,1,10,2:2:0:0:
140,152,197483,1,2,2:2:0:0:
314,36,197649,1,10,2:2:0:0:
218,278,197816,5,2,2:2:0:0:
218,278,197899,1,2,2:2:0:0:
218,278,197983,1,14,2:2:0:0:
425,166,198149,1,2,2:2:0:0:
215,72,198316,1,8,2:2:0:0:
368,248,198483,1,2,2:2:0:0:
165,368,198649,5,8,2:1:0:0:
270,143,198816,2,1,P|293:184|292:232,1,97.2,2|10,2:2|2:2,2:0:0:0:
10,227,199149,6,1,B|40:223|77:208|77:208|133:225|133:225|162:210|207:205,1,194.4,2|2,2:2|2:2,0:0:0:0:
338,72,199649,1,8,2:2:0:0:
240,298,199816,1,2,2:2:0:0:
512,226,199983,6,1,P|438:170|336:192,1,194.4,10|8,2:2|2:2,0:0:0:0:
247,306,200483,5,2,2:2:0:0:
247,306,200566,1,2,2:2:0:0:
247,306,200649,1,10,2:2:0:0:
220,184,200816,1,2,2:2:0:0:
190,49,200983,1,8,2:2:0:0:
361,142,201149,1,2,2:2:0:0:
147,265,201316,6,1,L|91:278,1,48.6,10|0,2:2|2:0,2:0:0:0:
333,364,201483,2,1,B|351:327|351:327|337:263,1,97.2,10|8,2:2|2:2,2:0:0:0:
37,144,201816,6,1,B|81:151|114:180|114:180|169:184|216:150,1,194.4,14|10,2:2|2:2,2:0:0:0:
418,39,202316,1,10,2:2:0:0:
285,15,202483,5,14,2:2:0:0:
285,15,202566,1,10,2:1:0:0:
285,15,202649,2,1,L|274:66,1,48.6,10|0,2:2|2:0,2:0:0:0:
341,230,202816,2,1,L|330:281,1,48.6,10|8,2:2|2:2,2:0:0:0:
512,144,202983,5,10,2:2:0:0:
471,162,203066,1,8,2:2:0:0:
426,163,203149,1,10,2:2:0:0:
387,148,203233,1,8,2:2:0:0:
353,120,203316,5,14,2:2:0:0:
206,266,203483,1,2,2:2:0:0:
135,36,203649,1,8,2:2:0:0:
206,266,203816,6,1,L|107:288,1,97.2,2|8,2:2|2:1,2:0:0:0:
275,173,204149,1,2,2:2:0:0:
196,93,204316,2,1,B|180:135|180:135|186:162|202:196,1,97.2,8|2,2:2|2:2,2:0:0:0:
249,383,204649,5,10,2:2:0:0:
353,120,204816,1,2,2:2:0:0:
206,266,204983,1,10,2:2:0:0:
457,354,205149,6,1,P|381:292|291:302,1,194.4,2|2,2:2|2:2,0:0:0:0:
99,218,205649,1,10,2:2:0:0:
296,147,205816,5,2,2:2:0:0:
296,147,205899,1,2,2:2:0:0:
296,147,205983,1,10,2:2:0:0:
151,292,206149,1,2,2:2:0:0:
353,361,206316,1,8,2:2:0:0:
213,207,206483,1,2,2:2:0:0:
431,76,206649,5,10,2:2:0:0:
287,273,206816,1,2,2:2:0:0:
483,234,206983,1,10,2:2:0:0:
283,116,207149,1,2,2:2:0:0:
283,116,207233,1,2,2:2:0:0:
283,116,207316,2,1,P|290:62|302:20,1,97.2,10|2,2:1|2:2,2:0:0:0:
378,183,207649,1,10,2:2:0:0:
184,54,207816,2,1,P|142:73|91:86,1,97.2,2|10,2:2|2:2,2:0:0:0:
248,312,208149,5,2,2:2:0:0:
43,234,208316,1,10,2:2:0:0:
61,197,208399,1,8,2:1:0:0:
90,178,208483,1,10,2:1:0:0:
131,172,208566,1,8,2:1:0:0:
168,184,208649,6,1,L|147:337,1,145.8,12|4,2:2|2:2,0:0:0:0:
321,376,209149,1,8,2:1:0:0:
404,332,209316,2,1,P|346:292|262:308,1,145.8,8|4,2:2|2:2,0:0:0:0:
182,219,209816,5,8,2:1:0:0:
176,201,209899,1,8,2:1:0:0:
168,184,209983,1,10,2:2:0:0:
280,20,210149,5,10,2:2:0:0:
304,52,210233,1,8,2:2:0:0:
340,66,210316,1,8,2:2:0:0:
382,61,210399,1,8,2:2:0:0:
413,38,210483,1,8,2:2:0:0:
460,36,210566,1,8,2:2:0:0:
492,72,210649,2,1,P|487:93|480:120,1,48.6,8|0,2:2|2:0,2:0:0:0:
340,244,210816,5,8,2:2:0:0:
333,221,210899,1,8,2:2:0:0:
328,204,210983,2,1,L|338:157,1,48.6,8|8,2:3|2:3,2:0:0:0:
472,244,211149,2,1,L|462:291,1,48.6,4|4,2:3|2:3,2:0:0:0:
321,376,211316,6,1,B|253:386|198:346|198:346|164:350|129:362,1,194.4,14|8,2:1|2:2,0:0:0:0:
271,273,211816,1,8,2:1:0:0:
55,206,211983,1,8,2:2:0:0:
261,101,212149,1,8,2:1:0:0:
261,101,212233,1,8,2:1:0:0:
261,101,212316,1,8,2:2:0:0:
137,263,212483,1,8,2:1:0:0:
101,83,212649,5,10,2:2:0:0:
293,182,212816,1,8,2:1:0:0:
24,119,212983,1,8,2:2:0:0:
243,9,213149,1,8,2:1:0:0:
137,263,213316,5,10,2:2:0:0:
282,98,213483,1,8,2:1:0:0:
282,98,213566,1,8,2:1:0:0:
282,98,213649,1,8,2:2:0:0:
55,206,213816,1,10,2:1:0:0:
288,360,213983,6,1,P|273:304|255:264,1,97.2,14|8,2:2|2:1,2:0:0:0:
178,136,214316,1,8,2:2:0:0:
324,0,214483,1,8,2:1:0:0:
284,180,214649,1,8,2:2:0:0:
92,82,214816,1,8,2:1:0:0:
92,82,214899,1,8,2:1:0:0:
92,82,214983,1,8,2:2:0:0:
157,281,215149,1,8,2:1:0:0:
307,99,215316,5,10,2:2:0:0:
104,192,215483,1,8,2:1:0:0:
335,250,215649,1,8,2:2:0:0:
190,117,215816,1,8,2:1:0:0:
419,52,215983,6,1,P|403:98|395:145,1,97.2,10|8,2:2|2:1,2:0:0:0:
213,292,216316,2,1,P|228:245|236:198,1,97.2,8|10,2:2|2:1,2:0:0:0:
512,315,216649,6,1,B|464:315|417:345|417:345|394:333|357:330,1,145.8,14|0,2:1|2:0,0:0:0:0:
346,342,216983,2,1,P|299:356|249:370,1,97.2,8|8,2:2|2:1,2:0:0:0:
121,201,217316,1,8,2:2:0:0:
341,254,217483,1,8,2:1:0:0:
341,254,217566,1,8,2:1:0:0:
341,254,217649,1,8,2:2:0:0:
121,201,217816,1,8,2:1:0:0:
372,109,217983,6,1,P|322:123|273:135,1,97.2,10|8,2:2|2:1,2:0:0:0:
93,333,218316,2,1,P|143:319|192:307,1,97.2,8|8,2:2|2:1,2:0:0:0:
186,308,218566,1,8,2:1:0:0:
186,308,218649,1,10,2:2:0:0:
125,151,218816,1,8,2:1:0:0:
332,33,218983,1,8,2:2:0:0:
285,239,219149,1,10,2:1:0:0:
77,160,219316,6,1,P|100:155|124:150,1,48.6,14|0,2:1|2:0,2:0:0:0:
237,229,219483,2,1,P|260:233|284:238,1,48.6,10|0,2:1|2:0,2:0:0:0:
381,124,219649,1,10,2:2:0:0:
506,341,219816,6,1,B|452:344|417:363|417:363|392:343|370:335,1,145.8,14|0,2:1|2:0,2:0:0:0:
344,324,220149,1,10,2:1:0:0:
496,200,220316,1,8,2:2:0:0:
333,53,220483,6,1,P|333:148|394:226,1,194.4,14|10,2:1|2:1,2:0:0:0:
232,376,220983,1,8,2:2:0:0:
232,376,221066,1,8,2:2:0:0:
231,375,221149,2,1,P|226:352|219:329,1,48.6,8|0,2:1|2:0,2:0:0:0:
258,137,221316,5,8,2:3:0:0:
284,109,221399,1,8,2:3:0:0:
293,79,221483,1,8,2:2:0:0:
283,47,221566,1,8,2:2:0:0:
252,24,221649,2,1,P|229:31|205:37,1,48.6,8|8,2:3|2:3,2:0:0:0:
399,120,221816,2,1,P|422:125|445:133,1,48.6,4|4,2:3|2:3,2:0:0:0:
214,236,221983,6,1,B|181:253|181:253|147:252|147:252|105:284|42:274,1,178.2,14|8,2:1|2:2,0:0:0:0:
258,137,222483,1,2,2:3:0:0:
68,93,222649,2,1,P|67:141|80:186,1,89.1,10|2,2:1|2:3,2:0:0:0:
177,331,222983,1,10,2:2:0:0:
77,180,223149,1,2,2:3:0:0:
205,37,223316,6,1,P|284:79|373:69,1,178.2,10|8,2:1|2:2,0:0:0:0:
508,189,223816,1,2,2:3:0:0:
473,28,223983,2,1,L|453:118,1,89.1,10|2,2:1|2:3,2:0:0:0:
405,327,224316,1,10,2:2:0:0:
453,114,224483,1,2,2:3:0:0:
209,224,224649,6,1,B|296:201|296:201|345:219,1,133.65,14|0,2:1|2:0,0:0:0:0:
357,226,224983,2,1,P|399:216|442:201,1,89.1,8|2,2:2|2:3,2:0:0:0:
273,307,225316,1,10,2:1:0:0:
325,109,225483,1,2,2:3:0:0:
273,307,225649,1,10,2:2:0:0:
44,167,225816,6,1,B|11:221|11:221|39:332,1,178.2,2|2,2:3|2:3,0:0:0:0:
205,246,226316,2,1,P|155:241|109:229,1,89.1,8|2,2:2|2:3,2:0:0:0:
273,307,226649,1,10,2:1:0:0:
202,159,226816,1,8,2:1:0:0:
377,9,226983,6,1,P|383:76|348:135,1,133.65,12|0,2:2|2:0,2:0:0:0:
296,188,227316,6,1,L|435:158,1,133.65,14|0,2:2|2:0,0:0:0:0:
437,157,227649,2,1,L|416:255,1,89.1,14|8,2:2|2:1,2:0:0:0:
431,379,227983,1,14,2:2:0:0:
296,188,228149,1,8,2:1:0:0:
508,277,228316,1,14,2:2:0:0:
275,348,228483,5,8,2:1:0:0:
275,348,228566,1,8,2:1:0:0:
275,348,228649,2,1,P|321:335|361:325,1,89.1,14|8,2:2|2:1,2:0:0:0:
162,252,228983,1,14,2:2:0:0:
343,177,229149,5,8,2:1:0:0:
343,177,229233,1,8,2:1:0:0:
343,177,229316,1,14,2:2:0:0:
82,277,229483,1,8,2:1:0:0:
283,384,229649,2,1,B|304:353|304:353|288:294,1,89.1,14|8,2:2|2:1,2:0:0:0:
285,279,229899,1,8,2:1:0:0:
285,279,229983,6,1,L|234:266,1,44.55,10|0,2:2|2:0,2:0:0:0:
95,188,230149,2,1,L|146:175,1,44.55,10|0,2:2|2:0,2:0:0:0:
287,87,230316,1,8,2:1:0:0:
55,80,230483,6,1,L|98:91,1,44.55,10|0,2:2|2:0,2:0:0:0:
319,170,230649,2,1,L|275:181,1,44.55,10|0,2:2|2:0,2:0:0:0:
51,273,230816,1,8,2:1:0:0:
51,273,230899,1,8,2:1:0:0:
51,273,230983,1,8,2:2:0:0:
312,352,231149,6,1,B|369:334|422:324|422:324|437:298|440:262,1,178.2,14|8,2:1|2:1,2:0:0:0:
336,176,231649,1,8,2:2:0:0:
477,95,231816,1,8,2:1:0:0:
258,117,231983,5,8,2:2:0:0:
512,178,232149,1,8,2:1:0:0:
232,297,232316,1,8,2:2:0:0:
504,344,232483,1,8,2:2:0:0:
208,201,232649,5,8,2:3:0:0:
169,211,232733,1,8,2:3:0:0:
131,220,232816,1,4,2:3:0:0:
91,230,232899,1,4,2:3:0:0:
53,241,232983,1,14,2:1:0:0:
256,192,233066,12,1,238983,2:0:0:0:
