osu file format v14

[General]
AudioFilename: audio.ogg
AudioLeadIn: 0
PreviewTime:136483
Countdown: 0
SampleSet: Soft
StackLeniency: 0.7
Mode: 0
LetterboxInBreaks: 0
WidescreenStoryboard: 1

[Editor]
Bookmarks: 650,11316,21983,32649,43316,53983,64649,83316,93983,104649,115316,125983,136649,155316,165983,176649,188649,192649,211316,221983,232983,238983
DistanceSpacing: 1
BeatDivisor: 4
GridSize: 8
TimelineZoom: 0.9

[Metadata]
Title:White Promise
TitleUnicode:White Promise
Artist:Nayugorou
ArtistUnicode:なゆごろう
Creator:Shikibe Mayu
Version:Normal
Source:LOST:SMILE memories + promises
Tags:shizuku- kazato asa Islet life0 とむ少佐 サウンドトラック ロストスマイル メモリーズ + プロミセス visual novel galgame vn opening full version pop japanese jpop j-pop
BeatmapID:3625970
BeatmapSetID:1769873

[Difficulty]
HPDrainRate:4
CircleSize:3.5
OverallDifficulty:3.5
ApproachRate:5
SliderMultiplier:1
SliderTickRate:1

[Events]
//Background and Video events
0,0,"1503.jpg",0,0
//Break Periods
2,22183,29996
2,155516,164663
//Storyboard Layer 0 (Background)
//Storyboard Layer 1 (Fail)
//Storyboard Layer 2 (Pass)
//Storyboard Layer 3 (Foreground)
//Storyboard Layer 4 (Overlay)
//Storyboard Sound Samples

[TimingPoints]
650,333.333333333333,4,2,10,40,1,0
650,-125,4,2,10,40,0,0
5649,-125,4,2,11,40,0,0
5983,-111.111111111111,4,2,11,60,0,0
6649,-111.111111111111,4,2,10,60,0,0
7316,-111.111111111111,4,2,11,60,0,0
7983,-111.111111111111,4,2,10,60,0,0
8649,-111.111111111111,4,2,11,60,0,0
10649,-111.111111111111,4,2,12,55,0,0
11316,-100,4,2,12,70,0,0
12483,-100,4,2,11,70,0,0
12649,-100,4,2,12,70,0,0
15149,-100,4,2,11,70,0,0
15316,-100,4,2,12,70,0,0
15816,-100,4,2,11,70,0,0
16316,-100,4,2,12,70,0,0
17149,-100,4,2,11,70,0,0
17649,-100,4,2,12,70,0,0
17815,-100,4,2,11,70,0,0
17983,-100,4,2,12,70,0,0
20982,-100,4,2,13,70,0,0
21983,-100,4,2,10,45,0,0
31316,-100,4,2,10,50,0,0
31816,-100,4,2,11,50,0,0
32649,-100,4,2,11,60,0,0
33482,-100,4,2,10,60,0,0
40649,-100,4,2,11,60,0,0
43316,-111.111111111111,4,2,13,55,0,0
47649,-111.111111111111,4,2,10,55,0,0
47983,-111.111111111111,4,2,13,55,0,0
52982,-111.111111111111,4,2,10,55,0,0
53316,-111.111111111111,4,2,13,55,0,0
53649,-111.111111111111,4,2,11,55,0,0
59316,-111.111111111111,4,2,12,55,0,0
59816,-111.111111111111,4,2,12,65,0,0
63816,-111.111111111111,4,2,11,65,0,0
64483,-111.111111111111,4,2,12,65,0,0
64649,-90.9090909090909,4,2,12,75,0,1
64815,-90.9090909090909,4,2,11,75,0,1
67316,-90.9090909090909,4,2,12,75,0,1
67482,-90.9090909090909,4,2,11,75,0,1
68983,-90.9090909090909,4,2,12,75,0,1
69149,-90.9090909090909,4,2,11,75,0,1
69983,-90.9090909090909,4,2,12,75,0,1
70483,-90.9090909090909,4,2,11,75,0,1
71983,-90.9090909090909,4,2,12,75,0,1
72483,-90.9090909090909,4,2,11,75,0,1
73316,-90.9090909090909,4,2,12,75,0,1
73483,-90.9090909090909,4,2,14,75,0,1
74649,-90.9090909090909,4,2,11,75,0,1
75316,-90.9090909090909,4,2,12,75,0,1
75816,-90.9090909090909,4,2,11,75,0,1
76983,-90.9090909090909,4,2,12,75,0,1
77149,-90.9090909090909,4,2,11,75,0,1
77983,-90.9090909090909,4,2,12,75,0,1
78483,-90.9090909090909,4,2,11,75,0,1
79316,-90.9090909090909,4,2,12,75,0,1
79482,-90.9090909090909,4,2,11,75,0,1
79649,-90.9090909090909,4,2,12,75,0,1
79816,-90.9090909090909,4,2,11,75,0,1
80649,-90.9090909090909,4,2,12,75,0,1
83316,-111.111111111111,4,2,12,70,0,0
88316,-111.111111111111,4,2,11,70,0,0
88649,-100,4,2,13,70,0,0
88982,-100,4,2,15,70,0,0
89149,-100,4,2,13,70,0,0
89316,-100,4,2,15,70,0,0
89482,-100,4,2,13,70,0,0
89649,-100,4,2,15,70,0,0
89816,-100,4,2,13,70,0,0
90649,-100,4,2,15,70,0,0
90815,-100,4,2,13,70,0,0
90982,-100,4,2,15,70,0,0
91316,-100,4,2,13,70,0,0
91649,-100,4,2,15,70,0,0
92149,-100,4,2,13,70,0,0
92316,-100,4,2,15,70,0,0
92482,-100,4,2,13,70,0,0
92649,-100,4,2,15,70,0,0
93149,-100,4,2,13,70,0,0
93983,-111.111111111111,4,2,10,60,0,0
103983,-111.111111111111,4,2,11,60,0,0
104649,-100,4,2,11,65,0,0
112982,-100,4,2,15,65,0,0
113149,-100,4,2,13,65,0,0
113316,-100,4,2,15,65,0,0
113983,-100,4,2,11,65,0,0
115316,-111.111111111111,4,2,13,65,0,0
119483,-111.111111111111,4,2,10,65,0,0
119983,-111.111111111111,4,2,13,65,0,0
124982,-111.111111111111,4,2,10,65,0,0
125316,-111.111111111111,4,2,13,65,0,0
125983,-111.111111111111,4,2,12,65,0,0
127149,-111.111111111111,4,2,11,65,0,0
128649,-111.111111111111,4,2,12,65,0,0
128982,-111.111111111111,4,2,15,40,0,0
129316,-111.111111111111,4,2,15,45,0,0
129649,-111.111111111111,4,2,15,50,0,0
129983,-111.111111111111,4,2,15,55,0,0
130316,-111.111111111111,4,2,15,60,0,0
130483,-111.111111111111,4,2,13,60,0,0
130649,-111.111111111111,4,2,15,65,0,0
130815,-111.111111111111,4,2,13,65,0,0
130982,-111.111111111111,4,2,15,70,0,0
131316,-111.111111111111,4,2,16,55,0,0
131982,-111.111111111111,4,2,15,55,0,0
132649,-111.111111111111,4,2,16,55,0,0
133316,-111.111111111111,4,2,15,55,0,0
133649,-111.111111111111,4,2,11,55,0,0
133983,-111.111111111111,4,2,12,65,0,0
134316,-111.111111111111,4,2,12,50,0,0
134649,-111.111111111111,4,2,12,55,0,0
134983,-111.111111111111,4,2,12,60,0,0
136149,-111.111111111111,4,2,12,65,0,0
136649,-90.9090909090909,4,2,12,75,0,1
137149,-90.9090909090909,4,2,11,75,0,1
139316,-90.9090909090909,4,2,12,75,0,1
139816,-90.9090909090909,4,2,11,75,0,1
140983,-90.9090909090909,4,2,12,75,0,1
141149,-90.9090909090909,4,2,11,75,0,1
141983,-90.9090909090909,4,2,12,75,0,1
142483,-90.9090909090909,4,2,11,75,0,1
143983,-90.9090909090909,4,2,12,75,0,1
145483,-90.9090909090909,4,2,14,75,0,1
146649,-90.9090909090909,4,2,12,75,0,1
147816,-90.9090909090909,4,2,11,75,0,1
148983,-90.9090909090909,4,2,12,75,0,1
149149,-90.9090909090909,4,2,11,75,0,1
149983,-90.9090909090909,4,2,12,75,0,1
151149,-90.9090909090909,4,2,11,75,0,1
151316,-90.9090909090909,4,2,12,75,0,1
151816,-90.9090909090909,4,2,11,75,0,1
152649,-90.9090909090909,4,2,12,75,0,1
155316,-90.9090909090909,4,2,12,40,0,0
165983,-125,4,2,16,50,0,0
166649,-125,4,2,15,50,0,0
167649,-125,4,2,16,50,0,0
167983,-125,4,2,15,50,0,0
168316,-125,4,2,16,50,0,0
169315,-125,4,2,15,50,0,0
169649,-125,4,2,16,50,0,0
170649,-125,4,2,15,50,0,0
171316,-125,4,2,16,50,0,0
171982,-125,4,2,15,50,0,0
172982,-125,4,2,16,50,0,0
173316,-125,4,2,15,50,0,0
173649,-125,4,2,16,50,0,0
174649,-125,4,2,15,50,0,0
176649,-111.111111111111,4,2,10,60,0,0
177316,-111.111111111111,4,2,15,60,0,0
177649,-111.111111111111,4,2,10,60,0,0
178649,-111.111111111111,4,2,15,60,0,0
179316,-111.111111111111,4,2,10,60,0,0
179983,-111.111111111111,4,2,15,60,0,0
180316,-111.111111111111,4,2,10,60,0,0
181316,-111.111111111111,4,2,15,60,0,0
181649,-111.111111111111,4,2,10,60,0,0
182649,-111.111111111111,4,2,15,60,0,0
182983,-111.111111111111,4,2,10,60,0,0
183983,-111.111111111111,4,2,15,60,0,0
184316,-111.111111111111,4,2,10,60,0,0
185315,-111.111111111111,4,2,15,60,0,0
185649,-111.111111111111,4,2,10,60,0,0
186649,-111.111111111111,4,2,15,60,0,0
186815,-111.111111111111,4,2,10,60,0,0
187316,-111.111111111111,4,2,16,60,0,0
187982,-111.111111111111,4,2,15,60,0,0
188649,-111.111111111111,4,2,12,50,0,0
191983,-111.111111111111,4,2,12,60,0,0
192649,-90.9090909090909,4,2,12,75,0,1
193149,-90.9090909090909,4,2,11,75,0,1
195316,-90.9090909090909,4,2,12,75,0,1
195816,-90.9090909090909,4,2,11,75,0,1
196982,-90.9090909090909,4,2,12,75,0,1
197149,-90.9090909090909,4,2,11,75,0,1
197983,-90.9090909090909,4,2,12,75,0,1
198149,-90.9090909090909,4,2,11,75,0,1
199983,-90.9090909090909,4,2,12,75,0,1
200483,-90.9090909090909,4,2,11,75,0,1
201316,-90.9090909090909,4,2,12,75,0,1
201483,-90.9090909090909,4,2,14,75,0,1
202649,-90.9090909090909,4,2,12,75,0,1
203816,-90.9090909090909,4,2,11,75,0,1
204983,-90.9090909090909,4,2,12,75,0,1
205149,-90.9090909090909,4,2,11,75,0,1
205983,-90.9090909090909,4,2,12,75,0,1
206149,-90.9090909090909,4,2,11,75,0,1
207316,-90.9090909090909,4,2,12,75,0,1
207816,-90.9090909090909,4,2,11,75,0,1
208482,-90.9090909090909,4,2,17,75,0,1
208649,-100,4,2,12,75,0,1
210982,-100,4,2,11,75,0,1
211316,-90.9090909090909,4,2,12,75,0,1
221316,-90.9090909090909,4,2,11,75,0,1
221983,-100,4,2,12,70,0,0
223149,-100,4,2,11,70,0,0
223316,-100,4,2,12,70,0,0
225483,-100,4,2,11,70,0,0
225649,-100,4,2,12,70,0,0
225816,-100,4,2,11,70,0,0
226649,-100,4,2,12,70,0,0
232983,333.333333333333,4,2,12,70,1,0

[Colours]
Combo1 : 203,180,137
Combo2 : 227,230,157
Combo3 : 244,191,159

[HitObjects]
172,47,650,6,0,B|127:55|108:90|108:90|69:66|23:73,2,160,2|2|2,2:1|2:0|2:1,2:0:0:0:
327,82,2649,1,2,2:0:0:0:
386,28,2983,1,0,2:0:0:0:
460,55,3316,6,0,B|447:126|447:126|438:140|438:140|423:210,1,160,2|2,2:1|2:0,2:0:0:0:
469,274,4316,1,0,2:0:0:0:
429,343,4649,2,0,P|391:328|350:329,1,80,2|0,2:1|2:0,2:0:0:0:
316,346,5149,1,0,2:0:0:0:
316,346,5316,2,0,L|299:268,1,80,2|2,2:0|2:3,2:0:0:0:
343,189,5983,6,0,B|363:155|363:155|351:105,1,90.0000000000001,14|8,2:1|2:1,2:0:0:0:
406,34,6649,2,0,L|473:47,2,67.5000000000001,8|8|8,3:0|2:0|3:0,2:0:0:0:
369,6,7316,6,0,L|281:22,1,90.0000000000001,10|8,2:1|2:1,2:0:0:0:
240,17,7816,1,0,2:0:0:0:
240,17,7983,2,0,P|225:59|225:104,1,90.0000000000001,8|8,3:0|3:1,2:0:0:0:
283,172,8649,6,0,P|330:170|374:184,1,90.0000000000001,10|10,2:1|2:1,2:0:0:0:
418,258,9316,1,10,2:1:0:0:
406,347,9649,1,10,2:1:0:0:
322,381,9983,2,0,P|244:339|159:358,1,180,8|10,2:1|2:1,2:0:0:0:
38,198,11316,6,0,P|27:148|12:100,1,100,14|8,2:1|2:0,2:0:0:0:
107,69,11983,2,0,P|118:119|133:167,1,100,10|8,2:1|2:0,2:0:0:0:
144,214,12483,1,2,2:0:0:0:
144,214,12649,1,10,2:1:0:0:
240,188,12983,1,10,2:0:0:0:
338,202,13316,1,10,2:1:0:0:
402,278,13649,1,10,2:0:0:0:
486,224,13983,6,0,P|496:172|510:126,1,100,10|8,2:1|2:0,2:0:0:0:
456,42,14649,2,0,P|404:32|358:18,1,100,10|10,2:1|2:0,2:0:0:0:
310,6,15149,1,2,2:3:0:0:
310,6,15316,2,0,P|289:51|299:99,1,100,10|8,2:1|2:0,2:0:0:0:
328,139,15816,2,0,L|307:238,1,100,2|2,2:0|2:3,2:0:0:0:
328,282,16316,1,10,2:0:0:0:
272,364,16649,6,0,P|232:346|173:355,1,100,14|8,2:1|2:0,2:0:0:0:
133,375,17149,1,2,2:3:0:0:
34,355,17483,1,2,2:3:0:0:
34,355,17649,2,0,L|23:305,1,50,10|2,2:0|2:3,2:0:0:0:
9,257,17983,6,0,L|110:272,1,100,10|10,2:1|2:0,2:0:0:0:
172,195,18649,1,10,2:1:0:0:
270,177,18983,1,10,2:0:0:0:
351,234,19316,6,0,P|398:255|452:251,1,100,14|8,2:1|2:0,2:0:0:0:
490,231,19816,1,8,2:1:0:0:
511,133,20149,1,8,2:1:0:0:
461,51,20483,1,8,2:0:0:0:
461,51,20649,2,0,P|414:62|364:75,1,100,10|8,2:1|2:0,2:0:0:0:
267,48,21316,2,0,L|276:0,2,50,8|8|8,2:0|2:0|2:0,2:0:0:0:
243,145,21983,5,2,2:1:0:0:
248,16,31316,6,0,B|219:48|219:48|113:29,1,150,2|8,2:0|2:3,2:0:0:0:
34,88,32149,1,4,2:3:0:0:
34,88,32316,2,0,L|46:139,1,50,4|8,2:3|2:3,2:0:0:0:
40,186,32649,6,0,P|80:162|134:162,1,100,4|8,2:0|2:1,2:0:0:0:
177,182,33149,2,0,L|275:162,1,100,0|8,2:0|3:0,2:0:0:0:
321,179,33649,1,8,3:1:0:0:
393,109,33983,2,0,B|412:65|412:65|401:9,2,100,8|8|8,2:1|2:1|2:1,2:0:0:0:
480,157,34983,1,8,2:1:0:0:
433,245,35316,6,0,P|380:256|334:271,1,100,8|8,2:1|2:1,2:0:0:0:
252,324,35983,2,0,P|250:351|245:378,2,50,8|8|8,2:1|3:0|3:1,2:0:0:0:
176,258,36649,2,0,P|187:209|197:159,1,100,8|8,2:1|2:1,2:0:0:0:
292,191,37316,1,8,2:1:0:0:
376,137,37649,1,8,2:1:0:0:
360,37,37983,6,0,P|312:32|261:20,1,100,8|8,2:1|2:1,2:0:0:0:
163,0,38649,2,0,P|116:16|64:31,1,100,8|8,2:1|3:1,2:0:0:0:
38,71,39149,1,8,3:0:0:0:
38,71,39316,2,0,P|29:123|14:176,1,100,8|8,2:1|2:1,2:0:0:0:
91,234,39983,1,8,2:1:0:0:
190,224,40316,1,8,2:1:0:0:
260,152,40649,6,0,P|269:103|282:54,2,100,10|10|10,2:1|2:1|2:1,2:0:0:0:
351,193,41649,1,10,3:1:0:0:
441,149,41983,2,0,P|466:195|462:254,1,100,12|8,2:1|2:1,2:0:0:0:
444,287,42483,1,8,2:1:0:0:
444,287,42649,2,0,L|457:341,2,50,8|8|8,2:0|3:0|2:1,2:0:0:0:
347,307,43316,6,0,L|169:288,1,180,14|10,2:1|2:0,2:0:0:0:
88,330,44316,1,2,2:1:0:0:
12,280,44649,2,0,P|-4:238|-5:189,1,90.0000000000001,2|10,2:1|2:1,2:0:0:0:
13,105,45316,2,0,P|64:95|101:69,1,90.0000000000001,10|2,2:0|2:1,2:0:0:0:
119,36,45816,1,8,2:0:0:0:
119,36,45983,6,0,P|176:39|212:57,1,90.0000000000001,10|2,2:1|2:1,2:0:0:0:
258,124,46649,1,10,2:0:0:0:
218,204,46983,1,2,2:1:0:0:
254,286,47316,2,0,P|301:294|344:305,1,90.0000000000001,2|4,2:1|2:3,2:0:0:0:
411,361,47983,1,10,2:0:0:0:
493,325,48316,1,2,2:1:0:0:
488,235,48649,6,0,P|529:155|499:65,1,180,14|10,1:0|2:0,2:0:0:0:
435,24,49649,1,2,2:1:0:0:
435,24,49816,2,0,L|343:46,1,90.0000000000001,8|8,2:0|2:0,2:0:0:0:
262,14,50483,2,0,L|242:103,1,90.0000000000001,8|0,2:1|2:0,2:0:0:0:
229,145,50983,1,2,2:1:0:0:
291,209,51316,6,0,P|333:191|377:196,1,90.0000000000001,10|2,2:1|2:1,2:0:0:0:
416,226,51816,1,8,2:1:0:0:
416,226,51983,2,0,L|459:215,2,45,10|0|2,2:0|2:0|2:1,2:0:0:0:
396,313,52649,2,0,L|305:336,1,90.0000000000001,2|6,2:1|2:3,2:0:0:0:
222,310,53316,1,8,2:0:0:0:
151,367,53649,1,8,2:0:0:0:
64,342,53983,6,0,P|51:299|35:256,1,90.0000000000001,12|8,2:1|2:1,2:0:0:0:
58,170,54649,1,8,2:1:0:0:
152,154,54983,1,8,2:0:0:0:
152,154,55149,1,8,2:0:0:0:
152,154,55316,2,0,P|194:172|249:167,1,90.0000000000001,8|8,2:0|2:1,2:0:0:0:
324,145,55983,1,8,2:1:0:0:
390,205,56316,1,8,2:1:0:0:
479,157,56649,6,0,P|488:113|502:66,1,90.0000000000001,8|8,2:0|2:1,2:0:0:0:
440,2,57316,1,8,2:1:0:0:
360,43,57649,1,8,2:1:0:0:
277,6,57983,6,0,B|248:90|248:90|275:145,1,135,8|8,2:1|2:0,2:0:0:0:
296,166,58649,2,0,L|276:253,1,90.0000000000001,8|4,2:3|2:3,2:0:0:0:
337,319,59316,6,0,B|395:288|395:288|465:299,2,135,14|12|12,2:1|2:0|2:0,2:0:0:0:
257,362,60649,1,8,2:0:0:0:
257,362,60816,2,0,L|166:348,1,90.0000000000001,12|8,2:0|2:0,2:0:0:0:
127,367,61316,1,12,2:0:0:0:
39,346,61649,1,12,2:0:0:0:
11,260,61983,6,0,P|21:214|28:169,1,90.0000000000001,14|10,2:0|2:0,2:0:0:0:
64,146,62483,1,8,2:1:0:0:
64,146,62649,2,0,L|74:102,2,45,10|8|10,2:0|2:0|2:0,2:0:0:0:
127,209,63316,2,0,P|176:200|217:187,1,90.0000000000001,8|8,2:0|2:0,2:0:0:0:
255,205,63816,1,6,2:3:0:0:
379,74,64483,5,2,2:0:0:0:
379,74,64649,2,0,L|391:21,2,55,14|2|8,2:1|2:0|2:0,2:0:0:0:
402,123,65149,2,0,P|457:123|504:155,1,110,2|2,2:0|2:0,2:0:0:0:
475,262,65816,5,2,2:0:0:0:
475,262,65983,2,0,L|487:317,1,55,8|2,2:1|2:0,2:0:0:0:
467,367,66316,1,8,2:0:0:0:
467,367,66483,2,0,P|412:356|356:352,1,110,2|2,2:0|2:0,2:0:0:0:
252,360,67149,5,2,2:0:0:0:
252,360,67316,2,0,P|245:332|235:302,2,55,10|2|8,2:1|2:0|2:0,2:0:0:0:
324,277,67983,1,8,2:1:0:0:
289,177,68316,1,8,2:0:0:0:
289,177,68483,2,0,P|297:124|311:66,1,110,2|2,2:0|2:0,2:0:0:0:
281,28,68983,1,10,2:0:0:0:
281,28,69149,2,0,P|232:51|174:47,1,110,2|2,2:0|2:0,2:0:0:0:
127,24,69649,1,8,2:0:0:0:
32,83,69983,6,0,B|13:128|13:128|31:191,1,110,14|8,2:1|2:0,2:0:0:0:
26,241,70483,2,0,P|79:227|133:217,1,110,2|2,2:0|2:0,2:0:0:0:
185,234,70983,1,8,2:0:0:0:
280,180,71316,2,0,P|250:129|264:65,1,110,8|8,2:1|2:0,2:0:0:0:
292,39,71816,1,2,2:0:0:0:
292,39,71983,2,0,P|348:29|401:15,1,110,10|8,2:1|2:0,2:0:0:0:
445,45,72483,5,2,2:0:0:0:
445,45,72649,2,0,P|475:38|501:28,2,55,8|2|8,2:1|2:0|2:0,2:0:0:0:
482,153,73316,1,10,2:1:0:0:
482,153,73483,2,0,P|473:180|467:209,1,55,10|8,2:1|2:0,2:0:0:0:
475,260,73816,1,14,2:1:0:0:
431,360,74149,1,10,2:1:0:0:
327,340,74483,1,14,2:0:0:0:
327,340,74649,2,0,P|301:353|273:362,2,55,8|8|8,2:3|2:0|2:0,2:0:0:0:
320,229,75316,6,0,P|328:174|340:120,1,110,14|8,2:1|2:0,2:0:0:0:
385,91,75816,2,0,P|386:37|345:2,1,110,2|2,2:0|2:0,2:0:0:0:
241,25,76483,1,2,2:0:0:0:
241,25,76649,2,0,P|211:34|181:40,1,55,8|2,2:1|2:0,2:0:0:0:
140,22,76983,1,10,2:0:0:0:
140,22,77149,2,0,P|86:18|45:53,1,110,2|2,2:0|2:0,2:0:0:0:
25,103,77649,1,8,2:0:0:0:
92,194,77983,6,0,P|144:178|200:168,1,110,10|8,2:1|2:0,2:0:0:0:
248,192,78483,1,2,2:0:0:0:
248,192,78649,2,0,P|254:133|271:83,1,110,8|8,2:1|2:0,2:0:0:0:
365,29,79316,2,0,P|401:37|425:41,1,55,10|2,2:1|2:0,2:0:0:0:
472,25,79649,1,10,2:0:0:0:
472,25,79816,2,0,P|497:74|486:136,1,110,2|2,2:0|2:0,2:0:0:0:
464,175,80316,1,8,2:0:0:0:
505,276,80649,6,0,P|459:286|396:307,1,110,14|12,2:1|2:0,2:0:0:0:
315,377,81316,1,14,2:0:0:0:
209,346,81649,1,12,2:0:0:0:
192,241,81983,1,10,2:0:0:0:
192,241,82149,1,10,2:0:0:0:
419,23,83316,6,0,P|459:41|509:45,2,90.0000000000001,8|8|8,3:1|2:1|2:1,2:0:0:0:
337,61,84316,1,8,2:1:0:0:
337,61,84483,2,0,L|248:75,1,90.0000000000001,0|0,3:0|2:0,2:0:0:0:
168,32,85149,2,0,P|126:15|77:24,1,90.0000000000001,0|0,2:0|3:0,2:0:0:0:
43,43,85649,1,8,2:1:0:0:
5,124,85983,6,0,L|21:213,1,90.0000000000001,10|8,2:1|2:1,2:0:0:0:
13,257,86483,1,0,2:0:0:0:
13,257,86649,2,0,P|55:236|100:237,1,90.0000000000001,8|8,2:1|2:1,2:0:0:0:
184,260,87316,6,0,P|196:216|206:172,1,90.0000000000001,10|10,2:1|2:1,2:0:0:0:
182,134,87816,1,0,2:0:0:0:
182,134,87983,2,0,L|135:144,2,45,10|0|14,2:1|3:0|2:3,2:0:0:0:
234,49,88649,6,0,P|279:68|331:63,1,100,14|8,2:1|1:0,2:0:0:0:
378,47,89149,1,8,2:0:0:0:
378,47,89316,2,0,L|391:-5,2,50,8|8|8,1:0|2:0|1:0,2:0:0:0:
417,77,89816,1,8,2:0:0:0:
386,172,90149,1,8,2:0:0:0:
452,246,90483,1,8,2:0:0:0:
452,246,90649,2,0,L|500:235,2,50,8|8|8,1:0|2:0|1:0,2:0:0:0:
410,337,91316,6,0,B|361:350|361:350|360:351|360:351|311:363,1,100,12|8,1:0|1:0,2:0:0:0:
239,294,91983,2,0,L|249:243,1,50,8|8,1:0|2:0,2:0:0:0:
292,221,92316,2,0,L|302:170,1,50,8|8,1:0|2:0,2:0:0:0:
343,143,92649,2,0,P|362:96|356:48,1,100,8|8,1:0|1:0,2:0:0:0:
317,15,93149,2,0,L|212:37,1,100,8|8,2:0|2:0,2:0:0:0:
129,74,93816,5,8,2:0:0:0:
129,74,93983,2,0,P|83:64|39:59,2,90.0000000000001,12|8|8,2:1|2:1|2:1,2:0:0:0:
185,144,94983,1,8,3:1:0:0:
268,110,95316,2,0,P|311:98|356:91,1,90.0000000000001,8|8,2:1|2:1,2:0:0:0:
439,58,95983,1,8,2:1:0:0:
511,111,96316,1,8,2:1:0:0:
508,200,96649,6,0,P|495:244|487:288,1,90.0000000000001,8|8,2:1|2:1,2:0:0:0:
465,328,97149,1,0,2:0:0:0:
465,328,97316,2,0,P|475:358|479:377,2,45,8|8|8,2:1|3:0|3:1,2:0:0:0:
385,370,97983,2,0,P|340:361|294:358,1,90.0000000000001,8|8,2:1|2:1,2:0:0:0:
280,269,98649,2,0,P|324:277|371:281,1,90.0000000000001,8|8,2:1|2:1,2:0:0:0:
410,259,99149,1,8,3:0:0:0:
410,259,99316,6,0,P|431:218|423:173,1,90.0000000000001,8|8,2:1|2:1,2:0:0:0:
401,137,99816,2,0,L|314:157,1,90.0000000000001,0|8,2:0|3:0,2:0:0:0:
268,164,100316,1,8,3:1:0:0:
203,226,100649,2,0,L|195:271,2,45,8|0|8,2:1|2:0|2:1,2:0:0:0:
128,175,101316,2,0,P|86:182|34:164,1,90.0000000000001,8|8,2:1|2:1,2:0:0:0:
14,132,101816,1,8,3:0:0:0:
14,132,101983,6,0,L|30:42,1,90.0000000000001,8|8,2:1|2:1,2:0:0:0:
115,15,102649,1,8,2:1:0:0:
195,56,102983,1,8,3:1:0:0:
273,11,103316,2,0,P|289:55|287:99,1,90.0000000000001,12|8,2:1|2:1,2:0:0:0:
262,135,103816,1,8,2:1:0:0:
262,135,103983,2,0,L|210:147,2,45,8|8|2,2:0|3:0|2:3,2:0:0:0:
351,179,104649,6,0,P|386:152|448:158,1,100,12|8,2:1|2:0,2:0:0:0:
483,177,105149,1,2,2:3:0:0:
465,278,105483,1,2,2:3:0:0:
465,278,105649,2,0,P|414:291|367:308,1,100,8|8,2:0|2:1,2:0:0:0:
286,363,106316,1,8,2:0:0:0:
190,333,106649,1,8,2:1:0:0:
174,233,106983,1,8,2:0:0:0:
254,173,107316,6,0,P|271:126|262:75,1,100,8|8,2:1|2:0,2:0:0:0:
298,42,107816,1,2,2:3:0:0:
298,42,107983,2,0,L|348:52,2,50,8|2|8,2:1|2:3|2:0,2:0:0:0:
205,3,108649,2,0,P|156:21|110:33,1,100,8|8,2:1|2:0,2:0:0:0:
18,0,109316,2,0,P|6:49|-1:101,1,100,8|8,2:1|2:0,2:0:0:0:
27,139,109816,1,2,2:3:0:0:
27,139,109983,6,0,L|17:189,2,50,12|2|8,2:1|2:3|2:0,2:0:0:0:
122,168,110649,2,0,P|172:157|222:142,1,100,8|8,2:1|2:0,2:0:0:0:
307,189,111316,2,0,P|302:219|295:243,2,50,8|2|8,2:1|2:3|2:0,2:0:0:0:
335,147,111816,1,2,2:3:0:0:
335,147,111983,2,0,P|382:166|430:158,1,100,8|8,2:1|2:0,2:0:0:0:
497,231,112649,6,0,P|485:284|473:333,1,100,12|8,2:1|1:0,2:0:0:0:
464,377,113149,1,8,2:0:0:0:
464,377,113316,1,8,1:0:0:0:
372,336,113649,1,8,1:0:0:0:
279,375,113983,2,0,P|264:323|271:278,1,100,8|12,2:3|2:0,2:0:0:0:
342,208,114649,2,0,L|391:218,2,50,8|8|8,2:0|2:0|2:3,2:0:0:0:
283,126,115316,6,0,L|181:147,2,90.0000000000001,14|2|10,2:1|2:1|2:0,2:0:0:0:
343,59,116316,1,2,2:1:0:0:
264,14,116649,1,2,2:1:0:0:
264,14,116816,2,0,L|174:33,1,90.0000000000001,8|0,2:0|2:0,2:0:0:0:
135,12,117316,2,0,P|85:10|38:39,1,90.0000000000001,10|2,2:0|2:1,2:0:0:0:
25,64,117816,1,8,2:0:0:0:
25,64,117983,6,0,P|36:107|47:158,1,90.0000000000001,10|2,2:1|2:1,2:0:0:0:
26,239,118649,1,10,2:0:0:0:
89,303,118983,1,2,2:1:0:0:
169,262,119316,1,2,2:1:0:0:
169,262,119483,2,0,P|213:248|258:237,1,90.0000000000001,4|4,2:3|2:3,2:0:0:0:
297,254,119983,2,0,P|306:206|323:162,1,90.0000000000001,10|2,2:0|2:1,2:0:0:0:
283,85,120649,6,0,P|344:24|433:31,1,180,14|10,1:0|2:0,2:0:0:0:
490,99,121649,1,2,2:1:0:0:
490,99,121816,2,0,P|477:141|469:189,1,90.0000000000001,8|8,2:0|2:0,2:0:0:0:
504,269,122483,1,8,2:1:0:0:
454,345,122816,1,0,2:0:0:0:
454,345,122983,2,0,P|429:349|408:356,1,45,2|8,2:1|2:0,2:0:0:0:
371,377,123316,6,0,P|327:365|279:363,1,90.0000000000001,10|2,2:1|2:1,2:0:0:0:
241,379,123816,1,8,2:1:0:0:
241,379,123983,2,0,L|197:369,2,45,10|0|2,2:0|2:0|2:1,2:0:0:0:
249,289,124649,6,0,P|243:242|229:192,1,90.0000000000001,2|4,2:1|2:3,2:0:0:0:
270,175,125149,1,0,2:0:0:0:
270,175,125316,2,0,L|318:188,2,45,8|8|2,2:0|2:1|2:1,2:0:0:0:
316,97,125983,6,0,P|322:53|306:11,1,90.0000000000001,14|8,2:1|2:1,2:0:0:0:
216,2,126649,2,0,P|171:16|126:24,1,90.0000000000001,8|8,2:1|2:1,2:0:0:0:
86,7,127149,1,2,2:3:0:0:
86,7,127316,2,0,P|76:55|60:101,1,90.0000000000001,8|8,2:1|2:1,2:0:0:0:
115,166,127983,1,8,2:1:0:0:
198,132,128316,1,8,2:3:0:0:
270,185,128649,6,0,P|319:174|359:160,1,90.0000000000001,14|8,2:1|1:0,2:0:0:0:
421,98,129316,1,8,1:0:0:0:
506,124,129649,1,8,1:0:0:0:
502,214,129983,6,0,P|488:257|482:301,1,90.0000000000001,8|8,1:0|1:0,2:0:0:0:
456,338,130483,1,8,2:0:0:0:
456,338,130649,2,0,P|463:360|467:382,2,45,8|8|8,1:0|2:0|1:0,2:0:0:0:
365,340,131316,6,0,B|322:335|277:361|277:361|262:322|215:302,2,180,8|8|8,3:1|2:0|2:1,2:0:0:0:
399,256,132983,1,8,2:1:0:0:
350,180,133316,2,0,P|361:134|377:94,1,90.0000000000001,8|4,2:0|2:3,2:0:0:0:
325,20,133983,6,0,P|280:34|236:42,1,90.0000000000001,14|8,2:1|2:0,2:0:0:0:
152,14,134649,1,8,2:0:0:0:
62,22,134983,1,8,2:0:0:0:
9,95,135316,2,0,P|2:138|23:188,1,90.0000000000001,8|8,2:0|2:0,2:0:0:0:
51,210,135816,1,8,2:0:0:0:
135,174,136149,1,8,2:1:0:0:
135,174,136316,2,0,L|181:184,1,45,8|8,2:0|2:0,2:0:0:0:
226,211,136649,6,0,B|282:200|282:200|286:197|286:197|345:184,1,110,14|8,2:1|2:0,2:0:0:0:
375,151,137149,1,2,2:0:0:0:
480,183,137483,1,2,2:0:0:0:
500,290,137816,1,2,2:0:0:0:
500,290,137983,2,0,P|490:319|484:347,1,55,8|2,2:1|2:0,2:0:0:0:
442,378,138316,1,8,2:0:0:0:
442,378,138483,2,0,P|389:355|332:362,1,110,2|2,2:0|2:0,2:0:0:0:
263,287,139149,5,2,2:0:0:0:
263,287,139316,2,0,P|274:230|291:180,1,110,10|8,2:1|2:0,2:0:0:0:
328,140,139816,1,2,2:0:0:0:
328,140,139983,1,8,2:1:0:0:
295,40,140316,1,8,2:0:0:0:
295,40,140483,2,0,P|244:62|185:56,1,110,2|2,2:0|2:0,2:0:0:0:
143,30,140983,1,10,2:0:0:0:
143,30,141149,1,2,2:0:0:0:
39,67,141483,1,2,2:0:0:0:
39,67,141649,2,0,L|26:121,1,55,8|2,2:0|2:0,2:0:0:0:
18,175,141983,6,0,B|71:165|71:165|74:163|74:163|145:149,1,110,14|8,2:1|2:0,2:0:0:0:
177,135,142483,1,2,2:0:0:0:
272,189,142816,2,0,L|258:242,2,55,2|8|2,2:0|2:0|2:0,2:0:0:0:
321,164,143316,2,0,B|336:123|336:123|320:59,1,110,8|8,2:1|2:0,2:0:0:0:
348,13,143816,1,2,2:0:0:0:
348,13,143983,2,0,P|405:25|457:34,1,110,10|8,2:1|2:0,2:0:0:0:
496,136,144649,6,0,P|484:193|475:245,1,110,8|8,2:1|2:0,2:0:0:0:
487,353,145316,1,10,2:1:0:0:
487,353,145483,2,0,P|460:345|433:342,1,55,10|8,2:1|2:0,2:0:0:0:
383,365,145816,2,0,P|326:370|277:340,1,110,14|10,2:1|2:1,2:0:0:0:
212,266,146483,1,14,2:1:0:0:
212,266,146649,2,0,L|159:278,2,55,10|8|8,2:1|2:1|2:0,2:0:0:0:
297,195,147316,6,0,B|316:162|316:162|296:90,1,110,14|8,2:1|2:0,2:0:0:0:
319,42,147816,2,0,P|260:37|208:27,1,110,2|2,2:0|2:0,2:0:0:0:
101,9,148483,1,2,2:0:0:0:
101,9,148649,2,0,P|72:22|38:29,1,55,8|2,2:1|2:0,2:0:0:0:
20,74,148983,1,10,2:0:0:0:
20,74,149149,2,0,P|4:132|19:185,1,110,2|2,2:0|2:0,2:0:0:0:
53,219,149649,2,0,L|109:205,1,55,8|2,2:0|2:0,2:0:0:0:
152,236,149983,6,0,P|136:291|124:355,1,110,10|8,2:1|2:0,2:0:0:0:
234,361,150649,2,0,P|250:306|262:242,1,110,8|8,2:1|2:0,2:0:0:0:
313,233,151149,1,2,2:0:0:0:
313,233,151316,2,0,P|358:263|412:259,1,110,10|10,2:1|2:0,2:0:0:0:
460,235,151816,1,2,2:0:0:0:
500,135,152149,1,2,2:0:0:0:
500,135,152316,1,8,2:0:0:0:
445,39,152649,6,0,P|387:31|336:16,1,110,14|12,2:1|2:0,2:0:0:0:
228,30,153316,1,14,2:0:0:0:
188,132,153649,1,12,2:0:0:0:
256,225,153983,1,14,2:0:0:0:
256,225,154149,1,10,2:0:0:0:
256,225,155316,5,2,2:0:0:0:
328,26,165983,6,0,B|253:42|253:42|246:46|246:46|160:64,1,160,8|8,2:1|2:0,2:0:0:0:
107,14,166983,1,2,2:0:0:0:
35,50,167316,2,0,B|22:87|22:87|34:125,1,80,0|8,2:0|2:1,2:0:0:0:
19,204,167983,2,0,L|98:214,1,80,8|8,2:0|2:1,2:0:0:0:
167,254,168649,6,0,B|213:258|246:227|228:218|259:187|315:198,1,160,8|8,2:1|2:0,2:0:0:0:
371,147,169649,1,8,2:1:0:0:
446,172,169983,2,0,P|455:211|466:252,1,80,2|8,2:0|2:1,2:0:0:0:
481,291,170483,1,8,2:1:0:0:
481,291,170649,2,0,P|434:299|406:315,1,80,8|2,2:0|2:0,2:0:0:0:
345,367,171316,6,0,P|269:366|218:299,1,160,8|8,2:1|2:0,2:0:0:0:
208,225,172316,1,2,2:0:0:0:
264,168,172649,2,0,P|273:128|286:90,1,80,0|8,2:0|2:1,2:0:0:0:
282,55,173149,1,8,2:1:0:0:
282,55,173316,2,0,P|242:46|204:33,1,80,8|8,2:0|2:1,2:0:0:0:
127,15,173983,6,0,P|50:16|-1:78,1,160,8|8,2:1|2:0,2:0:0:0:
66,221,175316,2,0,P|146:195|223:173,1,160,2|8,2:0|2:0,2:0:0:0:
380,95,176649,6,0,L|391:51,2,45,8|8|8,2:1|2:1|3:0,2:0:0:0:
446,156,177316,2,0,P|466:193|466:240,1,90.0000000000001,8|8,2:0|2:1,2:0:0:0:
485,280,177816,1,8,2:3:0:0:
485,280,177983,2,0,P|440:290|399:303,1,90.0000000000001,8|8,2:1|3:0,2:0:0:0:
329,361,178649,1,8,2:0:0:0:
238,205,179316,6,0,P|250:161|260:115,1,90.0000000000001,8|8,2:1|3:0,2:0:0:0:
287,83,179816,1,8,2:1:0:0:
287,83,179983,1,8,2:0:0:0:
231,11,180316,1,8,2:1:0:0:
142,28,180649,2,0,P|97:43|50:53,1,90.0000000000001,8|8,2:1|3:0,2:0:0:0:
21,135,181316,2,0,P|11:181|-3:227,1,90.0000000000001,8|8,2:0|2:1,2:0:0:0:
37,303,181983,6,0,B|102:286|102:286|149:294|149:294|222:276,1,180,8|8,2:1|2:0,2:0:0:0:
294,314,182983,1,8,2:1:0:0:
360,253,183316,2,0,P|369:209|385:167,1,90.0000000000001,8|8,2:1|3:0,2:0:0:0:
313,112,183983,2,0,P|271:126|226:137,1,90.0000000000001,8|8,2:0|2:1,2:0:0:0:
173,64,184649,6,0,P|260:42|345:14,1,180,8|8,2:1|2:0,2:0:0:0:
435,17,185649,1,8,2:1:0:0:
480,94,185983,2,0,B|465:137|459:182,1,90.0000000000001,8|8,2:1|3:0,2:0:0:0:
456,229,186483,1,8,2:1:0:0:
456,229,186649,2,0,P|462:252|469:278,2,45,8|8|8,2:0|2:1|2:1,2:0:0:0:
372,261,187316,6,0,B|308:251|308:251|263:267|263:267|182:256,2,180,12|8|2,2:1|2:0|2:0,2:0:0:0:
401,83,189316,1,2,2:0:0:0:
235,12,189983,6,0,B|197:24|190:26|147:33,2,90.0000000000001,10|8|8,2:1|2:1|2:1,2:0:0:0:
294,79,190983,1,8,2:1:0:0:
262,163,191316,2,0,B|219:170|212:172|174:184,1,90.0000000000001,8|8,2:1|2:1,2:0:0:0:
103,137,191983,1,8,2:0:0:0:
103,137,192149,1,8,2:0:0:0:
27,185,192483,5,2,2:0:0:0:
27,185,192649,2,0,B|6:241|6:241|27:295,1,110,14|8,2:1|2:0,2:0:0:0:
14,341,193149,2,0,L|122:318,1,110,2|2,2:0|2:0,2:0:0:0:
223,359,193816,5,2,2:0:0:0:
223,359,193983,2,0,P|229:330|238:305,1,55,8|2,2:1|2:0,2:0:0:0:
276,266,194316,1,8,2:0:0:0:
276,266,194483,2,0,P|251:217|252:161,1,110,2|2,2:0|2:0,2:0:0:0:
223,61,195149,1,2,2:0:0:0:
223,61,195316,6,0,L|330:38,1,110,10|8,2:1|2:0,2:0:0:0:
375,5,195816,1,2,2:0:0:0:
375,5,195983,2,0,P|434:13|465:53,1,110,8|8,2:1|2:0,2:0:0:0:
474,104,196483,1,2,2:0:0:0:
446,210,196816,2,0,L|460:264,1,55,2|10,2:0|2:0,2:0:0:0:
496,304,197149,2,0,B|440:318|440:318|436:320|436:320|386:332,1,110,2|2,2:0|2:0,2:0:0:0:
336,345,197649,1,8,2:0:0:0:
260,265,197983,6,0,L|272:211,1,55,14|2,2:1|2:0,2:0:0:0:
314,176,198316,1,8,2:0:0:0:
314,176,198483,2,0,P|341:127|334:68,1,110,2|2,2:0|2:0,2:0:0:0:
304,30,198983,1,8,2:0:0:0:
304,30,199149,2,0,L|190:53,1,110,2|2,2:0|2:0,2:0:0:0:
142,62,199649,1,8,2:0:0:0:
34,39,199983,2,0,B|13:94|13:94|32:153,1,110,10|8,2:1|2:0,2:0:0:0:
51,192,200483,1,2,2:0:0:0:
51,192,200649,6,0,L|35:247,2,55,8|2|8,2:1|2:0|2:0,2:0:0:0:
157,164,201316,1,10,2:1:0:0:
157,164,201483,2,0,L|212:153,1,55,10|8,2:1|2:0,2:0:0:0:
261,176,201816,2,0,P|308:146|365:148,1,110,14|10,2:1|2:1,2:0:0:0:
462,100,202483,1,14,2:1:0:0:
462,100,202649,2,0,L|475:46,2,55,10|8|8,2:1|2:1|2:0,2:0:0:0:
507,200,203316,6,0,L|485:309,1,110,14|8,2:1|2:0,2:0:0:0:
473,361,203816,2,0,P|424:337|366:339,1,110,2|2,2:0|2:0,2:0:0:0:
263,369,204483,1,2,2:0:0:0:
263,369,204649,2,0,L|210:356,1,55,8|2,2:1|2:0,2:0:0:0:
155,365,204983,1,10,2:0:0:0:
155,365,205149,2,0,B|143:313|143:313|141:309|141:309|126:244,1,110,2|2,2:0|2:0,2:0:0:0:
114,205,205649,1,8,2:0:0:0:
178,115,205983,6,0,L|231:126,2,55,10|2|8,2:1|2:0|2:0,2:0:0:0:
146,9,206649,2,0,B|97:21|97:21|94:24|94:24|30:42,1,110,8|8,2:1|2:0,2:0:0:0:
4,80,207149,1,2,2:0:0:0:
4,80,207316,2,0,P|-7:134|17:185,1,110,10|10,2:1|2:0,2:0:0:0:
50,224,207816,1,2,2:0:0:0:
18,331,208149,1,2,2:0:0:0:
18,331,208316,2,0,P|45:335|74:345,1,55,8|10,2:0|2:1,2:0:0:0:
117,373,208649,6,0,L|215:354,1,100,14|6,2:1|2:0,2:0:0:0:
312,378,209316,2,0,P|323:329|331:279,1,100,10|6,2:0|2:0,2:0:0:0:
310,239,209816,1,8,2:1:0:0:
310,239,209983,2,0,P|265:257|212:248,1,100,10|8,2:0|2:0,2:0:0:0:
176,217,210483,1,8,2:0:0:0:
176,217,210649,2,0,L|127:231,2,50,8|8|8,2:0|2:0|2:3,2:0:0:0:
198,109,211316,6,0,B|250:95|250:95|254:92|254:92|322:73,1,110,14|8,2:1|2:0,2:0:0:0:
356,90,211816,1,8,2:1:0:0:
356,90,211983,2,0,L|370:34,2,55,8|8|8,2:0|2:1|2:0,2:0:0:0:
327,195,212649,2,0,P|384:194|431:167,1,110,10|8,2:0|2:0,2:0:0:0:
475,137,213149,1,8,2:1:0:0:
475,137,213316,2,0,B|523:173|511:243,1,110,10|8,2:0|2:0,2:0:0:0:
498,287,213816,5,10,2:1:0:0:
498,287,213983,2,0,L|387:315,1,110,14|8,2:0|2:0,2:0:0:0:
300,375,214649,2,0,B|276:328|276:328|287:258,1,110,8|8,2:0|2:0,2:0:0:0:
360,190,215316,2,0,L|347:130,1,55,10|8,2:0|2:1,2:0:0:0:
375,88,215649,2,0,L|362:28,1,55,8|8,2:0|2:1,2:0:0:0:
310,19,215983,2,0,P|259:40|206:36,1,110,10|8,2:0|2:0,2:0:0:0:
99,4,216649,6,0,P|84:57|71:112,1,110,14|8,2:1|2:0,2:0:0:0:
144,192,217316,2,0,P|197:179|250:164,1,110,8|8,2:0|2:0,2:0:0:0:
298,190,217816,1,8,2:1:0:0:
298,190,217983,1,10,2:0:0:0:
372,109,218316,1,8,2:0:0:0:
477,140,218649,2,0,P|463:196|452:249,1,110,10|8,2:0|2:0,2:0:0:0:
484,352,219316,5,14,2:1:0:0:
484,352,219483,2,0,L|431:364,1,55,10|10,2:1|2:0,2:0:0:0:
377,378,219816,2,0,B|332:354|332:354|276:372,1,110,14|10,2:1|2:1,2:0:0:0:
191,300,220483,2,0,P|203:246|218:193,1,110,14|10,2:1|2:1,2:0:0:0:
304,125,221149,1,8,2:1:0:0:
304,125,221316,2,0,L|357:114,2,55,8|8|8,2:3|2:0|2:3,2:0:0:0:
252,38,221983,6,0,P|204:48|154:57,1,100,14|8,2:1|2:0,2:0:0:0:
59,25,222649,2,0,P|47:75|34:122,1,100,10|10,2:1|2:0,2:0:0:0:
7,164,223149,1,2,2:3:0:0:
7,164,223316,1,10,2:1:0:0:
17,263,223649,1,8,2:0:0:0:
106,308,223983,1,10,2:1:0:0:
202,282,224316,1,10,2:0:0:0:
278,346,224649,6,0,P|323:331|376:321,1,100,14|8,2:1|2:0,2:0:0:0:
476,347,225316,1,10,2:1:0:0:
476,347,225483,2,0,L|490:299,1,50,2|10,2:3|2:0,2:0:0:0:
511,253,225816,2,0,P|513:201|489:158,1,100,2|2,2:3|2:3,2:0:0:0:
449,131,226316,1,8,2:0:0:0:
350,144,226649,2,0,P|325:141|301:136,2,50,10|8|12,2:1|2:1|2:0,2:0:0:0:
357,243,227316,6,0,P|309:229|259:225,1,100,14|14,2:0|2:0,2:0:0:0:
203,308,227983,2,0,P|177:316|155:325,1,50,14|8,2:0|2:1,2:0:0:0:
112,300,228316,2,0,P|86:292|64:283,1,50,14|8,2:0|2:1,2:0:0:0:
18,302,228649,2,0,P|9:249|-2:202,1,100,14|14,2:0|2:0,2:0:0:0:
27,163,229149,1,8,2:1:0:0:
27,163,229316,2,0,L|14:113,2,50,14|8|14,2:0|2:1|2:0,2:0:0:0:
122,192,229983,5,10,2:0:0:0:
122,192,230149,1,10,2:0:0:0:
219,160,230483,1,10,2:0:0:0:
219,160,230649,2,0,P|230:206|215:257,1,100,10|8,2:0|2:0,2:0:0:0:
238,300,231149,2,0,B|309:286|309:286|312:288|312:288|384:273,1,150,14|8,2:1|2:0,2:0:0:0:
466,215,231983,6,0,L|478:166,1,50,8|8,2:0|2:1,2:0:0:0:
500,121,232316,1,8,2:0:0:0:
500,121,232483,2,0,B|460:133|426:115|439:102|396:81|353:101,1,150,8|14,2:0|2:1,2:0:0:0:
256,192,233149,12,0,238983,2:0:0:0:
