osu file format v14

[General]
AudioFilename: audio.ogg
AudioLeadIn: 0
PreviewTime: 136483
Countdown: 0
SampleSet: Soft
StackLeniency: 0.7
Mode: 0
LetterboxInBreaks: 0
WidescreenStoryboard: 1

[Editor]
Bookmarks: 650,11316,21983,32649,43316,53983,64649,83316,93983,104649,115316,125983,136649,155316,165983,176649,188649,192649,211316,221983,232983,238983
DistanceSpacing: 0.9
BeatDivisor: 6
GridSize: 8
TimelineZoom: 1.9

[Metadata]
Title:White Promise
TitleUnicode:White Promise
Artist:Nayugorou
ArtistUnicode:なゆごろう
Creator:Shikibe Mayu
Version:Insane
Source:LOST:SMILE memories + promises
Tags:shizuku- kazato asa Islet life0 とむ少佐 サウンドトラック ロストスマイル メモリーズ + プロミセス visual novel galgame vn opening full version pop japanese jpop j-pop
BeatmapID:3626170
BeatmapSetID:1769873

[Difficulty]
HPDrainRate:5.5
CircleSize:4
OverallDifficulty:8.2
ApproachRate:8.8
SliderMultiplier:1.6
SliderTickRate:1

[Events]
//Background and Video events
0,0,"1503.jpg",0,0
//Break Periods
2,155516,165354
//Storyboard Layer 0 (Background)
//Storyboard Layer 1 (Fail)
//Storyboard Layer 2 (Pass)
//Storyboard Layer 3 (Foreground)
//Storyboard Layer 4 (Overlay)
//Storyboard Sound Samples

[TimingPoints]
650,333.333333333333,4,2,10,40,1,0
650,-125,4,2,10,40,0,0
5649,-125,4,2,11,40,0,0
5983,-117.647058823529,4,2,11,60,0,0
6649,-117.647058823529,4,2,10,60,0,0
7316,-117.647058823529,4,2,11,60,0,0
7983,-117.647058823529,4,2,10,60,0,0
8649,-117.647058823529,4,2,11,60,0,0
10149,-117.647058823529,4,2,10,40,0,0
10316,-117.647058823529,4,2,10,45,0,0
10482,-117.647058823529,4,2,10,50,0,0
10649,-117.647058823529,4,2,12,55,0,0
11316,-100,4,2,12,70,0,0
11816,-100,4,2,11,70,0,0
11983,-100,4,2,12,70,0,0
12149,-100,4,2,11,70,0,0
12649,-100,4,2,12,70,0,0
13149,-100,4,2,11,70,0,0
13316,-100,4,2,12,70,0,0
13482,-100,4,2,11,70,0,0
13649,-100,4,2,12,70,0,0
14483,-100,4,2,11,70,0,0
14649,-100,4,2,12,70,0,0
14815,-100,4,2,11,70,0,0
14983,-100,4,2,12,70,0,0
15149,-100,4,2,11,70,0,0
15316,-100,4,2,12,70,0,0
15816,-100,4,2,11,70,0,0
15982,-100,4,2,12,70,0,0
16149,-100,4,2,11,70,0,0
16316,-100,4,2,12,70,0,0
17149,-100,4,2,11,70,0,0
17649,-100,4,2,12,70,0,0
17815,-100,4,2,11,70,0,0
17983,-100,4,2,12,70,0,0
18482,-100,4,2,11,70,0,0
18649,-100,4,2,12,70,0,0
18816,-100,4,2,11,70,0,0
18983,-100,4,2,12,70,0,0
19149,-100,4,2,11,70,0,0
19316,-100,4,2,12,70,0,0
20983,-100,4,2,13,70,0,0
21983,-125,4,2,10,45,0,0
31316,-125,4,2,10,50,0,0
31816,-125,4,2,11,50,0,0
32649,-111.111111111111,4,2,11,60,0,0
33482,-111.111111111111,4,2,10,60,0,0
40649,-111.111111111111,4,2,11,60,0,0
42316,-83.3333333333333,4,2,11,60,0,0
42983,-111.111111111111,4,2,11,60,0,0
43316,-111.111111111111,4,2,13,55,0,0
47149,-111.111111111111,4,2,11,55,0,0
47315,-111.111111111111,4,2,13,55,0,0
47483,-111.111111111111,4,2,10,55,0,0
47983,-111.111111111111,4,2,13,55,0,0
52483,-111.111111111111,4,2,11,55,0,0
52649,-111.111111111111,4,2,13,55,0,0
52816,-111.111111111111,4,2,10,55,0,0
53316,-111.111111111111,4,2,13,55,0,0
53649,-111.111111111111,4,2,11,55,0,0
57483,-111.111111111111,4,2,12,55,0,0
58649,-111.111111111111,4,2,11,55,0,0
59316,-100,4,2,12,55,0,0
59482,-100,4,2,12,65,0,0
63816,-142.857142857143,4,2,11,65,0,0
64483,-142.857142857143,4,2,12,65,0,0
64649,-90.9090909090909,4,2,12,75,0,1
64815,-90.9090909090909,4,2,11,75,0,1
65899,-90.9090909090909,4,2,10,75,0,1
66149,-90.9090909090909,4,2,11,75,0,1
66649,-90.9090909090909,4,2,12,75,0,1
67149,-90.9090909090909,4,2,11,75,0,1
67316,-90.9090909090909,4,2,12,75,0,1
67482,-90.9090909090909,4,2,11,75,0,1
68566,-90.9090909090909,4,2,12,75,0,1
68815,-90.9090909090909,4,2,11,75,0,1
68983,-90.9090909090909,4,2,12,75,0,1
69149,-90.9090909090909,4,2,11,75,0,1
69983,-90.9090909090909,4,2,12,75,0,1
70149,-90.9090909090909,4,2,11,75,0,1
71983,-90.9090909090909,4,2,12,75,0,1
72483,-90.9090909090909,4,2,11,75,0,1
73316,-90.9090909090909,4,2,12,75,0,1
73483,-90.9090909090909,4,2,14,75,0,1
74316,-90.9090909090909,4,2,12,75,0,1
74482,-90.9090909090909,4,2,14,75,0,1
74649,-90.9090909090909,4,2,11,75,0,1
75316,-90.9090909090909,4,2,12,75,0,1
75482,-90.9090909090909,4,2,11,75,0,1
76983,-90.9090909090909,4,2,12,75,0,1
77149,-90.9090909090909,4,2,11,75,0,1
77316,-90.9090909090909,4,2,12,75,0,1
77483,-90.9090909090909,4,2,11,75,0,1
77983,-90.9090909090909,4,2,12,75,0,1
78149,-90.9090909090909,4,2,11,75,0,1
79316,-90.9090909090909,4,2,12,75,0,1
79482,-90.9090909090909,4,2,11,75,0,1
79649,-90.9090909090909,4,2,12,75,0,1
79816,-90.9090909090909,4,2,11,75,0,1
80649,-90.9090909090909,4,2,12,75,0,1
83316,-125,4,2,12,60,0,0
85733,-125,4,2,12,40,0,0
85983,-125,4,2,12,70,0,0
88316,-125,4,2,11,70,0,0
88649,-100,4,2,13,70,0,0
88983,-100,4,2,15,70,0,0
89149,-100,4,2,13,70,0,0
89316,-100,4,2,15,70,0,0
89483,-100,4,2,13,70,0,0
89649,-100,4,2,15,70,0,0
89816,-100,4,2,13,70,0,0
89982,-100,4,2,15,70,0,0
90149,-100,4,2,13,70,0,0
90315,-100,4,2,15,70,0,0
90483,-100,4,2,13,70,0,0
90649,-100,4,2,15,70,0,0
90815,-100,4,2,13,70,0,0
90983,-100,4,2,15,70,0,0
91149,-100,4,2,13,70,0,0
91649,-100,4,2,15,70,0,0
91815,-100,4,2,13,70,0,0
91983,-100,4,2,15,70,0,0
92149,-100,4,2,13,70,0,0
92316,-100,4,2,15,70,0,0
92483,-100,4,2,13,70,0,0
92649,-100,4,2,15,70,0,0
93149,-100,4,2,13,70,0,0
93316,-100,4,2,11,70,0,0
93483,-100,4,2,13,70,0,0
93983,-111.111111111111,4,2,10,60,0,0
104149,-111.111111111111,4,2,11,60,0,0
104649,-111.111111111111,4,2,11,65,0,0
105149,-100,4,2,11,65,0,0
112982,-100,4,2,15,65,0,0
113149,-100,4,2,13,65,0,0
113316,-100,4,2,15,65,0,0
113483,-100,4,2,13,65,0,0
113649,-100,4,2,15,65,0,0
113816,-100,4,2,13,65,0,0
113983,-100,4,2,11,65,0,0
115316,-125,4,2,13,65,0,0
119149,-125,4,2,11,65,0,0
119316,-125,4,2,13,65,0,0
119482,-125,4,2,10,65,0,0
119983,-125,4,2,13,65,0,0
124482,-125,4,2,11,65,0,0
124649,-125,4,2,13,65,0,0
124816,-125,4,2,10,65,0,0
125316,-125,4,2,13,65,0,0
125816,-125,4,2,11,65,0,0
125983,-111.111111111111,4,2,12,65,0,0
126482,-111.111111111111,4,2,11,65,0,0
128649,-111.111111111111,4,2,12,65,0,0
128815,-111.111111111111,4,2,11,65,0,0
128983,-111.111111111111,4,2,15,40,0,0
129066,-111.111111111111,4,2,13,40,0,0
129316,-111.111111111111,4,2,15,45,0,0
129399,-111.111111111111,4,2,13,45,0,0
129649,-111.111111111111,4,2,15,50,0,0
129732,-111.111111111111,4,2,13,50,0,0
129983,-111.111111111111,4,2,15,55,0,0
130066,-111.111111111111,4,2,13,55,0,0
130316,-111.111111111111,4,2,15,60,0,0
130399,-111.111111111111,4,2,13,60,0,0
130649,-111.111111111111,4,2,15,65,0,0
130733,-111.111111111111,4,2,13,65,0,0
130983,-111.111111111111,4,2,15,70,0,0
131066,-111.111111111111,4,2,13,70,0,0
131316,-125,4,2,16,55,0,0
131983,-125,4,2,15,55,0,0
132316,-125,4,2,16,55,0,0
133316,-125,4,2,15,55,0,0
133482,-125,4,2,11,55,0,0
133983,-100,4,2,12,65,0,0
134316,-100,4,2,12,50,0,0
134649,-100,4,2,12,55,0,0
134983,-100,4,2,12,60,0,0
135482,-100,4,2,11,60,0,0
135983,-100,4,2,11,65,0,0
136649,-90.9090909090909,4,2,12,75,0,1
136815,-90.9090909090909,4,2,11,75,0,1
136899,-90.9090909090909,4,2,12,75,0,1
136983,-90.9090909090909,4,2,11,75,0,1
139316,-90.9090909090909,4,2,12,75,0,1
139482,-90.9090909090909,4,2,11,75,0,1
140566,-90.9090909090909,4,2,12,75,0,1
140815,-90.9090909090909,4,2,11,75,0,1
140983,-90.9090909090909,4,2,12,75,0,1
141149,-90.9090909090909,4,2,11,75,0,1
141899,-90.9090909090909,4,2,12,75,0,1
142149,-90.9090909090909,4,2,11,75,0,1
143983,-90.9090909090909,4,2,12,75,0,1
144483,-90.9090909090909,4,2,11,75,0,1
144566,-90.9090909090909,4,2,10,75,0,1
144815,-90.9090909090909,4,2,11,75,0,1
145316,-90.9090909090909,4,2,12,75,0,1
145483,-90.9090909090909,4,2,14,75,0,1
146316,-90.9090909090909,4,2,12,75,0,1
146482,-90.9090909090909,4,2,14,75,0,1
146566,-90.9090909090909,4,2,12,75,0,1
147482,-90.9090909090909,4,2,11,75,0,1
148983,-90.9090909090909,4,2,12,75,0,1
149149,-90.9090909090909,4,2,11,75,0,1
149316,-90.9090909090909,4,2,12,75,0,1
149482,-90.9090909090909,4,2,11,75,0,1
149983,-90.9090909090909,4,2,12,75,0,1
150149,-90.9090909090909,4,2,11,75,0,1
151316,-90.9090909090909,4,2,12,75,0,1
151482,-90.9090909090909,4,2,11,75,0,1
151649,-90.9090909090909,4,2,12,75,0,1
151816,-90.9090909090909,4,2,11,75,0,1
152649,-90.9090909090909,4,2,12,75,0,1
155316,-90.9090909090909,4,2,12,40,0,0
165983,-125,4,2,16,50,0,0
166649,-125,4,2,15,50,0,0
167149,-125,4,2,16,50,0,0
167983,-125,4,2,15,50,0,0
168316,-125,4,2,16,50,0,0
168982,-125,4,2,16,50,0,0
169149,-125,4,2,16,50,0,0
169316,-125,4,2,15,50,0,0
169649,-125,4,2,16,50,0,0
170649,-125,4,2,15,50,0,0
170815,-125,4,2,16,50,0,0
171149,-125,4,2,15,50,0,0
171316,-125,4,2,16,50,0,0
171983,-125,4,2,15,50,0,0
172483,-125,4,2,16,50,0,0
173316,-125,4,2,15,50,0,0
173649,-125,4,2,16,50,0,0
174649,-125,4,2,15,50,0,0
174982,-125,4,2,16,50,0,0
175482,-125,4,2,15,50,0,0
175649,-125,4,2,16,50,0,0
175983,-125,4,2,15,50,0,0
176649,-125,4,2,10,60,0,0
176983,-111.111111111111,4,2,10,60,0,0
177316,-111.111111111111,4,2,15,60,0,0
177566,-111.111111111111,4,2,10,60,0,0
178649,-111.111111111111,4,2,15,60,0,0
178982,-111.111111111111,4,2,10,60,0,0
179983,-111.111111111111,4,2,15,60,0,0
180233,-111.111111111111,4,2,10,60,0,0
181316,-111.111111111111,4,2,15,60,0,0
181482,-111.111111111111,4,2,10,60,0,0
182649,-111.111111111111,4,2,15,60,0,0
182815,-111.111111111111,4,2,10,60,0,0
183983,-111.111111111111,4,2,15,60,0,0
184233,-111.111111111111,4,2,10,60,0,0
185316,-111.111111111111,4,2,15,60,0,0
185482,-111.111111111111,4,2,10,60,0,0
186649,-111.111111111111,4,2,15,60,0,0
186816,-111.111111111111,4,2,10,60,0,0
187316,-142.857142857143,4,2,16,60,0,0
187982,-142.857142857143,4,2,15,60,0,0
188649,-142.857142857143,4,2,12,50,0,0
191983,-142.857142857143,4,2,12,60,0,0
192483,-100,4,2,12,60,0,0
192649,-90.9090909090909,4,2,12,75,0,1
192815,-90.9090909090909,4,2,11,75,0,1
193899,-90.9090909090909,4,2,10,75,0,1
194149,-90.9090909090909,4,2,11,75,0,1
194649,-90.9090909090909,4,2,12,75,0,1
195149,-90.9090909090909,4,2,11,75,0,1
195316,-90.9090909090909,4,2,12,75,0,1
195482,-90.9090909090909,4,2,11,75,0,1
196566,-90.9090909090909,4,2,12,75,0,1
196815,-90.9090909090909,4,2,11,75,0,1
196983,-90.9090909090909,4,2,12,75,0,1
197149,-90.9090909090909,4,2,11,75,0,1
197899,-90.9090909090909,4,2,12,75,0,1
198149,-90.9090909090909,4,2,11,75,0,1
199983,-90.9090909090909,4,2,12,75,0,1
200483,-90.9090909090909,4,2,11,75,0,1
201316,-90.9090909090909,4,2,12,75,0,1
201483,-90.9090909090909,4,2,14,75,0,1
202316,-90.9090909090909,4,2,12,75,0,1
202482,-90.9090909090909,4,2,14,75,0,1
202566,-90.9090909090909,4,2,12,75,0,1
203482,-90.9090909090909,4,2,11,75,0,1
204983,-90.9090909090909,4,2,12,75,0,1
205149,-90.9090909090909,4,2,11,75,0,1
205315,-90.9090909090909,4,2,12,75,0,1
205483,-90.9090909090909,4,2,11,75,0,1
205983,-90.9090909090909,4,2,12,75,0,1
206149,-90.9090909090909,4,2,11,75,0,1
207316,-90.9090909090909,4,2,12,75,0,1
207482,-90.9090909090909,4,2,11,75,0,1
207649,-90.9090909090909,4,2,12,75,0,1
207816,-90.9090909090909,4,2,11,75,0,1
208483,-90.9090909090909,4,2,17,75,0,1
208649,-111.111111111111,4,2,12,75,0,1
209983,-90.9090909090908,4,2,12,75,0,1
210983,-90.9090909090908,4,2,11,75,0,1
211316,-90.9090909090908,4,2,12,75,0,1
221316,-90.9090909090908,4,2,11,75,0,1
221983,-100,4,2,12,70,0,0
222483,-100,4,2,11,70,0,0
222649,-100,4,2,12,70,0,0
222815,-100,4,2,11,70,0,0
222983,-100,4,2,12,70,0,0
223149,-100,4,2,11,70,0,0
223316,-100,4,2,12,70,0,0
223815,-100,4,2,11,70,0,0
223983,-100,4,2,12,70,0,0
224149,-100,4,2,11,70,0,0
224316,-100,4,2,12,70,0,0
224482,-100,4,2,11,70,0,0
224649,-100,4,2,12,70,0,0
225149,-100,4,2,11,70,0,0
225316,-100,4,2,12,70,0,0
225482,-100,4,2,11,70,0,0
225649,-100,4,2,12,70,0,0
225816,-100,4,2,11,70,0,0
226649,-100,4,2,12,70,0,0
232649,-100,4,2,11,70,0,0
232983,333.333333333333,4,2,12,70,1,0

[Colours]
Combo1 : 203,180,137
Combo2 : 227,230,157
Combo3 : 244,191,159

[HitObjects]
438,26,650,6,0,L|423:90,1,64,2|0,2:1|2:0,2:0:0:0:
487,141,983,1,0,2:0:0:0:
487,141,1149,2,0,B|408:126|408:126|354:148,1,128,0|0,2:0|2:0,2:0:0:0:
294,280,1649,2,0,L|307:217,1,64,0|0,2:0|2:0,2:0:0:0:
277,99,1983,5,2,2:1:0:0:
277,99,2149,2,0,P|218:127|153:127,1,128,0|0,2:0|2:0,2:0:0:0:
35,76,2649,2,0,L|64:208,1,128,2|0,2:0|2:0,2:0:0:0:
62,201,3316,6,0,L|48:266,1,64,2|0,2:1|2:0,2:0:0:0:
132,280,3649,1,0,2:0:0:0:
11,384,3816,2,0,P|72:363|143:364,1,128,0|0,2:0|2:0,2:0:0:0:
214,321,4316,2,0,L|228:384,1,64,0|0,2:0|2:0,2:0:0:0:
256,244,4649,5,2,2:1:0:0:
256,244,4816,2,0,P|272:179|268:115,1,128,0|0,2:0|2:0,2:0:0:0:
188,80,5316,2,0,L|124:96,1,64,2|2,2:0|2:3,2:0:0:0:
288,11,5649,2,0,L|352:27,1,64,2|0,2:3|2:0,2:0:0:0:
431,0,5983,6,0,P|442:67|455:133,1,136.000002593994,14|8,2:1|0:1,2:0:0:0:
363,235,6483,1,0,2:0:0:0:
492,290,6649,2,0,P|481:259|471:226,1,68.0000000000002,8|0,3:0|2:0,2:0:0:0:
471,226,6899,1,8,2:0:0:0:
471,226,6983,1,8,2:1:0:0:
405,338,7149,1,8,3:0:0:0:
282,318,7316,6,0,P|256:262|267:183,1,136,10|8,2:1|2:1,2:0:0:0:
338,147,7816,1,0,2:0:0:0:
299,69,7983,2,0,L|233:86,1,68.0000000000002,8|8,3:0|3:0,2:0:0:0:
173,33,8316,2,0,L|107:16,1,68.0000000000002,8|0,3:1|2:0,2:0:0:0:
28,54,8649,6,0,P|41:104|56:169,1,102,10|0,2:1|2:0,2:0:0:0:
54,164,8983,2,0,P|47:203|39:235,1,68.0000000000002,10|0,2:1|2:0,2:0:0:0:
198,251,9316,2,0,P|167:225|144:202,1,68.0000000000002,10|0,2:1|2:0,2:0:0:0:
50,332,9649,2,0,P|87:318|118:309,1,68.0000000000002,10|0,2:1|2:0,2:0:0:0:
345,286,9983,5,8,2:1:0:0:
282,374,10149,1,8,2:0:0:0:
282,374,10233,1,8,2:0:0:0:
282,374,10316,2,0,L|273:335,3,34.0000000000001,8|8|8|8,2:0|2:0|2:0|2:0,2:0:0:0:
345,286,10649,5,10,2:1:0:0:
461,317,10816,1,2,2:0:0:0:
428,224,10983,1,2,2:0:0:0:
379,374,11149,1,2,2:0:0:0:
428,224,11316,6,0,P|450:160|441:68,1,160,14|8,2:1|2:0,2:0:0:0:
362,3,11816,1,2,2:3:0:0:
288,65,11983,2,0,P|281:105|272:151,1,80,10|2,2:1|2:3,2:0:0:0:
196,105,12316,1,8,2:0:0:0:
303,228,12483,1,2,2:0:0:0:
182,188,12649,6,0,L|63:216,1,120,10|0,2:1|2:0,2:0:0:0:
59,217,12983,2,0,L|40:306,1,80,10|2,2:0|2:3,2:0:0:0:
130,362,13316,2,0,L|146:283,1,80,10|2,2:1|2:3,2:0:0:0:
280,170,13649,2,0,P|333:195|408:183,1,120,10|0,2:0|2:0,2:0:0:0:
419,200,13983,6,0,L|446:42,1,160,10|8,2:1|2:0,2:0:0:0:
336,107,14483,1,2,2:3:0:0:
492,272,14649,6,0,P|450:283|409:294,1,80,10|2,2:1|2:3,2:0:0:0:
356,372,14983,1,10,2:0:0:0:
297,245,15149,1,2,2:3:0:0:
126,368,15316,6,0,P|194:325|272:339,1,160,10|8,2:1|2:0,2:0:0:0:
275,168,15816,2,0,L|296:244,1,80,2|10,2:0|2:1,2:0:0:0:
367,115,16149,1,2,2:3:0:0:
229,56,16316,2,0,P|183:87|107:85,1,120,10|0,2:0|2:0,2:0:0:0:
51,27,16649,6,0,P|76:103|98:184,1,160,14|8,2:1|2:0,2:0:0:0:
123,297,17149,2,0,L|44:283,1,80,2|8,2:3|2:1,2:0:0:0:
190,215,17483,1,2,2:3:0:0:
265,357,17649,2,0,L|186:371,1,80,10|2,2:0|2:3,2:0:0:0:
286,232,17983,6,0,L|306:114,1,120,10|0,2:1|2:0,2:0:0:0:
307,103,18316,2,0,L|226:122,1,80,10|2,2:0|2:3,2:0:0:0:
396,169,18649,1,10,2:1:0:0:
361,23,18816,1,2,2:3:0:0:
491,151,18983,2,0,P|488:191|472:232,1,80,10|2,2:0|2:3,2:0:0:0:
473,368,19316,6,0,P|410:325|322:333,1,160,14|8,2:1|2:0,2:0:0:0:
178,256,19816,2,0,P|170:300|162:336,1,80,8|10,2:1|2:0,2:0:0:0:
254,306,20149,1,8,2:1:0:0:
107,190,20316,2,0,P|147:180|186:163,1,80,10|8,2:0|2:0,2:0:0:0:
423,59,20649,6,0,P|383:49|344:32,1,80,10|8,2:1|2:1,2:0:0:0:
337,215,20983,2,0,P|345:176|362:139,1,80,8|8,2:0|2:1,2:0:0:0:
163,20,21316,5,8,2:0:0:0:
194,106,21483,1,8,2:0:0:0:
263,33,21649,1,8,2:0:0:0:
95,92,21816,1,8,2:0:0:0:
197,126,21983,6,0,P|189:156|182:188,2,64,2|0|2,2:1|2:0|2:0,2:0:0:0:
263,33,22483,2,0,P|316:63|386:50,1,128,2|2,2:0|2:0,2:0:0:0:
444,5,22983,1,2,2:0:0:0:
510,180,23316,6,0,P|446:166|378:158,2,128,2|2|2,2:1|2:0|2:0,2:0:0:0:
510,180,24316,1,2,2:0:0:0:
369,380,24649,6,0,P|362:346|353:319,1,64,2|0,2:1|2:0,2:0:0:0:
427,260,24983,2,0,P|434:294|443:321,1,64,2|2,2:0|2:0,2:0:0:0:
283,364,25316,1,2,2:0:0:0:
225,305,25483,1,0,2:0:0:0:
145,335,25649,1,2,2:0:0:0:
300,208,25983,6,0,P|326:152|317:85,1,128,2|2,2:1|2:0,2:0:0:0:
364,29,26483,2,0,P|302:47|237:62,1,128,0|0,2:0|2:0,2:0:0:0:
163,19,26983,2,0,P|156:54|149:83,1,64,2|2,2:0|2:0,2:0:0:0:
78,133,27316,6,0,P|142:129|196:166,1,128,2|2,2:1|2:0,2:0:0:0:
260,209,27816,2,0,P|326:195|384:178,1,128,2|2,2:0|2:0,2:0:0:0:
465,200,28316,2,0,P|473:166|482:137,1,64,2|0,2:0|2:0,2:0:0:0:
482,303,28649,5,2,2:1:0:0:
397,281,28816,1,2,2:0:0:0:
341,353,28983,1,2,2:0:0:0:
341,353,29316,5,2,2:0:0:0:
263,382,29483,1,0,2:0:0:0:
210,323,29649,2,0,P|219:292|228:254,1,64,2|0,2:0|2:0,2:0:0:0:
294,207,29983,6,0,P|329:166|325:84,1,128,2|2,2:1|2:0,2:0:0:0:
416,47,30483,1,2,2:0:0:0:
416,47,30649,2,0,L|481:62,2,64,0|2|2,2:0|2:0|2:0,2:0:0:0:
217,43,31316,6,0,B|148:70|148:70|89:50,1,128,2|2,2:0|2:0,2:0:0:0:
26,4,31816,2,0,P|44:65|59:137,1,128,8|4,2:3|2:3,2:0:0:0:
6,207,32316,1,4,2:3:0:0:
87,266,32483,5,8,2:3:0:0:
87,266,32566,1,8,2:3:0:0:
87,266,32649,2,0,P|143:227|217:231,1,144,4|8,2:0|2:1,2:0:0:0:
338,296,33149,1,0,2:0:0:0:
263,384,33316,2,0,P|257:348|249:314,1,72.0000000000001,8|8,2:1|3:0,2:0:0:0:
248,313,33566,1,8,3:0:0:0:
248,313,33649,1,8,3:1:0:0:
301,206,33816,1,8,3:0:0:0:
413,249,33983,6,0,P|481:234|511:207,1,108,8|0,2:1|2:0,2:0:0:0:
510,199,34316,2,0,P|501:164|494:128,1,72.0000000000001,8|0,2:1|2:0,2:0:0:0:
429,55,34649,1,8,2:1:0:0:
391,166,34816,1,8,3:0:0:0:
259,109,34983,2,0,P|298:101|329:90,1,72.0000000000001,8|8,2:1|3:0,2:0:0:0:
295,241,35316,6,0,P|284:277|276:312,1,72.0000000000001,8|0,2:1|2:0,2:0:0:0:
358,361,35649,2,0,P|366:325|376:291,1,72.0000000000001,8|0,2:1|2:0,2:0:0:0:
223,196,35983,5,8,2:1:0:0:
183,302,36149,1,8,3:0:0:0:
183,302,36233,1,8,3:0:0:0:
183,302,36316,2,0,P|193:336|201:371,1,72.0000000000001,8|8,3:1|3:0,2:0:0:0:
49,300,36649,6,0,P|14:249|26:167,1,144,8|8,2:1|2:1,2:0:0:0:
140,35,37149,1,8,3:0:0:0:
12,84,37316,2,0,P|49:93|84:103,1,72.0000000000001,8|8,2:1|3:0,2:0:0:0:
154,149,37649,1,8,2:1:0:0:
232,46,37816,1,8,3:0:0:0:
314,84,37983,6,0,P|324:120|332:155,1,72.0000000000001,8|0,2:1|2:0,2:0:0:0:
255,257,38316,2,0,P|246:221|237:187,1,72.0000000000001,8|0,2:1|2:0,2:0:0:0:
408,101,38649,2,0,L|482:117,1,72.0000000000001,8|8,2:1|3:0,2:0:0:0:
478,116,38899,1,8,3:0:0:0:
478,116,38983,1,8,3:1:0:0:
359,250,39149,1,8,3:0:0:0:
512,210,39316,6,0,L|440:228,1,72.0000000000001,8|0,2:1|2:0,2:0:0:0:
403,384,39649,2,0,L|422:304,1,72.0000000000001,8|0,2:1|2:0,2:0:0:0:
268,206,39983,1,8,2:1:0:0:
309,345,40149,1,8,3:0:0:0:
170,302,40316,2,0,L|59:329,1,108,8|0,2:1|2:0,2:0:0:0:
57,329,40649,6,0,L|134:347,1,72.0000000000001,10|0,2:1|2:0,2:0:0:0:
182,206,40983,2,0,L|104:224,1,72.0000000000001,10|0,2:1|2:0,2:0:0:0:
291,315,41316,2,0,L|272:392,1,72.0000000000001,10|0,2:1|3:0,2:0:0:0:
404,213,41649,2,0,B|376:156|376:156|394:107,1,108,10|0,3:1|2:0,2:0:0:0:
396,105,41983,2,0,L|467:90,1,72.0000000000001,12|0,2:1|2:0,2:0:0:0:
276,0,42316,6,0,B|260:70|260:70|257:74|257:74|241:149,1,144,8|8,2:1|2:1,2:0:0:0:
243,139,42649,1,8,2:0:0:0:
221,243,42816,1,8,3:0:0:0:
93,197,42983,2,0,P|126:189|166:177,1,72.0000000000001,8|8,2:1|3:1,2:0:0:0:
296,318,43316,6,0,B|212:297|212:297|143:327,2,144,14|2|10,2:1|2:1|2:0,2:0:0:0:
502,268,44316,1,2,2:1:0:0:
472,353,44483,1,8,2:0:0:0:
422,291,44649,1,2,2:1:0:0:
447,203,44816,2,0,B|475:136|475:136|451:62,1,144,8|0,2:0|2:0,2:0:0:0:
495,0,45316,2,0,P|435:41|363:41,1,144,10|2,2:0|2:1,2:0:0:0:
295,2,45816,1,8,2:0:0:0:
223,63,45983,6,0,L|210:137,1,72.0000000000001,10|0,2:1|2:0,2:0:0:0:
282,181,46316,2,0,L|294:110,1,72.0000000000001,2|8,2:1|2:1,2:0:0:0:
132,79,46649,6,0,B|69:118|69:118|-1:109,1,144,10|2,2:0|2:1,2:0:0:0:
32,202,47149,2,0,L|15:283,1,72.0000000000001,8|2,2:3|2:1,2:0:0:0:
99,332,47483,2,0,L|113:261,1,72.0000000000001,4|4,2:3|2:3,2:0:0:0:
193,223,47816,1,4,2:3:0:0:
260,279,47983,6,0,P|301:298|319:224,1,144,10|2,2:0|2:1,2:0:0:0:
319,224,48483,1,8,2:0:0:0:
391,348,48649,6,0,P|422:286|410:201,1,144,14|2,1:0|2:1,2:0:0:0:
373,83,49149,1,8,2:1:0:0:
512,116,49316,2,0,P|474:125|436:135,1,72.0000000000001,10|0,2:0|2:0,2:0:0:0:
297,162,49649,1,2,2:1:0:0:
297,162,49816,2,0,P|276:99|276:22,2,144,8|8|8,2:0|2:0|2:1,2:0:0:0:
266,352,50816,5,0,2:0:0:0:
187,325,50983,1,2,2:1:0:0:
127,384,51149,1,8,2:0:0:0:
45,368,51316,6,0,L|28:297,1,72.0000000000001,10|0,2:1|2:0,2:0:0:0:
90,158,51649,2,0,L|106:228,1,72.0000000000001,2|8,2:1|2:1,2:0:0:0:
187,325,51983,5,10,2:0:0:0:
266,352,52149,1,0,2:0:0:0:
325,289,52316,1,2,2:1:0:0:
325,289,52483,2,0,P|329:254|337:216,1,72.0000000000001,8|2,2:3|2:1,2:0:0:0:
248,162,52816,2,0,P|244:197|236:235,1,72.0000000000001,4|6,2:3|2:3,2:0:0:0:
372,368,53149,5,0,2:0:0:0:
498,279,53316,2,0,L|422:298,1,72.0000000000001,8|8,2:0|1:0,2:0:0:0:
356,213,53649,5,8,2:0:0:0:
345,216,53733,1,8,2:0:0:0:
336,218,53816,1,8,2:3:0:0:
498,119,53983,6,0,B|428:140|428:140|372:124,1,108,12|0,2:1|2:0,2:0:0:0:
384,126,54316,2,0,P|376:88|366:53,1,72.0000000000001,8|0,2:1|2:0,2:0:0:0:
210,0,54649,2,0,P|202:38|192:73,1,72.0000000000001,8|0,2:1|2:0,2:0:0:0:
259,205,54983,5,8,2:0:0:0:
265,195,55066,1,8,2:0:0:0:
262,182,55149,1,8,2:0:0:0:
252,172,55233,1,8,2:0:0:0:
242,170,55316,2,0,L|125:196,1,108,8|0,2:0|2:0,2:0:0:0:
128,195,55649,2,0,L|109:282,1,72.0000000000001,8|0,2:1|2:0,2:0:0:0:
183,357,55983,2,0,L|198:286,1,72.0000000000001,8|0,2:1|2:0,2:0:0:0:
386,246,56316,5,8,2:1:0:0:
383,259,56399,1,8,2:0:0:0:
374,266,56483,1,8,2:0:0:0:
364,264,56566,1,8,2:0:0:0:
356,259,56649,2,0,L|267:280,1,72.0000000000001,8|0,2:0|2:0,2:0:0:0:
419,372,56983,2,0,L|330:351,1,72.0000000000001,8|0,2:1|2:0,2:0:0:0:
410,165,57316,5,8,2:1:0:0:
463,279,57483,1,10,2:0:0:0:
311,189,57649,1,8,2:1:0:0:
439,50,57816,2,0,B|430:68|430:68|430:87,1,36,10|0,2:0|2:0,2:0:0:0:
493,130,57983,6,0,P|422:114|351:103,1,144,8|8,2:1|2:1,2:0:0:0:
190,186,58483,1,8,2:0:0:0:
69,153,58649,2,0,P|61:118|50:82,1,72.0000000000001,8|8,2:3|2:1,2:0:0:0:
137,29,58983,2,0,P|145:64|156:100,1,72.0000000000001,4|4,2:3|2:3,2:0:0:0:
12,283,59316,6,0,L|90:300,1,80,14|8,2:1|2:0,2:0:0:0:
108,323,59566,1,8,2:0:0:0:
108,323,59649,2,0,L|147:331,1,40,8|8,2:0|2:0,2:0:0:0:
247,188,59816,6,0,L|266:287,1,80,12|8,2:0|2:0,2:0:0:0:
275,292,60066,1,8,2:0:0:0:
275,292,60149,2,0,L|290:241,1,40,8|8,2:0|2:0,2:0:0:0:
135,137,60316,6,0,L|56:154,1,80,12|8,2:0|2:0,2:0:0:0:
39,177,60566,1,8,2:0:0:0:
39,177,60649,2,0,L|0:185,1,40,8|8,2:0|2:0,2:0:0:0:
191,43,60816,6,0,L|269:58,1,80,12|8,2:0|2:0,2:0:0:0:
297,68,61066,1,8,2:0:0:0:
297,68,61149,2,0,L|285:24,1,40,8|8,2:0|2:0,2:0:0:0:
247,188,61316,6,0,L|170:210,1,80,12|8,2:0|2:0,2:0:0:0:
295,325,61566,1,8,2:0:0:0:
295,325,61649,2,0,L|312:247,1,80,12|8,2:0|2:0,2:0:0:0:
390,198,61899,1,8,2:0:0:0:
390,198,61983,2,0,L|468:179,1,80,14|8,2:0|2:1,2:0:0:0:
333,60,62316,5,10,2:0:0:0:
510,110,62483,1,8,2:1:0:0:
443,0,62649,1,10,2:0:0:0:
390,198,62816,1,8,2:0:0:0:
225,118,62983,2,0,P|214:73|203:41,1,80,10|8,2:0|2:0,2:0:0:0:
306,248,63316,5,8,2:0:0:0:
311,271,63399,1,8,2:1:0:0:
310,294,63483,1,8,2:1:0:0:
304,313,63566,1,8,2:1:0:0:
290,335,63649,2,0,P|269:341|247:349,1,40,8|0,2:0|2:0,2:0:0:0:
70,308,63816,6,0,P|140:264|222:271,1,168,6|0,2:3|2:0,2:0:0:0:
377,370,64483,1,2,2:0:0:0:
508,257,64649,6,0,L|416:280,1,88,14|2,2:1|2:0,2:0:0:0:
300,210,64983,1,8,2:0:0:0:
373,41,65149,6,0,B|412:92|412:92|380:218,1,176,2|2,2:0|2:0,2:0:0:0:
341,348,65649,1,8,2:0:0:0:
182,317,65816,5,2,2:0:0:0:
182,317,65899,1,2,2:0:0:0:
182,317,65983,2,0,L|267:296,1,88,8|2,2:1|2:0,2:0:0:0:
154,226,66316,1,8,2:0:0:0:
109,373,66483,1,2,2:0:0:0:
12,259,66649,2,0,P|-14:179|2:88,1,176,10|8,2:1|2:0,2:0:0:0:
102,5,67149,1,2,2:0:0:0:
191,118,67316,6,0,L|101:99,1,88,10|2,2:1|2:0,2:0:0:0:
246,36,67649,1,8,2:0:0:0:
196,208,67816,1,2,2:0:0:0:
312,108,67983,2,0,L|488:71,1,176,8|8,2:1|2:0,2:0:0:0:
388,297,68483,5,2,2:0:0:0:
388,297,68566,1,2,2:0:0:0:
388,297,68649,2,0,L|476:315,1,88,10|2,2:1|2:0,2:0:0:0:
447,222,68983,1,8,0:0:0:0:
313,352,69149,2,0,B|292:314|292:314|303:251,1,88.000002685547,2|8,0:2|0:1,0:0:0:0:
216,194,69483,1,2,2:0:0:0:
111,324,69649,1,8,2:0:0:0:
201,290,69816,5,2,2:0:0:0:
201,290,69899,1,8,0:0:0:0:
201,290,69983,2,0,L|286:266,1,88,14|2,2:1|2:0,2:0:0:0:
128,218,70316,1,8,2:0:0:0:
236,108,70483,2,0,P|226:155|214:197,1,88,2|8,2:0|2:1,2:0:0:0:
413,289,70816,5,2,2:0:0:0:
356,125,70983,1,8,2:0:0:0:
419,306,71149,1,2,2:0:0:0:
502,166,71316,6,0,B|471:184|471:184|433:187|433:187|390:223|326:213,1,176,8|8,2:1|2:0,2:0:0:0:
154,185,71816,1,2,2:0:0:0:
235,332,71983,6,0,B|280:277|251:199|251:199|222:237,1,176,10|8,2:1|2:0,2:0:0:0:
143,374,72483,1,2,2:0:0:0:
41,261,72649,6,0,L|126:280,1,88,8|2,2:1|2:0,2:0:0:0:
189,87,72983,1,8,2:0:0:0:
60,144,73149,1,2,2:0:0:0:
154,185,73316,5,10,2:1:0:0:
262,13,73483,2,0,P|278:49|284:99,1,88,10|8,2:1|2:0,2:0:0:0:
364,285,73816,6,0,P|452:290|515:228,1,176,14|10,2:1|2:1,2:0:0:0:
430,111,74316,2,0,P|420:162|413:199,1,88,10|14,2:0|2:0,2:0:0:0:
413,197,74566,1,8,2:0:0:0:
413,197,74649,1,8,2:3:0:0:
240,340,74816,6,0,L|228:297,1,44,8|8,2:0|2:0,2:0:0:0:
260,157,74983,2,0,L|272:200,1,44,8|8,2:0|2:0,2:0:0:0:
364,285,75149,2,0,L|321:273,1,44,8|8,2:0|2:0,2:0:0:0:
131,331,75316,6,0,L|149:245,1,88,14|2,2:1|2:0,2:0:0:0:
57,74,75649,1,8,2:0:0:0:
14,177,75816,2,0,P|75:180|162:109,1,176,2|2,2:0|2:0,2:0:0:0:
285,8,76316,2,0,L|267:95,1,88,8|2,2:0|2:0,2:0:0:0:
351,217,76649,2,0,B|435:195|435:195|486:207,1,132,8|0,2:1|2:0,2:0:0:0:
492,209,76983,2,0,L|474:121,1,88,10|2,2:0|2:0,2:0:0:0:
435,281,77316,1,10,2:1:0:0:
490,373,77483,1,2,2:0:0:0:
359,333,77649,2,0,P|311:347|266:358,1,88,8|2,2:0|2:0,2:0:0:0:
100,279,77983,5,10,2:1:0:0:
274,356,78149,1,2,2:0:0:0:
172,384,78316,2,0,L|189:297,1,88,8|2,2:0|2:0,2:0:0:0:
14,165,78649,2,0,B|58:171|92:189|92:189|137:184|180:154,1,176,8|8,2:1|2:0,2:0:0:0:
304,72,79149,1,2,2:0:0:0:
283,234,79316,6,0,P|268:193|268:142,1,88,10|2,2:1|2:0,2:0:0:0:
385,15,79649,1,10,2:0:0:0:
512,155,79816,2,0,L|357:131,1,132,2|0,2:0|2:0,2:0:0:0:
365,132,80149,1,2,2:0:0:0:
416,273,80316,2,0,P|433:233|433:179,1,88,8|2,2:0|2:0,2:0:0:0:
249,92,80649,6,0,L|280:237,1,132,14|0,2:1|2:0,2:0:0:0:
283,234,80983,2,0,L|265:324,1,88,12|8,2:0|2:1,2:0:0:0:
170,224,81316,1,14,2:0:0:0:
142,377,81483,1,10,2:1:0:0:
142,377,81566,1,8,2:1:0:0:
142,377,81649,1,12,2:0:0:0:
30,279,81816,1,8,2:1:0:0:
192,128,81983,5,10,2:0:0:0:
265,320,82149,1,10,2:0:0:0:
265,320,83316,6,0,P|297:312|327:302,1,64,4|0,3:2|2:0,2:0:0:0:
496,344,83649,2,0,P|464:352|434:362,1,64,8|0,2:1|2:0,2:0:0:0:
409,291,83983,1,8,2:1:0:0:
409,291,84149,2,0,L|425:224,1,64,0|8,2:0|2:1,2:0:0:0:
378,157,84483,5,0,3:0:0:0:
378,157,84566,1,0,3:0:0:0:
378,157,84649,2,0,L|445:142,1,64,8|0,2:1|2:0,2:0:0:0:
316,84,84983,1,8,2:1:0:0:
280,216,85149,2,0,B|239:208|239:208|204:219|204:219|145:206,1,128,0|0,2:0|3:0,2:0:0:0:
10,139,85649,1,8,3:1:0:0:
9,127,85733,1,0,3:0:0:0:
15,122,85816,1,0,3:0:0:0:
24,122,85899,1,0,3:0:0:0:
31,127,85983,6,0,L|5:263,1,128,10|8,2:1|2:1,2:0:0:0:
131,380,86483,1,0,2:0:0:0:
1,340,86649,2,0,L|68:321,1,64,8|0,2:1|3:0,2:0:0:0:
96,295,86899,1,0,3:0:0:0:
96,295,86983,2,0,L|163:276,1,64,8|0,2:1|2:0,2:0:0:0:
317,370,87316,6,0,P|332:332|326:268,1,96,10|0,2:1|2:0,2:0:0:0:
313,257,87649,2,0,L|326:186,1,64,10|0,2:1|2:0,2:0:0:0:
433,160,87983,2,0,L|421:222,1,64,10|0,2:1|3:0,2:0:0:0:
229,139,88316,2,0,L|121:167,1,96,14|0,2:3|2:0,2:0:0:0:
129,171,88649,6,0,L|37:161,1,80,14|0,2:1|2:0,2:0:0:0:
173,282,88983,2,0,L|81:272,1,80,8|8,1:0|2:0,2:0:0:0:
229,139,89316,5,8,1:0:0:0:
336,174,89483,1,8,2:0:0:0:
390,71,89649,1,8,1:0:0:0:
258,235,89816,6,0,P|268:273|278:314,1,80,8|8,2:0|1:0,2:0:0:0:
463,189,90149,2,0,P|473:151|483:110,1,80,8|8,2:0|1:0,2:0:0:0:
512,333,90483,1,8,2:0:0:0:
366,298,90649,2,0,L|444:277,1,80,8|8,1:0|2:0,2:0:0:0:
253,138,90983,2,0,L|331:159,1,80,8|8,1:0|2:0,2:0:0:0:
167,378,91316,6,0,P|134:326|134:263,1,120,12|0,1:0|2:0,2:0:0:0:
142,243,91649,2,0,L|53:269,1,80,8|8,1:0|2:0,2:0:0:0:
182,104,91983,1,8,1:0:0:0:
28,42,92149,1,8,2:0:0:0:
81,171,92316,1,8,1:0:0:0:
130,5,92483,1,8,2:0:0:0:
256,160,92649,6,0,B|274:235|274:235|276:239|276:239|295:322,1,160,8|8,1:0|1:0,2:0:0:0:
419,212,93149,1,8,2:0:0:0:
353,383,93316,1,8,2:3:0:0:
195,290,93483,5,8,2:0:0:0:
160,281,93566,1,8,2:0:0:0:
125,290,93649,1,8,2:0:0:0:
96,312,93733,1,8,2:0:0:0:
70,337,93816,1,8,2:0:0:0:
34,342,93899,1,8,2:0:0:0:
1,326,93983,6,0,P|11:294|11:254,1,72.0000000000001,12|0,2:1|2:0,2:0:0:0:
158,94,94316,1,8,2:1:0:0:
0,139,94483,2,0,P|48:174|130:174,1,144,0|8,2:0|3:0,2:0:0:0:
274,49,94983,2,0,L|258:119,1,72.0000000000001,8|8,3:1|3:0,2:0:0:0:
344,262,95316,6,0,B|411:243|411:243|447:254,1,108,8|0,2:1|2:0,2:0:0:0:
463,260,95649,2,0,P|475:221|475:180,1,72.0000000000001,8|0,2:1|2:0,2:0:0:0:
360,78,95983,2,0,P|360:117|372:155,1,72.0000000000001,8|8,2:1|3:0,2:0:0:0:
333,266,96316,2,0,L|252:253,1,72.0000000000001,8|8,2:1|3:0,2:0:0:0:
92,350,96649,5,8,2:1:0:0:
129,277,96816,1,0,2:0:0:0:
86,208,96983,1,8,2:1:0:0:
11,196,97149,1,0,2:0:0:0:
42,57,97316,6,0,P|80:45|117:29,1,72.0000000000001,8|8,2:1|3:0,2:0:0:0:
197,87,97649,2,0,P|188:125|183:165,1,72.0000000000001,8|8,3:1|3:0,2:0:0:0:
184,158,97899,1,0,3:0:0:0:
184,158,97983,6,0,B|241:146|241:146|276:153|276:153|338:139,1,144,8|8,2:1|2:1,2:0:0:0:
429,208,98483,1,8,3:0:0:0:
503,113,98649,2,0,P|466:112|433:101,1,72.0000000000001,8|8,2:1|3:0,2:0:0:0:
345,224,98983,1,8,2:1:0:0:
433,101,99149,1,8,3:0:0:0:
333,5,99316,6,0,B|307:100|307:100|331:155,1,144,8|8,2:1|2:1,2:0:0:0:
391,310,99816,1,0,2:0:0:0:
475,259,99983,2,0,P|422:223|345:223,1,144,8|8,2:1|3:1,2:0:0:0:
284,313,100483,1,8,3:0:0:0:
184,258,100649,6,0,P|177:295|170:330,1,72.0000000000001,8|0,2:1|2:0,2:0:0:0:
26,221,100983,1,8,2:1:0:0:
26,221,101316,6,0,P|64:211|94:199,1,72.0000000000001,8|8,2:1|3:0,2:0:0:0:
178,106,101649,1,8,2:1:0:0:
94,198,101816,1,8,3:0:0:0:
117,45,101983,6,0,B|203:70|203:70|263:50,1,144,8|8,2:1|2:1,2:0:0:0:
341,8,102483,1,0,2:0:0:0:
324,104,102649,2,0,P|316:146|312:180,1,72.0000000000001,8|8,2:1|3:0,2:0:0:0:
312,175,102899,1,8,3:0:0:0:
312,175,102983,2,0,P|274:184|243:192,1,72.0000000000001,8|8,3:1|3:0,2:0:0:0:
240,345,103316,6,0,P|309:327|379:310,1,144,12|8,2:1|2:1,2:0:0:0:
456,371,103816,2,0,P|424:322|435:231,1,144,8|8,2:1|3:0,2:0:0:0:
512,140,104316,2,0,L|435:157,1,72.0000000000001,2|8,2:3|3:1,2:0:0:0:
282,126,104649,5,12,2:1:0:0:
396,70,104816,1,2,2:3:0:0:
293,3,104983,1,8,2:0:0:0:
197,178,105149,6,0,P|197:224|209:268,1,80,2|8,2:3|2:1,2:0:0:0:
324,318,105483,1,2,2:3:0:0:
195,375,105649,2,0,L|58:351,1,120,8|0,2:0|2:0,2:0:0:0:
69,355,105983,6,0,P|57:313|57:260,1,80,8|2,2:1|2:3,2:0:0:0:
188,139,106316,2,0,P|200:181|200:234,1,80,8|2,2:0|2:3,2:0:0:0:
33,185,106649,2,0,P|75:197|128:197,1,80,8|2,2:1|2:3,2:0:0:0:
231,316,106983,2,0,P|189:304|136:304,1,80,8|2,2:0|2:3,2:0:0:0:
152,302,107233,1,2,2:3:0:0:
152,302,107316,5,8,2:1:0:0:
290,240,107483,1,2,2:3:0:0:
347,380,107649,1,8,2:0:0:0:
290,240,107816,1,2,2:3:0:0:
445,158,107983,6,0,P|445:199|435:238,1,80,8|2,2:1|2:3,2:0:0:0:
223,187,108316,2,0,L|106:210,1,120,8|0,2:0|2:0,2:0:0:0:
96,212,108649,6,0,P|104:175|112:127,1,80,8|2,2:1|2:3,2:0:0:0:
263,20,108983,2,0,P|255:57|247:105,1,80,8|2,2:0|2:3,2:0:0:0:
383,224,109316,1,8,2:1:0:0:
352,85,109483,1,2,2:3:0:0:
389,241,109649,1,8,2:0:0:0:
485,135,109816,1,2,2:3:0:0:
303,207,109983,6,0,P|304:248|325:293,1,80,12|2,2:1|2:3,2:0:0:0:
197,373,110316,2,0,L|57:353,1,120,8|0,2:0|2:0,2:0:0:0:
63,353,110649,1,8,2:1:0:0:
189,255,110816,1,2,2:3:0:0:
42,196,110983,1,8,2:0:0:0:
97,266,111149,1,2,2:3:0:0:
210,149,111316,6,0,P|174:166|129:174,1,80,8|2,2:1|2:3,2:0:0:0:
281,216,111649,1,8,2:0:0:0:
142,89,111816,1,2,2:3:0:0:
298,11,111983,2,0,P|291:56|278:92,1,80,8|2,2:1|2:3,2:0:0:0:
408,216,112316,1,8,2:0:0:0:
493,169,112483,5,2,2:3:0:0:
493,169,112566,1,0,3:0:0:0:
493,169,112649,2,0,P|432:129|348:143,1,160,12|8,2:1|1:0,2:0:0:0:
298,315,113149,1,8,2:0:0:0:
168,176,113316,1,8,1:0:0:0:
372,233,113483,5,8,2:0:0:0:
242,88,113649,1,8,1:0:0:0:
193,287,113816,1,8,2:0:0:0:
278,241,113983,6,0,B|287:200|287:200|265:157,1,80,8|4,2:3|2:3,2:0:0:0:
124,109,114316,2,0,P|83:124|39:138,1,80,12|0,2:0|2:0,2:0:0:0:
31,147,114566,1,8,2:1:0:0:
31,147,114649,2,0,L|16:226,1,80,8|8,2:0|2:0,2:0:0:0:
78,297,114983,1,8,2:3:0:0:
159,243,115149,1,4,2:3:0:0:
246,368,115316,6,0,B|322:343|322:343|393:363,2,128,14|2|10,2:1|2:1|2:0,2:0:0:0:
159,243,116316,2,0,L|174:170,1,64,2|8,2:1|2:0,2:0:0:0:
248,139,116649,5,2,2:1:0:0:
129,108,116816,2,0,P|174:136|254:136,1,128,8|0,2:0|2:0,2:0:0:0:
358,70,117316,2,0,B|342:147|342:147|372:203,1,128,10|2,2:0|2:1,2:0:0:0:
425,135,117816,1,8,2:0:0:0:
313,261,117983,6,0,P|372:239|438:239,1,128,10|2,2:1|2:1,2:0:0:0:
369,332,118483,1,8,2:1:0:0:
236,216,118649,2,0,P|229:256|225:282,1,64,10|0,2:0|2:0,2:0:0:0:
122,384,118983,2,0,P|126:352|132:320,1,64,2|8,2:1|2:3,2:0:0:0:
137,298,119233,1,0,2:0:0:0:
137,298,119316,2,0,L|70:316,1,64,2|4,2:1|2:3,2:0:0:0:
21,184,119649,1,4,2:3:0:0:
160,206,119816,1,4,2:3:0:0:
161,105,119983,6,0,P|131:115|99:124,1,64,10|0,2:0|2:0,2:0:0:0:
160,206,120316,1,2,2:1:0:0:
256,156,120483,1,8,2:0:0:0:
356,283,120649,6,0,P|416:262|479:249,1,128,14|2,1:0|2:1,2:0:0:0:
368,187,121149,1,8,2:1:0:0:
462,109,121316,2,0,P|451:144|444:177,1,64,10|0,2:0|2:0,2:0:0:0:
479,249,121649,1,2,2:1:0:0:
372,344,121816,6,0,P|361:309|354:276,1,64,8|2,2:0|2:1,2:0:0:0:
279,188,122149,2,0,P|307:132|290:67,1,128,8|8,2:0|2:1,2:0:0:0:
185,11,122649,2,0,L|168:78,1,64,10|0,2:0|2:0,2:0:0:0:
134,202,122983,1,2,2:1:0:0:
169,73,123149,1,8,2:0:0:0:
24,137,123316,6,0,P|55:130|87:122,1,64,10|0,2:1|2:0,2:0:0:0:
211,218,123649,2,0,P|179:210|148:203,1,64,2|8,2:1|2:1,2:0:0:0:
30,325,123983,1,10,2:0:0:0:
113,299,124149,1,0,2:0:0:0:
165,368,124316,2,0,L|231:352,1,64,2|8,2:1|2:3,2:0:0:0:
285,261,124649,5,2,2:1:0:0:
211,218,124816,1,4,2:3:0:0:
192,132,124983,1,4,2:3:0:0:
243,54,125149,1,0,2:0:0:0:
345,138,125316,6,0,L|275:158,1,64,8|8,2:0|2:1,2:0:0:0:
454,202,125649,1,2,2:1:0:0:
460,23,125816,5,8,2:3:0:0:
460,23,125899,1,8,2:3:0:0:
460,23,125983,2,0,B|424:93|424:93|439:136,1,108,14|0,2:1|2:0,2:0:0:0:
440,131,126316,2,0,L|456:213,1,72.0000000000001,8|2,2:1|2:3,2:0:0:0:
349,313,126649,2,0,L|365:231,1,72.0000000000001,8|2,2:1|2:3,2:0:0:0:
256,134,126983,1,8,2:1:0:0:
212,267,127149,1,2,2:3:0:0:
51,216,127316,6,0,P|109:180|184:187,1,144,8|8,2:1|2:1,2:0:0:0:
334,89,127816,1,2,2:3:0:0:
234,48,127983,2,0,P|241:83|252:128,1,72.0000000000001,8|2,2:1|2:3,2:0:0:0:
377,192,128316,5,8,2:3:0:0:
386,179,128399,1,8,2:3:0:0:
403,171,128483,1,4,2:3:0:0:
419,170,128566,1,4,2:3:0:0:
435,180,128649,2,0,P|472:172|509:157,1,72.0000000000001,14|8,2:1|2:3,2:0:0:0:
362,332,128983,6,0,L|353:297,3,36,8|8|8|8,1:0|2:0|2:0|2:0,2:0:0:0:
264,239,129316,2,0,L|255:273,3,36,8|8|8|8,1:0|2:0|2:0|2:0,2:0:0:0:
228,367,129649,2,0,L|193:375,3,36,8|8|8|8,1:0|2:0|2:0|2:0,2:0:0:0:
95,354,129983,5,8,1:0:0:0:
71,333,130066,1,8,2:0:0:0:
60,306,130149,1,8,2:0:0:0:
62,276,130233,1,8,2:0:0:0:
76,249,130316,2,0,L|113:237,3,36,8|8|8|8,1:0|2:0|2:0|2:0,2:0:0:0:
17,181,130649,5,8,1:0:0:0:
0,143,130733,1,8,2:0:0:0:
3,103,130816,1,8,2:0:0:0:
21,69,130899,1,8,2:0:0:0:
54,46,130983,1,8,1:0:0:0:
94,40,131066,1,8,2:0:0:0:
132,54,131149,1,8,2:0:0:0:
160,82,131233,1,8,2:0:0:0:
172,121,131316,6,0,B|251:134|251:134|306:112,1,128,8|0,3:1|2:0,2:0:0:0:
377,80,131816,1,8,2:1:0:0:
438,142,131983,2,0,P|431:173|426:206,1,64,8|0,2:0|2:0,2:0:0:0:
472,288,132316,2,0,L|476:308,3,21.3333333333333,8|8|8|8,2:1|2:1|2:1|2:1,2:0:0:0:
394,364,132649,6,0,L|260:347,1,128,8|8,2:1|2:1,2:0:0:0:
147,370,133149,1,0,2:0:0:0:
188,231,133316,2,0,L|204:299,1,64,8|8,2:0|2:3,2:0:0:0:
324,180,133649,2,0,P|345:138|343:91,1,96,4|0,2:3|2:0,2:0:0:0:
342,80,133983,6,0,B|269:93|269:93|266:96|266:96|183:113,1,160,14|8,2:1|2:0,2:0:0:0:
21,59,134483,1,8,2:0:0:0:
185,112,134649,1,8,2:0:0:0:
0,188,134816,1,8,2:0:0:0:
117,262,134983,2,0,B|131:236|131:236|113:181,1,80,8|8,2:0|2:0,2:0:0:0:
301,18,135316,6,0,L|286:103,1,80,8|8,2:0|2:3,2:0:0:0:
285,129,135566,1,8,2:3:0:0:
285,129,135649,1,8,2:0:0:0:
414,266,135816,2,0,L|454:255,1,40,8|0,2:0|2:0,2:0:0:0:
443,172,135983,2,0,L|363:194,1,80,10|8,2:3|2:1,2:0:0:0:
344,202,136233,1,8,2:0:0:0:
344,202,136316,2,0,L|335:241,1,40,8|8,2:0|2:0,2:0:0:0:
240,315,136483,2,0,L|231:276,1,40,8|8,2:0|2:0,2:0:0:0:
131,226,136649,6,0,P|90:218|42:212,1,88,14|2,2:1|2:0,2:0:0:0:
44,212,136899,1,2,2:2:0:0:
44,212,136983,1,8,2:0:0:0:
0,108,137149,2,0,P|89:99|155:44,1,176,2|2,2:0|2:0,2:0:0:0:
279,5,137649,2,0,P|268:48|260:92,1,88,8|2,2:0|2:0,2:0:0:0:
308,237,137983,5,8,2:1:0:0:
260,90,138149,1,2,2:0:0:0:
315,254,138316,1,8,2:0:0:0:
505,149,138483,6,0,B|399:123|399:123|323:159,1,176,2|2,2:0|2:0,2:0:0:0:
197,222,138983,1,8,2:0:0:0:
322,323,139149,5,2,2:0:0:0:
322,323,139233,1,0,2:0:0:0:
322,323,139316,2,0,P|368:308|411:300,1,88,10|2,2:1|2:0,2:0:0:0:
291,232,139649,1,8,2:0:0:0:
253,384,139816,1,2,2:0:0:0:
105,337,139983,6,0,P|56:266|74:173,1,176,8|8,2:1|2:0,2:0:0:0:
89,72,140483,1,2,2:0:0:0:
89,72,140566,1,2,2:0:0:0:
89,72,140649,2,0,P|46:83|4:93,1,88,10|2,2:1|2:0,2:0:0:0:
209,179,140983,1,10,2:0:0:0:
200,8,141149,6,0,B|167:109|167:109|202:169,1,176,2|2,2:0|2:0,2:0:0:0:
291,10,141649,1,8,2:0:0:0:
348,96,141816,5,2,2:0:0:0:
352,90,141899,1,2,2:0:0:0:
356,83,141983,2,0,L|252:111,1,88,14|2,2:1|2:0,2:0:0:0:
400,288,142316,1,8,2:0:0:0:
473,217,142483,2,0,L|369:189,1,88,2|8,2:0|2:1,2:0:0:0:
252,325,142816,5,2,2:0:0:0:
209,170,142983,1,8,2:0:0:0:
258,340,143149,1,2,2:0:0:0:
32,309,143316,6,0,P|103:260|189:267,1,176,8|8,2:1|2:0,2:0:0:0:
378,219,143816,1,2,2:0:0:0:
315,384,143983,2,0,B|299:358|305:322|305:322|264:279|283:216,1,176,10|8,2:1|2:0,2:0:0:0:
414,94,144483,5,2,2:0:0:0:
414,94,144566,1,2,2:0:0:0:
414,94,144649,2,0,P|457:107|498:117,1,88,8|2,2:1|2:0,2:0:0:0:
433,280,144983,2,0,P|423:238|423:189,1,88,8|2,2:0|2:0,2:0:0:0:
332,29,145316,5,10,2:1:0:0:
291,178,145483,1,10,2:1:0:0:
340,10,145649,1,8,2:0:0:0:
191,96,145816,6,0,B|177:129|159:152|159:152|181:201|197:266,1,176,14|10,2:1|2:1,2:0:0:0:
400,209,146316,2,0,P|345:198|305:183,1,88,10|14,2:0|2:1,2:0:0:0:
291,178,146566,1,10,2:1:0:0:
291,178,146649,1,10,2:1:0:0:
93,346,146816,6,0,L|141:335,1,44,8|8,2:1|2:0,2:0:0:0:
287,266,146983,2,0,L|300:315,1,44,8|8,2:0|2:0,2:0:0:0:
232,384,147149,2,0,L|220:341,1,44,8|8,2:0|2:0,2:0:0:0:
26,241,147316,6,0,L|118:258,1,88,14|2,2:1|2:0,2:0:0:0:
248,22,147649,1,8,2:0:0:0:
339,55,147816,2,0,P|276:110|188:94,1,176,2|2,2:0|2:0,2:0:0:0:
51,36,148316,2,0,P|64:80|72:122,1,88,8|2,2:0|2:0,2:0:0:0:
215,232,148649,6,0,B|286:209|286:209|346:223,1,132,8|0,2:1|2:0,2:0:0:0:
356,226,148983,2,0,P|400:226|448:210,1,88,10|2,2:0|2:0,2:0:0:0:
396,52,149316,2,0,P|383:90|383:138,1,88,10|2,2:1|2:0,2:0:0:0:
494,325,149649,1,8,2:0:0:0:
356,226,149816,1,2,2:0:0:0:
301,353,149983,6,0,P|353:342|389:327,1,88,10|2,2:1|2:0,2:0:0:0:
254,160,150316,2,0,L|229:262,1,88,8|2,2:0|2:0,2:0:0:0:
99,384,150649,6,0,P|32:328|44:244,1,176,8|8,2:1|2:0,2:0:0:0:
170,110,151149,1,2,2:0:0:0:
22,160,151316,2,0,P|63:172|109:172,1,88,10|2,2:1|2:0,2:0:0:0:
233,245,151649,1,10,2:0:0:0:
298,0,151816,6,0,P|256:63|256:170,1,176,2|2,2:0|2:0,2:0:0:0:
352,303,152316,1,8,2:0:0:0:
414,121,152483,1,2,2:0:0:0:
512,202,152649,6,0,B|435:232|435:232|379:215,1,132,14|0,2:1|2:0,2:0:0:0:
372,210,152983,2,0,L|283:230,1,88,12|10,2:0|2:1,2:0:0:0:
109,180,153316,1,14,2:0:0:0:
286,229,153483,1,10,2:1:0:0:
194,380,153649,2,0,B|174:341|174:341|189:288,1,88,12|8,2:0|2:1,2:0:0:0:
195,273,153899,1,0,2:0:0:0:
195,273,153983,1,14,2:0:0:0:
144,80,154149,1,10,2:0:0:0:
144,80,155316,5,2,2:0:0:0:
268,48,165983,6,0,B|340:56|340:56|394:24,1,128,8|2,2:1|2:0,2:0:0:0:
432,96,166483,1,8,2:1:0:0:
504,50,166649,2,0,P|474:106|474:171,1,128,8|2,2:0|2:0,2:0:0:0:
385,252,167149,1,8,2:1:0:0:
485,317,167316,2,0,P|480:285|469:255,1,64,0|8,2:0|2:1,2:0:0:0:
332,179,167649,1,8,2:1:0:0:
297,319,167816,1,8,2:1:0:0:
146,265,167983,6,0,P|196:231|265:237,1,128,8|8,2:0|2:1,2:0:0:0:
340,42,168649,6,0,B|266:66|266:66|197:45,1,128,8|2,2:1|2:0,2:0:0:0:
217,51,169149,1,8,2:1:0:0:
154,5,169316,2,0,P|169:67|182:138,1,128,8|8,2:0|2:1,2:0:0:0:
42,251,169816,1,8,2:1:0:0:
3,177,169983,6,0,P|73:174|126:226,1,128,2|8,2:0|2:1,2:0:0:0:
175,267,170483,1,8,2:1:0:0:
248,210,170649,2,0,P|255:242|264:273,1,64,8|8,2:0|2:1,2:0:0:0:
194,341,170983,2,0,P|185:310|178:278,1,64,2|8,2:0|2:0,2:0:0:0:
334,212,171316,6,0,P|394:240|461:232,1,128,8|2,2:1|2:0,2:0:0:0:
454,234,171816,1,8,2:1:0:0:
512,138,171983,2,0,L|442:154,1,64,8|0,2:0|2:0,2:0:0:0:
383,96,172316,1,2,2:0:0:0:
417,17,172483,1,8,2:1:0:0:
296,101,172649,6,0,P|236:123|173:133,1,128,0|8,2:0|2:1,2:0:0:0:
173,133,173149,1,8,2:1:0:0:
123,219,173316,2,0,P|154:223|184:233,1,64,8|0,2:0|2:0,2:0:0:0:
97,87,173649,2,0,P|85:116|80:148,1,64,8|0,2:1|2:0,2:0:0:0:
139,320,173983,6,0,P|192:286|254:290,1,128,8|2,2:1|2:0,2:0:0:0:
374,329,174483,1,8,2:1:0:0:
314,251,174649,2,0,B|288:330|288:330|305:371,1,128,8|8,2:0|2:1,2:0:0:0:
446,309,175149,5,8,2:1:0:0:
446,309,175233,1,8,2:1:0:0:
446,309,175316,2,0,L|380:327,1,64,2|8,2:0|2:0,2:0:0:0:
325,164,175649,2,0,L|259:182,1,64,8|8,2:1|2:1,2:0:0:0:
418,218,175983,6,0,P|450:164|451:98,1,128,8|2,2:0|2:0,2:0:0:0:
366,39,176483,1,8,2:0:0:0:
464,3,176649,5,8,2:1:0:0:
363,132,176816,1,8,2:1:0:0:
256,8,176983,2,0,P|221:19|186:26,1,72.0000000000001,8|8,3:0|2:1,2:0:0:0:
264,128,177316,6,0,P|256:180|243:235,1,108,8|8,2:0|2:3,2:0:0:0:
243,233,177649,1,8,2:1:0:0:
343,379,177816,1,8,2:3:0:0:
420,331,177983,6,0,P|362:296|288:308,1,144,8|8,2:1|3:0,2:0:0:0:
221,378,178483,1,8,2:1:0:0:
127,248,178649,2,0,B|100:327|100:327|128:345|140:381,1,144,8|8,2:0|2:1,2:0:0:0:
193,302,179149,1,8,2:3:0:0:
36,255,179316,5,8,2:1:0:0:
202,179,179483,1,8,2:1:0:0:
96,97,179649,2,0,B|85:121|85:121|96:165,1,72.0000000000001,8|8,3:0|2:1,2:0:0:0:
272,247,179983,6,0,B|336:267|336:267|381:252,1,108,8|8,2:0|2:3,2:0:0:0:
388,264,180316,2,0,L|371:337,1,72.0000000000001,8|8,2:1|2:3,2:0:0:0:
500,256,180649,6,0,P|467:194|472:119,1,144,8|8,2:1|3:0,2:0:0:0:
342,6,181149,1,8,2:1:0:0:
490,34,181316,2,0,L|406:57,1,72.0000000000001,8|8,2:0|2:1,2:0:0:0:
257,14,181649,2,0,P|245:70|236:122,1,108,8|0,2:1|2:0,2:0:0:0:
240,132,181983,6,0,B|210:146|210:146|179:144|179:144|145:172|83:161,1,144,8|8,2:1|3:0,2:0:0:0:
77,256,182483,1,8,2:1:0:0:
21,115,182649,2,0,L|3:196,1,72.0000000000001,8|8,2:0|2:1,2:0:0:0:
5,185,182899,1,8,2:3:0:0:
5,185,182983,1,8,2:1:0:0:
77,256,183149,1,8,2:3:0:0:
13,327,183316,5,8,2:1:0:0:
169,256,183483,1,8,2:1:0:0:
266,379,183649,1,8,3:0:0:0:
184,341,183816,1,8,2:1:0:0:
293,221,183983,2,0,B|367:241|367:241|417:224,1,108,8|8,2:0|2:3,2:0:0:0:
416,221,184316,1,8,2:1:0:0:
345,62,184483,1,8,2:3:0:0:
512,92,184649,6,0,P|459:133|380:133,1,144,8|8,2:1|3:0,2:0:0:0:
252,79,185149,1,8,2:1:0:0:
293,221,185316,6,0,L|274:304,1,72.0000000000001,8|8,2:0|2:1,2:0:0:0:
276,291,185566,1,8,2:3:0:0:
276,291,185649,1,8,2:1:0:0:
180,234,185816,1,8,2:3:0:0:
172,369,185983,6,0,B|101:355|101:355|100:352|100:352|21:337,1,144,8|8,2:1|3:0,2:0:0:0:
180,234,186483,1,8,2:1:0:0:
35,172,186649,1,8,2:0:0:0:
75,250,186816,1,8,2:1:0:0:
136,143,186983,6,0,L|250:120,1,108,8|0,2:1|2:0,2:0:0:0:
318,177,187316,6,0,B|268:149|251:57|337:9|365:41|358:77|319:84,2,224,12|8|2,2:1|2:0|2:0,2:0:0:0:
318,177,189316,1,2,2:0:0:0:
453,363,189983,5,10,2:1:0:0:
464,350,190316,1,8,2:1:0:0:
468,337,190649,1,8,2:1:0:0:
463,324,190983,1,8,2:1:0:0:
453,316,191316,1,8,2:1:0:0:
441,313,191649,1,8,2:1:0:0:
316,384,191816,5,8,2:1:0:0:
316,384,191899,1,8,2:1:0:0:
316,384,191983,1,8,2:0:0:0:
380,188,192149,1,8,2:0:0:0:
380,188,192483,2,0,L|342:198,1,40,2|0,2:0|2:0,2:0:0:0:
223,278,192649,6,0,L|240:191,1,88,14|2,2:1|2:0,2:0:0:0:
66,28,192983,1,8,2:0:0:0:
13,113,193149,2,0,P|93:122|164:53,1,176,2|2,2:0|2:0,2:0:0:0:
320,157,193649,1,8,2:0:0:0:
268,5,193816,5,2,2:0:0:0:
268,5,193899,1,2,2:0:0:0:
268,5,193983,2,0,B|247:54|247:54|268:118,1,88,8|2,2:1|2:0,2:0:0:0:
312,249,194316,1,8,2:0:0:0:
388,83,194483,1,2,2:0:0:0:
490,177,194649,6,0,B|428:161|428:161|387:172|387:172|305:153,1,176,10|8,2:1|2:0,2:0:0:0:
211,282,195149,1,2,2:0:0:0:
313,334,195316,6,0,B|323:289|323:289|311:248,1,88,10|2,2:1|2:0,2:0:0:0:
266,98,195649,1,8,2:0:0:0:
211,282,195816,1,2,2:0:0:0:
28,203,195983,2,0,B|77:193|126:214|126:214|162:206|192:178,1,176,8|8,2:1|2:0,2:0:0:0:
373,49,196483,5,2,2:0:0:0:
373,49,196566,1,2,2:0:0:0:
373,49,196649,2,0,P|361:93|351:137,1,88,10|2,2:1|2:0,2:0:0:0:
266,98,196983,1,10,2:0:0:0:
334,230,197149,1,2,2:0:0:0:
503,157,197316,6,0,P|463:169|410:184,1,88,8|2,2:1|2:0,2:0:0:0:
242,231,197649,1,8,2:0:0:0:
419,354,197816,5,2,2:0:0:0:
419,354,197899,1,2,2:0:0:0:
419,354,197983,2,0,P|428:310|440:268,1,88,14|2,2:1|2:0,2:0:0:0:
273,134,198316,1,8,2:0:0:0:
320,319,198483,1,2,2:0:0:0:
143,271,198649,6,0,P|187:260|230:244,1,88,8|2,2:1|2:0,2:0:0:0:
371,161,198983,1,8,2:0:0:0:
226,245,199149,1,2,2:0:0:0:
340,328,199316,6,0,B|356:289|356:289|334:236,1,88,8|2,2:1|2:0,2:0:0:0:
478,64,199649,1,8,2:0:0:0:
431,233,199816,1,2,2:0:0:0:
260,123,199983,6,0,B|232:127|202:144|202:144|158:132|158:132|127:147|92:150,1,176,10|8,2:1|2:0,2:0:0:0:
200,55,200483,1,2,2:0:0:0:
159,222,200649,2,0,P|174:263|180:306,1,88,8|2,2:1|2:0,2:0:0:0:
360,121,200983,2,0,P|344:162|338:205,1,88,8|2,2:0|2:0,2:0:0:0:
384,354,201316,5,10,2:1:0:0:
338,205,201483,1,10,2:1:0:0:
490,254,201649,1,8,2:0:0:0:
282,381,201816,6,0,B|263:351|263:351|259:320|259:320|217:281|231:221,1,176,14|10,2:1|2:1,2:0:0:0:
434,215,202316,2,0,P|393:236|348:244,1,88,10|14,2:0|2:1,2:0:0:0:
325,247,202566,1,10,2:1:0:0:
325,247,202649,1,10,2:1:0:0:
119,85,202816,6,0,L|107:133,1,44,8|8,2:1|2:0,2:0:0:0:
35,206,202983,1,8,2:0:0:0:
58,228,203066,1,8,2:0:0:0:
88,241,203149,1,8,2:0:0:0:
121,242,203233,1,8,2:0:0:0:
152,231,203316,6,0,P|196:232|249:248,1,88,14|2,2:1|2:0,2:0:0:0:
416,293,203649,1,8,2:0:0:0:
376,384,203816,2,0,P|331:332|347:222,1,176,2|2,2:0|2:0,2:0:0:0:
508,180,204316,2,0,P|463:197|420:211,1,88,8|2,2:0|2:0,2:0:0:0:
215,10,204649,6,0,P|289:29|344:46,1,132,8|0,2:1|2:0,2:0:0:0:
359,54,204983,1,10,2:0:0:0:
257,195,205149,2,0,P|249:157|232:112,1,88,2|10,2:0|2:1,2:0:0:0:
444,19,205483,1,2,2:0:0:0:
331,142,205649,1,8,2:0:0:0:
444,19,205816,1,2,2:0:0:0:
512,130,205983,6,0,P|468:124|426:110,1,88,10|2,2:1|2:0,2:0:0:0:
278,224,206316,2,0,P|321:229|363:243,1,88,8|2,2:0|2:0,2:0:0:0:
235,137,206649,6,0,P|186:192|203:287,1,176,8|8,2:1|2:0,2:0:0:0:
332,362,207149,1,2,2:0:0:0:
202,286,207316,6,0,P|159:303|117:318,1,88,10|2,2:1|2:0,2:0:0:0:
232,375,207649,1,10,2:0:0:0:
306,212,207816,2,0,P|293:259|286:299,1,88,2|8,2:0|2:1,2:0:0:0:
188,179,208149,1,2,2:0:0:0:
316,98,208316,1,8,2:0:0:0:
174,24,208483,1,10,2:1:0:0:
316,98,208649,6,0,P|368:60|460:68,1,144,14|6,2:1|2:0,2:0:0:0:
445,61,209149,1,10,2:1:0:0:
363,210,209316,2,0,P|293:190|222:180,1,144,10|6,2:0|2:0,2:0:0:0:
96,103,209816,5,8,2:1:0:0:
96,103,209899,1,8,2:1:0:0:
96,103,209983,2,0,P|136:92|196:73,1,88.0000000000001,10|10,2:0|2:0,2:0:0:0:
216,86,210233,1,8,2:0:0:0:
216,86,210316,2,0,L|224:42,1,44.0000000000001,8|8,2:0|2:0,2:0:0:0:
315,10,210483,2,0,L|323:54,1,44.0000000000001,8|8,2:0|2:0,2:0:0:0:
411,124,210649,1,8,2:0:0:0:
345,225,210816,5,8,2:0:0:0:
327,201,210899,1,8,2:0:0:0:
305,182,210983,1,8,2:3:0:0:
278,170,211066,1,8,2:3:0:0:
249,166,211149,1,4,2:3:0:0:
220,169,211233,1,4,2:3:0:0:
193,180,211316,6,0,P|110:207|21:229,1,176,14|8,2:1|2:0,2:0:0:0:
180,297,211816,1,8,2:1:0:0:
62,384,211983,2,0,P|73:338|89:297,1,88.0000000000001,8|8,2:0|2:1,2:0:0:0:
87,300,212233,1,8,2:1:0:0:
87,300,212316,1,8,2:0:0:0:
211,378,212483,1,8,2:1:0:0:
302,281,212649,6,0,P|355:233|438:242,1,132,10|0,2:0|2:0,2:0:0:0:
432,240,212983,2,0,P|441:198|459:157,1,88.0000000000001,8|8,2:0|2:1,2:0:0:0:
303,0,213316,2,0,P|312:42|330:83,1,88.0000000000001,10|8,2:0|2:1,2:0:0:0:
271,192,213649,1,8,2:0:0:0:
421,80,213816,1,10,2:1:0:0:
206,10,213983,6,0,B|186:29|172:52|172:52|109:81|53:74,1,176,14|8,2:0|2:0,2:0:0:0:
196,158,214483,1,8,2:1:0:0:
79,253,214649,2,0,P|86:208|100:167,1,88.0000000000001,8|8,2:0|2:1,2:0:0:0:
99,167,214899,1,8,2:1:0:0:
99,167,214983,1,8,2:0:0:0:
236,246,215149,1,8,2:1:0:0:
290,117,215316,6,0,P|248:136|202:147,1,88.0000000000001,10|8,2:0|2:1,2:0:0:0:
339,206,215649,1,8,2:0:0:0:
405,47,215816,1,8,2:1:0:0:
339,206,215983,6,0,P|346:247|362:290,1,88.0000000000001,10|8,2:0|2:1,2:0:0:0:
502,161,216316,2,0,P|454:155|416:140,1,88.0000000000001,8|10,2:0|2:1,2:0:0:0:
420,370,216649,6,0,P|370:329|263:337,1,176,14|8,2:1|2:0,2:0:0:0:
144,233,217149,1,8,2:1:0:0:
71,359,217316,2,0,P|117:344|156:325,1,88.0000000000001,8|8,2:0|2:1,2:0:0:0:
152,326,217566,1,8,2:1:0:0:
152,326,217649,1,8,2:0:0:0:
249,237,217816,1,8,2:1:0:0:
65,200,217983,6,0,P|24:142|36:79,1,132,10|0,2:0|2:0,2:0:0:0:
57,66,218316,2,0,P|102:78|143:85,1,88.0000000000001,8|8,2:0|2:1,2:0:0:0:
300,15,218649,5,10,2:0:0:0:
350,189,218816,1,8,2:1:0:0:
476,115,218983,2,0,P|420:82|357:95,1,132,8|0,2:0|2:0,2:0:0:0:
336,103,219316,5,14,2:1:0:0:
194,37,219483,1,10,2:1:0:0:
244,223,219649,1,10,2:0:0:0:
56,195,219816,6,0,P|119:137|205:136,1,176,14|10,2:1|2:1,2:0:0:0:
349,234,220316,1,8,2:0:0:0:
345,56,220483,6,0,B|308:151|308:151|346:230,1,176,14|10,2:1|2:1,2:0:0:0:
408,145,220983,1,8,2:0:0:0:
408,145,221066,1,8,2:0:0:0:
408,145,221149,1,8,2:1:0:0:
356,322,221316,6,0,P|311:312|270:301,1,88.0000000000001,8|8,2:3|2:0,2:0:0:0:
249,299,221566,1,8,2:0:0:0:
249,299,221649,2,0,L|235:348,1,44.0000000000001,8|8,2:3|2:3,2:0:0:0:
145,384,221816,2,0,L|131:335,1,44.0000000000001,4|4,2:3|2:3,2:0:0:0:
16,232,221983,6,0,B|59:256|114:249|114:249|136:231|167:220,1,160,14|8,2:1|2:0,2:0:0:0:
256,126,222483,1,2,2:3:0:0:
88,72,222649,2,0,P|85:111|94:150,1,80,10|2,2:1|2:3,2:0:0:0:
256,224,222983,5,10,2:0:0:0:
168,116,223149,1,2,2:3:0:0:
326,43,223316,6,0,P|381:63|441:62,1,120,10|0,2:1|2:0,2:0:0:0:
463,54,223649,2,0,L|443:141,1,80,8|2,2:0|2:3,2:0:0:0:
394,295,223983,1,10,2:1:0:0:
352,158,224149,1,2,2:3:0:0:
497,199,224316,2,0,P|456:212|410:212,1,80,10|2,2:0|2:3,2:0:0:0:
240,360,224649,6,0,P|193:296|201:218,1,160,14|8,2:1|2:0,2:0:0:0:
270,149,225149,1,2,2:3:0:0:
151,18,225316,2,0,P|163:60|173:102,1,80,10|2,2:1|2:3,2:0:0:0:
251,34,225649,1,10,2:0:0:0:
102,149,225816,6,0,B|202:127|202:127|264:151,1,160,2|2,2:3|2:3,2:0:0:0:
451,101,226316,6,0,P|465:63|465:20,1,80,8|2,2:0|2:3,2:0:0:0:
360,153,226649,1,10,2:1:0:0:
510,252,226816,5,8,2:1:0:0:
510,252,226899,1,8,2:1:0:0:
510,252,226983,2,0,P|453:225|385:233,1,120,12|0,2:0|2:0,2:0:0:0:
377,249,227316,6,0,L|357:327,1,80,14|8,2:0|2:1,2:0:0:0:
195,138,227649,2,0,L|215:216,1,80,14|8,2:0|2:1,2:0:0:0:
179,375,227983,1,14,2:0:0:0:
79,306,228149,5,8,2:1:0:0:
79,306,228233,1,8,0:1:0:0:
79,306,228316,2,0,L|160:285,1,80,14|8,2:0|2:1,2:0:0:0:
377,249,228649,6,0,P|407:177|406:94,1,160,14|14,2:0|2:0,2:0:0:0:
337,5,229149,1,8,2:1:0:0:
240,117,229316,2,0,P|279:103|320:87,1,80,14|8,2:0|2:1,2:0:0:0:
124,15,229649,6,0,L|98:132,1,120,14|8,2:0|2:1,2:0:0:0:
96,144,229983,1,10,2:0:0:0:
200,275,230149,2,0,P|190:234|175:196,1,80,10|8,2:0|2:1,2:0:0:0:
136,360,230483,5,10,2:0:0:0:
304,288,230649,2,0,P|344:299|384:303,1,80,10|8,2:0|2:1,2:0:0:0:
382,302,230899,1,8,2:1:0:0:
382,302,230983,1,8,2:0:0:0:
496,152,231149,6,0,P|433:199|355:193,1,160,14|8,2:1|2:1,2:0:0:0:
196,58,231649,2,0,P|208:96|219:134,1,80,8|8,2:0|2:1,2:0:0:0:
299,70,231983,5,8,2:0:0:0:
119,122,232149,1,8,2:1:0:0:
248,248,232316,1,8,2:0:0:0:
196,58,232483,1,8,2:0:0:0:
69,206,232649,6,0,L|110:215,1,40,8|8,2:3|2:3,2:0:0:0:
210,173,232816,2,0,L|219:132,1,40,4|4,2:3|2:3,2:0:0:0:
304,312,232983,5,14,2:1:0:0:
256,192,233066,12,0,238983,2:0:0:0:
