osu file format v14

[General]
AudioFilename: audio.ogg
AudioLeadIn: 0
PreviewTime:136483
Countdown: 0
SampleSet: Soft
StackLeniency: 0.7
Mode: 0
LetterboxInBreaks: 0
WidescreenStoryboard: 1

[Editor]
Bookmarks: 650,11316,21983,32649,43316,53983,64649,83316,93983,104649,115316,125983,136649,155316,165983,176649,188649,192649,211316,221983,232983,238983
DistanceSpacing: 0.8
BeatDivisor: 4
GridSize: 8
TimelineZoom: 1

[Metadata]
Title:White Promise
TitleUnicode:White Promise
Artist:Nayugorou
ArtistUnicode:なゆごろう
Creator:Shikibe Mayu
Version:Hard
Source:LOST:SMILE memories + promises
Tags:shizuku- kazato asa Islet life0 とむ少佐 サウンドトラック ロストスマイル メモリーズ + プロミセス visual novel galgame vn opening full version pop japanese jpop j-pop
BeatmapID:3625572
BeatmapSetID:1769873

[Difficulty]
HPDrainRate:6
CircleSize:3.7
OverallDifficulty:6.5
ApproachRate:8
SliderMultiplier:1.32
SliderTickRate:1

[Events]
//Background and Video events
0,0,"1503.jpg",0,0
//Break Periods
2,155516,163233
//Storyboard Layer 0 (Background)
//Storyboard Layer 1 (Fail)
//Storyboard Layer 2 (Pass)
//Storyboard Layer 3 (Foreground)
//Storyboard Layer 4 (Overlay)
//Storyboard Sound Samples

[TimingPoints]
650,333.333333333333,4,2,10,40,1,0
650,-125,4,2,10,40,0,0
5649,-125,4,2,11,40,0,0
5983,-111.111111111111,4,2,11,60,0,0
6649,-111.111111111111,4,2,10,60,0,0
7316,-111.111111111111,4,2,11,60,0,0
7983,-111.111111111111,4,2,10,60,0,0
8649,-111.111111111111,4,2,11,60,0,0
10149,-111.111111111111,4,2,10,40,0,0
10316,-111.111111111111,4,2,10,45,0,0
10482,-111.111111111111,4,2,10,50,0,0
10649,-111.111111111111,4,2,12,55,0,0
11316,-100,4,2,12,70,0,0
11816,-100,4,2,11,70,0,0
11983,-100,4,2,12,70,0,0
12483,-100,4,2,11,70,0,0
12649,-100,4,2,12,70,0,0
12815,-100,4,2,11,70,0,0
12983,-100,4,2,12,70,0,0
13149,-100,4,2,11,70,0,0
13316,-100,4,2,12,70,0,0
13483,-100,4,2,11,70,0,0
13649,-100,4,2,12,70,0,0
13815,-100,4,2,11,70,0,0
13983,-100,4,2,12,70,0,0
14483,-100,4,2,11,70,0,0
14649,-100,4,2,12,70,0,0
14815,-100,4,2,11,70,0,0
14983,-100,4,2,12,70,0,0
15149,-100,4,2,11,70,0,0
15316,-100,4,2,12,70,0,0
15816,-100,4,2,11,70,0,0
15982,-100,4,2,12,70,0,0
16149,-100,4,2,11,70,0,0
16316,-100,4,2,12,70,0,0
16482,-100,4,2,11,70,0,0
16649,-100,4,2,12,70,0,0
17149,-100,4,2,11,70,0,0
17649,-100,4,2,12,70,0,0
17815,-100,4,2,11,70,0,0
17983,-100,4,2,12,70,0,0
18816,-100,4,2,11,70,0,0
18983,-100,4,2,12,70,0,0
19149,-100,4,2,11,70,0,0
19316,-100,4,2,12,70,0,0
20982,-100,4,2,13,70,0,0
21983,-125,4,2,10,45,0,0
31316,-125,4,2,10,50,0,0
31816,-125,4,2,11,50,0,0
32649,-111.111111111111,4,2,11,60,0,0
33482,-111.111111111111,4,2,10,60,0,0
40649,-111.111111111111,4,2,11,60,0,0
43316,-125,4,2,13,55,0,0
47149,-125,4,2,11,55,0,0
47315,-125,4,2,13,55,0,0
47483,-125,4,2,10,55,0,0
47983,-125,4,2,13,55,0,0
52982,-125,4,2,10,55,0,0
53316,-125,4,2,13,55,0,0
53649,-125,4,2,11,55,0,0
53983,-111.111111111111,4,2,11,55,0,0
57483,-111.111111111111,4,2,12,55,0,0
58649,-111.111111111111,4,2,11,55,0,0
59316,-100,4,2,12,55,0,0
59482,-100,4,2,12,65,0,0
63816,-100,4,2,11,65,0,0
64483,-100,4,2,12,65,0,0
64649,-90.9090909090909,4,2,12,75,0,1
64815,-90.9090909090909,4,2,11,75,0,1
67316,-90.9090909090909,4,2,12,75,0,1
67482,-90.9090909090909,4,2,11,75,0,1
68566,-90.9090909090909,4,2,12,75,0,1
68815,-90.9090909090909,4,2,11,75,0,1
68982,-90.9090909090909,4,2,12,75,0,1
69149,-90.9090909090909,4,2,11,75,0,1
69983,-90.9090909090909,4,2,12,75,0,1
70149,-90.9090909090909,4,2,11,75,0,1
71983,-90.9090909090909,4,2,12,75,0,1
72483,-90.9090909090909,4,2,11,75,0,1
72566,-90.9090909090909,4,2,10,75,0,1
72815,-90.9090909090909,4,2,11,75,0,1
73316,-90.9090909090909,4,2,12,75,0,1
73483,-90.9090909090909,4,2,14,75,0,1
74316,-90.9090909090909,4,2,12,75,0,1
74482,-90.9090909090909,4,2,14,75,0,1
74649,-90.9090909090909,4,2,11,75,0,1
75316,-90.9090909090909,4,2,12,75,0,1
75482,-90.9090909090909,4,2,11,75,0,1
76983,-90.9090909090909,4,2,12,75,0,1
77149,-90.9090909090909,4,2,11,75,0,1
77983,-90.9090909090909,4,2,12,75,0,1
78149,-90.9090909090909,4,2,11,75,0,1
79316,-90.9090909090909,4,2,12,75,0,1
79482,-90.9090909090909,4,2,11,75,0,1
79649,-90.9090909090909,4,2,12,75,0,1
79816,-90.9090909090909,4,2,11,75,0,1
80649,-90.9090909090909,4,2,12,75,0,1
83316,-111.111111111111,4,2,12,70,0,0
88316,-111.111111111111,4,2,11,70,0,0
88649,-100,4,2,13,70,0,0
88982,-100,4,2,15,70,0,0
89149,-100,4,2,13,70,0,0
89316,-100,4,2,15,70,0,0
89482,-100,4,2,13,70,0,0
89649,-100,4,2,15,70,0,0
89816,-100,4,2,13,70,0,0
89982,-100,4,2,15,70,0,0
90149,-100,4,2,13,70,0,0
90315,-100,4,2,15,70,0,0
90483,-100,4,2,13,70,0,0
90649,-100,4,2,15,70,0,0
91316,-100,4,2,13,70,0,0
91649,-100,4,2,15,70,0,0
91816,-100,4,2,13,70,0,0
91983,-100,4,2,15,70,0,0
92149,-100,4,2,13,70,0,0
92316,-100,4,2,15,70,0,0
92482,-100,4,2,13,70,0,0
92649,-100,4,2,15,70,0,0
93149,-100,4,2,13,70,0,0
93316,-100,4,2,11,70,0,0
93482,-100,4,2,13,70,0,0
93983,-111.111111111111,4,2,10,60,0,0
103982,-111.111111111111,4,2,11,60,0,0
104649,-100,4,2,11,65,0,0
112982,-100,4,2,15,65,0,0
113149,-100,4,2,13,65,0,0
113316,-100,4,2,15,65,0,0
113482,-100,4,2,13,65,0,0
113649,-100,4,2,15,65,0,0
113815,-100,4,2,13,65,0,0
113983,-100,4,2,11,65,0,0
115316,-125,4,2,13,65,0,0
119149,-125,4,2,11,65,0,0
119315,-125,4,2,13,65,0,0
119483,-125,4,2,10,65,0,0
119983,-125,4,2,13,65,0,0
124483,-125,4,2,11,65,0,0
124649,-125,4,2,13,65,0,0
124982,-125,4,2,10,65,0,0
125316,-125,4,2,13,65,0,0
125816,-125,4,2,11,65,0,0
125983,-111.111111111111,4,2,12,65,0,0
126816,-111.111111111111,4,2,11,65,0,0
128649,-100,4,2,12,65,0,0
128982,-100,4,2,15,40,0,0
129149,-100,4,2,13,40,0,0
129316,-100,4,2,15,45,0,0
129482,-100,4,2,13,45,0,0
129649,-100,4,2,15,50,0,0
129815,-100,4,2,13,50,0,0
129983,-100,4,2,15,55,0,0
130316,-100,4,2,15,60,0,0
130483,-100,4,2,13,60,0,0
130649,-100,4,2,15,65,0,0
130815,-100,4,2,13,65,0,0
130983,-100,4,2,15,70,0,0
131066,-100,4,2,13,70,0,0
131316,-100,4,2,16,55,0,0
131983,-125,4,2,15,55,0,0
132316,-125,4,2,16,55,0,0
133316,-125,4,2,15,55,0,0
133482,-125,4,2,11,55,0,0
133983,-100,4,2,12,65,0,0
134316,-100,4,2,12,50,0,0
134649,-100,4,2,12,55,0,0
134983,-100,4,2,12,60,0,0
135482,-100,4,2,11,60,0,0
135982,-100,4,2,11,65,0,0
136649,-90.9090909090909,4,2,12,75,0,1
136815,-90.9090909090909,4,2,11,75,0,1
139316,-90.9090909090909,4,2,12,75,0,1
139482,-90.9090909090909,4,2,11,75,0,1
140566,-90.9090909090909,4,2,12,75,0,1
141149,-90.9090909090909,4,2,11,75,0,1
141899,-90.9090909090909,4,2,12,75,0,1
142483,-90.9090909090909,4,2,11,75,0,1
143983,-90.9090909090909,4,2,12,75,0,1
144483,-90.9090909090909,4,2,11,75,0,1
145316,-90.9090909090909,4,2,12,75,0,1
145483,-90.9090909090909,4,2,14,75,0,1
146316,-90.9090909090909,4,2,12,75,0,1
146482,-90.9090909090909,4,2,14,75,0,1
146566,-90.9090909090909,4,2,12,75,0,1
147482,-90.9090909090909,4,2,11,75,0,1
148983,-90.9090909090909,4,2,12,75,0,1
149149,-90.9090909090909,4,2,11,75,0,1
149983,-90.9090909090909,4,2,12,75,0,1
150482,-90.9090909090909,4,2,11,75,0,1
151316,-90.9090909090909,4,2,12,75,0,1
151482,-90.9090909090909,4,2,11,75,0,1
151649,-90.9090909090909,4,2,12,75,0,1
151816,-90.9090909090909,4,2,11,75,0,1
152649,-90.9090909090909,4,2,12,75,0,1
155316,-90.9090909090909,4,2,12,40,0,0
165983,-125,4,2,16,50,0,0
166649,-125,4,2,15,50,0,0
167149,-125,4,2,16,50,0,0
167983,-125,4,2,15,50,0,0
168649,-125,4,2,16,50,0,0
168982,-125,4,2,16,50,0,0
169315,-125,4,2,15,50,0,0
169649,-125,4,2,16,50,0,0
170649,-125,4,2,15,50,0,0
170815,-125,4,2,16,50,0,0
171149,-125,4,2,15,50,0,0
171316,-125,4,2,16,50,0,0
171983,-125,4,2,15,50,0,0
172483,-125,4,2,16,50,0,0
173316,-125,4,2,15,50,0,0
173649,-125,4,2,16,50,0,0
174649,-125,4,2,15,50,0,0
174982,-125,4,2,16,50,0,0
175983,-125,4,2,15,50,0,0
176649,-125,4,2,10,60,0,0
177316,-125,4,2,15,60,0,0
177566,-125,4,2,10,60,0,0
178649,-125,4,2,15,60,0,0
178982,-125,4,2,10,60,0,0
179983,-125,4,2,15,60,0,0
180233,-125,4,2,10,60,0,0
181316,-125,4,2,15,60,0,0
181482,-125,4,2,10,60,0,0
182649,-125,4,2,15,60,0,0
182815,-125,4,2,10,60,0,0
183983,-125,4,2,15,60,0,0
184316,-125,4,2,10,60,0,0
185316,-125,4,2,15,60,0,0
185566,-125,4,2,10,60,0,0
186649,-125,4,2,15,60,0,0
186815,-125,4,2,10,60,0,0
187316,-166.666666666667,4,2,16,60,0,0
187982,-166.666666666667,4,2,15,60,0,0
188649,-166.666666666667,4,2,12,50,0,0
191983,-166.666666666667,4,2,12,60,0,0
192649,-90.9090909090909,4,2,12,75,0,1
192815,-90.9090909090909,4,2,11,75,0,1
195316,-90.9090909090909,4,2,12,75,0,1
195816,-90.9090909090909,4,2,11,75,0,1
196566,-90.9090909090909,4,2,12,75,0,1
197149,-90.9090909090909,4,2,11,75,0,1
197983,-90.9090909090909,4,2,12,75,0,1
198149,-90.9090909090909,4,2,11,75,0,1
199983,-90.9090909090909,4,2,12,75,0,1
200483,-90.9090909090909,4,2,11,75,0,1
200566,-90.9090909090909,4,2,10,75,0,1
200815,-90.9090909090909,4,2,11,75,0,1
201316,-90.9090909090909,4,2,12,75,0,1
201483,-90.9090909090909,4,2,14,75,0,1
202316,-90.9090909090909,4,2,12,75,0,1
202482,-90.9090909090909,4,2,14,75,0,1
202566,-90.9090909090909,4,2,12,75,0,1
203482,-90.9090909090909,4,2,11,75,0,1
204983,-90.9090909090909,4,2,12,75,0,1
205149,-90.9090909090909,4,2,11,75,0,1
205983,-90.9090909090909,4,2,12,75,0,1
206149,-90.9090909090909,4,2,11,75,0,1
207316,-90.9090909090909,4,2,12,75,0,1
207482,-90.9090909090909,4,2,11,75,0,1
207649,-90.9090909090909,4,2,12,75,0,1
207816,-90.9090909090909,4,2,11,75,0,1
208483,-90.9090909090909,4,2,17,75,0,1
208649,-111.111111111111,4,2,12,75,0,1
209983,-100,4,2,12,75,0,1
210983,-100,4,2,11,75,0,1
211316,-90.9090909090909,4,2,12,75,0,1
221316,-90.9090909090909,4,2,11,75,0,1
221983,-100,4,2,12,70,0,0
222483,-100,4,2,11,70,0,0
222649,-100,4,2,12,70,0,0
222815,-100,4,2,11,70,0,0
222983,-100,4,2,12,70,0,0
223149,-100,4,2,11,70,0,0
223316,-100,4,2,12,70,0,0
223815,-100,4,2,11,70,0,0
223983,-100,4,2,12,70,0,0
224149,-100,4,2,11,70,0,0
224316,-100,4,2,12,70,0,0
224482,-100,4,2,11,70,0,0
224649,-100,4,2,12,70,0,0
225149,-100,4,2,11,70,0,0
225316,-100,4,2,12,70,0,0
225483,-100,4,2,11,70,0,0
225649,-100,4,2,12,70,0,0
225816,-100,4,2,11,70,0,0
226649,-100,4,2,12,70,0,0
232649,-100,4,2,11,70,0,0
232983,333.333333333333,4,2,12,70,1,0
234316,-100,4,2,12,60,0,0
235649,-100,4,2,12,50,0,0
236983,-100,4,2,12,40,0,0
237649,-100,4,2,12,30,0,0
238316,-100,4,2,12,20,0,0
238649,-100,4,2,12,10,0,0
238983,-100,4,2,12,5,0,0

[Colours]
Combo1 : 203,180,137
Combo2 : 227,230,157
Combo3 : 244,191,159

[HitObjects]
439,63,650,6,0,P|445:37|455:13,2,52.8,2|0|0,2:1|2:0|2:0,2:0:0:0:
474,136,1149,2,0,P|426:113|374:119,1,105.6,0|0,2:0|2:0,2:0:0:0:
311,167,1649,1,0,2:0:0:0:
230,38,1983,5,2,2:1:0:0:
230,38,2149,2,0,P|168:55|114:66,1,105.6,0|0,2:0|2:0,2:0:0:0:
48,32,2649,2,0,P|17:75|21:132,1,105.6,2|0,2:0|2:0,2:0:0:0:
60,243,3316,6,0,P|28:250|4:256,2,52.8,2|0|0,2:1|2:0|2:0,2:0:0:0:
136,190,3816,2,0,P|151:249|126:303,1,105.6,0|0,2:0|2:0,2:0:0:0:
96,363,4316,2,0,P|143:351|213:341,1,105.6,0|2,2:0|2:1,2:0:0:0:
199,342,4816,1,0,2:0:0:0:
305,325,5149,1,0,2:0:0:0:
305,325,5316,2,0,P|296:353|291:377,2,52.8,2|2|2,2:0|2:3|2:3,2:0:0:0:
200,176,5983,6,0,P|258:177|312:152,1,118.8,14|8,2:1|2:1,2:0:0:0:
371,208,6483,1,0,2:0:0:0:
459,182,6649,2,0,L|446:271,2,89.1000000000001,8|8|8,3:0|2:0|3:0,2:0:0:0:
512,112,7316,6,0,P|504:54|459:18,1,118.8,10|8,2:1|2:1,2:0:0:0:
376,56,7816,1,0,2:0:0:0:
376,56,7983,2,0,L|362:113,2,59.4000000000001,8|8|8,3:0|3:0|3:1,2:0:0:0:
191,4,8649,6,0,P|132:16|74:28,2,118.8,10|10|10,2:1|2:1|2:1,2:0:0:0:
171,97,9483,1,0,2:0:0:0:
249,135,9649,2,0,P|241:166|236:200,1,59.4000000000001,10|0,2:1|2:0,2:0:0:0:
148,228,9983,6,0,P|111:236|80:244,1,59.4000000000001,8|8,2:1|2:0,2:0:0:0:
66,245,10233,1,8,2:0:0:0:
66,245,10316,2,0,L|34:237,3,29.7,8|8|8|8,2:0|2:0|2:0|2:0,2:0:0:0:
23,263,10649,6,0,L|39:336,1,59.4000000000001,10|2,2:1|2:0,2:0:0:0:
123,326,10983,2,0,L|139:399,1,59.4000000000001,2|2,2:0|2:0,2:0:0:0:
224,355,11316,6,0,P|231:295|255:221,1,132,14|8,2:1|2:0,2:0:0:0:
305,167,11816,1,2,2:3:0:0:
371,225,11983,2,0,P|431:226|487:182,1,132,10|8,2:1|2:0,2:0:0:0:
510,106,12483,1,2,2:0:0:0:
435,52,12649,2,0,P|426:83|419:116,1,66,10|2,2:1|2:3,2:0:0:0:
336,74,12983,2,0,P|327:42|320:9,1,66,10|2,2:0|2:3,2:0:0:0:
236,9,13316,1,10,2:1:0:0:
182,80,13483,1,2,2:3:0:0:
242,149,13649,2,0,P|254:181|263:214,1,66,10|2,2:0|2:3,2:0:0:0:
337,249,13983,6,0,P|333:314|285:355,1,132,10|8,2:1|2:0,2:0:0:0:
201,382,14483,1,2,2:3:0:0:
131,341,14649,2,0,P|97:349|62:358,1,66,10|2,2:1|2:3,2:0:0:0:
11,280,14983,2,0,P|45:272|80:263,1,66,10|2,2:0|2:3,2:0:0:0:
128,193,15316,6,0,P|185:225|248:216,1,132,10|8,2:1|2:0,2:0:0:0:
348,184,15816,2,0,P|337:215|330:247,1,66,2|10,2:0|2:1,2:0:0:0:
388,313,16149,1,2,2:3:0:0:
469,276,16316,2,0,P|475:243|486:212,1,66,10|2,2:0|2:3,2:0:0:0:
504,137,16649,6,0,P|514:76|461:19,1,132,14|8,2:1|2:0,2:0:0:0:
394,0,17149,2,0,P|384:37|376:69,1,66,2|8,2:3|2:1,2:0:0:0:
307,12,17483,1,2,2:3:0:0:
244,69,17649,2,0,P|254:105|261:140,1,66,10|2,2:0|2:3,2:0:0:0:
206,209,17983,6,0,P|274:187|341:179,2,132,10|10|10,2:1|2:0|2:1,2:0:0:0:
257,279,18816,1,2,2:3:0:0:
181,322,18983,2,0,P|169:354|161:390,1,66,10|2,2:0|2:3,2:0:0:0:
76,353,19316,6,0,P|35:311|35:239,1,132,14|8,2:1|2:0,2:0:0:0:
26,151,19816,2,0,P|60:159|94:165,1,66,8|10,2:1|2:0,2:0:0:0:
162,98,20149,1,8,2:1:0:0:
162,98,20316,2,0,P|171:132|184:164,1,66,10|8,2:0|2:0,2:0:0:0:
144,239,20649,6,0,P|210:205|273:208,1,132,10|8,2:1|2:0,2:0:0:0:
332,256,21149,1,8,2:1:0:0:
405,199,21316,2,0,P|416:232|423:265,1,66,8|8,2:0|2:0,2:0:0:0:
499,211,21649,1,8,2:0:0:0:
499,211,21816,1,8,2:0:0:0:
509,114,21983,6,0,P|454:115|402:76,1,105.6,2|2,2:1|2:0,2:0:0:0:
364,23,22483,2,0,P|316:39|260:56,1,105.6,2|2,2:0|2:0,2:0:0:0:
263,55,22983,1,2,2:0:0:0:
112,106,23316,6,0,P|122:47|137:-15,2,105.6,2|2|2,2:1|2:0|2:0,2:0:0:0:
160,209,24316,1,2,2:0:0:0:
273,163,24649,6,0,P|296:155|324:147,2,52.8,2|0|2,2:1|2:0|2:0,2:0:0:0:
299,245,25149,1,2,2:0:0:0:
299,245,25316,2,0,P|322:237|350:229,2,52.8,2|0|2,2:0|2:0|2:0,2:0:0:0:
237,372,25983,6,0,P|193:346|127:356,2,105.6,2|2|2,2:1|2:0|2:0,2:0:0:0:
344,309,26983,2,0,L|398:322,1,52.8,2|2,2:0|2:0,2:0:0:0:
470,374,27316,6,0,P|484:323|477:271,1,105.6,2|2,2:1|2:0,2:0:0:0:
508,199,27816,2,0,P|454:217|400:234,1,105.6,2|2,2:0|2:0,2:0:0:0:
407,231,28316,1,2,2:0:0:0:
379,157,28483,1,0,2:0:0:0:
379,157,28649,2,0,P|384:127|392:102,2,52.8,2|2|2,2:1|2:0|2:0,2:0:0:0:
236,213,29316,6,0,P|244:238|251:264,1,52.8,2|0,2:0|2:0,2:0:0:0:
219,339,29649,2,0,P|194:347|168:354,1,52.8,2|0,2:0|2:0,2:0:0:0:
91,332,29983,2,0,P|106:279|88:231,1,105.6,2|2,2:1|2:0,2:0:0:0:
42,172,30483,1,2,2:0:0:0:
42,172,30649,2,0,L|-8:186,2,52.8,0|2|2,2:0|2:0|2:0,2:0:0:0:
18,30,31316,6,0,P|82:72|156:54,1,158.4,2|8,2:0|2:3,2:0:0:0:
271,14,32149,1,4,2:3:0:0:
294,108,32316,2,0,L|283:162,1,52.8,4|8,2:3|2:3,2:0:0:0:
283,159,32566,1,8,2:3:0:0:
283,159,32649,6,0,B|229:176|229:176|226:179|226:179|166:196,1,118.8,4|8,2:0|2:1,2:0:0:0:
96,152,33149,2,0,P|126:211|108:276,1,118.8,0|8,2:0|3:0,2:0:0:0:
93,284,33566,1,8,3:0:0:0:
93,284,33649,2,0,L|155:301,1,59.4000000000001,8|8,3:1|3:0,2:0:0:0:
199,369,33983,1,8,2:1:0:0:
363,330,34316,6,0,B|423:318|423:318|475:348,1,118.8,8|8,2:1|2:1,2:0:0:0:
506,268,34816,1,8,3:0:0:0:
506,268,34983,2,0,L|491:210,1,59.4000000000001,8|8,2:1|3:0,2:0:0:0:
407,175,35316,6,0,P|412:144|421:117,1,59.4000000000001,8|0,2:1|2:0,2:0:0:0:
477,44,35649,2,0,P|446:39|419:30,1,59.4000000000001,8|0,2:1|2:0,2:0:0:0:
336,2,35983,2,0,P|331:33|322:60,1,59.4000000000001,8|8,2:1|3:0,2:0:0:0:
322,59,36233,1,8,3:0:0:0:
322,59,36316,2,0,P|291:67|265:74,1,59.4000000000001,8|8,3:1|3:0,2:0:0:0:
201,17,36649,6,0,B|216:79|216:79|198:142,1,118.8,8|8,2:1|2:1,2:0:0:0:
240,214,37149,1,8,3:0:0:0:
240,214,37316,2,0,L|182:225,2,59.4000000000001,8|8|8,2:1|3:0|2:1,2:0:0:0:
309,163,37816,1,8,3:0:0:0:
376,202,37983,6,0,P|429:199|498:147,2,118.8,8|8|8,2:1|2:1|2:1,2:0:0:0:
341,290,38816,1,8,3:0:0:0:
341,290,38899,1,8,3:0:0:0:
341,290,38983,2,0,P|330:318|323:355,1,59.4000000000001,8|8,3:1|3:0,2:0:0:0:
232,384,39316,6,0,P|220:324|201:269,1,118.8,8|8,2:1|2:1,2:0:0:0:
264,216,39816,1,0,2:0:0:0:
226,143,39983,2,0,P|231:110|241:81,1,59.4000000000001,8|8,2:1|3:0,2:0:0:0:
159,22,40316,2,0,P|154:55|144:84,1,59.4000000000001,8|8,2:1|3:0,2:0:0:0:
118,171,40649,6,0,B|63:182|63:182|61:184|61:184|0:197,2,118.8,10|10|10,2:1|2:1|2:1,2:0:0:0:
182,225,41483,1,0,3:0:0:0:
253,173,41649,2,0,P|281:165|311:156,1,59.4000000000001,10|0,3:1|3:0,2:0:0:0:
372,95,41983,6,0,P|431:104|464:153,1,118.8,12|8,2:1|2:1,2:0:0:0:
512,230,42483,1,8,2:1:0:0:
512,230,42566,1,8,2:1:0:0:
512,230,42649,2,0,L|498:295,1,59.4000000000001,8|8,2:0|3:0,2:0:0:0:
464,364,42983,1,8,2:1:0:0:
382,384,43149,1,8,3:1:0:0:
298,346,43316,6,0,B|249:355|249:355|248:357|248:357|188:369,2,105.6,14|2|10,2:1|2:1|2:0,2:0:0:0:
377,274,44316,1,2,2:1:0:0:
320,182,44649,1,2,2:1:0:0:
320,182,44816,2,0,P|343:133|328:73,1,105.6,8|0,2:0|2:0,2:0:0:0:
358,9,45316,2,0,P|304:36|245:46,1,105.6,10|2,2:0|2:1,2:0:0:0:
260,45,45816,1,8,2:0:0:0:
171,11,45983,6,0,P|160:63|154:129,2,105.6,10|2|10,2:1|2:1|2:0,2:0:0:0:
9,92,46983,1,2,2:1:0:0:
9,92,47149,2,0,P|4:128|-3:153,1,52.8,8|2,2:3|2:1,2:0:0:0:
55,207,47483,1,4,2:3:0:0:
55,207,47649,2,0,P|61:232|64:258,1,52.8,4|4,2:3|2:3,2:0:0:0:
27,337,47983,6,0,P|73:313|125:313,1,105.6,10|2,2:0|2:1,2:0:0:0:
196,351,48483,1,8,2:0:0:0:
268,309,48649,6,0,B|260:262|260:262|257:258|257:258|248:205,1,105.6,14|2,1:0|2:1,2:0:0:0:
183,154,49149,1,8,2:1:0:0:
227,78,49316,2,0,P|197:74|175:66,2,52.8,10|0|2,2:0|2:0|2:1,2:0:0:0:
324,25,49816,6,0,P|316:58|306:135,2,105.6,8|8|8,2:0|2:0|2:1,2:0:0:0:
406,7,50649,1,10,2:0:0:0:
474,119,50983,1,2,2:1:0:0:
422,182,51149,1,8,2:0:0:0:
462,254,51316,6,0,P|496:244|521:237,2,52.8,10|0|2,2:1|2:0|2:1,2:0:0:0:
412,335,51816,1,8,2:1:0:0:
412,335,51983,2,0,P|446:345|471:352,2,52.8,10|0|2,2:0|2:0|2:1,2:0:0:0:
273,384,52649,6,0,P|266:331|253:280,1,105.6,2|6,2:1|2:3,2:0:0:0:
326,241,53149,1,0,2:0:0:0:
285,167,53316,2,0,P|290:142|299:117,1,52.8,8|8,2:0|1:0,2:0:0:0:
369,65,53649,2,0,L|394:59,2,26.4,8|8|8,2:0|2:0|2:3,2:0:0:0:
286,9,53983,6,0,P|236:39|178:35,1,118.8,12|8,2:1|2:1,2:0:0:0:
48,8,54649,2,0,L|31:67,1,59.4000000000001,8|0,2:1|2:0,2:0:0:0:
4,154,54983,2,0,L|11:189,3,29.7,8|8|8|8,2:0|2:0|2:0|2:0,2:0:0:0:
6,195,55316,6,0,B|82:177|82:177|138:196,1,118.8,8|8,2:0|2:1,2:0:0:0:
183,137,55816,1,0,2:0:0:0:
244,198,55983,2,0,P|277:191|306:181,1,59.4000000000001,8|0,2:1|2:0,2:0:0:0:
369,129,56316,2,0,P|372:113|377:99,3,29.7,8|8|8|8,2:1|2:0|2:0|2:0,2:0:0:0:
382,82,56649,6,0,P|327:83|275:50,2,118.8,8|8|8,2:0|2:1|2:1,2:0:0:0:
463,41,57483,1,10,2:0:0:0:
505,115,57649,2,0,L|489:177,1,59.4000000000001,8|10,2:1|2:0,2:0:0:0:
511,261,57983,6,0,B|454:278|454:278|452:281|452:281|387:300,1,118.8,8|8,2:1|2:1,2:0:0:0:
365,382,58483,1,8,2:0:0:0:
283,348,58649,2,0,P|220:340|205:277,1,118.8,8|4,2:3|2:3,2:0:0:0:
250,225,59149,1,4,2:3:0:0:
250,225,59233,1,4,2:3:0:0:
250,225,59316,2,0,L|235:154,1,66,14|8,2:1|2:0,2:0:0:0:
233,140,59566,1,8,2:0:0:0:
233,140,59649,1,8,2:0:0:0:
279,59,59816,6,0,L|211:43,1,66,12|8,2:0|2:0,2:0:0:0:
189,37,60066,1,8,2:0:0:0:
189,37,60149,1,8,2:0:0:0:
120,99,60316,1,12,2:0:0:0:
40,54,60483,2,0,L|50:17,2,33,8|8|8,2:0|2:0|2:0,2:0:0:0:
5,132,60816,6,0,B|20:191|20:191|23:196|23:196|44:271,1,132,12|8,2:0|2:0,2:0:0:0:
52,285,61233,1,8,2:0:0:0:
52,285,61316,2,0,P|89:290|118:298,1,66,12|8,2:0|2:0,2:0:0:0:
182,358,61649,1,12,2:0:0:0:
256,288,61816,5,8,2:0:0:0:
256,288,61899,1,8,2:0:0:0:
256,287,61983,2,0,P|269:239|264:190,1,99,14|0,2:0|2:0,2:0:0:0:
255,181,62316,2,0,L|186:199,1,66,10|8,2:0|2:1,2:0:0:0:
132,123,62649,2,0,L|201:105,1,66,10|8,2:0|2:0,2:0:0:0:
283,89,62983,2,0,L|299:25,1,66,10|8,2:0|2:0,2:0:0:0:
376,53,63316,6,0,L|447:39,1,66,8|8,2:0|2:1,2:0:0:0:
440,40,63566,1,8,2:1:0:0:
440,40,63649,1,8,2:0:0:0:
512,134,63816,2,0,B|451:121|422:162|424:167|402:216|337:201,1,198,6|0,2:3|2:0,2:0:0:0:
264,256,64483,1,2,2:0:0:0:
211,185,64649,6,0,B|218:147|218:147|226:110,1,72.6,14|2,2:1|2:0,2:0:0:0:
300,60,64983,1,8,2:0:0:0:
223,10,65149,2,0,B|159:23|159:23|155:28|155:28|60:49,1,145.2,2|2,2:0|2:0,2:0:0:0:
17,105,65649,2,0,L|3:180,1,72.6,8|2,2:0|2:0,2:0:0:0:
84,243,65983,6,0,L|97:171,1,72.6,8|2,2:1|2:0,2:0:0:0:
170,115,66316,1,8,2:0:0:0:
238,168,66483,2,0,B|307:153|307:153|312:154|312:154|401:134,1,145.2,2|2,2:0|2:0,2:0:0:0:
460,101,66983,1,8,2:0:0:0:
512,169,67149,1,2,2:0:0:0:
445,230,67316,6,0,P|438:264|431:302,1,72.6,10|2,2:1|2:0,2:0:0:0:
381,373,67649,1,8,2:0:0:0:
293,384,67816,1,2,2:0:0:0:
240,320,67983,2,0,P|278:259|264:190,1,145.2,8|8,2:1|2:0,2:0:0:0:
336,136,68483,5,2,2:0:0:0:
336,136,68566,1,2,2:0:0:0:
336,136,68649,2,0,P|376:142|409:153,2,72.6,10|2|10,2:1|2:0|2:0,2:0:0:0:
368,48,69149,2,0,P|298:96|220:87,1,145.2,2|2,2:0|2:0,2:0:0:0:
181,35,69649,1,8,2:0:0:0:
101,49,69816,1,2,2:0:0:0:
23,12,69983,6,0,L|7:84,1,72.6,14|2,2:1|2:0,2:0:0:0:
0,167,70316,1,8,2:0:0:0:
72,224,70483,2,0,B|139:209|139:209|143:207|143:207|225:190,1,145.2,2|2,2:0|2:0,2:0:0:0:
285,239,70983,1,8,2:0:0:0:
362,187,71149,1,2,2:0:0:0:
321,112,71316,6,0,P|330:75|343:38,1,72.6,8|2,2:1|2:0,2:0:0:0:
426,12,71649,1,8,2:0:0:0:
493,73,71816,1,2,2:0:0:0:
493,73,71983,2,0,P|469:141|452:212,1,145.2,10|8,2:1|2:0,2:0:0:0:
496,293,72483,5,2,2:0:0:0:
496,293,72566,1,2,2:0:0:0:
496,293,72649,2,0,P|457:303|419:313,1,72.6,8|2,2:1|2:0,2:0:0:0:
363,373,72983,2,0,P|325:363|289:358,1,72.6,8|2,2:0|2:0,2:0:0:0:
208,384,73316,1,10,2:1:0:0:
150,310,73483,2,0,P|157:274|171:237,1,72.6,10|8,2:1|2:0,2:0:0:0:
259,235,73816,6,0,P|326:215|357:151,1,145.2,14|10,2:1|2:1,2:0:0:0:
338,72,74316,2,0,P|298:63|263:52,1,72.6,10|14,2:0|2:0,2:0:0:0:
243,40,74566,1,8,2:0:0:0:
243,40,74649,1,8,2:3:0:0:
149,19,74816,1,8,2:0:0:0:
149,19,74899,1,8,2:0:0:0:
149,19,74983,2,0,L|140:61,3,36.3,8|8|8|8,2:0|2:0|2:0|2:0,2:0:0:0:
151,70,75316,6,0,L|76:85,1,72.6,14|2,2:1|2:0,2:0:0:0:
15,163,75649,1,8,2:0:0:0:
71,234,75816,2,0,B|144:220|144:220|148:218|148:218|213:205,1,145.2,2|2,2:0|2:0,2:0:0:0:
300,255,76316,2,0,P|308:218|319:179,1,72.6,8|2,2:0|2:0,2:0:0:0:
270,111,76649,6,0,P|312:102|345:91,1,72.6,8|2,2:1|2:0,2:0:0:0:
412,46,76983,1,10,2:0:0:0:
436,138,77149,2,0,P|498:154|497:239,1,145.2,2|2,2:0|2:0,2:0:0:0:
442,280,77649,1,8,2:0:0:0:
502,353,77816,1,2,2:0:0:0:
502,353,77983,6,0,L|428:369,1,72.6,10|2,2:1|2:0,2:0:0:0:
345,384,78316,2,0,P|300:355|295:298,1,108.9,8|0,2:0|2:0,2:0:0:0:
300,295,78649,2,0,B|310:229|310:229|313:224|313:224|326:138,1,145.2,8|8,2:1|2:0,2:0:0:0:
395,95,79149,1,2,2:0:0:0:
338,34,79316,6,0,L|260:50,1,72.6,10|2,2:1|2:0,2:0:0:0:
182,21,79649,1,10,2:0:0:0:
204,104,79816,2,0,P|147:67|66:84,1,145.2,2|2,2:0|2:0,2:0:0:0:
15,138,80316,2,0,P|24:173|32:209,1,72.6,8|2,2:0|2:0,2:0:0:0:
5,299,80649,6,0,B|70:280|70:280|74:277|74:277|156:255,1,145.2,14|12,2:1|2:0,2:0:0:0:
215,313,81149,1,8,2:1:0:0:
289,257,81316,2,0,P|296:219|307:187,1,72.6,14|10,2:0|2:1,2:0:0:0:
221,145,81649,2,0,P|214:107|203:75,1,72.6,12|8,2:0|2:1,2:0:0:0:
202,74,81899,1,0,2:0:0:0:
202,74,81983,5,10,2:0:0:0:
256,0,82149,1,10,2:0:0:0:
510,294,83316,6,0,P|454:292|405:329,1,118.8,8|8,3:1|2:1,2:0:0:0:
329,288,83816,1,0,2:0:0:0:
285,371,83983,2,0,L|226:383,1,59.4000000000001,8|0,2:1|2:0,2:0:0:0:
180,307,84316,2,0,L|239:295,1,59.4000000000001,8|0,2:1|3:0,2:0:0:0:
238,295,84566,1,0,3:0:0:0:
238,295,84649,5,8,2:1:0:0:
275,218,84816,2,0,B|284:162|284:162|286:158|286:158|298:83,2,118.8,0|0|0,2:0|2:0|3:0,2:0:0:0:
195,191,85649,2,0,L|120:207,1,59.4000000000001,8|0,2:1|3:0,2:0:0:0:
136,203,85899,1,0,3:0:0:0:
136,203,85983,6,0,P|75:210|19:162,1,118.8,10|8,2:1|2:1,2:0:0:0:
0,100,86483,1,0,2:0:0:0:
41,26,86649,2,0,L|98:12,1,59.4000000000001,8|0,2:1|3:0,2:0:0:0:
98,11,86899,1,0,3:0:0:0:
98,11,86983,2,0,L|112:68,1,59.4000000000001,8|0,2:1|2:0,2:0:0:0:
194,104,87316,6,0,B|249:89|249:89|253:86|253:86|319:68,2,118.8,10|10|10,2:1|2:1|2:1,2:0:0:0:
111,228,88316,2,0,B|122:258|122:258|114:285,1,59.4000000000001,14|0,2:3|2:0,2:0:0:0:
61,344,88649,6,0,L|193:313,1,132,14|8,2:1|1:0,2:0:0:0:
237,234,89149,1,8,2:0:0:0:
326,266,89316,2,0,L|314:331,1,66,8|8,1:0|2:0,2:0:0:0:
389,384,89649,1,8,1:0:0:0:
472,356,89816,6,0,L|483:290,1,66,8|8,2:0|1:0,2:0:0:0:
428,222,90149,2,0,B|419:189|419:189|431:155,1,66,8|8,2:0|1:0,2:0:0:0:
485,95,90483,1,8,2:0:0:0:
485,95,90649,2,0,L|346:125,1,132,8|8,1:0|1:0,2:0:0:0:
193,25,91316,6,0,B|167:64|167:64|185:152,1,132,12|8,1:0|1:0,2:0:0:0:
211,232,91816,1,8,2:0:0:0:
211,232,91983,2,0,L|141:222,1,66,8|8,1:0|2:0,2:0:0:0:
102,303,92316,2,0,L|167:312,1,66,8|8,1:0|2:0,2:0:0:0:
232,368,92649,6,0,P|288:367|341:309,1,132,8|8,1:0|1:0,2:0:0:0:
421,284,93149,1,8,2:0:0:0:
351,219,93316,2,0,L|364:146,1,66,8|8,2:3|2:0,2:0:0:0:
378,139,93566,1,8,2:0:0:0:
378,139,93649,2,0,L|384:102,3,33,8|8|8|8,2:0|2:0|2:0|2:0,2:0:0:0:
381,84,93983,6,0,B|437:74|437:74|441:71|441:71|511:58,2,118.8,12|8|8,2:1|2:1|2:1,2:0:0:0:
327,10,94816,1,8,3:0:0:0:
246,53,94983,2,0,L|234:118,1,59.4000000000001,8|8,3:1|3:0,2:0:0:0:
280,187,95316,5,8,2:1:0:0:
235,341,95649,2,0,B|288:312|288:312|348:325,2,118.8,8|8|8,2:1|2:1|2:1,2:0:0:0:
159,378,96483,1,8,3:0:0:0:
92,337,96649,6,0,L|27:356,1,59.4000000000001,8|0,2:1|2:0,2:0:0:0:
14,276,96983,2,0,L|71:259,1,59.4000000000001,8|0,2:1|2:0,2:0:0:0:
133,199,97316,1,8,2:1:0:0:
133,199,97483,1,8,3:0:0:0:
212,249,97649,2,0,L|227:186,1,59.4000000000001,8|8,3:1|3:0,2:0:0:0:
301,152,97983,6,0,B|354:138|354:138|358:135|358:135|419:120,1,118.8,8|8,2:1|2:1,2:0:0:0:
386,47,98483,1,8,3:0:0:0:
386,47,98649,2,0,B|328:61|328:61|324:64|324:64|271:78,1,118.8,8|8,2:1|2:1,2:0:0:0:
212,26,99149,1,8,3:0:0:0:
137,56,99316,6,0,P|76:54|30:100,1,118.8,8|8,2:1|2:1,2:0:0:0:
4,164,99816,1,0,2:0:0:0:
4,164,99983,2,0,B|16:215|16:215|19:218|19:218|37:280,1,118.8,8|8,2:1|3:1,2:0:0:0:
56,362,100483,5,8,3:0:0:0:
56,362,100649,2,0,P|29:365|-7:349,2,59.4000000000001,8|0|8,2:1|2:0|2:1,2:0:0:0:
178,384,101316,1,8,2:1:0:0:
178,384,101483,2,0,L|192:322,1,59.4000000000001,8|8,3:0|2:1,2:0:0:0:
148,253,101816,1,8,3:0:0:0:
217,205,101983,6,0,P|237:157|222:89,1,118.8,8|8,2:1|2:1,2:0:0:0:
147,59,102483,1,0,2:0:0:0:
147,59,102649,2,0,L|90:73,2,59.4000000000001,8|8|8,2:1|3:0|3:1,2:0:0:0:
282,11,103316,6,0,B|322:30|322:30|400:14,1,118.8,12|8,2:1|2:1,2:0:0:0:
486,3,103816,2,0,L|469:70,1,59.4000000000001,8|8,2:1|2:0,2:0:0:0:
403,112,104149,1,8,3:0:0:0:
478,169,104316,2,0,L|461:236,1,59.4000000000001,2|8,2:3|3:1,2:0:0:0:
463,226,104566,1,0,3:0:0:0:
463,226,104649,6,0,B|404:241|404:241|396:246|396:246|331:263,1,132,12|8,2:1|2:0,2:0:0:0:
249,283,105149,2,0,L|264:211,1,66,2|8,2:3|2:1,2:0:0:0:
231,134,105483,1,2,2:3:0:0:
314,109,105649,2,0,P|340:64|324:9,1,99,8|0,2:0|2:0,2:0:0:0:
324,10,105983,6,0,B|261:23|261:23|257:25|257:25|189:39,2,132,8|8|8,2:1|2:0|2:1,2:0:0:0:
231,134,106983,2,0,L|164:123,1,66,8|2,2:0|2:3,2:0:0:0:
75,75,107316,6,0,P|39:113|38:190,1,132,8|8,2:1|2:0,2:0:0:0:
0,265,107816,1,2,2:3:0:0:
48,334,107983,6,0,L|114:318,1,66,8|2,2:1|2:3,2:0:0:0:
191,360,108316,2,0,L|211:258,1,99,8|0,2:0|2:0,2:0:0:0:
212,253,108649,6,0,B|280:239|280:239|283:236|283:236|363:219,2,132,8|8|8,2:1|2:0|2:1,2:0:0:0:
143,204,109483,1,2,2:3:0:0:
213,151,109649,2,0,L|227:87,1,66,8|2,2:0|2:3,2:0:0:0:
177,18,109983,6,0,P|229:44|315:24,1,132,12|8,2:1|2:0,2:0:0:0:
441,5,110649,1,8,2:1:0:0:
508,52,110816,1,2,2:3:0:0:
454,112,110983,2,0,P|440:142|440:182,1,66,8|2,2:0|2:3,2:0:0:0:
512,219,111316,6,0,B|446:230|446:230|442:233|442:233|371:248,1,132,8|8,2:1|2:0,2:0:0:0:
311,298,111816,1,2,2:3:0:0:
252,231,111983,2,0,L|268:163,2,66,8|2|8,2:1|2:3|2:0,2:0:0:0:
144,368,112649,6,0,P|79:368|27:329,1,132,12|8,2:1|1:0,2:0:0:0:
64,256,113149,1,8,2:0:0:0:
64,256,113316,2,0,L|129:240,1,66,8|8,1:0|2:0,2:0:0:0:
77,163,113649,2,0,L|12:179,1,66,8|8,1:0|2:0,2:0:0:0:
34,84,113983,6,0,B|89:114|89:114|166:100,1,132,8|12,2:3|2:0,2:0:0:0:
238,63,114483,1,0,2:0:0:0:
238,63,114566,1,0,2:0:0:0:
238,63,114649,1,8,2:0:0:0:
288,133,114816,1,8,2:0:0:0:
221,191,114983,2,0,B|203:227|203:227|219:283,1,99,8|0,2:3|2:0,2:0:0:0:
214,290,115316,6,0,P|168:265|101:281,2,105.6,14|2|10,2:1|2:1|2:0,2:0:0:0:
291,377,116316,1,2,2:1:0:0:
409,330,116649,1,2,2:1:0:0:
409,330,116816,2,0,B|420:284|420:284|423:281|423:281|435:229,1,105.6,8|0,2:0|2:0,2:0:0:0:
509,185,117316,2,0,P|519:121|493:79,1,105.6,10|2,2:0|2:1,2:0:0:0:
432,26,117816,1,8,2:0:0:0:
392,107,117983,6,0,L|267:132,1,105.6,10|2,2:1|2:1,2:0:0:0:
196,162,118483,1,8,2:1:0:0:
196,162,118649,2,0,L|220:44,1,105.6,10|2,2:0|2:1,2:0:0:0:
144,10,119149,6,0,L|91:21,1,52.8,8|2,2:3|2:1,2:0:0:0:
10,10,119483,1,4,2:3:0:0:
10,10,119649,2,0,L|0:61,1,52.8,4|4,2:3|2:3,2:0:0:0:
56,132,119983,5,10,2:0:0:0:
56,132,120149,1,0,2:0:0:0:
4,203,120316,2,0,L|58:217,1,52.8,2|8,2:1|2:0,2:0:0:0:
146,149,120649,6,0,B|203:136|203:136|243:145|243:145|309:129,1,158.4,14|8,1:0|2:1,2:0:0:0:
366,168,121316,2,0,P|345:119|346:59,1,105.6,10|2,2:0|2:1,2:0:0:0:
384,3,121816,6,0,L|278:26,2,105.6,8|8|8,2:0|2:0|2:1,2:0:0:0:
486,106,122816,1,0,2:0:0:0:
486,106,122983,2,0,L|474:158,1,52.8,2|8,2:1|2:0,2:0:0:0:
511,234,123316,6,0,P|511:285|483:335,1,105.6,10|2,2:1|2:1,2:0:0:0:
404,372,123816,1,8,2:1:0:0:
404,372,123983,2,0,L|352:385,2,52.8,10|0|2,2:0|2:0|2:1,2:0:0:0:
375,287,124483,1,8,2:3:0:0:
375,287,124649,6,0,B|387:232|387:232|390:229|390:229|400:172,1,105.6,2|4,2:1|2:3,2:0:0:0:
465,138,125149,1,0,2:0:0:0:
418,72,125316,2,0,L|363:85,1,52.8,8|8,2:0|2:1,2:0:0:0:
296,32,125649,1,2,2:1:0:0:
224,120,125816,5,8,2:3:0:0:
224,120,125899,1,8,2:3:0:0:
224,120,125983,2,0,B|211:64|211:64|207:61|207:61|191:-8,2,118.8,14|8|8,2:1|2:1|2:1,2:0:0:0:
272,187,126816,1,2,2:3:0:0:
210,244,126983,2,0,P|210:279|223:311,1,59.4000000000001,8|2,2:1|2:3,2:0:0:0:
268,363,127316,6,0,L|150:349,1,118.8,8|8,2:1|2:1,2:0:0:0:
79,375,127816,1,2,2:3:0:0:
23,310,127983,2,0,L|35:250,1,59.4000000000001,8|2,2:1|2:3,2:0:0:0:
0,178,128316,2,0,L|6:148,3,29.7,8|8|4|4,2:3|2:3|2:3|2:3,2:0:0:0:
8,137,128649,6,0,B|76:125|76:125|82:122|82:122|168:107,1,132,14|8,2:1|1:0,2:0:0:0:
231,84,129149,1,8,2:0:0:0:
231,84,129233,1,8,2:0:0:0:
231,84,129316,2,0,L|214:156,1,66,8|8,1:0|2:0,2:0:0:0:
303,138,129649,2,0,L|286:210,1,66,8|8,1:0|2:0,2:0:0:0:
233,269,129983,6,0,L|362:243,1,132,8|8,1:0|1:0,2:0:0:0:
445,292,130483,1,8,2:0:0:0:
445,292,130566,1,8,2:0:0:0:
445,292,130649,2,0,L|457:228,1,66,8|8,1:0|2:0,2:0:0:0:
447,198,130899,1,8,2:0:0:0:
447,198,130983,2,0,L|453:166,3,33,8|8|8|8,1:0|2:0|2:0|2:0,2:0:0:0:
480,144,131316,5,8,3:1:0:0:
368,24,131816,1,8,2:1:0:0:
368,24,131983,2,0,B|315:36|315:36|312:38|312:38|261:49,2,105.6,8|8|8,2:0|2:1|2:1,2:0:0:0:
293,129,132983,1,8,2:1:0:0:
186,10,133316,2,0,L|176:61,1,52.8,8|8,2:0|2:3,2:0:0:0:
184,150,133649,2,0,L|106:167,1,79.2,4|0,2:3|2:0,2:0:0:0:
95,168,133983,6,0,B|68:248|68:248|94:308,1,132,14|8,2:1|2:0,2:0:0:0:
19,351,134483,1,8,2:0:0:0:
102,383,134649,2,0,L|168:365,1,66,8|8,2:0|2:0,2:0:0:0:
256,384,134983,2,0,L|270:317,1,66,8|8,2:0|2:0,2:0:0:0:
209,261,135316,2,0,B|196:229|196:229|204:195,1,66,8|8,2:0|2:3,2:0:0:0:
209,181,135566,1,8,2:3:0:0:
209,181,135649,1,8,2:0:0:0:
133,127,135816,2,0,L|147:60,1,66,8|10,2:0|2:3,2:0:0:0:
237,30,136149,1,8,2:1:0:0:
237,30,136233,1,8,2:0:0:0:
237,30,136316,2,0,L|275:22,3,33,8|8|8|8,2:0|2:0|2:0|2:0,2:0:0:0:
286,18,136649,6,0,L|358:33,1,72.6,14|2,2:1|2:0,2:0:0:0:
442,5,136983,1,8,2:0:0:0:
495,90,137149,2,0,B|427:104|427:104|421:108|421:108|351:123,1,145.2,2|2,2:0|2:0,2:0:0:0:
300,193,137649,2,0,P|260:193|224:176,1,72.6,8|2,2:0|2:0,2:0:0:0:
154,135,137983,6,0,L|170:63,1,72.6,8|2,2:1|2:0,2:0:0:0:
112,1,138316,1,8,2:0:0:0:
32,32,138483,2,0,L|0:173,1,145.2,2|2,2:0|2:0,2:0:0:0:
66,231,138983,1,8,2:0:0:0:
23,305,139149,1,2,2:0:0:0:
97,359,139316,6,0,P|131:346|167:345,1,72.6,10|2,2:1|2:0,2:0:0:0:
248,382,139649,1,8,2:0:0:0:
305,315,139816,1,2,2:0:0:0:
254,244,139983,2,0,B|264:174|264:174|267:170|267:170|279:90,1,145.2,8|8,2:1|2:0,2:0:0:0:
242,28,140483,5,2,2:0:0:0:
242,28,140566,1,2,2:0:0:0:
242,28,140649,2,0,P|293:50|349:45,1,108.9,10|0,2:1|2:0,2:0:0:0:
354,40,140983,2,0,P|389:34|425:25,1,72.6,10|2,2:0|2:0,2:0:0:0:
494,74,141316,1,8,2:1:0:0:
452,149,141483,1,2,2:0:0:0:
512,229,141649,2,0,P|477:235|441:244,1,72.6,8|2,2:0|2:0,2:0:0:0:
414,267,141899,5,2,2:0:0:0:
414,267,141983,2,0,B|367:272|346:252|351:246|328:220|276:232,1,145.2,14|8,2:1|2:0,2:0:0:0:
191,245,142483,2,0,P|198:209|208:174,1,72.6,2|8,2:0|2:1,2:0:0:0:
293,142,142816,1,2,2:0:0:0:
335,64,142983,1,8,2:0:0:0:
276,5,143149,6,0,B|217:16|217:16|209:19|209:19|121:35,1,145.2,2|2,2:0|2:0,2:0:0:0:
55,1,143649,2,0,L|41:72,1,72.6,8|2,2:0|2:0,2:0:0:0:
3,167,143983,2,0,B|78:153|78:153|86:150|86:150|145:139,1,145.2,10|8,2:1|2:0,2:0:0:0:
198,205,144483,1,2,2:0:0:0:
278,172,144649,6,0,L|292:99,1,72.6,8|2,2:1|2:0,2:0:0:0:
391,61,144983,2,0,L|377:132,1,72.6,8|2,2:0|2:0,2:0:0:0:
434,212,145316,1,10,2:1:0:0:
434,212,145483,2,0,L|513:192,1,72.6,10|8,2:1|2:0,2:0:0:0:
512,290,145816,6,0,B|439:308|439:308|433:312|433:312|349:331,1,145.2,14|10,2:1|2:1,2:0:0:0:
266,374,146316,2,0,L|278:300,1,72.6,10|14,2:0|2:1,2:0:0:0:
277,302,146566,1,10,2:1:0:0:
277,302,146649,1,10,2:1:0:0:
240,235,146816,1,8,2:1:0:0:
240,235,146899,1,8,2:0:0:0:
240,235,146983,2,0,L|202:244,3,36.3,8|8|8|8,2:0|2:0|2:0|2:0,2:0:0:0:
184,249,147316,6,0,L|112:237,1,72.6,14|2,2:1|2:0,2:0:0:0:
41,285,147649,1,8,2:0:0:0:
0,212,147816,2,0,B|-19:117|-19:117|4:74,1,145.2,2|2,2:0|2:0,2:0:0:0:
82,95,148316,2,0,P|118:88|153:79,1,72.6,8|2,2:0|2:0,2:0:0:0:
250,59,148649,6,0,P|238:96|234:132,1,72.6,8|2,2:1|2:0,2:0:0:0:
164,182,148983,1,10,2:0:0:0:
243,215,149149,2,0,P|225:271|266:346,1,145.2,2|2,2:0|2:0,2:0:0:0:
336,374,149649,2,0,L|409:358,1,72.6,8|2,2:0|2:0,2:0:0:0:
490,282,149983,6,0,P|442:284|391:249,1,108.9,10|0,2:1|2:0,2:0:0:0:
389,240,150316,2,0,L|404:167,1,72.6,8|2,2:0|2:0,2:0:0:0:
466,103,150649,2,0,B|402:115|402:115|396:120|396:120|314:137,1,145.2,8|8,2:1|2:0,2:0:0:0:
248,96,151149,1,2,2:0:0:0:
205,168,151316,6,0,B|194:202|194:202|209:251,1,72.6,10|2,2:1|2:0,2:0:0:0:
153,307,151649,1,10,2:0:0:0:
71,281,151816,2,0,L|86:198,1,72.6,2|8,2:0|2:1,2:0:0:0:
19,156,152149,1,2,2:0:0:0:
0,77,152316,1,8,2:0:0:0:
58,19,152483,1,2,2:0:0:0:
143,26,152649,6,0,B|207:47|207:47|248:36,1,108.9,14|0,2:1|2:0,2:0:0:0:
251,47,152983,2,0,L|234:129,1,72.6,12|10,2:0|2:1,2:0:0:0:
298,186,153316,2,0,L|281:268,1,72.6,14|10,2:0|2:1,2:0:0:0:
254,278,153566,1,8,2:1:0:0:
254,278,153649,2,0,L|271:360,1,72.6,12|8,2:0|2:1,2:0:0:0:
380,303,153983,1,14,2:0:0:0:
457,384,154149,1,10,2:0:0:0:
457,384,155316,5,2,2:0:0:0:
256,192,163983,12,0,165649,2:0:0:0:
320,176,165983,6,0,B|340:144|340:144|322:78,1,105.6,8|2,2:1|2:0,2:0:0:0:
356,8,166483,1,8,2:1:0:0:
356,8,166649,2,0,P|314:33|256:29,1,105.6,8|2,2:0|2:0,2:0:0:0:
202,95,167149,1,8,2:1:0:0:
118,63,167316,2,0,L|129:8,2,52.8,0|8|8,2:0|2:1|2:1,2:0:0:0:
49,236,167983,2,0,B|131:221|131:221|135:217|135:217|213:202,1,158.4,8|0,2:0|2:0,2:0:0:0:
259,266,168649,6,0,P|313:278|332:321,2,105.6,8|2|8,2:1|2:0|2:0,2:0:0:0:
329,146,169649,2,0,L|341:91,1,52.8,8|8,2:1|2:1,2:0:0:0:
259,68,169983,2,0,B|333:53|333:53|341:49|341:49|434:30,1,158.4,2|8,2:0|2:1,2:0:0:0:
493,75,170649,2,0,L|504:23,2,52.8,8|8|2,2:0|2:1|2:0,2:0:0:0:
438,143,171149,1,8,2:0:0:0:
512,184,171316,6,0,P|474:184|421:235,1,105.6,8|2,2:1|2:0,2:0:0:0:
417,311,171816,1,8,2:1:0:0:
336,333,171983,2,0,L|323:386,2,52.8,8|0|2,2:0|2:0|2:0,2:0:0:0:
263,289,172483,1,8,2:1:0:0:
263,289,172649,2,0,B|253:239|253:239|251:236|251:236|240:181,1,105.6,0|8,2:0|2:1,2:0:0:0:
318,147,173149,1,8,2:1:0:0:
318,147,173316,2,0,L|369:157,2,52.8,8|0|8,2:0|2:0|2:1,2:0:0:0:
239,24,173983,6,0,P|193:47|141:42,1,105.6,8|2,2:1|2:0,2:0:0:0:
68,2,174483,1,8,2:1:0:0:
4,60,174649,2,0,L|25:173,1,105.6,8|8,2:0|2:1,2:0:0:0:
96,209,175149,1,8,2:1:0:0:
158,147,175316,6,0,B|211:137|211:137|259:155|259:155|317:144,1,158.4,2|8,2:0|2:1,2:0:0:0:
386,193,175983,2,0,B|365:145|365:145|377:90,1,105.6,8|2,2:0|2:0,2:0:0:0:
315,37,176483,5,8,2:0:0:0:
315,37,176649,2,0,L|262:51,2,52.8,8|8|8,2:1|2:1|3:0,2:0:0:0:
479,15,177316,2,0,L|459:94,1,79.2,8|8,2:0|2:3,2:0:0:0:
457,103,177649,1,8,2:1:0:0:
512,164,177816,1,8,2:3:0:0:
467,236,177983,6,0,B|419:248|419:248|415:251|415:251|343:267,1,105.6,8|8,2:1|3:0,2:0:0:0:
309,331,178483,1,8,2:1:0:0:
309,331,178649,2,0,P|281:285|290:219,1,105.6,8|8,2:0|2:1,2:0:0:0:
243,158,179149,1,8,2:3:0:0:
304,95,179316,6,0,L|357:105,2,52.8,8|8|8,2:1|2:1|3:0,2:0:0:0:
267,7,179816,1,8,2:1:0:0:
267,7,179983,2,0,P|227:28|179:29,1,79.2,8|8,2:0|2:3,2:0:0:0:
172,25,180316,2,0,L|104:37,1,52.8,8|8,2:1|2:3,2:0:0:0:
37,0,180649,2,0,B|29:48|29:48|24:54|24:54|16:104,1,105.6,8|8,2:1|3:0,2:0:0:0:
0,181,181149,1,8,2:1:0:0:
69,220,181316,2,0,P|98:211|123:209,1,52.8,8|8,2:0|2:1,2:0:0:0:
206,227,181649,2,0,P|212:182|225:150,1,79.2,8|0,2:1|2:0,2:0:0:0:
238,138,181983,6,0,P|294:127|351:105,1,105.6,8|8,2:1|3:0,2:0:0:0:
480,59,182649,2,0,L|469:119,1,52.8,8|8,2:0|2:1,2:0:0:0:
487,141,182899,1,8,2:3:0:0:
487,141,182983,2,0,P|480:170|474:200,1,52.8,8|8,2:1|2:3,2:0:0:0:
510,267,183316,1,8,2:1:0:0:
463,343,183483,2,0,B|413:354|413:354|410:357|410:357|353:370,1,105.6,8|8,2:1|2:1,2:0:0:0:
278,384,183983,2,0,B|251:348|251:348|264:279,1,105.6,8|8,2:0|2:1,2:0:0:0:
336,251,184483,1,8,2:3:0:0:
271,197,184649,5,8,2:1:0:0:
271,197,184816,2,0,B|262:148|262:148|259:144|259:144|250:88,1,105.6,8|8,2:1|2:1,2:0:0:0:
178,33,185316,2,0,P|143:32|106:8,1,79.2,8|8,2:0|2:3,2:0:0:0:
106,8,185649,2,0,L|54:24,1,52.8,8|8,2:1|2:3,2:0:0:0:
11,102,185983,6,0,B|64:115|64:115|68:118|68:118|126:131,1,105.6,8|8,2:1|3:0,2:0:0:0:
195,110,186483,1,8,2:1:0:0:
243,176,186649,2,0,L|232:228,2,52.8,8|8|8,2:0|2:1|2:1,2:0:0:0:
352,40,187316,6,0,B|420:26|420:26|436:18|436:18|522:1,2,158.4,12|8|2,2:1|2:0|2:0,2:0:0:0:
352,40,189316,1,2,2:0:0:0:
482,139,189983,5,10,2:1:0:0:
471,133,190316,1,8,2:1:0:0:
457,133,190649,1,8,2:1:0:0:
446,140,190983,1,8,2:1:0:0:
351,179,191316,6,0,L|368:91,1,79.1999999999998,8|8,2:1|2:1,2:0:0:0:
317,19,191816,1,8,2:1:0:0:
317,19,191899,1,8,2:1:0:0:
317,19,191983,1,8,2:0:0:0:
214,64,192149,1,8,2:0:0:0:
71,6,192483,5,2,2:0:0:0:
9,68,192649,2,0,B|17:102|17:102|19:104|19:104|28:140,1,72.6,14|2,2:1|2:0,2:0:0:0:
1,218,192983,1,8,2:0:0:0:
65,270,193149,6,0,B|107:279|142:252|128:248|160:220|202:229,1,145.2,2|2,2:0|2:0,2:0:0:0:
288,270,193649,2,0,P|296:231|306:198,1,72.6,8|2,2:0|2:0,2:0:0:0:
249,141,193983,5,8,2:1:0:0:
223,65,194149,1,2,2:0:0:0:
281,1,194316,1,8,2:0:0:0:
357,20,194483,2,0,P|415:49|497:28,1,145.2,2|2,2:0|2:0,2:0:0:0:
506,122,194983,2,0,L|489:192,1,72.6,8|2,2:0|2:0,2:0:0:0:
498,283,195316,6,0,B|430:297|430:297|418:303|418:303|346:319,1,145.2,10|8,2:1|2:0,2:0:0:0:
288,379,195816,1,2,2:0:0:0:
218,327,195983,2,0,L|232:253,1,72.6,8|2,2:1|2:0,2:0:0:0:
318,227,196316,1,8,2:0:0:0:
241,160,196483,5,2,2:0:0:0:
241,160,196566,1,2,2:0:0:0:
241,160,196649,2,0,P|212:106|221:46,1,108.9,10|0,2:1|2:0,2:0:0:0:
222,51,196983,2,0,L|148:66,1,72.6,10|2,2:0|2:0,2:0:0:0:
64,22,197316,2,0,L|42:106,1,72.6,8|2,2:1|2:0,2:0:0:0:
17,172,197649,1,8,2:0:0:0:
75,235,197816,1,2,2:0:0:0:
162,189,197983,6,0,B|195:180|195:180|197:179|197:179|237:169,1,72.6,14|2,2:1|2:0,2:0:0:0:
293,232,198316,1,8,2:0:0:0:
378,193,198483,2,0,B|392:128|392:128|397:124|397:124|413:46,1,145.2,2|2,2:0|2:0,2:0:0:0:
346,7,198983,2,0,P|311:19|276:19,1,72.6,8|2,2:0|2:0,2:0:0:0:
189,5,199316,6,0,L|204:82,1,72.6,8|2,2:1|2:0,2:0:0:0:
269,127,199649,1,8,2:0:0:0:
223,197,199816,1,2,2:0:0:0:
299,242,199983,2,0,P|311:314|255:372,1,145.2,10|8,2:1|2:0,2:0:0:0:
176,335,200483,5,2,2:0:0:0:
183,343,200566,1,2,2:0:0:0:
183,343,200649,2,0,L|110:359,1,72.6,8|2,2:1|2:0,2:0:0:0:
51,283,200983,2,0,L|121:267,1,72.6,8|2,2:0|2:0,2:0:0:0:
179,197,201316,1,10,2:1:0:0:
259,226,201483,2,0,P|259:265|273:301,1,72.6,10|8,2:1|2:0,2:0:0:0:
351,370,201816,6,0,B|418:354|418:354|421:350|421:350|509:331,1,145.2,14|10,2:1|2:1,2:0:0:0:
446,256,202316,2,0,L|461:182,1,72.6,10|14,2:0|2:1,2:0:0:0:
471,163,202566,1,10,2:1:0:0:
471,163,202649,1,10,2:1:0:0:
398,95,202816,1,8,2:1:0:0:
398,95,202899,1,8,2:0:0:0:
398,95,202983,2,0,L|363:103,3,36.3,8|8|8|8,2:0|2:0|2:0|2:0,2:0:0:0:
340,110,203316,6,0,L|326:37,1,72.6,14|2,2:1|2:0,2:0:0:0:
246,6,203649,1,8,2:0:0:0:
192,80,203816,2,0,L|219:222,1,145.2,2|2,2:0|2:0,2:0:0:0:
294,267,204316,2,0,P|294:304|276:338,1,72.6,8|2,2:0|2:0,2:0:0:0:
205,381,204649,6,0,P|169:370|133:367,1,72.6,8|2,2:1|2:0,2:0:0:0:
62,238,204983,1,10,2:0:0:0:
17,318,205149,2,0,P|85:323|153:265,1,145.2,2|2,2:0|2:0,2:0:0:0:
208,213,205649,2,0,P|244:222|279:230,1,72.6,8|2,2:0|2:0,2:0:0:0:
355,192,205983,5,10,2:1:0:0:
412,258,206149,1,2,2:0:0:0:
486,214,206316,2,0,L|508:106,1,108.9,8|0,2:0|2:0,2:0:0:0:
511,98,206649,2,0,B|468:107|445:79|451:69|418:42|370:58,1,145.2,8|8,2:1|2:0,2:0:0:0:
312,6,207149,1,2,2:0:0:0:
244,64,207316,6,0,L|259:142,1,72.6,10|2,2:1|2:0,2:0:0:0:
338,180,207649,1,10,2:0:0:0:
318,264,207816,2,0,B|253:276|253:276|250:281|250:281|177:296,1,145.2,2|2,2:0|2:0,2:0:0:0:
111,353,208316,1,8,2:0:0:0:
27,322,208483,1,10,2:1:0:0:
38,237,208649,6,0,L|177:210,1,118.8,14|6,2:1|2:0,2:0:0:0:
208,146,209149,1,10,2:1:0:0:
256,248,209316,6,0,L|395:275,1,118.8,10|6,2:0|2:0,2:0:0:0:
426,339,209816,1,8,2:1:0:0:
497,269,209983,6,0,L|482:200,1,66,10|10,2:0|2:0,2:0:0:0:
479,189,210233,1,8,2:0:0:0:
479,189,210316,2,0,L|433:182,2,33,8|8|8,2:0|2:0|2:0,2:0:0:0:
502,111,210649,2,0,B|507:77|507:77|490:42,1,66,8|8,2:0|2:0,2:0:0:0:
477,29,210899,1,8,2:0:0:0:
477,29,210983,2,0,L|411:44,1,66,8|4,2:3|2:3,2:0:0:0:
322,0,211316,6,0,B|309:63|309:63|306:67|306:67|290:157,1,145.2,14|8,2:1|2:0,2:0:0:0:
248,213,211816,1,8,2:1:0:0:
304,289,211983,2,0,P|263:297|230:308,1,72.6,8|8,2:0|2:1,2:0:0:0:
204,327,212233,1,8,2:1:0:0:
204,327,212316,2,0,P|163:319|130:308,1,72.6,8|8,2:0|2:1,2:0:0:0:
52,347,212649,6,0,P|6:287|16:222,1,145.2,10|8,2:0|2:0,2:0:0:0:
76,164,213149,1,8,2:1:0:0:
17,95,213316,2,0,P|53:88|92:75,1,72.6,10|8,2:0|2:1,2:0:0:0:
163,38,213649,1,8,2:0:0:0:
223,91,213816,1,10,2:1:0:0:
287,35,213983,6,0,B|261:83|261:83|269:130|289:170,1,145.2,14|8,2:0|2:0,2:0:0:0:
228,229,214483,1,8,2:1:0:0:
281,296,214649,2,0,L|354:276,1,72.6,8|8,2:0|2:1,2:0:0:0:
435,315,214983,2,0,L|455:242,1,72.6,8|8,2:0|2:1,2:0:0:0:
506,179,215316,5,10,2:0:0:0:
486,102,215483,1,8,2:1:0:0:
408,71,215649,1,8,2:0:0:0:
335,119,215816,1,8,2:1:0:0:
335,119,215899,1,8,0:1:0:0:
335,119,215983,2,0,L|261:135,1,72.6,10|8,2:0|2:1,2:0:0:0:
191,80,216316,2,0,B|172:121|172:121|192:202,1,108.9,8|0,2:0|2:0,2:0:0:0:
179,186,216649,6,0,B|106:174|106:174|103:172|103:172|35:162,2,145.2,14|8|8,2:1|2:0|2:0,2:0:0:0:
256,240,217483,1,8,2:1:0:0:
343,218,217649,2,0,P|343:255|332:290,1,72.6,8|8,2:0|2:1,2:0:0:0:
381,365,217983,6,0,P|321:331|242:345,1,145.2,10|8,2:0|2:0,2:0:0:0:
169,383,218483,1,8,2:1:0:0:
169,383,218566,1,8,2:1:0:0:
169,383,218649,2,0,L|95:366,1,72.6,10|8,2:0|2:1,2:0:0:0:
18,384,218983,2,0,P|9:342|-2:310,1,72.6,8|10,2:0|2:1,2:0:0:0:
16,232,219316,5,14,2:1:0:0:
99,254,219483,2,0,L|176:240,1,72.6,10|10,2:1|2:0,2:0:0:0:
258,285,219816,2,0,P|257:228|326:179,1,145.2,14|10,2:1|2:1,2:0:0:0:
391,237,220316,1,8,2:0:0:0:
473,200,220483,6,0,B|482:137|482:137|487:126|487:126|499:49,1,145.2,14|10,2:1|2:1,2:0:0:0:
430,2,220983,2,0,L|392:11,2,36.3,8|8|8,2:0|2:0|2:1,2:0:0:0:
376,106,221316,1,8,2:3:0:0:
286,57,221483,1,8,2:0:0:0:
286,57,221566,1,8,2:0:0:0:
286,57,221649,2,0,L|248:64,3,36.3,8|8|4|4,2:3|2:3|2:3|2:3,2:0:0:0:
239,68,221983,6,0,B|217:150|217:150|239:201,1,132,14|8,2:1|2:0,2:0:0:0:
311,235,222483,1,2,2:3:0:0:
272,314,222649,2,0,L|199:331,1,66,10|2,2:1|2:3,2:0:0:0:
135,373,222983,2,0,P|100:373|64:360,1,66,10|2,2:0|2:3,2:0:0:0:
8,295,223316,6,0,L|29:195,1,99,10|0,2:1|2:0,2:0:0:0:
22,191,223649,2,0,P|56:185|86:175,1,66,8|2,2:0|2:3,2:0:0:0:
166,121,223983,2,0,P|172:155|182:185,1,66,10|2,2:1|2:3,2:0:0:0:
170,278,224316,2,0,P|201:267|233:262,1,66,10|2,2:0|2:3,2:0:0:0:
316,224,224649,6,0,P|367:255|440:236,1,132,14|8,2:1|2:0,2:0:0:0:
497,182,225149,1,2,2:3:0:0:
456,108,225316,1,10,2:1:0:0:
456,108,225483,2,0,L|468:41,1,66,2|10,2:3|2:0,2:0:0:0:
389,5,225816,6,0,B|321:18|321:18|317:21|317:21|237:35,1,132,2|2,2:3|2:3,2:0:0:0:
180,0,226316,2,0,L|164:65,1,66,8|2,2:0|2:3,2:0:0:0:
205,138,226649,1,10,2:1:0:0:
289,112,226816,1,8,2:1:0:0:
351,174,226983,2,0,L|335:239,1,66,12|0,2:0|2:0,2:0:0:0:
384,336,227316,6,0,B|324:347|324:347|318:351|318:351|241:366,1,132,14|14,2:0|2:0,2:0:0:0:
209,294,227816,1,8,2:1:0:0:
126,355,227983,6,0,P|87:355|50:340,1,66,14|8,2:0|2:1,2:0:0:0:
42,330,228233,1,0,2:0:0:0:
42,330,228316,2,0,L|31:264,1,66,14|8,2:0|2:1,2:0:0:0:
69,177,228649,6,0,B|127:207|127:207|197:190,1,132,14|14,2:0|2:0,2:0:0:0:
265,151,229149,1,8,2:1:0:0:
339,196,229316,2,0,L|355:264,1,66,14|8,2:0|2:1,2:0:0:0:
316,339,229649,2,0,L|384:355,1,66,14|8,2:0|2:1,2:0:0:0:
467,323,229983,5,10,2:0:0:0:
467,323,230149,2,0,L|483:255,1,66,10|8,2:0|2:1,2:0:0:0:
429,190,230483,1,10,2:0:0:0:
497,131,230649,2,0,L|481:63,1,66,10|8,2:0|2:1,2:0:0:0:
481,66,230899,1,8,2:1:0:0:
481,66,230983,1,8,2:0:0:0:
413,13,231149,6,0,B|356:25|356:25|352:28|352:28|278:43,1,132,14|8,2:1|2:1,2:0:0:0:
211,6,231649,2,0,L|199:74,1,66,8|8,2:0|2:1,2:0:0:0:
297,151,231983,2,0,L|311:227,1,66,8|8,2:0|2:1,2:0:0:0:
206,275,232316,1,8,2:0:0:0:
168,374,232483,1,8,2:0:0:0:
87,326,232649,2,0,L|52:336,3,33,8|8|4|4,2:3|2:3|2:3|2:3,2:0:0:0:
36,338,232983,5,14,2:1:0:0:
256,192,233066,12,0,238983,2:0:0:0:
