osu file format v14

[General]
AudioFilename: audio.mp3
AudioLeadIn: 0
PreviewTime: 64413
Countdown: 0
SampleSet: Soft
StackLeniency: 0.7
Mode: 0
LetterboxInBreaks: 0
WidescreenStoryboard: 1

[Editor]
Bookmarks: 25719,38386,85719
DistanceSpacing: 3
BeatDivisor: 4
GridSize: 16
TimelineZoom: 2.849999

[Metadata]
Title:White Promise
TitleUnicode:White Promise
Artist:Nayugorou
ArtistUnicode:なゆごろう
Creator:SayuMana
Version:Memories
Source:LOST:SMILE memories + promises
Tags:ロストスマイルメモリーズ プロミセス ロッスマ Rossuma life0 opening op short version visual novel vn pop jpop j-pop female vocals video game japanese Ichijou Meguru 一条 めぐるMasaki Minato 真咲 湊 Mihiro-san みひろさん Yonamine Jun 与那嶺 純
BeatmapID:3532513
BeatmapSetID:1728580

[Difficulty]
HPDrainRate:5
CircleSize:3.8
OverallDifficulty:9
ApproachRate:9.2
SliderMultiplier:1.7
SliderTickRate:1

[Events]
//Background and Video events
0,0,"1.jpg",0,0
//Break Periods
//Storyboard Layer 0 (Background)
//Storyboard Layer 1 (Fail)
//Storyboard Layer 2 (Pass)
//Storyboard Layer 3 (Foreground)
//Storyboard Layer 4 (Overlay)
//Storyboard Sound Samples

[TimingPoints]
664,333.333333333333,4,2,1,50,1,0
664,-250,4,2,1,50,0,0
5913,-250,4,2,1,5,0,0
5997,-125,4,2,1,60,0,0
10330,-111.111111111111,4,2,1,60,0,0
10663,-100,4,2,1,70,0,0
10747,-100,4,2,1,5,0,0
10830,-100,4,2,1,70,0,0
10913,-100,4,2,1,5,0,0
10997,-100,4,2,1,70,0,0
11080,-100,4,2,1,5,0,0
11163,-100,4,2,1,70,0,0
11247,-100,4,2,1,5,0,0
11330,-90.9090909090909,4,2,1,80,0,0
16580,-90.9090909090909,4,2,1,5,0,0
16663,-90.9090909090909,4,2,1,80,0,0
21997,-125,4,2,1,40,0,0
31330,-125,4,2,1,50,0,0
32663,-111.111111111111,4,2,1,60,0,0
32997,-111.111111111111,4,2,2,60,0,0
40663,-111.111111111111,4,2,1,70,0,0
41997,-111.111111111111,4,2,1,75,0,0
43330,-133.333333333333,4,2,1,60,0,0
53997,-125,4,2,1,65,0,0
59330,-111.111111111111,4,2,1,70,0,0
64663,-90.9090909090909,4,2,1,80,0,1
80663,-90.9090909090909,4,2,1,85,0,1
82163,-90.9090909090909,4,2,1,85,0,0
83330,-125,4,2,1,60,0,0

[Colours]
Combo1 : 160,230,150
Combo2 : 250,180,240
Combo3 : 120,200,230
Combo4 : 255,230,130

[HitObjects]
0,282,664,5,2,0:0:0:0:
75,327,830,1,2,0:0:0:0:
163,314,997,1,2,0:0:0:0:
216,244,1163,2,0,L|207:171,1,68,2|2,0:0|0:0,0:0:0:0:
152,108,1663,1,2,0:0:0:0:
451,52,1997,5,2,0:0:0:0:
370,4,2163,2,0,L|361:72,1,68,2|2,0:0|0:0,0:0:0:0:
292,132,2663,1,2,0:0:0:0:
453,224,2997,1,2,0:0:0:0:
304,318,3330,5,2,0:0:0:0:
229,363,3496,1,2,0:0:0:0:
141,350,3663,1,2,0:0:0:0:
88,280,3829,2,0,L|97:207,1,68,2|2,0:0|0:0,0:0:0:0:
152,144,4329,1,2,0:0:0:0:
409,71,4663,5,2,0:0:0:0:
323,119,4829,2,0,L|314:51,1,68,2|2,0:0|0:0,0:0:0:0:
223,7,5330,1,2,0:0:0:0:
203,179,5497,5,2,0:0:0:0:
190,177,5580,1,2,0:0:0:0:
177,175,5663,2,0,L|119:185,1,51,2|0,0:0|0:0,0:0:0:0:
106,185,5997,6,0,P|113:222|117:260,1,68,6|2,1:2|0:0,0:0:0:0:
67,331,6330,1,2,1:2:0:0:
17,149,6497,2,0,P|65:102|153:107,1,136,2|2,0:0|0:0,0:0:0:0:
220,140,6997,2,0,P|223:106|230:72,1,68,2|0,1:2|0:0,0:0:0:0:
106,185,7330,5,2,1:2:0:0:
223,293,7497,2,0,B|297:278|282:332|365:321,1,136,2|2,0:0|0:0,0:0:0:0:
464,305,7997,2,0,P|457:342|454:373,1,68,2|0,1:2|0:0,0:0:0:0:
394,246,8330,2,0,P|390:212|384:178,1,68,2|0,1:2|0:0,0:0:0:0:
288,12,8663,6,0,P|231:11|184:47,1,102,2|0,1:2|0:0,0:0:0:0:
180,62,8997,2,0,P|146:56|108:51,1,68,2|0,1:2|0:0,0:0:0:0:
0,0,9330,2,0,P|5:33|11:67,1,68,2|0,1:2|0:0,0:0:0:0:
118,211,9663,2,0,P|124:177|129:143,1,68,6|0,1:2|0:0,0:0:0:0:
208,190,9997,5,0,1:0:0:0:
32,267,10163,2,0,L|-5:255,1,34,8|8,0:0|0:0,0:0:0:0:
117,365,10330,1,8,0:0:0:0:
138,334,10414,1,8,0:0:0:0:
173,319,10497,1,8,0:0:0:0:
209,316,10580,1,8,0:0:0:0:
243,333,10663,6,0,P|256:314|280:307,1,42.5,10|0,0:0|0:0,0:0:0:0:
275,216,10830,6,0,P|294:214|317:224,1,42.5,2|0,0:0|0:0,0:0:0:0:
384,165,10997,6,0,P|398:179|405:203,1,42.5,2|0,0:0|0:0,0:0:0:0:
493,203,11163,6,0,P|490:222|480:245,1,42.5,2|0,0:0|0:0,0:0:0:0:
509,369,11330,6,0,B|441:358|441:358|400:385|400:385|327:373,1,187.000005706787,6|8,1:2|0:0,0:0:0:0:
384,165,11830,1,0,0:0:0:0:
199,262,11997,2,0,P|245:253|308:245,1,93.5000028533936,2|0,1:2|0:0,0:0:0:0:
381,299,12330,1,8,0:0:0:0:
287,102,12497,2,0,L|277:165,1,46.7500014266968,2|0,0:0|0:0,0:0:0:0:
193,354,12663,6,0,P|121:308|111:249,1,140.25000428009,2|0,1:2|0:0,0:0:0:0:
103,178,12997,2,0,P|56:184|10:193,1,93.5000028533936,10|0,0:0|0:0,0:0:0:0:
199,262,13330,1,2,1:2:0:0:
78,91,13497,1,0,0:0:0:0:
279,148,13663,2,0,P|324:156|371:162,1,93.5000028533936,10|0,0:0|0:0,0:0:0:0:
173,76,13997,6,0,P|183:150|199:267,1,187.000005706787,2|8,1:2|0:0,0:0:0:0:
302,374,14497,1,0,0:0:0:0:
302,374,14580,1,2,0:0:0:0:
302,374,14663,1,2,1:2:0:0:
371,162,14830,1,2,0:0:0:0:
198,261,14997,1,10,0:0:0:0:
406,311,15163,1,2,0:0:0:0:
279,107,15330,6,0,P|350:56|441:81,1,187.000005706787,2|8,1:2|0:0,0:0:0:0:
512,245,15830,2,0,P|463:235|410:229,1,93.5000028533936,2|0,0:0|1:0,0:0:0:0:
279,107,16163,1,0,0:0:0:0:
234,280,16330,2,0,P|246:356|310:385,1,140.25000428009,10|0,0:0|0:0,0:0:0:0:
308,311,16663,6,0,B|200:293|232:367|119:346,1,187.000005706787,6|8,1:2|0:0,0:0:0:0:
61,153,17163,2,0,P|118:157|158:192,1,93.5000028533936,2|0,0:0|1:0,0:0:0:0:
279,107,17497,1,2,0:0:0:0:
86,231,17663,1,10,0:0:0:0:
144,26,17830,1,2,0:0:0:0:
271,198,17997,6,0,P|347:207|417:223,1,140.25000428009,2|0,1:2|0:0,0:0:0:0:
472,276,18330,2,0,P|494:234|479:178,1,93.5000028533936,10|0,0:0|0:0,0:0:0:0:
279,107,18663,1,2,1:2:0:0:
468,29,18830,1,0,0:0:0:0:
409,220,18997,2,0,P|360:224|309:233,1,93.5000028533936,10|0,0:0|0:0,0:0:0:0:
123,66,19330,6,0,P|210:46|278:106,1,187.000005706787,6|2,1:2|1:2,0:0:0:0:
250,293,19830,1,2,1:2:0:0:
187,129,19997,1,0,1:0:0:0:
105,330,20163,1,2,1:2:0:0:
316,231,20330,1,8,0:0:0:0:
82,139,20497,1,2,1:2:0:0:
195,363,20663,5,8,0:0:0:0:
278,106,20830,1,0,1:0:0:0:
406,329,20997,1,8,0:0:0:0:
147,205,21163,1,0,1:0:0:0:
441,60,21330,5,8,0:0:0:0:
291,333,21497,1,0,1:0:0:0:
198,31,21663,1,8,0:0:0:0:
484,188,21830,1,8,0:0:0:0:
291,333,21997,6,0,P|286:298|281:258,1,68,2|2,0:0|0:0,0:0:0:0:
185,306,22330,1,2,0:0:0:0:
185,306,22497,2,0,B|112:289|125:340|51:322,1,136,2|2,0:0|0:0,0:0:0:0:
10,209,22997,2,0,P|53:215|73:233,1,68,2|0,0:0|0:0,0:0:0:0:
241,148,23330,5,2,0:2:0:0:
70,25,23663,2,0,P|76:60|87:132,1,102,2|0,0:0|0:0,0:0:0:0:
86,125,23997,2,0,P|121:116|155:111,1,68,2|0,0:0|0:0,0:0:0:0:
252,240,24330,2,0,P|217:231|183:226,1,68,2|0,0:0|0:0,0:0:0:0:
288,61,24663,5,2,0:2:0:0:
243,146,24830,1,2,0:0:0:0:
420,109,24997,5,2,0:0:0:0:
329,136,25164,1,2,0:0:0:0:
480,240,25330,5,2,0:0:0:0:
395,195,25497,1,2,0:0:0:0:
402,288,25663,5,2,0:0:0:0:
420,109,25830,1,2,0:0:0:0:
234,245,25997,6,0,B|161:228|174:279|100:261,1,136,2|2,0:2|0:0,0:0:0:0:
108,111,26497,1,2,0:0:0:0:
108,111,26663,2,0,P|113:144|121:177,1,68,2|0,0:0|0:0,0:0:0:0:
30,66,26997,1,0,0:0:0:0:
199,126,27163,5,2,0:0:0:0:
199,126,27330,2,0,P|232:117|265:112,1,68,2|0,0:2|0:0,0:0:0:0:
358,43,27663,1,2,0:0:0:0:
397,192,27830,2,0,B|324:175|337:226|263:208,1,136,2|0,0:0|0:0,0:0:0:0:
168,217,28330,2,0,P|176:250|180:283,1,68,0|2,0:0|0:0,0:0:0:0:
247,384,28663,5,2,0:2:0:0:
272,297,28830,1,2,0:0:0:0:
336,362,28997,1,2,0:0:0:0:
336,362,29330,6,0,P|373:369|402:376,1,68,2|2,0:0|0:0,0:0:0:0:
497,237,29663,2,0,P|460:244|431:251,1,68,2|2,0:0|0:0,0:0:0:0:
358,71,29997,5,2,0:2:0:0:
389,161,30164,1,2,0:0:0:0:
220,97,30331,5,2,0:0:0:0:
305,138,30498,1,2,0:0:0:0:
140,217,30664,5,2,0:0:0:0:
231,186,30831,1,2,0:0:0:0:
167,357,30997,5,2,0:0:0:0:
209,271,31164,1,0,0:0:0:0:
22,203,31330,6,0,P|32:274|41:346,1,136,2|0,1:2|0:0,0:0:0:0:
140,217,31830,2,0,P|142:183|146:149,1,68,8|0,3:0|0:0,0:0:0:0:
288,283,32163,2,0,P|251:286|213:290,1,68,4|0,3:0|0:0,0:0:0:0:
350,131,32497,5,4,3:0:0:0:
350,131,32580,1,4,3:0:0:0:
350,131,32663,2,0,B|437:121|413:175|512:165,1,152.999995330811,6|2,1:2|1:2,0:0:0:0:
387,296,33163,2,0,P|382:258|374:217,1,76.4999976654053,2|8,0:0|1:2,0:0:0:0:
308,342,33497,1,2,0:0:0:0:
308,342,33580,1,8,0:0:0:0:
308,342,33663,1,2,1:2:0:0:
467,249,33830,1,8,0:0:0:0:
288,193,33997,6,0,P|226:199|154:212,1,114.749996498108,0|0,1:0|0:0,0:0:0:0:
152,218,34330,2,0,P|136:175|148:141,1,76.4999976654053,2|0,1:2|0:0,0:0:0:0:
305,62,34663,1,10,1:2:0:0:
372,225,34830,1,8,0:0:0:0:
215,111,34997,2,0,P|210:70|203:21,1,76.4999976654053,2|0,1:2|0:0,0:0:0:0:
433,79,35330,5,2,1:2:0:0:
372,225,35497,1,2,0:0:0:0:
305,62,35663,1,2,1:2:0:0:
448,170,35830,1,10,0:0:0:0:
273,248,35997,5,10,1:2:0:0:
443,297,36163,1,2,0:0:0:0:
443,297,36247,1,8,0:0:0:0:
443,297,36330,1,2,1:2:0:0:
337,144,36497,1,10,0:0:0:0:
300,340,36663,6,0,P|263:335|224:332,1,76.4999976654053,2|0,1:2|0:0,0:0:0:0:
166,175,36997,2,0,P|203:170|242:167,1,76.4999976654053,0|0,1:0|0:0,0:0:0:0:
112,263,37330,1,2,1:2:0:0:
201,84,37497,1,10,0:0:0:0:
28,48,37663,1,10,1:2:0:0:
166,175,37830,1,2,0:0:0:0:
0,236,37997,6,0,P|10:273|19:312,1,76.4999976654053,2|0,1:2|0:0,0:0:0:0:
187,277,38330,2,0,P|150:268|111:262,1,76.4999976654053,2|0,1:2|0:0,0:0:0:0:
133,358,38663,1,10,1:2:0:0:
166,175,38830,1,2,0:0:0:0:
166,175,38913,1,8,0:0:0:0:
166,175,38997,1,2,1:2:0:0:
310,252,39163,1,10,0:0:0:0:
243,93,39330,6,0,P|251:132|257:169,1,76.4999976654053,2|2,1:2|0:0,0:0:0:0:
407,297,39663,2,0,P|413:259|420:221,1,76.4999976654053,2|2,1:2|0:0,0:0:0:0:
350,155,39997,1,10,1:2:0:0:
499,275,40163,1,10,0:0:0:0:
346,357,40330,2,0,P|294:346|232:338,1,114.749996498108,2|0,1:2|0:0,0:0:0:0:
171,384,40663,6,0,P|154:350|160:312,1,76.4999976654053,2|0,1:2|0:0,0:0:0:0:
350,154,40997,2,0,P|328:186|293:199,1,76.4999976654053,2|0,1:2|0:0,0:0:0:0:
69,117,41330,2,0,P|110:121|139:149,1,76.4999976654053,2|0,1:2|0:0,0:0:0:0:
12,345,41663,2,0,P|6:302|2:269,1,76.4999976654053,6|0,1:2|0:0,0:0:0:0:
239,125,41997,5,0,1:0:0:0:
97,276,42163,1,0,1:0:0:0:
301,325,42330,1,10,0:0:0:0:
135,143,42497,5,10,0:0:0:0:
135,143,42580,1,8,0:0:0:0:
135,143,42663,1,10,0:0:0:0:
316,58,42830,1,10,3:0:0:0:
216,24,42997,1,6,3:0:0:0:
239,125,43163,1,6,3:0:0:0:
44,138,43330,6,0,P|55:201|109:232,1,127.500004863739,6|2,1:2|1:2,0:0:0:0:
268,306,43830,1,0,0:0:0:0:
195,214,43997,2,0,P|185:281|175:348,2,127.500004863739,8|2|2,0:0|1:2|1:2,0:0:0:0:
310,113,44830,1,8,0:0:0:0:
305,203,44997,2,0,P|338:203|363:188,1,63.7500024318696,2|0,1:2|0:0,0:0:0:0:
325,27,45330,2,0,B|255:13|266:62|191:44,1,127.500004863739,8|2,0:0|1:2,0:0:0:0:
70,117,45830,1,2,1:2:0:0:
192,213,45997,6,0,P|186:175|180:140,1,63.7500024318696,2|0,1:2|0:0,0:0:0:0:
51,286,46330,1,2,1:2:0:0:
98,205,46497,1,0,0:0:0:0:
180,322,46663,2,0,P|211:316|242:311,1,63.7500024318696,8|0,0:0|0:0,0:0:0:0:
361,368,46997,1,2,1:2:0:0:
396,222,47163,6,0,P|344:215|289:209,1,95.6250036478044,8|0,3:0|0:0,0:0:0:0:
301,210,47497,1,4,3:0:0:0:
437,309,47663,2,0,P|467:289|481:257,1,63.7500024318696,4|0,3:0|0:0,0:0:0:0:
362,131,47997,1,8,0:0:0:0:
478,53,48163,1,2,0:0:0:0:
495,189,48330,1,2,1:2:0:0:
373,43,48497,5,2,1:2:0:0:
373,43,48580,1,0,1:0:0:0:
373,43,48663,2,0,B|303:29|314:78|239:60,1,127.500004863739,6|2,1:2|1:2,0:0:0:0:
99,136,49163,1,0,0:0:0:0:
171,12,49330,2,0,P|167:48|161:94,1,63.7500024318696,8|0,0:0|0:0,0:0:0:0:
73,228,49663,1,2,1:2:0:0:
222,171,49830,1,0,0:0:0:0:
99,136,49997,5,2,1:2:0:0:
177,274,50163,2,0,P|221:268|251:265,1,63.7500024318696,8|2,0:0|1:2,0:0:0:0:
107,338,50497,1,0,0:0:0:0:
293,333,50663,2,0,P|330:272|303:209,1,127.500004863739,8|2,0:0|1:2,0:0:0:0:
222,171,51163,1,8,0:0:0:0:
369,109,51330,6,0,P|373:141|379:181,1,63.7500024318696,2|0,1:2|0:0,0:0:0:0:
492,40,51663,1,2,1:2:0:0:
468,131,51830,1,0,0:0:0:0:
386,6,51997,2,0,P|354:10|322:15,1,63.7500024318696,8|0,0:0|0:0,0:0:0:0:
492,40,52330,1,2,1:2:0:0:
369,109,52497,5,8,3:0:0:0:
287,90,52663,1,4,3:0:0:0:
206,71,52830,1,4,3:0:0:0:
112,213,52997,2,0,P|146:206|184:198,1,63.7500024318696,2|0,1:2|0:0,0:0:0:0:
259,244,53330,5,8,0:0:0:0:
127,118,53497,1,0,1:0:0:0:
73,302,53663,1,8,0:0:0:0:
73,302,53747,1,8,0:0:0:0:
73,302,53830,1,8,0:0:0:0:
316,363,53997,6,0,B|384:346|372:399|451:384,1,136,4|0,1:2|1:0,0:0:0:0:
485,262,54497,1,0,0:0:0:0:
485,262,54663,2,0,P|447:274|419:309,1,68,0|0,1:0|0:0,0:0:0:0:
304,154,54997,1,10,0:0:0:0:
306,137,55080,1,8,0:0:0:0:
309,120,55163,1,8,0:0:0:0:
311,103,55247,1,8,0:0:0:0:
314,86,55330,6,0,P|254:59|183:78,1,136,8|0,0:0|1:0,0:0:0:0:
49,147,55830,1,0,0:0:0:0:
93,0,55997,2,0,P|96:31|101:77,1,68,2|0,1:2|0:0,0:0:0:0:
21,258,56330,1,10,0:0:0:0:
38,255,56413,1,8,0:0:0:0:
55,252,56496,1,8,0:0:0:0:
72,250,56580,1,8,0:0:0:0:
89,247,56663,6,0,B|157:230|145:283|224:268,1,136,10|2,0:0|1:2,0:0:0:0:
321,302,57163,1,0,0:0:0:0:
198,180,57330,1,2,1:2:0:0:
277,384,57497,1,8,0:0:0:0:
403,191,57663,1,2,1:2:0:0:
218,268,57830,1,8,0:0:0:0:
441,369,57997,6,0,P|433:311|426:258,1,102,2|0,1:2|0:0,0:0:0:0:
403,191,58330,1,0,1:0:0:0:
244,89,58497,1,10,0:0:0:0:
431,10,58663,1,2,1:2:0:0:
296,181,58830,1,8,3:0:0:0:
317,0,58997,1,6,3:0:0:0:
452,106,59163,1,6,3:0:0:0:
468,103,59246,1,4,3:0:0:0:
485,101,59329,1,12,0:0:0:0:
463,288,59497,5,8,0:0:0:0:
433,278,59580,1,8,0:0:0:0:
433,247,59663,1,8,0:0:0:0:
463,238,59747,1,8,0:0:0:0:
480,263,59830,1,6,1:2:0:0:
312,384,59997,5,8,0:0:0:0:
277,358,60080,1,8,0:0:0:0:
292,316,60163,1,8,0:0:0:0:
336,319,60247,1,8,0:0:0:0:
347,360,60330,1,6,1:2:0:0:
125,341,60497,5,8,0:0:0:0:
102,288,60580,1,8,0:0:0:0:
147,251,60663,1,8,0:0:0:0:
195,281,60747,1,8,0:0:0:0:
182,336,60830,1,6,1:2:0:0:
8,173,60997,5,8,0:0:0:0:
11,104,61080,1,8,0:0:0:0:
76,88,61163,1,10,0:0:0:0:
113,144,61247,1,8,0:0:0:0:
71,195,61330,1,6,1:2:0:0:
227,9,61497,5,8,0:0:0:0:
221,38,61580,1,8,0:0:0:0:
215,67,61663,1,2,1:2:0:0:
298,260,61830,1,10,0:0:0:0:
292,231,61913,1,8,0:0:0:0:
286,202,61996,5,6,1:2:0:0:
437,100,62163,1,2,0:0:0:0:
389,295,62330,1,2,1:2:0:0:
282,119,62497,1,2,1:2:0:0:
171,336,62663,5,8,0:0:0:0:
415,190,62830,1,0,1:0:0:0:
149,132,62997,1,8,0:0:0:0:
324,383,63163,1,0,1:0:0:0:
502,151,63330,5,10,0:0:0:0:
475,118,63413,1,4,3:0:0:0:
437,100,63496,1,4,3:0:0:0:
394,100,63580,1,4,3:0:0:0:
356,118,63663,2,0,L|345:74,1,38.2499988327027,10|0,0:0|0:0,0:0:0:0:
482,334,63830,1,10,0:0:0:0:
46,107,64663,6,0,P|92:114|143:123,1,93.5000028533936,6|2,1:2|0:0,0:0:0:0:
305,202,64997,1,10,0:0:0:0:
114,339,65163,2,0,P|106:290|97:234,1,93.5000028533936,2|0,0:0|1:0,0:0:0:0:
255,41,65497,2,0,P|247:87|240:133,1,93.5000028533936,2|8,0:0|0:0,0:0:0:0:
293,341,65830,1,2,0:0:0:0:
359,137,65997,5,2,1:2:0:0:
201,261,66163,1,2,0:0:0:0:
400,325,66330,1,10,0:0:0:0:
240,133,66497,2,0,B|132:115|164:189|51:168,1,187.000005706787,2|0,0:0|0:0,0:0:0:0:
201,261,66997,1,8,0:0:0:0:
7,309,67163,1,2,0:0:0:0:
89,85,67330,5,2,1:2:0:0:
122,304,67497,1,2,0:0:0:0:
277,214,67663,1,10,0:0:0:0:
62,169,67830,1,2,0:0:0:0:
200,350,67997,2,0,P|247:342|302:333,1,93.5000028533936,2|0,1:2|0:0,0:0:0:0:
449,221,68330,1,10,0:0:0:0:
493,314,68497,6,0,P|433:323|366:274,1,140.25000428009,2|0,0:0|0:0,0:0:0:0:
353,248,68830,1,2,0:0:0:0:
481,113,68997,1,10,0:0:0:0:
267,69,69163,2,0,P|275:118|282:170,1,93.5000028533936,2|0,0:0|1:0,0:0:0:0:
170,13,69497,1,2,0:0:0:0:
368,106,69663,1,10,0:0:0:0:
192,226,69830,5,2,0:0:0:0:
192,226,69913,1,2,0:0:0:0:
192,226,69997,2,0,P|145:218|99:210,1,93.5000028533936,4|2,1:2|0:0,0:0:0:0:
306,343,70330,2,0,P|343:315|356:270,1,93.5000028533936,10|2,0:0|0:0,0:0:0:0:
267,69,70663,1,0,1:0:0:0:
274,264,70830,1,2,0:0:0:0:
101,126,70997,1,10,0:0:0:0:
327,183,71163,6,0,P|397:197|482:218,1,140.25000428009,2|0,0:0|0:0,0:0:0:0:
495,197,71497,1,2,0:0:0:0:
436,0,71663,1,10,0:0:0:0:
263,94,71830,1,2,0:0:0:0:
263,94,71913,1,2,0:0:0:0:
263,94,71997,2,0,P|216:102|170:110,1,93.5000028533936,0|0,1:0|0:0,0:0:0:0:
258,356,72330,2,0,P|266:309|274:263,1,93.5000028533936,8|2,0:0|0:0,0:0:0:0:
152,217,72663,5,2,1:2:0:0:
358,91,72830,1,2,0:0:0:0:
156,0,72997,1,10,0:0:0:0:
246,186,73163,1,2,0:0:0:0:
263,94,73330,1,2,1:2:0:0:
281,2,73497,1,2,0:0:0:0:
116,129,73663,1,10,0:0:0:0:
334,225,73830,6,0,P|384:217|432:211,1,93.5000028533936,14|2,0:0|0:0,0:0:0:0:
296,344,74163,1,2,1:2:0:0:
512,305,74330,1,10,0:0:0:0:
369,129,74497,1,10,0:0:0:0:
369,129,74580,1,8,0:0:0:0:
369,129,74663,1,8,0:0:0:0:
224,256,74830,5,8,0:0:0:0:
185,232,74913,1,8,0:0:0:0:
140,239,74996,1,8,0:0:0:0:
108,273,75080,1,8,0:0:0:0:
84,312,75163,1,8,0:0:0:0:
45,336,75246,1,8,0:0:0:0:
0,328,75330,6,0,P|7:275|16:212,1,93.5000028533936,6|2,1:2|0:0,0:0:0:0:
106,76,75663,1,10,0:0:0:0:
224,256,75830,2,0,P|277:249|340:240,1,93.5000028533936,2|0,0:0|1:0,0:0:0:0:
200,35,76163,2,0,P|194:81|188:127,1,93.5000028533936,2|8,0:0|0:0,0:0:0:0:
297,346,76497,1,2,0:0:0:0:
399,124,76663,5,2,1:2:0:0:
224,256,76830,1,2,0:0:0:0:
433,342,76997,1,10,0:0:0:0:
267,178,77163,2,0,P|203:171|134:234,1,140.25000428009,2|0,0:0|0:0,0:0:0:0:
132,243,77497,1,2,0:0:0:0:
209,46,77663,1,10,0:0:0:0:
377,211,77830,1,2,0:0:0:0:
451,15,77997,5,2,1:2:0:0:
267,178,78163,1,2,0:0:0:0:
475,247,78330,1,10,0:0:0:0:
334,47,78497,1,2,0:0:0:0:
291,272,78663,2,0,P|242:283|196:294,1,93.5000028533936,2|0,1:2|0:0,0:0:0:0:
100,348,78997,1,10,0:0:0:0:
267,178,79163,1,2,0:0:0:0:
0,135,79330,5,2,1:2:0:0:
246,48,79497,1,2,0:0:0:0:
200,294,79663,1,10,0:0:0:0:
81,64,79830,2,0,P|93:109|105:155,1,93.5000028533936,2|0,0:0|1:0,0:0:0:0:
100,348,80163,1,2,0:0:0:0:
267,178,80330,1,10,0:0:0:0:
0,135,80497,5,2,0:0:0:0:
0,135,80580,1,2,0:0:0:0:
0,135,80663,1,12,0:0:0:0:
200,294,80830,1,2,1:2:0:0:
256,47,80997,1,10,0:0:0:0:
50,245,81163,1,2,1:2:0:0:
307,276,81330,5,8,0:0:0:0:
169,10,81497,1,2,1:2:0:0:
169,10,81580,1,2,1:2:0:0:
169,10,81663,1,8,0:0:0:0:
470,29,81830,1,2,1:2:0:0:
200,294,81997,5,8,0:0:0:0:
358,0,82163,1,8,0:0:0:0:
256,192,83330,5,2,0:0:0:0:
256,192,83413,12,2,85663,0:0:0:0:
