osu file format v14

[General]
AudioFilename: audio.mp3
AudioLeadIn: 0
PreviewTime: 64413
Countdown: 0
SampleSet: Soft
StackLeniency: 0.7
Mode: 0
LetterboxInBreaks: 0
WidescreenStoryboard: 1

[Editor]
Bookmarks: 59886
DistanceSpacing: 1.1
BeatDivisor: 4
GridSize: 16
TimelineZoom: 2.849999

[Metadata]
Title:White Promise
TitleUnicode:White Promise
Artist:Nayugorou
ArtistUnicode:なゆごろう
Creator:SayuMana
Version:Hard
Source:LOST:SMILE memories + promises
Tags:ロストスマイルメモリーズ プロミセス ロッスマ Rossuma life0 opening op short version visual novel vn pop jpop j-pop female vocals video game japanese Ichijou Meguru 一条 めぐるMasaki Minato 真咲 湊 Mihiro-san みひろさん Yonamine Jun 与那嶺 純
BeatmapID:3532514
BeatmapSetID:1728580

[Difficulty]
HPDrainRate:4
CircleSize:3.5
OverallDifficulty:6.5
ApproachRate:7.5
SliderMultiplier:1.4
SliderTickRate:1

[Events]
//Background and Video events
0,0,"3.jpg",0,0
//Break Periods
//Storyboard Layer 0 (Background)
//Storyboard Layer 1 (Fail)
//Storyboard Layer 2 (Pass)
//Storyboard Layer 3 (Foreground)
//Storyboard Layer 4 (Overlay)
//Storyboard Sound Samples

[TimingPoints]
664,333.333333333333,4,2,1,50,1,0
664,-125,4,2,1,50,0,0
5997,-111.111111111111,4,2,1,60,0,0
10663,-100,4,2,1,70,0,0
10747,-100,4,2,1,5,0,0
10830,-100,4,2,1,70,0,0
10913,-100,4,2,1,5,0,0
10997,-100,4,2,1,70,0,0
11080,-100,4,2,1,5,0,0
11163,-100,4,2,1,70,0,0
11247,-100,4,2,1,5,0,0
11330,-90.9090909090909,4,2,1,80,0,0
21997,-111.111111111111,4,2,1,40,0,0
31330,-111.111111111111,4,2,1,50,0,0
32663,-100,4,2,1,60,0,0
32997,-100,4,2,2,60,0,0
40663,-100,4,2,1,70,0,0
41997,-100,4,2,1,75,0,0
43330,-125,4,2,1,60,0,0
53997,-111.111111111111,4,2,1,65,0,0
59330,-100,4,2,1,70,0,0
64663,-90.9090909090909,4,2,1,80,0,1
80663,-90.9090909090909,4,2,1,85,0,1
82163,-90.9090909090909,4,2,1,85,0,0
83330,-125,4,2,1,60,0,0

[Colours]
Combo1 : 160,230,150
Combo2 : 250,180,240
Combo3 : 120,200,230
Combo4 : 255,230,130

[HitObjects]
447,87,664,6,0,L|456:29,2,56,2|2|2,0:0|0:0|0:0,0:0:0:0:
509,133,1163,2,0,P|471:161|402:151,1,112,2|2,0:0|0:0,0:0:0:0:
358,96,1663,1,2,0:0:0:0:
236,4,1997,5,2,0:0:0:0:
236,4,2163,2,0,B|231:49|231:49|220:66|220:66|214:120,1,112,2|2,0:0|0:0,0:0:0:0:
158,167,2663,1,2,0:0:0:0:
279,266,2997,1,2,0:0:0:0:
133,323,3330,6,0,L|72:314,2,56,2|2|2,0:0|0:0|0:0,0:0:0:0:
192,374,3830,2,0,B|250:353|243:397|304:378,1,112,2|2,0:0|0:0,0:0:0:0:
357,325,4330,1,2,0:0:0:0:
396,176,4663,5,2,0:0:0:0:
396,176,4830,2,0,B|355:167|355:167|333:175|333:175|287:166,1,112,2|2,0:0|0:0,0:0:0:0:
232,110,5330,2,0,L|162:124,1,56,2|2,0:0|0:0,0:0:0:0:
163,125,5580,1,2,0:0:0:0:
150,130,5663,1,2,0:0:0:0:
0,262,5997,6,0,P|26:249|67:250,1,62.9999980773926,6|2,1:2|0:0,0:0:0:0:
116,314,6330,1,2,1:2:0:0:
116,314,6497,2,0,B|186:300|173:346|245:336,1,125.999996154785,2|2,0:0|0:0,0:0:0:0:
310,373,6997,2,0,P|320:337|313:305,1,62.9999980773926,2|0,1:2|0:0,0:0:0:0:
246,234,7330,5,2,1:2:0:0:
246,234,7497,2,0,B|228:151|228:151|257:101,1,125.999996154785,2|2,0:0|0:0,0:0:0:0:
310,61,7997,2,0,L|388:70,1,62.9999980773926,2|0,1:2|0:0,0:0:0:0:
449,40,8330,2,0,P|455:71|443:107,1,62.9999980773926,2|0,1:2|0:0,0:0:0:0:
375,196,8663,6,0,L|390:312,1,94.499997116089,2|0,1:2|0:0,0:0:0:0:
373,328,8997,2,0,P|346:346|308:347,1,62.9999980773926,2|0,1:2|0:0,0:0:0:0:
266,283,9330,2,0,L|195:296,1,62.9999980773926,2|0,1:2|0:0,0:0:0:0:
162,365,9663,2,0,P|128:335|122:282,1,94.499997116089,6|0,1:2|0:0,0:0:0:0:
133,248,9997,5,0,1:0:0:0:
179,180,10163,1,8,0:0:0:0:
172,165,10247,1,8,0:0:0:0:
166,150,10330,2,0,L|175:111,3,31.4999990386963,8|8|8|8,0:0|0:0|0:0|0:0,0:0:0:0:
150,79,10663,1,10,0:0:0:0:
383,1,11330,6,0,P|443:1|488:33,1,115.50000352478,6|0,1:2|0:0,0:0:0:0:
510,72,11663,2,0,L|488:151,1,77.0000023498536,8|0,0:0|0:0,0:0:0:0:
446,228,11997,2,0,B|347:200|347:200|288:240,1,154.000004699707,2|8,1:2|0:0,0:0:0:0:
224,182,12497,1,2,0:0:0:0:
204,301,12663,6,0,L|107:291,1,77.0000023498536,2|0,1:2|0:0,0:0:0:0:
55,352,12997,2,0,P|34:313|43:263,1,77.0000023498536,10|0,0:0|0:0,0:0:0:0:
94,210,13330,2,0,L|75:95,1,115.50000352478,2|0,1:2|0:0,0:0:0:0:
57,53,13663,2,0,P|91:36|129:41,1,77.0000023498536,10|0,0:0|0:0,0:0:0:0:
228,112,13997,6,0,B|314:132|292:71|382:90,1,154.000004699707,2|8,1:2|0:0,0:0:0:0:
450,35,14497,1,0,0:0:0:0:
510,104,14663,2,0,L|496:182,1,77.0000023498536,2|2,1:2|0:0,0:0:0:0:
435,249,14997,1,10,0:0:0:0:
362,192,15163,1,2,0:0:0:0:
312,301,15330,6,0,B|213:273|213:273|154:313,1,154.000004699707,2|8,1:2|0:0,0:0:0:0:
111,373,15830,2,0,P|74:307|109:235,1,154.000004699707,2|0,0:0|0:0,0:0:0:0:
182,193,16330,2,0,L|168:93,1,77.0000023498536,10|0,0:0|0:0,0:0:0:0:
221,8,16663,6,0,B|307:-12|285:49|375:30,1,154.000004699707,6|8,1:2|0:0,0:0:0:0:
457,5,17163,2,0,P|460:55|446:81,1,77.0000023498536,2|0,0:0|1:0,0:0:0:0:
378,139,17497,1,2,0:0:0:0:
446,208,17663,1,10,0:0:0:0:
446,208,17830,1,2,0:0:0:0:
351,283,17997,6,0,P|300:254|226:264,1,115.50000352478,2|0,1:2|0:0,0:0:0:0:
202,274,18330,2,0,P|184:243|188:192,1,77.0000023498536,10|0,0:0|0:0,0:0:0:0:
243,131,18663,2,0,P|261:100|257:49,1,77.0000023498536,2|0,1:2|0:0,0:0:0:0:
187,2,18997,2,0,L|100:11,1,77.0000023498536,10|0,0:0|0:0,0:0:0:0:
38,106,19330,6,0,B|55:188|-2:184|16:260,1,154.000004699707,6|2,1:2|1:2,0:0:0:0:
0,344,19830,2,0,P|39:343|85:302,1,77.0000023498536,2|0,1:2|1:0,0:0:0:0:
131,253,20163,2,0,L|228:269,1,77.0000023498536,2|8,1:2|0:0,0:0:0:0:
282,211,20497,1,2,1:2:0:0:
355,306,20663,6,0,P|398:319|459:263,1,115.50000352478,8|0,0:0|0:0,0:0:0:0:
469,238,20997,2,0,L|460:155,1,77.0000023498536,8|0,0:0|1:0,0:0:0:0:
441,75,21330,1,8,0:0:0:0:
441,75,21497,1,0,1:0:0:0:
364,125,21663,1,8,0:0:0:0:
318,44,21830,1,8,0:0:0:0:
245,122,21997,6,0,P|215:113|174:115,1,62.9999980773926,2|2,0:0|0:0,0:0:0:0:
117,159,22330,1,2,0:0:0:0:
117,159,22497,2,0,B|93:219|146:217|127:288,1,125.999996154785,2|2,0:0|0:0,0:0:0:0:
89,352,22997,2,0,P|115:363|163:351,1,62.9999980773926,2|0,0:0|0:0,0:0:0:0:
226,284,23330,5,2,0:2:0:0:
358,379,23663,2,0,B|406:370|406:370|438:386|438:386|494:376,2,125.999996154785,2|2|2,0:0|0:0|0:0,0:0:0:0:
226,284,24663,6,0,L|233:221,1,62.9999980773926,2|2,0:2|0:0,0:0:0:0:
295,167,24997,2,0,L|286:98,1,62.9999980773926,2|2,0:0|0:0,0:0:0:0:
330,35,25330,2,0,P|297:21|262:27,1,62.9999980773926,2|2,0:0|0:0,0:0:0:0:
208,78,25663,2,0,P|175:91|140:85,1,62.9999980773926,2|2,0:0|0:0,0:0:0:0:
88,0,25997,6,0,P|43:28|30:102,1,125.999996154785,2|2,0:2|0:0,0:0:0:0:
87,160,26497,1,2,0:0:0:0:
87,160,26663,2,0,B|104:240|104:240|69:281,1,125.999996154785,2|0,0:0|0:0,0:0:0:0:
142,365,27163,5,2,0:0:0:0:
142,365,27330,2,0,B|208:346|201:400|269:383,1,125.999996154785,2|2,0:2|0:0,0:0:0:0:
306,315,27830,2,0,P|371:302|424:334,1,125.999996154785,2|0,0:0|0:0,0:0:0:0:
462,174,28497,5,2,0:0:0:0:
462,174,28663,2,0,B|454:100,1,62.9999980773926,2|2,0:2|0:0,0:0:0:0:
408,44,28997,2,0,B|344:28|358:83|281:66,1,125.999996154785,2|2,0:0|0:0,0:0:0:0:
239,8,29497,1,2,0:0:0:0:
239,8,29663,2,0,L|168:18,1,62.9999980773926,2|2,0:0|0:0,0:0:0:0:
110,103,29997,6,0,P|105:133|115:165,1,62.9999980773926,2|2,0:2|0:0,0:0:0:0:
183,207,30330,2,0,P|188:237|178:269,1,62.9999980773926,2|2,0:0|0:0,0:0:0:0:
144,342,30663,2,0,L|70:335,1,62.9999980773926,2|2,0:0|0:0,0:0:0:0:
9,377,30997,2,0,P|-5:328|26:274,1,94.499997116089,2|0,0:0|0:0,0:0:0:0:
39,260,31330,6,0,B|56:196|3:198|27:138,1,125.999996154785,2|0,1:2|0:0,0:0:0:0:
9,58,31830,2,0,P|46:57|74:71,1,62.9999980773926,8|0,3:0|0:0,0:0:0:0:
128,123,32163,2,0,L|195:114,1,62.9999980773926,4|0,3:0|0:0,0:0:0:0:
248,13,32497,5,4,3:0:0:0:
248,13,32580,1,4,3:0:0:0:
248,13,32663,2,0,P|318:0|377:56,1,140,6|2,1:2|1:2,0:0:0:0:
437,100,33163,2,0,L|426:171,1,70,2|8,0:0|1:2,0:0:0:0:
358,229,33497,1,2,0:0:0:0:
358,229,33580,1,8,0:0:0:0:
358,229,33663,2,0,L|369:300,1,70,2|8,1:2|0:0,0:0:0:0:
285,384,33997,6,0,P|252:357|178:362,1,105,0|0,1:0|0:0,0:0:0:0:
147,362,34330,2,0,P|134:329|138:292,1,70,2|0,1:2|0:0,0:0:0:0:
185,216,34663,2,0,P|152:203|118:205,1,70,10|8,1:2|0:0,0:0:0:0:
30,228,34997,2,0,L|15:119,1,105,2|0,1:2|0:0,0:0:0:0:
16,82,35330,5,2,1:2:0:0:
93,31,35497,1,2,0:0:0:0:
93,31,35663,2,0,P|131:30|158:46,1,70,2|10,1:2|0:0,0:0:0:0:
208,122,35997,2,0,L|295:108,1,70,10|2,1:2|0:0,0:0:0:0:
291,100,36247,1,8,0:0:0:0:
304,88,36330,2,0,L|391:102,1,70,2|10,1:2|0:0,0:0:0:0:
459,18,36663,6,0,P|495:52|485:143,1,140,2|0,1:2|1:0,0:0:0:0:
430,206,37163,1,0,0:0:0:0:
430,206,37330,2,0,L|440:291,1,70,2|10,1:2|0:0,0:0:0:0:
402,361,37663,1,10,1:2:0:0:
402,361,37830,1,2,0:0:0:0:
293,301,37997,6,0,P|241:294|195:330,1,105,2|0,1:2|0:0,0:0:0:0:
163,349,38330,2,0,L|93:339,1,70,2|0,1:2|0:0,0:0:0:0:
12,380,38663,2,0,P|-2:345|4:311,1,70,10|2,1:2|0:0,0:0:0:0:
9,298,38913,1,8,0:0:0:0:
19,285,38996,2,0,P|33:250|27:216,1,70,2|10,1:2|0:0,0:0:0:0:
110,130,39330,6,0,L|181:139,1,70,2|2,1:2|0:0,0:0:0:0:
258,194,39663,1,2,1:2:0:0:
258,194,39830,1,2,0:0:0:0:
216,275,39997,2,0,L|225:346,1,70,10|10,1:2|0:0,0:0:0:0:
307,383,40330,2,0,P|359:357|416:369,1,105,2|0,1:2|0:0,0:0:0:0:
449,359,40663,6,0,P|461:318|438:280,1,70,2|0,1:2|0:0,0:0:0:0:
483,207,40997,2,0,P|442:195|404:218,1,70,2|0,1:2|0:0,0:0:0:0:
331,232,41330,2,0,L|322:162,1,70,2|0,1:2|0:0,0:0:0:0:
380,92,41663,2,0,P|323:71|263:91,1,105,6|0,1:2|0:0,0:0:0:0:
245,107,41997,5,0,1:0:0:0:
245,107,42163,1,0,1:0:0:0:
204,188,42330,2,0,L|123:177,1,70,10|10,0:0|0:0,0:0:0:0:
117,175,42580,1,8,0:0:0:0:
99,172,42663,1,10,0:0:0:0:
30,231,42830,1,10,3:0:0:0:
30,231,42997,2,0,L|40:311,1,70,6|6,3:0|3:0,0:0:0:0:
132,376,43330,6,0,P|189:383|245:347,1,112,6|2,1:2|1:2,0:0:0:0:
298,310,43830,1,0,0:0:0:0:
299,310,43997,2,0,B|340:314|340:314|359:329|359:329|405:334,1,112,8|2,0:0|1:2,0:0:0:0:
426,179,44663,6,0,L|361:185,1,56,2|8,1:2|0:0,0:0:0:0:
303,226,44997,2,0,L|238:220,1,56,2|0,1:2|0:0,0:0:0:0:
189,167,45330,2,0,P|166:216|183:269,1,112,8|2,0:0|1:2,0:0:0:0:
74,382,45997,6,0,L|63:316,1,56,2|0,1:2|0:0,0:0:0:0:
12,268,46330,2,0,L|23:202,1,56,2|0,1:2|0:0,0:0:0:0:
80,161,46663,2,0,B|138:140|131:184|192:165,1,112,8|2,0:0|1:2,0:0:0:0:
251,119,47163,6,0,L|318:131,1,56,8|0,3:0|0:0,0:0:0:0:
357,195,47497,1,4,3:0:0:0:
357,195,47663,2,0,L|424:183,1,56,4|0,3:0|0:0,0:0:0:0:
470,132,47997,2,0,P|491:174|468:240,1,112,8|2,0:0|1:2,0:0:0:0:
409,276,48497,5,2,1:2:0:0:
409,276,48663,2,0,B|384:332|430:330|412:391,2,112,6|2|8,1:2|1:2|0:0,0:0:0:0:
322,144,49663,2,0,L|313:202,1,56,2|0,1:2|0:0,0:0:0:0:
247,239,49997,1,2,1:2:0:0:
247,239,50163,2,0,L|256:297,1,56,8|2,0:0|1:2,0:0:0:0:
302,364,50497,1,0,0:0:0:0:
302,364,50663,2,0,P|249:380|200:357,1,112,8|2,0:0|1:2,0:0:0:0:
64,274,51330,6,0,L|75:208,1,56,2|0,1:2|0:0,0:0:0:0:
112,150,51663,2,0,L|101:84,1,56,2|0,1:2|0:0,0:0:0:0:
56,30,51997,2,0,P|109:14|158:37,1,112,8|2,0:0|1:2,0:0:0:0:
216,89,52497,6,0,L|272:77,2,56,8|4|4,3:0|3:0|3:0,0:0:0:0:
199,165,52997,2,0,L|210:219,1,56,2|0,1:2|0:0,0:0:0:0:
267,273,53330,2,0,L|256:327,1,56,8|0,0:0|1:0,0:0:0:0:
313,381,53663,2,0,L|357:374,3,28,8|8|8|8,0:0|0:0|0:0|0:0,0:0:0:0:
381,358,53997,6,0,B|398:294|350:296|369:234,1,125.999996154785,4|0,1:2|1:0,0:0:0:0:
416,171,54497,1,0,0:0:0:0:
416,171,54663,2,0,P|386:156|354:156,1,62.9999980773926,0|0,1:0|0:0,0:0:0:0:
288,201,54997,2,0,L|249:192,3,31.4999990386963,10|8|8|8,0:0|0:0|0:0|0:0,0:0:0:0:
241,156,55330,6,0,P|192:119|131:130,1,125.999996154785,8|0,0:0|1:0,0:0:0:0:
75,188,55830,1,2,0:0:0:0:
75,188,55997,2,0,L|90:262,1,62.9999980773926,2|0,1:2|0:0,0:0:0:0:
134,316,56330,2,0,L|182:305,3,31.4999990386963,10|8|8|8,0:0|0:0|0:0|0:0,0:0:0:0:
186,274,56663,6,0,P|222:257|255:262,1,62.9999980773926,10|0,0:0|0:0,0:0:0:0:
324,278,56997,2,0,L|312:352,1,62.9999980773926,2|0,1:2|0:0,0:0:0:0:
388,384,57330,1,2,1:2:0:0:
388,384,57497,1,8,0:0:0:0:
467,356,57663,1,2,1:2:0:0:
467,356,57830,1,8,0:0:0:0:
484,235,57997,6,0,B|467:157|467:157|503:107,1,125.999996154785,2|0,1:2|1:0,0:0:0:0:
461,50,58497,1,10,0:0:0:0:
461,50,58663,2,0,L|391:63,1,62.9999980773926,2|8,1:2|3:0,0:0:0:0:
353,130,58997,2,0,L|283:117,1,62.9999980773926,6|6,3:0|3:0,0:0:0:0:
275,115,59247,1,4,3:0:0:0:
258,111,59330,1,12,0:0:0:0:
165,42,59497,5,8,0:0:0:0:
150,48,59580,1,8,0:0:0:0:
134,55,59663,2,0,L|112:7,2,35,8|8|6,0:0|0:0|1:2,0:0:0:0:
92,137,59997,2,0,P|74:167|85:211,1,70,8|8,0:0|0:0,0:0:0:0:
87,216,60247,1,8,0:0:0:0:
99,228,60330,1,6,1:2:0:0:
176,314,60497,5,8,0:0:0:0:
192,318,60580,1,8,0:0:0:0:
208,323,60663,2,0,L|199:368,2,35,8|8|6,0:0|0:0|1:2,0:0:0:0:
261,248,60997,2,0,P|291:231|335:243,1,70,8|10,0:0|0:0,0:0:0:0:
340,245,61247,1,8,0:0:0:0:
354,254,61330,1,6,1:2:0:0:
419,317,61497,2,0,L|409:356,2,35,8|8|2,0:0|0:0|1:2,0:0:0:0:
478,215,61830,5,10,0:0:0:0:
478,215,61913,1,8,0:0:0:0:
478,215,61997,2,0,L|468:143,1,70,6|2,1:2|0:0,0:0:0:0:
504,61,62330,2,0,P|471:49|438:57,1,70,2|2,1:2|1:2,0:0:0:0:
366,112,62663,1,8,0:0:0:0:
366,112,62830,1,0,1:0:0:0:
308,48,62997,1,8,0:0:0:0:
308,48,63163,1,0,1:0:0:0:
216,119,63330,6,0,L|134:104,1,70,10|4,0:0|3:0,0:0:0:0:
130,102,63580,1,4,3:0:0:0:
113,98,63663,1,10,0:0:0:0:
49,195,63830,1,10,0:0:0:0:
49,195,64663,6,0,P|109:194|161:240,1,115.50000352478,6|0,1:2|0:0,0:0:0:0:
174,266,64997,1,10,0:0:0:0:
161,357,65163,2,0,P|195:357|249:319,1,77.0000023498536,2|0,0:0|1:0,0:0:0:0:
314,292,65497,2,0,B|346:210|278:220|314:131,1,154.000004699707,2|2,0:0|0:0,0:0:0:0:
368,43,65997,6,0,P|333:27|295:29,1,77.0000023498536,2|2,1:2|0:0,0:0:0:0:
232,97,66330,1,10,0:0:0:0:
177,22,66497,2,0,B|78:-6|78:-6|19:34,1,154.000004699707,2|0,0:0|0:0,0:0:0:0:
5,110,66997,2,0,P|1:147|25:186,1,77.0000023498536,8|2,0:0|0:0,0:0:0:0:
135,196,67330,6,0,L|122:292,1,77.0000023498536,2|2,1:2|0:0,0:0:0:0:
66,344,67663,1,10,0:0:0:0:
150,382,67830,1,2,0:0:0:0:
210,311,67997,2,0,P|271:307|328:342,1,115.50000352478,2|0,1:2|0:0,0:0:0:0:
350,365,68330,1,10,0:0:0:0:
450,297,68497,6,0,B|478:198|478:198|438:139,1,154.000004699707,2|2,0:0|0:0,0:0:0:0:
480,68,68997,1,10,0:0:0:0:
403,17,69163,2,0,L|312:31,1,77.0000023498536,2|0,0:0|1:0,0:0:0:0:
258,92,69497,1,2,0:0:0:0:
304,171,69663,2,0,P|308:210|282:256,1,77.0000023498536,10|2,0:0|0:0,0:0:0:0:
280,258,69913,1,0,0:0:0:0:
264,269,69997,6,0,L|188:260,1,77.0000023498536,4|2,1:2|0:0,0:0:0:0:
123,326,70330,1,10,0:0:0:0:
42,280,70497,2,0,B|10:198|78:208|42:119,1,154.000004699707,2|2,0:0|0:0,0:0:0:0:
1,50,70997,1,10,0:0:0:0:
112,10,71163,6,0,B|209:-9|209:-9|255:24,1,154.000004699707,2|2,0:0|0:0,0:0:0:0:
294,106,71663,1,10,0:0:0:0:
360,42,71830,1,2,0:0:0:0:
360,42,71913,1,0,0:0:0:0:
360,42,71997,2,0,P|411:13|483:32,1,115.50000352478,0|0,1:0|0:0,0:0:0:0:
507,41,72330,2,0,L|495:121,1,77.0000023498536,8|2,0:0|0:0,0:0:0:0:
434,219,72663,5,2,1:2:0:0:
357,166,72830,1,2,0:0:0:0:
275,209,72997,2,0,P|255:248|262:297,1,77.0000023498536,10|2,0:0|0:0,0:0:0:0:
325,341,73330,2,0,P|274:370|212:357,1,115.50000352478,2|0,1:2|0:0,0:0:0:0:
182,335,73663,1,10,0:0:0:0:
68,369,73830,6,0,B|36:287|104:297|68:208,1,154.000004699707,14|2,0:0|1:2,0:0:0:0:
29,138,74330,1,10,0:0:0:0:
98,76,74497,1,10,0:0:0:0:
98,76,74580,1,8,0:0:0:0:
98,76,74663,2,0,P|131:57|168:62,1,77.0000023498536,8|8,0:0|0:0,0:0:0:0:
184,73,74913,1,8,0:0:0:0:
199,84,74997,2,0,L|254:65,3,38.5000011749268,8|8|8|8,0:0|0:0|0:0|0:0,0:0:0:0:
264,35,75330,6,0,L|389:57,1,115.50000352478,6|0,1:2|0:0,0:0:0:0:
418,32,75663,1,10,0:0:0:0:
493,85,75830,2,0,P|495:127|467:160,1,77.0000023498536,2|0,0:0|1:0,0:0:0:0:
413,223,76163,2,0,B|330:205|345:261|260:244,1,154.000004699707,2|2,0:0|0:0,0:0:0:0:
181,156,76663,6,0,L|100:172,1,77.0000023498536,2|2,1:2|0:0,0:0:0:0:
39,236,76997,1,10,0:0:0:0:
76,319,77163,2,0,P|123:355|197:338,1,115.50000352478,2|0,0:0|0:0,0:0:0:0:
213,322,77497,1,2,0:0:0:0:
294,375,77663,1,10,0:0:0:0:
294,375,77830,1,2,0:0:0:0:
396,312,77997,6,0,P|410:277|394:227,1,77.0000023498536,2|2,1:2|0:0,0:0:0:0:
322,193,78330,2,0,P|308:158|324:108,1,77.0000023498536,10|2,0:0|0:0,0:0:0:0:
402,87,78663,2,0,P|370:42|277:34,1,154.000004699707,2|10,1:2|0:0,0:0:0:0:
215,102,79163,1,2,0:0:0:0:
144,6,79330,5,2,1:2:0:0:
144,6,79497,1,2,0:0:0:0:
66,54,79663,1,10,0:0:0:0:
90,143,79830,2,0,B|121:219|53:209|85:291,1,154.000004699707,2|2,0:0|0:0,0:0:0:0:
22,358,80330,2,0,P|66:383|137:364,1,115.50000352478,10|0,0:0|0:0,0:0:0:0:
161,339,80663,5,12,0:0:0:0:
245,375,80830,1,2,1:2:0:0:
314,313,80997,2,0,L|300:237,1,77.0000023498536,10|2,0:0|1:2,0:0:0:0:
234,172,81330,1,8,0:0:0:0:
299,107,81497,1,2,1:2:0:0:
299,107,81580,1,2,1:2:0:0:
299,107,81663,2,0,L|374:120,1,77.0000023498536,8|2,0:0|1:2,0:0:0:0:
426,222,81996,5,8,0:0:0:0:
512,188,82163,1,8,0:0:0:0:
303,361,83330,5,2,0:0:0:0:
256,192,83413,12,2,85663,0:0:0:0:
