osu file format v14

[General]
AudioFilename: audio.mp3
AudioLeadIn: 0
PreviewTime: 64441
Countdown: 0
SampleSet: Soft
StackLeniency: 0.7
Mode: 0
LetterboxInBreaks: 0
WidescreenStoryboard: 0

[Editor]
DistanceSpacing: 3
BeatDivisor: 4
GridSize: 8
TimelineZoom: 1

[Metadata]
Title:White Promise
TitleUnicode:White Promise
Artist:Nayugorou
ArtistUnicode:なゆごろう
Creator:Fufla
Version:Affection
Source:LOST:SMILE memories + promises
Tags:leominexd leomine jeby buddon ロストスマイルメモリーズ プロミセス ロッスマ Rossuma life0 opening op short version visual novel vn pop jpop j-pop female vocals video game japanese Ichijou Meguru 一条 めぐるMasaki Minato 真咲 湊 Mihiro-san みひろさん Yonamine Jun 与那嶺 純 vocalist vgm vg ver
BeatmapID:4024269
BeatmapSetID:1945143

[Difficulty]
HPDrainRate:5.2
CircleSize:4
OverallDifficulty:8.9
ApproachRate:9.1
SliderMultiplier:1.8
SliderTickRate:1

[Events]
//Background and Video events
0,0,"bg.jpg",0,0
//Break Periods
//Storyboard Layer 0 (Background)
//Storyboard Layer 1 (Fail)
//Storyboard Layer 2 (Pass)
//Storyboard Layer 3 (Foreground)
//Storyboard Layer 4 (Overlay)
//Storyboard Sound Samples

[TimingPoints]
664,333.333333333333,4,2,1,50,1,0
664,-133.333333333333,4,2,1,50,0,0
5997,-117.647058823529,4,2,1,60,0,0
8580,-117.647058823529,4,2,1,5,0,0
8663,-117.647058823529,4,2,1,60,0,0
8913,-117.647058823529,4,2,1,5,0,0
8997,-117.647058823529,4,2,1,60,0,0
9913,-117.647058823529,4,2,1,5,0,0
9997,-117.647058823529,4,2,1,75,0,0
10663,-117.647058823529,4,2,1,65,0,0
10747,-117.647058823529,4,2,1,5,0,0
10830,-114.285714285714,4,2,1,65,0,0
10913,-114.285714285714,4,2,1,5,0,0
10997,-109.89010989011,4,2,1,65,0,0
11080,-109.89010989011,4,2,1,5,0,0
11163,-106.382978723404,4,2,1,65,0,0
11247,-106.382978723404,4,2,1,5,0,0
11330,-105.263157894737,4,2,1,80,0,0
11580,-105.263157894737,4,2,1,5,0,0
11663,-105.263157894737,4,2,1,80,0,0
14247,-105.263157894737,4,2,1,5,0,0
14330,-105.263157894737,4,2,1,80,0,0
15580,-105.263157894737,4,2,1,5,0,0
15663,-105.263157894737,4,2,1,80,0,0
17413,-105.263157894737,4,2,1,5,0,0
17497,-105.263157894737,4,2,1,80,0,0
18247,-105.263157894737,4,2,1,5,0,0
18330,-105.263157894737,4,2,1,80,0,0
19580,-105.263157894737,4,2,1,5,0,0
19663,-105.263157894737,4,2,1,80,0,0
21580,-105.263157894737,4,2,1,5,0,0
21663,-105.263157894737,4,2,1,80,0,0
21997,-133.333333333333,4,2,1,50,0,0
22747,-133.333333333333,4,2,1,5,0,0
22830,-133.333333333333,4,2,1,50,0,0
23580,-133.333333333333,4,2,1,5,0,0
23663,-133.333333333333,4,2,1,50,0,0
24580,-133.333333333333,4,2,1,5,0,0
24663,-133.333333333333,4,2,1,50,0,0
27580,-133.333333333333,4,2,1,5,0,0
27663,-133.333333333333,4,2,1,50,0,0
29247,-133.333333333333,4,2,1,5,0,0
29330,-133.333333333333,4,2,1,50,0,0
31247,-133.333333333333,4,2,1,5,0,0
31330,-133.333333333333,4,2,1,50,0,0
32663,-105.263157894737,4,2,1,65,0,0
32913,-105.263157894737,4,2,1,5,0,0
32997,-105.263157894737,4,2,1,65,0,0
35247,-105.263157894737,4,2,1,5,0,0
35330,-105.263157894737,4,2,1,65,0,0
36913,-105.263157894737,4,2,1,5,0,0
36997,-105.263157894737,4,2,1,65,0,0
40913,-105.263157894737,4,2,1,5,0,0
40997,-105.263157894737,4,2,1,65,0,0
41913,-105.263157894737,4,2,1,5,0,0
41997,-105.263157894737,4,2,1,75,0,0
43330,-125,4,2,1,70,0,0
43580,-125,4,2,1,5,0,0
43663,-125,4,2,1,70,0,0
45580,-125,4,2,1,5,0,0
45663,-125,4,2,1,70,0,0
47913,-125,4,2,1,5,0,0
47997,-125,4,2,1,70,0,0
52580,-125,4,2,1,5,0,0
52663,-125,4,2,1,70,0,0
53997,-117.647058823529,4,2,1,75,0,0
54247,-117.647058823529,4,2,1,5,0,0
54330,-117.647058823529,4,2,1,75,0,0
55913,-117.647058823529,4,2,1,5,0,0
55997,-117.647058823529,4,2,1,75,0,0
58247,-117.647058823529,4,2,1,5,0,0
58330,-117.647058823529,4,2,1,75,0,0
59330,-117.647058823529,4,2,1,78,0,0
59497,-105.263157894737,4,2,1,78,0,0
62247,-105.263157894737,4,2,1,5,0,0
62330,-105.263157894737,4,2,1,72,0,0
62663,-105.263157894737,4,2,1,74,0,0
62997,-105.263157894737,4,2,1,76,0,0
63330,-105.263157894737,4,2,1,78,0,0
63663,-105.263157894737,4,2,1,80,0,0
63830,-105.263157894737,4,2,1,70,0,0
64663,-90.9090909090909,4,2,1,85,0,0
64913,-90.9090909090909,4,2,1,5,0,0
64997,-90.9090909090909,4,2,1,85,0,0
68247,-90.9090909090909,4,2,1,5,0,0
68330,-90.9090909090909,4,2,1,85,0,0
69413,-90.9090909090909,4,2,1,5,0,0
69497,-90.9090909090909,4,2,1,85,0,0
70747,-90.9090909090909,4,2,1,5,0,0
70830,-90.9090909090909,4,2,1,85,0,0
72913,-90.9090909090909,4,2,1,5,0,0
72997,-90.9090909090909,4,2,1,85,0,0
74247,-90.9090909090909,4,2,1,5,0,0
74330,-90.9090909090909,4,2,1,85,0,0
75580,-90.9090909090909,4,2,1,5,0,0
75663,-90.9090909090909,4,2,1,85,0,0
77413,-90.9090909090909,4,2,1,5,0,0
77497,-90.9090909090909,4,2,1,85,0,0
78913,-90.9090909090909,4,2,1,5,0,0
78997,-90.9090909090909,4,2,1,85,0,0
80080,-90.9090909090909,4,2,1,5,0,0
80163,-90.9090909090909,4,2,1,85,0,0
81913,-90.9090909090909,4,2,1,5,0,0
81997,-90.9090909090909,4,2,1,85,0,0
82330,-90.9090909090909,4,2,1,70,0,0
83330,-285.714285714284,4,2,1,65,0,0
85247,-285.714285714284,4,2,1,5,0,0
85330,-285.714285714284,4,2,1,65,0,0
85663,-90.9090909090909,4,2,1,65,0,0
85747,-90.9090909090909,4,2,1,5,0,0

[Colours]
Combo1 : 233,152,235
Combo2 : 105,156,211
Combo3 : 157,214,133
Combo4 : 223,226,103

[HitObjects]
192,116,664,6,0,P|197:79|203:35,2,67.5000025749208,2|2|2,2:2|2:2|2:2,0:0:0:0:
49,170,1163,2,0,B|81:157|118:153|118:153|132:190|171:193,1,135.000005149842,2|2,2:2|2:2,0:0:0:0:
255,275,1663,2,0,P|250:238|244:194,1,67.5000025749208,2|0,2:2|0:0,0:0:0:0:
320,62,1997,5,2,2:2:0:0:
357,185,2163,2,0,B|399:165|453:157|453:157|433:175|420:198,1,135.000005149842,2|2,2:2|2:2,0:0:0:0:
340,287,2663,2,0,P|331:322|330:353,1,67.5000025749208,2|0,2:2|0:0,0:0:0:0:
245,208,2997,2,0,P|254:243|254:274,1,67.5000025749208,2|0,2:2|0:0,0:0:0:0:
312,86,3330,6,0,P|345:90|378:95,2,67.5000025749208,2|2|2,2:2|2:2|2:2,0:0:0:0:
202,0,3830,2,0,B|240:33|240:33|227:66|204:134,1,135.000005149842,2|2,2:2|2:2,0:0:0:0:
79,69,4330,2,0,P|112:50|146:55,1,67.5000025749208,2|0,2:2|0:0,0:0:0:0:
54,243,4663,5,2,2:2:0:0:
128,132,4830,2,0,P|132:165|137:198,1,67.5000025749208,2|0,2:2|0:0,0:0:0:0:
155,309,5163,1,2,2:2:0:0:
260,179,5330,2,0,P|241:182|219:196,1,33.7500012874604,2|0,2:2|0:0,0:0:0:0:
334,264,5497,2,0,P|349:271|365:274,1,33.7500012874604,2|2,2:2|2:2,0:0:0:0:
252,304,5663,2,0,P|248:337|243:370,1,67.5000025749208,2|0,2:2|0:0,0:0:0:0:
369,164,5997,6,0,P|364:132|353:78,1,76.5000014591217,4|2,1:2|2:2,0:0:0:0:
458,234,6330,2,0,P|463:202|474:148,1,76.5000014591217,2|2,1:2|2:2,0:0:0:0:
512,16,6663,2,0,P|477:42|424:19,1,76.5000014591217,8|2,1:1|2:2,0:0:0:0:
420,30,6913,1,8,2:1:0:0:
420,30,6997,1,2,1:2:0:0:
309,0,7163,1,8,2:1:0:0:
199,148,7330,5,2,1:2:0:0:
129,27,7497,2,0,P|168:41|216:49,1,76.5000014591217,2|0,2:2|1:1,0:0:0:0:
315,89,7830,1,2,2:2:0:0:
283,216,7997,2,0,P|279:197|274:178,1,38.2500007295609,8|0,1:1|0:0,0:0:0:0:
350,272,8163,2,0,P|354:253|358:234,1,38.2500007295609,8|0,2:1|0:0,0:0:0:0:
262,336,8330,2,0,P|212:323|128:308,1,114.750002188683,2|0,1:2|0:0,0:0:0:0:
119,307,8663,6,0,P|143:264|110:189,1,114.750002188683,2|0,1:2|0:0,0:0:0:0:
113,171,8997,2,0,P|154:164|209:148,1,76.5000014591217,2|2,1:2|2:2,0:0:0:0:
342,68,9330,2,0,P|301:61|246:45,1,76.5000014591217,0|2,1:1|2:2,0:0:0:0:
306,288,9663,2,0,P|299:244|277:151,1,114.750002188683,2|0,1:2|0:0,0:0:0:0:
274,138,9997,5,0,1:1:0:0:
489,61,10163,1,8,0:2:0:0:
462,71,10246,1,8,2:2:0:0:
440,90,10329,1,8,2:2:0:0:
426,115,10413,1,8,2:2:0:0:
421,144,10496,1,8,2:2:0:0:
425,172,10579,1,8,2:2:0:0:
439,198,10663,6,0,P|458:193|496:186,1,38.2500007295609,2|0,2:2|0:0,0:0:0:0:
355,244,10830,2,0,P|368:257|393:287,1,39.3750003755093,2|0,2:2|0:0,0:0:0:0:
273,194,10997,2,0,P|267:212|254:249,1,40.9500013746644,2|0,2:2|0:0,0:0:0:0:
275,97,11163,2,0,P|255:102|217:109,1,42.2999993545532,2|0,2:2|0:0,0:0:0:0:
14,153,11330,6,0,B|47:136|82:133|82:133|104:162|147:168,1,128.249996575356,4|0,1:2|0:0,0:0:0:0:
158,178,11663,2,0,P|149:219|141:261,1,85.4999977169037,8|0,2:2|0:0,0:0:0:0:
31,349,11997,2,0,P|95:305|197:345,1,170.999995433807,2|8,1:2|2:2,0:0:0:0:
327,384,12497,1,2,2:2:0:0:
427,202,12663,6,0,P|406:195|386:189,1,42.7499988584519,2|0,1:2|0:0,0:0:0:0:
302,163,12830,1,2,0:0:0:0:
431,320,12997,2,0,P|475:305|536:289,1,85.4999977169037,10|0,2:2|0:0,0:0:0:0:
299,258,13330,2,0,P|255:243|194:227,1,85.4999977169037,2|0,1:2|0:0,0:0:0:0:
327,384,13663,2,0,P|283:369|222:353,1,85.4999977169037,10|0,2:2|0:0,0:0:0:0:
436,198,13997,6,0,B|448:155|448:155|441:127|441:127|460:49,1,128.249996575356,2|0,1:2|0:0,0:0:0:0:
455,38,14330,2,0,P|415:66|359:57,1,85.4999977169037,8|0,2:2|0:0,0:0:0:0:
197,89,14663,1,2,1:2:0:0:
276,24,14830,1,2,2:2:0:0:
184,213,14997,1,10,2:2:0:0:
65,69,15163,1,2,2:2:0:0:
299,135,15330,6,0,P|310:197|323:289,1,128.249996575356,2|0,1:2|0:0,0:0:0:0:
326,302,15663,1,8,2:2:0:0:
483,125,15830,2,0,B|440:140|395:77|395:77|363:48|315:67,1,170.999995433807,2|0,2:2|0:0,0:0:0:0:
173,44,16330,2,0,P|181:92|190:142,1,85.4999977169037,10|0,2:2|0:0,0:0:0:0:
56,306,16663,6,0,B|48:244|116:218|153:243|153:243|147:268|151:276,1,170.999995433807,4|8,1:2|2:2,0:0:0:0:
329,317,17163,2,0,P|261:330|175:357,1,128.249996575356,2|0,2:2|0:0,0:0:0:0:
166,358,17497,1,2,2:2:0:0:
187,128,17663,2,0,P|207:133|227:141,1,42.7499988584519,10|0,2:2|0:0,0:0:0:0:
371,192,17830,1,2,2:2:0:0:
80,223,17997,6,0,B|76:197|68:180|68:180|75:152|75:152|62:127|56:74,1,128.249996575356,2|0,1:2|0:0,0:0:0:0:
52,73,18330,2,0,P|100:100|139:67,1,85.4999977169037,10|0,2:2|0:0,0:0:0:0:
298,0,18663,2,0,P|285:43|277:82,1,85.4999977169037,2|0,1:2|0:0,0:0:0:0:
183,262,18997,2,0,P|174:220|162:179,1,85.4999977169037,10|0,2:2|0:0,0:0:0:0:
353,350,19330,6,0,P|389:306|468:323,1,128.249996575356,4|0,1:2|0:0,0:0:0:0:
483,331,19663,1,2,3:2:0:0:
479,135,19830,2,0,P|437:151|390:166,1,85.4999977169037,2|0,3:2|3:3,0:0:0:0:
256,230,20163,1,2,3:2:0:0:
204,47,20330,1,8,2:2:0:0:
301,121,20497,1,2,3:2:0:0:
109,295,20663,5,8,2:2:0:0:
136,105,20830,1,0,3:3:0:0:
20,305,20997,1,8,2:2:0:0:
63,65,21163,1,0,3:3:0:0:
318,257,21330,6,0,B|293:254|271:225|271:225|233:228|203:245,1,128.249996575356,8|0,2:2|3:3,0:0:0:0:
179,261,21663,2,0,P|183:283|188:304,1,42.7499988584519,8|0,2:2|0:0,0:0:0:0:
285,68,21830,2,0,P|289:47|293:26,1,42.7499988584519,8|0,2:2|0:0,0:0:0:0:
426,103,21997,6,0,P|434:140|444:194,2,67.5000025749208,2|2|2,2:2|2:2|2:2,0:0:0:0:
308,147,22497,2,0,B|268:149|268:149|253:160|253:160|205:168,1,101.250003862381,2|0,2:2|0:0,0:0:0:0:
182,174,22830,1,2,2:2:0:0:
141,69,22997,2,0,P|173:76|207:82,1,67.5000025749208,2|0,2:2|0:0,0:0:0:0:
234,266,23330,6,0,P|188:260|141:300,1,101.250003862381,2|0,2:2|0:0,0:0:0:0:
127,305,23663,2,0,P|132:273|139:232,1,67.5000025749208,2|2,2:2|2:2,0:0:0:0:
49,342,23997,2,0,P|44:310|37:269,1,67.5000025749208,2|0,2:2|0:0,0:0:0:0:
0,137,24330,2,0,B|39:144|39:144|53:156|53:156|100:169,1,101.250003862381,2|0,2:2|0:0,0:0:0:0:
119,170,24663,6,0,P|137:139|131:97,1,67.5000025749208,2|2,2:2|2:2,0:0:0:0:
69,0,24997,1,2,2:2:0:0:
142,33,25163,1,2,2:2:0:0:
260,10,25330,2,0,P|292:5|333:-2,1,67.5000025749208,2|2,2:2|2:2,0:0:0:0:
278,130,25663,2,0,P|244:124|211:119,1,67.5000025749208,2|0,2:2|0:0,0:0:0:0:
416,57,25997,6,0,B|398:80|376:93|376:93|392:193,1,135.000005149842,2|2,2:2|2:2,0:0:0:0:
464,263,26497,1,2,2:2:0:0:
464,263,26663,2,0,P|470:229|475:196,1,67.5000025749208,2|0,2:2|0:0,0:0:0:0:
358,281,26997,2,0,P|363:314|368:347,1,67.5000025749208,2|2,2:2|2:2,0:0:0:0:
282,194,27330,6,0,P|239:207|176:220,1,101.250003862381,2|0,2:2|0:0,0:0:0:0:
154,230,27663,1,2,2:2:0:0:
59,118,27830,2,0,B|126:91|125:157|200:120,1,135.000005149842,2|0,2:2|0:0,0:0:0:0:
279,46,28330,2,0,P|274:79|270:112,1,67.5000025749208,2|2,2:2|2:2,0:0:0:0:
261,277,28663,5,2,2:2:0:0:
338,207,28830,1,2,2:2:0:0:
459,263,28997,2,0,B|453:218|453:218|443:204|443:204|437:162,1,101.250003862381,2|0,2:2|0:0,0:0:0:0:
432,135,29330,2,0,P|399:127|365:122,1,67.5000025749208,2|2,2:2|2:2,0:0:0:0:
282,42,29663,2,0,P|315:36|348:29,1,67.5000025749208,2|2,2:2|2:2,0:0:0:0:
222,160,29997,5,2,2:2:0:0:
182,76,30163,1,2,2:2:0:0:
82,170,30330,2,0,P|121:181|168:201,1,67.5000025749208,2|2,2:2|2:2,0:0:0:0:
267,252,30663,2,0,P|228:263|181:283,1,67.5000025749208,2|2,2:2|2:2,0:0:0:0:
76,375,30997,2,0,P|97:331|88:274,1,101.250003862381,2|0,2:2|0:0,0:0:0:0:
84,252,31330,5,2,2:2:0:0:
84,252,31663,1,0,0:0:0:0:
164,149,31830,2,0,P|205:157|253:166,1,67.5000025749208,0|0,3:3|0:0,0:0:0:0:
268,252,32163,2,0,P|301:245|334:239,1,67.5000025749208,0|0,3:3|0:0,0:0:0:0:
446,84,32497,5,2,3:2:0:0:
446,84,32580,1,0,3:3:0:0:
446,84,32663,2,0,B|403:122|403:122|410:158|424:227,1,128.249996575356,4|0,1:2|0:0,0:0:0:0:
424,227,32997,1,2,1:2:0:0:
314,107,33163,2,0,P|277:149|221:135,1,85.4999977169037,2|8,2:2|1:1,0:0:0:0:
141,53,33497,1,2,2:2:0:0:
141,53,33580,1,8,2:1:0:0:
141,53,33663,2,0,P|188:60|236:70,1,85.4999977169037,2|8,1:2|2:1,0:0:0:0:
144,243,33997,5,0,1:1:0:0:
144,243,34330,2,0,P|137:202|129:158,1,85.4999977169037,2|2,1:2|2:2,0:0:0:0:
24,309,34664,2,0,P|33:266|38:224,1,85.4999977169037,8|8,1:1|2:1,0:0:0:0:
127,375,34997,2,0,P|168:338|248:371,1,128.249996575356,2|0,1:2|0:0,0:0:0:0:
253,377,35330,6,0,P|294:368|337:362,1,85.4999977169037,2|2,1:2|2:2,0:0:0:0:
471,269,35663,1,2,1:2:0:0:
434,355,35830,1,2,2:2:0:0:
308,265,35997,1,8,1:1:0:0:
408,153,36163,1,2,2:2:0:0:
408,153,36247,1,8,2:1:0:0:
408,153,36330,2,0,P|400:203|391:252,1,85.4999977169037,2|8,1:2|2:1,0:0:0:0:
429,50,36663,6,0,B|405:34|365:44|365:44|339:73|301:70,1,128.249996575356,2|0,1:2|0:0,0:0:0:0:
278,80,36997,2,0,P|285:122|292:164,1,85.4999977169037,0|8,1:1|2:1,0:0:0:0:
175,61,37330,1,2,1:2:0:0:
121,129,37497,1,2,2:2:0:0:
222,207,37663,1,8,1:1:0:0:
175,53,37830,1,2,2:2:0:0:
49,230,37997,6,0,P|91:223|133:216,1,85.4999977169037,2|0,1:2|0:0,0:0:0:0:
270,310,38330,2,0,P|228:303|186:296,1,85.4999977169037,2|0,1:2|0:0,0:0:0:0:
312,193,38663,1,8,1:1:0:0:
402,300,38830,1,2,2:2:0:0:
402,300,38913,1,8,2:1:0:0:
402,300,38997,2,0,P|417:249|396:214,1,85.4999977169037,2|8,1:2|2:1,0:0:0:0:
477,66,39330,6,0,P|435:77|393:85,1,85.4999977169037,2|2,1:2|2:2,0:0:0:0:
249,119,39663,1,2,1:2:0:0:
307,57,39830,1,2,2:2:0:0:
272,227,39997,1,8,1:1:0:0:
135,155,40163,1,8,2:1:0:0:
186,0,40330,2,0,P|179:42|172:84,1,85.4999977169037,2|0,1:2|0:0,0:0:0:0:
71,288,40663,6,0,P|109:247|188:271,1,128.249996575356,0|0,1:1|0:0,0:0:0:0:
201,280,40997,2,0,P|194:322|187:364,1,85.4999977169037,0|0,1:1|0:0,0:0:0:0:
361,193,41330,2,0,P|315:225|265:212,1,85.4999977169037,0|0,1:1|0:0,0:0:0:0:
172,84,41663,2,0,P|236:98|321:108,1,128.249996575356,0|0,1:1|0:0,0:0:0:0:
331,108,41997,5,4,1:2:0:0:
369,38,42163,1,0,1:1:0:0:
464,170,42330,2,0,P|456:219|450:274,1,85.4999977169037,10|2,2:2|3:2,0:0:0:0:
451,277,42580,1,8,2:2:0:0:
451,277,42663,1,10,2:2:0:0:
337,248,42830,1,2,3:2:0:0:
257,293,42997,1,2,3:2:0:0:
241,371,43163,1,2,3:2:0:0:
130,182,43330,6,0,P|174:221|237:202,1,108,4|0,1:2|0:0,0:0:0:0:
240,205,43663,2,0,P|231:158|222:104,1,72,2|0,1:2|0:0,0:0:0:0:
216,21,43997,2,0,B|182:12|144:33|144:33|127:74|89:80,2,144,8|2|2,2:2|2:2|1:2,0:0:0:0:
299,70,44830,5,8,2:2:0:0:
377,16,44997,2,0,P|414:31|467:36,1,72,0|0,1:1|0:0,0:0:0:0:
512,139,45330,2,0,P|453:147|440:217,1,108,10|0,2:2|0:0,0:0:0:0:
436,213,45663,1,2,1:2:0:0:
368,275,45830,1,10,2:2:0:0:
264,157,45997,6,0,P|303:165|352:176,1,72,2|0,1:2|0:0,0:0:0:0:
208,255,46330,2,0,P|243:247|278:240,1,72,2|2,1:2|2:2,0:0:0:0:
200,98,46663,2,0,B|174:109|146:107|146:107|121:134|121:134|92:133|60:149,1,144,10|2,2:2|2:2,0:0:0:0:
14,212,47163,1,0,3:3:0:0:
54,328,47330,6,0,P|83:304|129:313,1,72,0|0,1:1|3:3,0:0:0:0:
221,348,47663,2,0,B|211:301|211:301|201:288|201:288|187:219,1,108,0|0,1:1|0:0,0:0:0:0:
189,222,47997,1,10,2:2:0:0:
267,242,48163,1,0,1:1:0:0:
186,133,48330,1,2,2:2:0:0:
102,200,48497,1,2,1:2:0:0:
294,133,48663,6,0,B|324:108|365:112|365:112|386:149|427:143,1,144,4|0,1:2|1:1,0:0:0:0:
504,90,49163,1,2,2:2:0:0:
505,213,49330,2,0,P|467:220|444:260,1,72,10|2,2:2|2:2,0:0:0:0:
371,318,49663,2,0,P|407:323|441:333,1,72,2|2,2:2|2:2,0:0:0:0:
341,228,49997,5,0,1:1:0:0:
282,340,50163,2,0,B|288:287|231:265|200:286|200:286|205:307|201:314,1,144,10|2,2:2|2:2,0:0:0:0:
76,384,50663,2,0,P|106:386|157:351,1,72,8|2,2:2|2:2,0:0:0:0:
0,278,50997,2,0,P|35:301|69:296,1,72,2|8,1:2|2:2,0:0:0:0:
133,133,51330,5,2,1:2:0:0:
107,218,51497,1,2,2:2:0:0:
17,94,51663,2,0,P|26:135|32:186,1,72,2|2,1:2|2:2,0:0:0:0:
167,24,51997,1,10,2:2:0:0:
72,10,52163,1,2,2:2:0:0:
139,146,52330,2,0,B|163:125|196:128|196:128|214:159|247:154,1,108,2|0,2:2|0:0,0:0:0:0:
265,169,52663,5,0,1:1:0:0:
319,93,52830,1,0,3:3:0:0:
420,196,52997,2,0,P|384:190|348:185,1,72,2|2,1:2|2:2,0:0:0:0:
267,324,53330,1,10,2:2:0:0:
352,277,53497,1,2,1:2:0:0:
443,380,53663,1,10,2:2:0:0:
443,380,53747,1,8,2:2:0:0:
443,380,53830,2,0,P|413:375|383:370,1,36,0|0,3:3|3:3,0:0:0:0:
273,242,53997,6,0,B|229:250|229:250|206:268|206:268|149:281,1,114.750002188683,4|0,1:2|0:0,0:0:0:0:
135,274,54330,2,0,P|134:230|156:177,1,76.5000014591217,2|0,1:2|0:0,0:0:0:0:
41,315,54663,2,0,P|42:271|20:218,1,76.5000014591217,0|0,1:1|0:0,0:0:0:0:
1,91,54997,1,10,2:2:0:0:
28,97,55080,1,8,2:2:0:0:
56,103,55163,1,10,2:2:0:0:
84,109,55247,1,8,2:2:0:0:
112,116,55330,6,0,P|151:123|203:130,1,76.5000014591217,0|0,1:1|0:0,0:0:0:0:
327,198,55663,2,0,B|303:177|270:180|270:180|252:211|219:206,1,114.750002188683,0|0,1:1|0:0,0:0:0:0:
190,210,55997,2,0,P|196:249|204:301,1,76.5000014591217,2|0,1:2|0:0,0:0:0:0:
326,372,56330,1,10,2:2:0:0:
338,346,56413,1,8,2:2:0:0:
362,330,56496,1,10,2:2:0:0:
390,327,56580,1,8,2:2:0:0:
416,338,56663,6,0,P|410:300|403:262,1,76.5000014591217,2|0,1:2|0:0,0:0:0:0:
494,150,56997,2,0,P|487:187|481:225,1,76.5000014591217,2|0,1:2|0:0,0:0:0:0:
354,104,57330,1,2,1:2:0:0:
392,184,57497,1,10,2:2:0:0:
486,53,57663,1,2,1:2:0:0:
336,0,57830,1,8,2:2:0:0:
241,195,57997,6,0,B|251:145|251:145|262:131|262:131|271:86,1,114.750002188683,2|0,1:2|0:0,0:0:0:0:
278,60,58330,1,0,1:1:0:0:
143,162,58497,1,10,2:2:0:0:
95,57,58663,2,0,P|132:66|169:76,1,76.5000014591217,2|0,1:2|3:3,0:0:0:0:
52,199,58997,1,2,1:2:0:0:
2,63,59163,1,2,3:2:0:0:
6,81,59246,1,0,3:3:0:0:
11,99,59329,1,4,1:2:0:0:
92,292,59497,5,10,2:2:0:0:
108,270,59580,1,8,2:2:0:0:
133,258,59663,1,10,2:2:0:0:
160,260,59747,1,8,2:2:0:0:
184,273,59830,1,4,1:2:0:0:
155,155,59997,5,8,2:2:0:0:
186,149,60080,1,8,2:2:0:0:
218,159,60163,1,8,2:2:0:0:
239,185,60247,1,8,2:2:0:0:
248,216,60330,1,4,1:2:0:0:
309,93,60497,5,8,2:2:0:0:
340,113,60580,1,8,2:2:0:0:
358,149,60663,1,8,2:2:0:0:
354,189,60747,1,8,2:2:0:0:
335,222,60830,1,4,1:2:0:0:
463,170,60997,5,8,2:2:0:0:
472,213,61080,1,8,2:2:0:0:
457,259,61163,1,10,2:2:0:0:
419,289,61247,1,8,2:2:0:0:
375,301,61330,1,4,1:2:0:0:
194,337,61497,5,8,2:2:0:0:
191,306,61580,1,8,2:2:0:0:
186,276,61663,1,2,1:2:0:0:
85,86,61830,1,10,2:2:0:0:
80,116,61913,1,8,2:2:0:0:
77,147,61997,6,0,B|110:130|145:127|145:127|167:156|210:162,1,128.249996575356,4|0,1:2|0:0,0:0:0:0:
222,162,62330,1,2,1:2:0:0:
297,48,62497,1,0,3:3:0:0:
438,224,62663,1,0,3:3:0:0:
263,315,62830,1,0,3:3:0:0:
142,40,62997,2,0,P|169:46|210:54,1,42.7499988584519,8|0,2:2|0:0,0:0:0:0:
441,91,63163,1,2,0:0:0:0:
136,314,63330,5,8,2:2:0:0:
129,285,63413,1,0,3:3:0:0:
123,256,63496,1,0,3:3:0:0:
117,226,63580,1,0,3:3:0:0:
109,197,63663,2,0,L|92:120,1,42.7499988584519,8|0,2:2|3:3,0:0:0:0:
70,0,63830,1,0,1:1:0:0:
288,235,64663,6,0,B|267:205|216:207|187:237|187:237|193:268|172:298,1,148.50000453186,4|0,1:2|0:0,0:0:0:0:
174,303,64997,1,10,2:2:0:0:
35,152,65163,2,0,P|83:163|143:172,1,99.0000030212403,2|0,2:2|1:1,0:0:0:0:
301,70,65497,2,0,P|260:88|250:148,1,99.0000030212403,2|8,2:2|2:2,0:0:0:0:
277,306,65830,1,2,2:2:0:0:
376,116,65997,5,2,1:2:0:0:
225,19,66163,1,2,2:2:0:0:
349,257,66330,2,0,P|354:224|358:190,1,49.5000015106202,10|0,2:2|0:0,0:0:0:0:
505,71,66497,2,0,B|484:62|474:25|474:25|457:120|448:192,1,198.000006042481,2|0,2:2|0:0,0:0:0:0:
425,328,66997,1,8,2:2:0:0:
312,372,67163,1,2,2:2:0:0:
180,168,67330,6,0,P|228:180|276:191,1,99.0000030212403,2|2,1:2|2:2,0:0:0:0:
139,342,67663,1,10,2:2:0:0:
88,108,67830,1,2,2:2:0:0:
215,263,67997,2,0,B|171:253|120:242|120:242|111:269|70:280,1,148.50000453186,2|0,1:2|0:0,0:0:0:0:
55,284,68330,1,10,2:2:0:0:
185,161,68497,2,0,P|233:173|281:184,1,99.0000030212403,2|0,2:2|1:1,0:0:0:0:
397,365,68830,5,2,2:2:0:0:
453,135,68997,2,0,P|447:167|441:206,1,49.5000015106202,10|0,2:2|0:0,0:0:0:0:
277,308,69163,2,0,B|331:298|331:298|342:288|356:275|356:275|415:266,1,148.50000453186,2|0,2:2|0:0,0:0:0:0:
450,264,69497,1,2,2:2:0:0:
314,114,69663,1,10,2:2:0:0:
185,161,69830,1,2,2:2:0:0:
179,369,69997,6,0,P|190:319|200:267,1,99.0000030212403,4|2,1:2|2:2,0:0:0:0:
231,85,70330,1,10,2:2:0:0:
0,121,70497,2,0,B|14:81|61:70|61:70|86:111|152:88,1,148.50000453186,2|0,2:2|0:0,0:0:0:0:
148,86,70830,1,2,2:2:0:0:
332,205,70997,2,0,P|307:210|283:213,1,49.5000015106202,10|0,2:2|0:0,0:0:0:0:
64,358,71163,6,0,B|1:289|53:230|53:230|68:263|114:278,1,198.000006042481,2|2,2:2|2:2,0:0:0:0:
305,288,71663,1,10,2:2:0:0:
172,368,71830,1,2,2:2:0:0:
197,165,71997,2,0,P|207:213|216:262,1,99.0000030212403,0|0,1:1|0:0,0:0:0:0:
378,365,72330,2,0,P|386:316|397:267,1,99.0000030212403,8|2,2:2|2:2,0:0:0:0:
496,66,72663,6,0,B|480:33|429:27|396:51|396:51|396:75|375:93,1,148.50000453186,2|0,1:2|0:0,0:0:0:0:
360,103,72997,1,10,2:2:0:0:
189,0,73163,1,2,2:2:0:0:
103,162,73330,1,2,1:2:0:0:
185,129,73497,1,2,0:0:0:0:
313,0,73663,2,0,P|307:24|303:48,1,49.5000015106202,10|0,2:2|0:0,0:0:0:0:
194,307,73830,6,0,P|189:282|184:258,1,49.5000015106202,4|0,1:2|0:0,0:0:0:0:
19,52,73997,2,0,B|73:42|73:42|84:32|98:19|98:19|157:10,1,148.50000453186,2|0,2:2|0:0,0:0:0:0:
189,0,74330,1,10,2:2:0:0:
303,147,74497,1,2,3:2:0:0:
303,147,74580,1,0,3:3:0:0:
303,147,74663,2,0,P|278:152|254:157,1,49.5000015106202,0|0,1:1|3:3,0:0:0:0:
68,160,74830,1,0,3:3:0:0:
86,146,74913,1,0,3:3:0:0:
116,141,74996,1,8,2:2:0:0:
145,150,75079,1,8,2:2:0:0:
167,171,75163,1,10,2:2:0:0:
169,209,75246,1,8,2:2:0:0:
149,235,75330,6,0,P|163:157|175:75,1,148.50000453186,4|0,1:2|0:0,0:0:0:0:
181,53,75663,1,10,2:2:0:0:
341,137,75830,2,0,P|295:177|252:171,1,99.0000030212403,2|0,2:2|1:1,0:0:0:0:
345,0,76163,2,0,P|395:19|452:40,1,99.0000030212403,2|8,2:2|2:2,0:0:0:0:
269,86,76497,1,2,2:2:0:0:
406,323,76663,5,2,1:2:0:0:
510,135,76830,1,2,2:2:0:0:
238,284,76997,2,0,P|262:279|286:276,1,49.5000015106202,10|0,2:2|0:0,0:0:0:0:
512,229,77163,2,0,B|419:204|419:204|401:235|343:217,1,148.50000453186,2|0,2:2|0:0,0:0:0:0:
342,215,77497,1,2,2:2:0:0:
175,97,77663,1,10,2:2:0:0:
258,33,77830,1,2,2:2:0:0:
238,284,77997,5,2,1:2:0:0:
50,128,78163,1,2,2:2:0:0:
341,36,78330,2,0,P|332:87|320:170,1,99.0000030212403,10|0,2:2|0:0,0:0:0:0:
111,219,78663,2,0,B|125:179|172:168|172:168|197:209|263:186,1,148.50000453186,2|0,1:2|0:0,0:0:0:0:
264,189,78997,1,10,2:2:0:0:
131,310,79163,1,2,2:2:0:0:
35,50,79330,5,2,1:2:0:0:
0,247,79497,1,2,0:0:0:0:
253,327,79663,2,0,P|248:302|245:279,1,49.5000015106202,10|0,2:2|0:0,0:0:0:0:
118,18,79830,2,0,B|128:72|128:72|138:83|151:97|151:97|160:156,1,148.50000453186,2|0,2:2|0:0,0:0:0:0:
166,187,80163,1,2,2:2:0:0:
204,27,80330,1,10,2:2:0:0:
256,117,80497,1,2,2:2:0:0:
501,6,80663,5,4,1:2:0:0:
402,250,80830,1,2,1:2:0:0:
301,28,80997,1,10,2:2:0:0:
507,146,81163,1,2,1:2:0:0:
371,368,81330,1,8,2:2:0:0:
196,180,81497,1,2,1:2:0:0:
196,180,81580,1,0,1:1:0:0:
196,180,81663,2,0,B|212:147|263:141|296:165|296:165|296:192|317:207,1,148.50000453186,8|0,2:2|0:0,0:0:0:0:
316,237,81997,6,0,P|291:239|266:242,1,49.5000015106202,8|0,2:2|0:0,0:0:0:0:
33,0,82163,2,0,P|59:4|84:7,1,49.5000015106202,10|0,2:2|0:0,0:0:0:0:
370,309,83330,6,0,B|249:243|128:251|128:251|186:294|183:347,1,362.249988945008,4|0,2:2|0:0,0:0:0:0:
180,364,85330,1,2,0:0:0:0:
65,138,85663,2,0,P|89:132|128:124,1,49.5000015106202,2|0,0:0|0:0,0:0:0:0:
