osu file format v14

[General]
AudioFilename: White_Promise.mp3
AudioLeadIn: 0
PreviewTime: 64434
Countdown: 0
SampleSet: Soft
StackLeniency: 0.7
Mode: 0
LetterboxInBreaks: 0
WidescreenStoryboard: 1

[Editor]
Bookmarks: 6018,32684,43351,54018
DistanceSpacing: 1
BeatDivisor: 2
GridSize: 32
TimelineZoom: 1.3

[Metadata]
Title:White Promise
TitleUnicode:White Promise
Artist:Nayugorou
ArtistUnicode:なゆごろう
Creator:Asuka_-
Version:Normal
Source:LOST:SMILE memories + promises
Tags:naotoshi nao tomori video game japanese ロストスマイルメモリーズ プロミセス LIFE0 opening short version visual novel
BeatmapID:2128504
BeatmapSetID:1015930

[Difficulty]
HPDrainRate:4
CircleSize:3.5
OverallDifficulty:4
ApproachRate:5
SliderMultiplier:1.1
SliderTickRate:1

[Events]
//Background and Video events
0,0,"BG.jpg",0,0
//Break Periods
2,22057,30157
//Storyboard Layer 0 (Background)
//Storyboard Layer 1 (Fail)
//Storyboard Layer 2 (Pass)
//Storyboard Layer 3 (Foreground)
//Storyboard Layer 4 (Overlay)
//Storyboard Sound Samples

[TimingPoints]
691,333.333333333333,4,2,1,50,1,0
6024,-111.111111111111,4,2,1,50,0,0
9690,-111.111111111111,4,2,1,60,0,0
10024,-111.111111111111,4,2,1,70,0,0
11357,-100,4,2,1,80,0,0
22024,-111.111111111111,4,2,1,40,0,0
31357,-111.111111111111,4,2,1,60,0,0
32690,-111.111111111111,4,2,1,70,0,0
40690,-111.111111111111,4,2,1,55,0,0
41357,-111.111111111111,4,2,1,75,0,0
41690,-111.111111111111,4,2,1,90,0,0
43357,-111.111111111111,4,2,1,75,0,0
54024,-111.111111111111,4,2,1,80,0,0
59524,-111.111111111111,4,2,1,65,0,0
61357,-111.111111111111,4,2,1,75,0,0
62024,-111.111111111111,4,2,1,85,0,0
64690,-111.111111111111,4,2,1,95,0,1
82024,-117.647058823529,4,2,1,60,0,0
82690,-117.647058823529,4,2,1,50,0,0
83357,-125,4,2,1,60,0,0

[Colours]
Combo1 : 249,81,0
Combo2 : 87,255,255
Combo3 : 0,122,244
Combo4 : 255,182,147

[HitObjects]
53,345,6024,6,0,L|50:237,1,98.9999969787599,0|0,3:0|3:0,0:0:0:0:
145,220,6690,2,0,L|149:338,1,98.9999969787599,0|2,3:0|0:1,0:0:0:0:
245,340,7357,2,0,L|240:232,1,98.9999969787599,0|0,3:0|3:0,0:0:0:0:
313,174,8024,1,2,3:1:0:0:
392,233,8357,1,2,0:1:0:0:
466,168,8690,6,0,B|481:131|481:131|458:49,1,98.9999969787599,4|4,3:0|3:0,0:0:0:0:
380,21,9357,1,0,3:0:0:0:
288,57,9690,1,4,3:0:0:0:
194,23,10024,1,0,3:0:0:0:
194,23,10190,2,0,L|183:132,1,98.9999969787599,8|8,0:0|0:0,0:0:0:0:
206,165,10690,2,0,P|164:143|113:154,1,98.9999969787599,10|2,0:0|0:0,0:0:0:0:
10,179,11357,6,0,L|26:49,1,110,6|8,3:0|0:0,0:0:0:0:
117,12,12024,2,0,P|169:42|230:25,1,110,2|8,3:0|0:0,0:0:0:0:
269,19,12524,1,2,0:0:0:0:
269,19,12690,2,0,B|337:5|337:5|383:30,1,110,2|10,3:0|0:0,0:0:0:0:
315,118,13357,1,2,3:0:0:0:
368,214,13690,1,8,0:0:0:0:
323,314,14024,6,0,L|193:302,1,110,2|8,3:0|0:0,0:0:0:0:
110,342,14690,2,0,B|45:327|45:327|30:267,1,110,2|10,3:0|0:0,0:0:0:0:
25,230,15190,1,2,0:0:0:0:
25,230,15357,2,0,L|14:109,1,110,2|8,3:0|0:0,0:0:0:0:
18,65,15857,2,0,P|75:77|137:41,1,110,2|2,0:0|0:0,0:0:0:0:
160,19,16357,1,8,0:0:0:0:
238,96,16690,6,0,L|223:215,1,110,6|8,3:0|0:0,0:0:0:0:
201,255,17190,2,0,P|252:249|306:295,1,110,2|2,0:0|0:0,0:0:0:0:
322,330,17690,1,10,0:0:0:0:
431,342,18024,2,0,B|470:301|470:301|451:234,1,110,2|8,3:0|0:0,0:0:0:0:
390,159,18690,1,2,3:0:0:0:
463,77,19024,1,8,0:0:0:0:
372,14,19357,6,0,L|259:25,1,110,6|8,3:0|0:0,0:0:0:0:
207,24,19857,2,0,B|229:68|229:68|213:141,2,110,2|2|2,3:0|0:0|0:0,0:0:0:0:
152,29,20690,1,0,3:0:0:0:
106,129,21024,1,8,0:0:0:0:
168,219,21357,1,8,0:0:0:0:
276,198,21690,1,8,0:0:0:0:
276,198,21857,1,8,0:0:0:0:
456,209,31357,6,0,L|464:93,1,98.9999969787599,2|0,3:0|0:0,0:0:0:0:
453,61,31857,2,0,P|408:37|343:62,1,98.9999969787599,8|8,0:3|0:3,0:0:0:0:
265,67,32524,1,0,3:0:0:0:
265,67,32690,6,0,B|228:39|228:39|155:50,1,98.9999969787599,6|0,0:0|0:0,0:0:0:0:
128,62,33190,2,0,P|107:96|135:169,1,98.9999969787599,2|2,0:0|0:1,0:0:0:0:
147,190,33690,1,0,3:1:0:0:
66,247,34024,1,0,3:0:0:0:
122,329,34357,2,0,L|13:355,2,98.9999969787599,2|2|0,3:0|0:1|3:0,0:0:0:0:
202,270,35357,5,2,3:0:0:0:
297,293,35690,1,2,0:0:0:0:
358,370,36024,2,0,L|472:357,1,98.9999969787599,2|0,3:1|3:0,0:0:0:0:
507,273,36690,1,2,3:0:0:0:
456,187,37024,1,0,3:0:0:0:
466,88,37357,6,0,P|446:88|409:101,1,49.4999984893799,2|2,3:0|0:0,0:0:0:0:
373,74,37690,2,0,P|348:100|343:126,1,49.4999984893799,2|2,3:1|0:0,0:0:0:0:
295,123,38024,2,0,L|325:231,1,98.9999969787599,2|2,3:0|3:0,0:0:0:0:
336,316,38690,6,0,P|305:315|275:302,1,49.4999984893799,2|2,3:0|0:1,0:0:0:0:
241,328,39024,2,0,P|217:319|197:296,1,49.4999984893799,2|0,3:0|0:0,0:0:0:0:
152,290,39357,2,0,L|168:164,1,98.9999969787599,2|2,3:0|3:0,0:0:0:0:
146,94,40024,1,2,3:1:0:0:
70,157,40357,1,2,3:0:0:0:
8,79,40690,6,0,B|25:39|25:39|86:12,2,98.9999969787599,6|6|4,3:0|3:0|3:0,0:0:0:0:
70,157,41690,1,4,3:0:0:0:
15,239,42024,1,6,3:0:0:0:
59,327,42357,2,0,P|100:295|173:315,1,98.9999969787599,12|8,0:0|0:0,0:0:0:0:
182,328,42857,1,8,0:3:0:0:
182,328,43024,1,8,0:3:0:0:
248,254,43357,5,6,3:0:0:0:
248,254,43524,2,0,L|258:135,1,98.9999969787599,2|0,0:0|0:0,0:0:0:0:
222,119,44024,1,8,0:0:0:0:
124,135,44357,1,2,0:0:0:0:
124,135,44524,2,0,L|110:255,1,98.9999969787599,2|8,3:0|0:0,0:0:0:0:
81,271,45024,1,0,3:0:0:0:
128,357,45357,2,0,B|179:340|179:340|229:356,1,98.9999969787599,8|0,0:0|3:0,0:0:0:0:
321,353,46024,6,0,P|349:325|353:250,2,98.9999969787599,0|0|8,3:0|0:0|0:0,0:0:0:0:
264,271,47024,1,2,0:1:0:0:
264,271,47190,2,0,L|261:114,1,148.49999546814,8|0,0:3|3:0,0:0:0:0:
307,34,48024,2,0,B|345:54|345:54|400:44,1,98.9999969787599,8|0,0:0|0:0,0:0:0:0:
448,33,48524,1,0,3:0:0:0:
448,33,48690,6,0,L|454:155,1,98.9999969787599,6|0,0:0|0:0,0:0:0:0:
507,214,49357,2,0,P|461:231|399:208,1,98.9999969787599,8|0,0:0|0:0,0:0:0:0:
375,188,49857,2,0,P|320:175|268:216,1,98.9999969787599,2|8,0:0|0:0,0:0:0:0:
238,281,50524,2,0,B|182:281|182:281|126:254,1,98.9999969787599,2|0,0:0|0:0,0:0:0:0:
109,225,51024,1,2,3:0:0:0:
22,273,51357,6,0,L|31:385,2,98.9999969787599,6|2|10,3:0|0:1|0:0,0:0:0:0:
109,225,52357,1,2,0:1:0:0:
50,145,52690,1,0,3:0:0:0:
93,56,53024,2,0,P|139:82|203:55,1,98.9999969787599,8|8,3:0|0:0,0:0:0:0:
219,41,53524,1,8,0:3:0:0:
219,41,53690,1,8,0:0:0:0:
305,90,54024,5,14,0:0:0:0:
305,90,54190,2,0,L|289:262,1,148.49999546814,2|2,0:0|3:0,0:0:0:0:
288,337,55024,2,0,P|315:337|342:320,1,49.4999984893799,10|8,0:0|0:0,0:0:0:0:
381,343,55357,2,0,B|407:307|407:307|414:224,1,98.9999969787599,10|2,0:0|2:0,0:0:0:0:
479,180,56024,1,2,3:0:0:0:
407,111,56357,2,0,P|375:113|343:126,1,49.4999984893799,8|8,0:0|0:0,0:0:0:0:
316,91,56690,6,0,B|288:116|288:116|283:194,1,98.9999969787599,10|2,0:0|3:1,0:0:0:0:
239,266,57357,1,2,3:0:0:0:
168,334,57690,2,0,P|137:328|103:304,1,49.4999984893799,2|8,3:0|0:0,0:0:0:0:
87,282,58024,1,2,0:0:0:0:
141,199,58357,1,8,0:0:0:0:
59,143,58690,2,0,L|68:30,1,98.9999969787599,2|8,3:0|0:3,0:0:0:0:
165,55,59357,6,0,B|227:60|227:60|274:25,1,98.9999969787599,8|12,0:0|0:0,0:0:0:0:
303,23,59857,2,0,L|292:134,1,98.9999969787599,8|12,0:0|0:0,0:0:0:0:
305,169,60357,2,0,B|356:149|356:149|428:160,1,98.9999969787599,8|12,0:0|0:0,0:0:0:0:
448,145,60857,2,0,L|433:275,1,98.9999969787599,8|14,0:0|0:0,0:0:0:0:
465,283,61357,1,10,0:0:0:0:
392,350,61690,1,12,0:0:0:0:
315,286,62024,6,0,P|272:270|199:309,1,98.9999969787599,12|0,0:0|3:0,0:0:0:0:
141,341,62690,1,8,0:0:0:0:
95,252,63024,1,8,0:0:0:0:
116,155,63357,2,0,L|54:147,2,49.4999984893799,8|0|8,0:0|3:0|0:0,0:0:0:0:
145,115,63857,1,12,0:0:0:0:
472,55,64690,6,0,L|479:168,1,98.9999969787599,6|8,3:0|0:0,0:0:0:0:
482,203,65190,2,0,P|434:188|375:215,1,98.9999969787599,2|2,0:0|0:0,0:0:0:0:
333,284,65857,1,2,0:0:0:0:
333,284,66024,2,0,B|288:302|288:302|216:282,1,98.9999969787599,2|8,3:0|0:0,0:0:0:0:
197,262,66524,2,0,L|207:150,1,98.9999969787599,2|0,0:0|0:0,0:0:0:0:
177,68,67190,1,2,0:0:0:0:
177,68,67357,6,0,P|131:48|70:67,1,98.9999969787599,2|8,3:0|0:0,0:0:0:0:
40,80,67857,1,2,0:0:0:0:
40,80,68024,2,0,L|29:190,1,98.9999969787599,2|8,3:0|0:0,0:0:0:0:
49,224,68524,2,0,P|91:242|145:229,1,98.9999969787599,2|2,0:0|0:0,0:0:0:0:
182,203,69024,1,8,0:0:0:0:
182,203,69190,1,2,0:0:0:0:
279,220,69524,6,0,L|285:147,2,49.4999984893799,2|8|2,0:0|0:0|0:0,0:0:0:0:
373,249,70190,2,0,L|366:317,2,49.4999984893799,2|8|2,0:0|0:0|0:0,0:0:0:0:
461,206,70857,2,0,L|466:137,1,49.4999984893799,2|8,0:0|0:0,0:0:0:0:
484,112,71190,2,0,B|484:68|484:68|460:44|435:43,1,98.9999969787599,2|2,0:0|0:0,0:0:0:0:
386,47,71690,1,8,0:0:0:0:
386,47,71857,2,0,P|340:75|290:60,1,98.9999969787599,2|0,0:0|0:0,0:0:0:0:
203,36,72524,1,2,0:0:0:0:
203,36,72690,6,0,L|87:25,2,98.9999969787599,2|8|2,3:0|0:0|3:0,0:0:0:0:
237,128,73690,1,10,0:0:0:0:
237,128,73857,2,0,B|249:167|249:167|234:239,1,98.9999969787599,6|0,3:2|0:0,0:0:0:0:
208,264,74357,1,10,0:0:0:0:
208,264,74524,2,0,P|153:276|102:241,1,98.9999969787599,10|8,0:0|3:0,0:0:0:0:
77,227,75024,1,8,0:0:0:0:
43,133,75357,6,0,L|149:126,1,98.9999969787599,6|8,3:0|0:0,0:0:0:0:
188,142,75857,2,0,P|168:85|200:19,1,98.9999969787599,2|2,0:0|0:0,0:0:0:0:
272,25,76524,1,2,0:0:0:0:
272,25,76690,2,0,B|313:11|313:11|387:31,1,98.9999969787599,2|8,3:0|0:0,0:0:0:0:
410,48,77190,2,0,L|404:115,1,49.4999984893799,2|0,0:0|0:0,0:0:0:0:
421,144,77524,1,2,0:0:0:0:
421,144,77690,2,0,L|414:201,1,49.4999984893799,10|2,0:0|0:0,0:0:0:0:
406,241,78024,6,0,P|460:229|505:255,2,98.9999969787599,2|10|2,3:0|0:0|3:0,0:0:0:0:
333,308,79024,1,8,0:0:0:0:
234,302,79357,2,0,L|246:186,1,98.9999969787599,2|8,3:0|0:0,0:0:0:0:
273,163,79857,1,2,0:0:0:0:
195,101,80190,6,0,L|249:73,2,49.4999984893799,2|10|2,0:0|0:0|0:0,0:0:0:0:
99,127,80857,2,0,L|71:64,2,49.4999984893799,2|10|2,0:0|0:0|0:0,0:0:0:0:
143,215,81524,2,0,L|80:242,1,49.4999984893799,2|8,3:0|0:0,0:0:0:0:
53,257,81857,1,2,0:0:0:0:
53,257,82024,6,0,B|20:289|26:336|26:336|77:353|77:353|105:334|155:337,1,187.000003566742,14|2,0:0|0:0,0:0:0:0:
209,367,83024,1,2,0:0:0:0:
256,192,83357,12,2,85690,0:0:0:0:
