osu file format v14

[General]
AudioFilename: White_Promise.mp3
AudioLeadIn: 0
PreviewTime: 64434
Countdown: 0
SampleSet: Soft
StackLeniency: 0.7
Mode: 0
LetterboxInBreaks: 0
WidescreenStoryboard: 1

[Editor]
DistanceSpacing: 0.6
BeatDivisor: 4
GridSize: 16
TimelineZoom: 1.3

[Metadata]
Title:White Promise
TitleUnicode:White Promise
Artist:Nayugorou
ArtistUnicode:なゆごろう
Creator:Asuka_-
Version:Nao's Hard
Source:LOST:SMILE memories + promises
Tags:naotoshi nao tomori video game japanese ロストスマイルメモリーズ プロミセス LIFE0 opening short version visual novel
BeatmapID:2128503
BeatmapSetID:1015930

[Difficulty]
HPDrainRate:5
CircleSize:3.8
OverallDifficulty:6.5
ApproachRate:7.8
SliderMultiplier:1.4
SliderTickRate:1

[Events]
//Background and Video events
0,0,"BG.jpg",0,0
//Break Periods
2,22057,30526
//Storyboard Layer 0 (Background)
//Storyboard Layer 1 (Fail)
//Storyboard Layer 2 (Pass)
//Storyboard Layer 3 (Foreground)
//Storyboard Layer 4 (Overlay)
//Storyboard Sound Samples

[TimingPoints]
691,333.333333333333,4,2,1,50,1,0
6024,-100,4,2,1,50,0,0
9690,-100,4,2,1,60,0,0
10024,-100,4,2,1,70,0,0
11357,-100,4,2,1,80,0,0
22024,-100,4,2,1,40,0,0
31357,-133.333333333333,4,2,1,60,0,0
32690,-114.285714285714,4,2,1,70,0,0
40690,-100,4,2,1,55,0,0
41357,-100,4,2,1,75,0,0
41690,-100,4,2,1,90,0,0
43357,-133.333333333333,4,2,1,75,0,0
44024,-133.333333333333,4,2,1,75,0,0
48024,-133.333333333333,4,2,1,75,0,0
48690,-133.333333333333,4,2,1,75,0,0
49357,-133.333333333333,4,2,1,75,0,0
54024,-114.285714285714,4,2,1,80,0,0
59524,-100,4,2,1,65,0,0
61357,-100,4,2,1,75,0,0
62024,-100,4,2,1,85,0,0
64690,-86.9565217391304,4,2,1,95,0,1
82024,-100,4,2,1,80,0,0
83357,-200,4,2,1,60,0,0

[Colours]
Combo1 : 249,81,0
Combo2 : 87,255,255
Combo3 : 0,122,244
Combo4 : 255,182,147

[HitObjects]
42,180,5190,6,0,B|120:172|92:219|201:219,1,140,2|2,3:2|0:0,0:0:0:0:
193,214,5607,1,2,0:0:0:0:
193,214,5690,2,0,P|203:174|201:125,1,70,6|0,0:0|0:0,0:0:0:0:
292,74,6024,6,0,P|298:130|324:243,1,140,2|0,3:0|3:0,0:0:0:0:
404,275,6524,2,0,P|418:207|427:138,1,140,2|2,0:0|0:0,0:0:0:0:
429,116,6940,1,2,0:1:0:0:
429,116,7024,2,0,P|429:72|426:39,1,70,2|2,0:1|0:1,0:0:0:0:
332,78,7357,5,2,3:0:0:0:
332,78,7524,2,0,B|289:70|252:90|252:90|223:63|189:63,1,140,2|0,0:0|0:0,0:0:0:0:
109,141,8024,2,0,P|166:148|202:140,1,70,2|2,3:1|0:1,0:0:0:0:
67,70,8357,2,0,P|32:115|21:151,1,70,2|0,0:1|0:0,0:0:0:0:
82,271,8690,6,0,P|180:259|238:251,1,140,6|4,3:0|3:0,0:0:0:0:
305,318,9190,2,0,P|365:342|441:316,1,140,2|0,0:0|0:0,0:0:0:0:
383,186,9690,2,0,P|373:233|373:272,1,70,6|0,3:0|0:0,0:0:0:0:
464,134,10024,5,0,3:0:0:0:
370,87,10190,1,8,0:0:0:0:
370,87,10274,1,8,0:0:0:0:
370,87,10357,2,0,L|309:103,3,35,8|8|8|8,0:0|0:0|0:0|0:0,0:0:0:0:
304,107,10690,5,10,0:0:0:0:
287,122,11357,6,0,B|232:114|232:114|196:125|196:125|118:118,1,140,6|8,3:0|0:0,0:0:0:0:
73,61,11857,1,0,0:0:0:0:
11,131,12024,2,0,P|2:174|0:212,2,70,2|0|8,3:0|0:0|0:0,0:0:0:0:
73,47,12524,1,2,0:0:0:0:
169,122,12690,6,0,P|233:125|260:130,1,70,2|0,3:0|0:0,0:0:0:0:
394,73,13024,2,0,P|330:70|303:65,1,70,10|0,0:0|0:0,0:0:0:0:
330,234,13357,6,0,P|330:199|333:164,1,70,2|0,3:0|0:0,0:0:0:0:
427,201,13690,2,0,P|426:235|423:270,1,70,8|0,0:0|0:0,0:0:0:0:
343,352,14024,6,0,P|277:337|207:381,2,140,2|8|2,3:0|0:0|3:0,0:0:0:0:
436,303,14857,1,2,0:0:0:0:
356,247,15024,1,10,0:0:0:0:
435,199,15190,1,2,0:0:0:0:
352,134,15357,6,0,B|308:148|308:148|260:125|204:145,1,140,2|8,3:0|0:0,0:0:0:0:
135,232,15857,2,0,B|248:229|248:229|217:260,1,140,2|2,0:0|0:0,0:0:0:0:
68,293,16357,2,0,P|44:243|45:213,1,70,8|0,0:0|0:0,0:0:0:0:
151,92,16690,6,0,L|133:242,1,140,6|8,3:0|0:0,0:0:0:0:
224,309,17190,2,0,L|240:169,1,140,2|2,0:0|0:0,0:0:0:0:
318,114,17690,1,10,0:0:0:0:
402,164,17857,1,2,0:0:0:0:
491,119,18024,6,0,P|505:67|501:39,1,70,2|0,3:0|0:0,0:0:0:0:
423,0,18357,2,0,P|409:52|413:80,1,70,8|0,0:0|0:0,0:0:0:0:
318,114,18690,6,0,L|240:99,1,70,2|0,3:0|0:0,0:0:0:0:
239,199,19024,2,0,L|161:184,1,70,8|0,0:0|0:0,0:0:0:0:
22,274,19357,6,0,B|72:282|72:282|111:279|111:279|162:290,1,140,6|8,3:0|0:0,0:0:0:0:
262,350,19857,2,0,P|320:334|349:335,1,70,2|0,3:0|3:0,0:0:0:0:
451,262,20190,2,0,P|416:258|384:246,1,70,2|8,0:0|0:0,0:0:0:0:
325,158,20524,1,2,0:0:0:0:
165,207,20690,6,0,L|244:218,1,70,0|8,3:0|0:3,0:0:0:0:
116,116,21024,2,0,L|66:178,1,70,8|0,0:0|3:0,0:0:0:0:
219,119,21357,2,0,L|189:45,1,70,8|0,0:0|3:0,0:0:0:0:
169,211,21690,5,8,0:0:0:0:
169,211,21857,1,8,0:0:0:0:
56,222,31357,6,0,P|91:210|160:241,1,105.000004005432,2|0,3:0|0:0,0:0:0:0:
248,185,31857,2,0,L|261:71,1,105.000004005432,8|8,0:3|0:3,0:0:0:0:
327,238,32357,2,0,P|361:227|400:221,1,52.5000020027161,0|0,3:0|3:0,0:0:0:0:
402,230,32607,1,0,3:0:0:0:
402,230,32690,6,0,P|412:194|401:92,1,122.500001168251,6|0,0:0|0:0,0:0:0:0:
306,25,33190,2,0,P|296:61|307:163,1,122.500001168251,2|2,0:0|0:1,0:0:0:0:
287,163,33607,1,2,0:1:0:0:
287,163,33690,2,0,P|244:170|213:180,1,61.2500005841255,0|2,3:1|0:1,0:0:0:0:
142,254,34024,6,0,P|96:261|13:243,2,122.500001168251,0|2|2,3:0|3:0|0:1,0:0:0:0:
227,313,34857,1,2,0:1:0:0:
311,252,35024,2,0,P|317:210|317:183,1,61.2500005841255,2|0,3:0|0:0,0:0:0:0:
260,99,35357,5,2,3:0:0:0:
339,165,35524,1,2,0:0:0:0:
432,130,35690,2,0,P|473:127|510:127,1,61.2500005841255,2|0,0:0|0:0,0:0:0:0:
357,61,36024,5,2,3:1:0:0:
266,108,36190,1,2,0:1:0:0:
266,108,36274,1,2,0:1:0:0:
266,108,36357,2,0,P|225:105|188:105,1,61.2500005841255,0|2,3:0|0:1,0:0:0:0:
111,172,36690,6,0,P|102:134|101:40,2,122.500001168251,2|0|2,3:0|3:0|3:0,0:0:0:0:
176,248,37524,1,2,0:0:0:0:
106,327,37690,2,0,P|59:327|27:325,1,61.2500005841255,2|2,3:1|0:0,0:0:0:0:
202,257,38024,6,0,P|249:257|281:259,1,61.2500005841255,2|2,3:0|0:0,0:0:0:0:
410,311,38357,2,0,P|379:312|349:312,1,61.2500005841255,2|0,3:0|0:0,0:0:0:0:
497,361,38690,5,2,3:0:0:0:
502,269,38857,1,2,0:1:0:0:
502,269,38940,1,2,0:1:0:0:
502,269,39024,2,0,P|504:216|502:193,1,61.2500005841255,2|0,3:0|0:0,0:0:0:0:
438,131,39357,6,0,P|431:90|428:59,1,61.2500005841255,2|2,3:0|0:0,0:0:0:0:
338,107,39690,2,0,P|334:137|329:168,1,61.2500005841255,2|2,3:0|0:0,0:0:0:0:
247,219,40024,1,2,3:1:0:0:
164,182,40190,1,2,0:1:0:0:
250,249,40357,2,0,L|258:314,1,61.2500005841255,2|0,3:0|0:0,0:0:0:0:
357,352,40690,6,0,P|422:329|491:339,2,140,6|6|4,3:0|3:0|3:0,0:0:0:0:
262,317,41524,1,0,0:0:0:0:
176,376,41690,2,0,P|127:368|104:368,1,70,4|0,3:0|0:0,0:0:0:0:
20,292,42024,6,0,P|12:256|11:219,1,70,6|0,3:0|3:0,0:0:0:0:
65,132,42357,1,14,0:0:0:0:
161,191,42524,1,0,3:0:0:0:
161,191,42607,1,8,0:0:0:0:
161,191,42690,2,0,P|204:195|237:189,1,70,10|8,0:0|0:3,0:0:0:0:
327,139,43024,2,0,P|370:135|403:141,1,70,8|0,0:3|3:0,0:0:0:0:
491,192,43357,5,6,3:0:0:0:
491,192,43524,2,0,P|496:130|516:35,1,157.500006008148,2|8,0:0|0:0,0:0:0:0:
384,106,44357,1,2,0:0:0:0:
242,47,44690,1,2,0:0:0:0:
242,47,44857,2,0,P|236:108|228:162,1,105.000004005432,8|0,0:0|0:0,0:0:0:0:
157,211,45357,2,0,P|116:201|42:219,1,105.000004005432,8|0,0:0|3:0,0:0:0:0:
1,285,45857,1,8,0:0:0:0:
98,336,46024,6,0,L|273:316,1,157.500006008148,0|0,3:0|0:0,0:0:0:0:
351,354,46690,2,0,P|389:343|469:354,1,105.000004005432,8|2,0:0|0:1,0:0:0:0:
504,272,47190,1,8,0:3:0:0:
504,272,47357,2,0,P|508:227|504:201,1,52.5000020027161,8|8,3:0|0:3,0:0:0:0:
442,147,47690,2,0,P|436:113|438:78,1,52.5000020027161,0|8,3:0|0:3,0:0:0:0:
500,39,48024,5,8,0:0:0:0:
500,39,48190,2,0,P|449:48|402:25,1,105.000004005432,0|0,3:0|3:0,0:0:0:0:
293,77,48690,6,0,L|179:99,2,105.000004005432,6|0|8,0:0|0:0|0:0,0:0:0:0:
432,147,49690,1,0,0:0:0:0:
327,258,50024,1,2,0:1:0:0:
327,258,50190,2,0,P|314:232|311:142,1,105.000004005432,8|0,0:0|0:0,0:0:0:0:
210,206,50690,2,0,P|223:232|226:322,1,105.000004005432,8|2,0:0|3:0,0:0:0:0:
162,362,51190,1,2,3:0:0:0:
87,314,51357,6,0,L|26:308,1,52.5000020027161,4|0,3:0|0:0,0:0:0:0:
68,221,51690,2,0,L|7:215,1,52.5000020027161,2|0,0:1|0:0,0:0:0:0:
129,149,52024,2,0,P|159:187|151:262,1,105.000004005432,8|2,0:0|0:1,0:0:0:0:
231,323,52524,6,0,B|284:310|282:344|347:329,1,105.000004005432,8|8,0:3|0:3,0:0:0:0:
422,285,53024,2,0,L|429:226,1,52.5000020027161,8|0,3:0|3:0,0:0:0:0:
352,179,53357,2,0,L|338:116,1,52.5000020027161,8|8,0:0|0:3,0:0:0:0:
404,56,53690,1,8,0:0:0:0:
404,56,53774,1,8,0:0:0:0:
404,56,53857,1,8,0:0:0:0:
297,17,54024,6,0,P|250:36|163:23,2,122.500001168251,14|2|2,0:0|3:0|3:0,0:0:0:0:
107,91,55024,1,8,0:0:0:0:
107,91,55107,1,8,0:0:0:0:
107,91,55190,1,8,0:0:0:0:
107,91,55274,1,8,0:0:0:0:
107,91,55357,6,0,P|93:137|112:233,1,122.500001168251,10|0,0:0|2:0,0:0:0:0:
278,317,56024,2,0,P|292:271|297:242,1,61.2500005841255,2|0,3:0|0:0,0:0:0:0:
283,146,56357,2,8,L|269:96,3,30.6250002920628
304,172,56690,6,0,L|440:154,2,122.500001168251,10|2|2,0:0|3:1|3:0,0:0:0:0:
231,106,57524,2,0,B|219:77|219:77|223:42,1,61.2500005841255,8|2,0:0|3:0,0:0:0:0:
207,198,57857,2,0,P|181:221|89:219,1,122.500001168251,8|0,0:0|0:0,0:0:0:0:
134,146,58357,1,8,0:0:0:0:
249,280,58524,6,0,L|380:257,1,122.500001168251,10|8,0:0|0:3,0:0:0:0:
491,191,59024,2,0,L|431:184,1,61.2500005841255,8|10,0:3|3:0,0:0:0:0:
411,170,59274,1,0,3:0:0:0:
411,170,59357,6,0,P|396:123|400:94,1,61.2500005841255,6|8,3:2|0:0,0:0:0:0:
449,30,59690,1,8,0:0:0:0:
449,30,59774,1,8,0:0:0:0:
449,30,59857,1,12,0:0:0:0:
344,32,60024,2,0,L|294:20,4,35,8|8|8|8|12,0:0|0:0|0:0|0:0|0:0,0:0:0:0:
265,109,60524,2,0,L|215:97,4,35,8|8|8|8|12,0:0|0:0|0:0|0:0|0:0,0:0:0:0:
206,189,61024,2,0,L|156:177,4,35,8|8|8|8|14,0:0|0:0|0:0|0:0|0:0,0:0:0:0:
267,265,61524,5,10,0:0:0:0:
267,265,61607,1,8,0:0:0:0:
267,265,61690,1,12,0:0:0:0:
205,350,61857,1,10,0:0:0:0:
205,350,61940,1,8,0:0:0:0:
205,350,62024,6,0,B|134:339|134:339|67:373,1,140,12|0,0:0|3:0,0:0:0:0:
2,308,62524,1,0,3:0:0:0:
60,233,62690,2,0,P|68:190|65:154,1,70,8|0,0:0|3:0,0:0:0:0:
10,93,63024,2,0,P|43:121|75:136,1,70,8|0,0:0|3:0,0:0:0:0:
180,110,63357,1,8,0:0:0:0:
187,104,63440,1,8,3:0:0:0:
194,99,63524,1,0,3:0:0:0:
201,94,63607,1,0,3:0:0:0:
208,89,63690,1,8,0:0:0:0:
308,121,63857,5,12,0:0:0:0:
323,134,64690,6,0,B|396:113|407:180|496:142,1,161.000003070831,6|8,3:0|0:0,0:0:0:0:
349,219,65190,2,0,P|296:217|260:206,1,80.5000015354157,2|0,0:0|3:0,0:0:0:0:
161,318,65524,2,0,P|200:309|241:309,1,80.5000015354157,2|8,0:0|0:0,0:0:0:0:
88,371,65857,1,2,0:0:0:0:
77,275,66024,6,0,L|83:190,1,80.5000015354157,2|2,3:0|0:0,0:0:0:0:
50,101,66357,1,8,0:0:0:0:
176,183,66524,2,0,P|235:197|325:149,1,161.000003070831,2|0,0:0|0:0,0:0:0:0:
320,39,67024,2,0,P|307:85|307:136,1,80.5000015354157,8|2,0:0|0:0,0:0:0:0:
418,230,67357,5,2,3:0:0:0:
418,230,67524,1,2,0:0:0:0:
498,163,67690,2,0,P|511:117|511:66,1,80.5000015354157,8|2,0:0|0:0,0:0:0:0:
413,102,68024,2,0,L|376:270,1,161.000003070831,2|8,3:0|0:0,0:0:0:0:
278,306,68524,6,0,B|223:289|223:289|182:332|114:316,1,161.000003070831,2|2,0:0|0:0,0:0:0:0:
58,236,69024,1,8,0:0:0:0:
146,150,69190,2,0,L|154:249,1,80.5000015354157,2|0,0:0|3:0,0:0:0:0:
72,85,69524,5,2,0:0:0:0:
72,85,69690,1,8,0:0:0:0:
161,141,69857,2,0,P|211:150|266:136,1,80.5000015354157,2|0,0:0|3:2,0:0:0:0:
371,54,70190,5,2,0:0:0:0:
371,54,70357,1,8,0:0:0:0:
456,120,70524,2,0,L|475:209,1,80.5000015354157,2|0,0:0|3:0,0:0:0:0:
407,314,70857,5,2,0:0:0:0:
407,314,71024,1,8,0:0:0:0:
309,259,71190,2,0,B|211:255|262:312|149:309,1,161.000003070831,2|2,0:0|0:0,0:0:0:0:
79,263,71690,1,8,0:0:0:0:
129,179,71857,2,0,B|157:124|138:52|138:52|107:107,1,161.000003070831,2|0,0:0|0:0,0:0:0:0:
224,158,72357,2,0,P|284:159|322:143,1,80.5000015354157,8|2,0:0|0:0,0:0:0:0:
384,76,72690,5,2,3:0:0:0:
384,76,72857,1,2,0:0:0:0:
300,23,73024,2,0,L|202:18,1,80.5000015354157,8|2,0:0|0:0,0:0:0:0:
144,83,73357,2,0,P|97:96|48:83,1,80.5000015354157,2|0,3:0|3:0,0:0:0:0:
94,8,73690,1,8,0:0:0:0:
174,163,73857,6,0,B|194:241|194:241|171:336,1,161.000003070831,6|0,3:2|0:0,0:0:0:0:
93,368,74357,1,8,0:0:0:0:
14,325,74524,1,8,0:0:0:0:
14,325,74607,1,0,3:0:0:0:
14,325,74690,2,0,P|4:279|6:219,1,80.5000015354157,8|8,2:3|3:0,0:0:0:0:
70,168,75024,2,0,L|78:112,3,40.2500007677078,8|8|8|8,0:0|0:0|0:0|0:0,0:0:0:0:
60,90,75357,6,0,B|126:116|126:116|219:97,1,161.000003070831,6|8,3:0|0:0,0:0:0:0:
307,149,75857,2,0,P|322:191|325:247,1,80.5000015354157,2|0,0:0|3:0,0:0:0:0:
410,127,76190,2,0,P|416:87|430:50,1,80.5000015354157,2|8,0:0|0:0,0:0:0:0:
507,114,76524,1,2,0:0:0:0:
403,29,76690,6,0,P|339:23|311:22,1,80.5000015354157,2|2,3:0|0:0,0:0:0:0:
244,88,77024,1,8,0:0:0:0:
147,33,77190,2,0,B|105:76|105:76|135:196,1,161.000003070831,2|2,0:0|0:0,0:0:0:0:
162,275,77690,1,10,0:0:0:0:
98,340,77857,1,2,0:0:0:0:
197,269,78024,6,0,P|250:274|291:282,1,80.5000015354157,2|2,3:0|0:0,0:0:0:0:
123,355,78357,2,0,P|70:369|4:293,2,161.000003070831,10|2|8,0:0|3:0|0:0,0:0:0:0:
191,222,79190,5,2,0:0:0:0:
104,124,79357,2,0,P|62:118|-1:120,1,80.5000015354157,2|2,3:0|0:0,0:0:0:0:
171,45,79690,1,8,0:0:0:0:
171,45,79857,2,0,P|213:51|276:49,1,80.5000015354157,2|0,0:0|3:0,0:0:0:0:
359,19,80190,1,2,0:0:0:0:
449,71,80357,2,0,P|458:123|457:171,1,80.5000015354157,10|2,0:0|3:0,0:0:0:0:
369,229,80690,6,0,B|330:221|330:221|269:238,1,80.5000015354157,4|2,3:0|0:0,0:0:0:0:
204,331,81024,2,0,B|243:339|243:339|304:322,1,80.5000015354157,10|2,0:0|0:0,0:0:0:0:
120,265,81357,2,0,L|103:355,1,80.5000015354157,8|2,0:0|3:0,0:0:0:0:
100,365,81607,1,0,3:0:0:0:
100,365,81690,2,0,P|48:356|5:370,1,80.5000015354157,8|2,0:0|0:0,0:0:0:0:
216,335,82024,5,14,0:0:0:0:
216,335,82190,1,10,0:0:0:0:
265,337,83357,6,0,P|316:328|371:348,4,105,6|2|2|2|2,0:0|0:0|0:0|0:0|0:0,0:0:0:0:
168,384,85690,5,2,0:0:0:0:
