osu file format v14

[General]
AudioFilename: audio.mp3
AudioLeadIn: 0
PreviewTime: 64413
Countdown: 0
SampleSet: Normal
StackLeniency: 0.7
Mode: 1
LetterboxInBreaks: 0
WidescreenStoryboard: 1

[Editor]
Bookmarks: 5997,11330,16663,21997,32663,43330,53997,59330,68830
DistanceSpacing: 0.7
BeatDivisor: 4
GridSize: 16
TimelineZoom: 2.4

[Metadata]
Title:White Promise
TitleUnicode:White Promise
Artist:Nayugorou
ArtistUnicode:なゆごろう
Creator:[-E S I A-]
Version:Kantan
Source:LOST:SMILE memories + promises
Tags:ロストスマイルメモリーズ プロミセス ロッスマ Rossuma life0 opening op short version visual novel vn galge galgame pop jpop j-pop video game japanese E_S_I_A [-E_S_I_A-] ESIA [-ESIA-]
BeatmapID:3630310
BeatmapSetID:1768913

[Difficulty]
HPDrainRate:8
CircleSize:2
OverallDifficulty:3
ApproachRate:10
SliderMultiplier:1.4
SliderTickRate:1

[Events]
//Background and Video events
0,0,"bgkantan.jpg",0,50
//Break Periods
//Storyboard Layer 0 (Background)
//Storyboard Layer 1 (Fail)
//Storyboard Layer 2 (Pass)
//Storyboard Layer 3 (Foreground)
//Storyboard Layer 4 (Overlay)
//Storyboard Sound Samples

[TimingPoints]
664,333.333333333333,4,1,0,55,1,0
664,-100,4,1,0,55,0,0
5977,-100,4,1,0,65,0,0
11163,-100,4,1,0,85,0,0
20913,-100,4,1,0,75,0,0
32330,-100,4,1,0,70,0,0
40497,-100,4,1,0,75,0,0
43247,-100,4,1,0,70,0,0
53913,-100,4,1,0,60,0,0
59247,-100,4,1,0,70,0,0
64643,-100,4,1,0,85,0,0
64663,-100,4,1,0,85,0,1
74976,-100,4,1,0,75,0,1
74997,-100,4,1,0,75,0,0
75309,-100,4,1,0,85,0,0
75330,-100,4,1,0,85,0,1
81976,-100,4,1,0,75,0,1
82163,-100,4,1,0,75,0,0

[HitObjects]
336,113,664,5,8,0:0:0:0:
382,128,1330,1,8,0:0:0:0:
382,128,1997,1,0,0:0:0:0:
220,125,3330,1,0,0:0:0:0:
78,84,3997,1,8,0:0:0:0:
173,194,4663,1,0,0:0:0:0:
256,143,5330,1,8,0:0:0:0:
278,133,5663,1,8,0:0:0:0:
302,127,5997,1,4,0:0:0:0:
385,304,6663,1,8,0:0:0:0:
314,106,7330,1,0,0:0:0:0:
314,106,7997,1,8,0:0:0:0:
307,203,8330,1,0,0:0:0:0:
362,98,8663,1,8,0:0:0:0:
362,98,9330,1,0,0:0:0:0:
271,51,9997,1,0,0:0:0:0:
271,51,10330,1,8,0:0:0:0:
271,51,10663,1,0,0:0:0:0:
227,242,11330,1,12,0:0:0:0:
279,158,12663,1,8,0:0:0:0:
348,185,13330,1,0,0:0:0:0:
295,184,13663,1,0,0:0:0:0:
255,158,13997,1,8,0:0:0:0:
192,232,14663,1,8,0:0:0:0:
192,232,14997,1,0,0:0:0:0:
192,232,15330,1,8,0:0:0:0:
153,168,15830,1,0,0:0:0:0:
273,83,16330,1,0,0:0:0:0:
265,145,16663,1,12,0:0:0:0:
284,184,17663,1,0,0:0:0:0:
183,160,17997,1,8,0:0:0:0:
280,150,18330,1,8,0:0:0:0:
214,132,18663,1,0,0:0:0:0:
258,150,19330,1,12,0:0:0:0:
330,323,19997,1,8,0:0:0:0:
265,145,20663,1,0,0:0:0:0:
265,145,20997,1,0,0:0:0:0:
302,329,21330,1,0,0:0:0:0:
317,150,21663,1,8,0:0:0:0:
317,150,21997,1,0,0:0:0:0:
368,272,23330,1,0,0:0:0:0:
368,272,23997,1,0,0:0:0:0:
368,272,24663,1,8,0:0:0:0:
352,224,25997,1,8,0:0:0:0:
352,224,27330,1,0,0:0:0:0:
352,224,27997,1,8,0:0:0:0:
352,224,28663,1,0,0:0:0:0:
352,224,29997,5,8,0:0:0:0:
372,154,31330,5,8,0:0:0:0:
279,267,31830,1,0,0:0:0:0:
279,267,32163,1,0,0:0:0:0:
283,109,32663,1,4,0:0:0:0:
283,109,33330,1,8,0:0:0:0:
317,143,33997,1,0,0:0:0:0:
277,136,34330,1,0,0:0:0:0:
317,143,34663,1,8,0:0:0:0:
293,154,35330,1,8,0:0:0:0:
312,161,35997,1,0,0:0:0:0:
269,148,36663,1,8,0:0:0:0:
340,127,37997,1,8,0:0:0:0:
356,163,38663,1,0,0:0:0:0:
382,130,39330,1,8,0:0:0:0:
424,233,39663,1,8,0:0:0:0:
214,215,39997,1,0,0:0:0:0:
257,192,40663,1,8,0:0:0:0:
257,192,41330,1,0,0:0:0:0:
449,230,41997,1,0,0:0:0:0:
160,209,42330,1,12,0:0:0:0:
283,151,43330,1,12,0:0:0:0:
426,269,43997,1,8,0:0:0:0:
391,197,44663,1,0,0:0:0:0:
283,151,44997,1,0,0:0:0:0:
331,145,45330,1,8,0:0:0:0:
331,145,45997,1,8,0:0:0:0:
264,216,46663,1,0,0:0:0:0:
253,118,46997,1,8,0:0:0:0:
314,192,47997,1,0,0:0:0:0:
340,113,48663,1,12,0:0:0:0:
340,113,49330,1,8,0:0:0:0:
284,152,49997,1,0,0:0:0:0:
291,105,50330,1,0,0:0:0:0:
338,157,50663,1,8,0:0:0:0:
313,263,51330,1,8,0:0:0:0:
334,168,51997,1,0,0:0:0:0:
291,146,52330,1,8,0:0:0:0:
247,168,53330,1,0,0:0:0:0:
247,168,53997,1,12,0:0:0:0:
260,205,54997,1,8,0:0:0:0:
260,205,55330,1,0,0:0:0:0:
351,206,56330,1,8,0:0:0:0:
351,206,56663,1,0,0:0:0:0:
285,99,57497,1,0,0:0:0:0:
211,166,57830,1,8,0:0:0:0:
401,121,58497,1,8,0:0:0:0:
280,205,58997,1,0,0:0:0:0:
295,107,59330,1,12,0:0:0:0:
420,184,59830,1,8,0:0:0:0:
405,167,60330,1,0,0:0:0:0:
252,145,60830,1,8,0:0:0:0:
383,159,61330,1,8,0:0:0:0:
383,159,61663,1,8,0:0:0:0:
318,163,61997,1,4,0:0:0:0:
290,122,62997,1,8,0:0:0:0:
329,219,63330,5,0,0:0:0:0:
329,186,63830,1,0,0:0:0:0:
183,160,64663,1,12,0:0:0:0:
222,174,65330,1,0,0:0:0:0:
246,188,65997,1,8,0:0:0:0:
268,179,66330,1,8,0:0:0:0:
246,188,66663,1,0,0:0:0:0:
178,156,67330,1,0,0:0:0:0:
246,188,67663,1,8,0:0:0:0:
268,177,67997,1,0,0:0:0:0:
293,175,68663,1,8,0:0:0:0:
293,175,69663,1,8,0:0:0:0:
293,175,69997,1,0,0:0:0:0:
275,145,70663,1,8,0:0:0:0:
251,148,71330,1,0,0:0:0:0:
251,148,71663,1,0,0:0:0:0:
251,148,71997,1,8,0:0:0:0:
265,194,72663,1,0,0:0:0:0:
265,194,73330,1,8,0:0:0:0:
313,109,73663,1,0,0:0:0:0:
265,194,73997,1,8,0:0:0:0:
368,176,74330,1,8,0:0:0:0:
265,194,75330,1,12,0:0:0:0:
230,147,75997,1,0,0:0:0:0:
246,188,76663,1,0,0:0:0:0:
246,188,76996,1,8,0:0:0:0:
246,188,77663,1,8,0:0:0:0:
314,133,77997,1,0,0:0:0:0:
409,146,78330,1,0,0:0:0:0:
409,146,78663,1,8,0:0:0:0:
409,146,79330,1,0,0:0:0:0:
112,176,80330,1,8,0:0:0:0:
428,131,80663,1,4,0:0:0:0:
382,161,81330,1,8,0:0:0:0:
405,173,81663,1,0,0:0:0:0:
251,209,81997,1,8,0:0:0:0:
294,231,83330,1,12,0:0:0:0:
421,306,83830,1,0,0:0:0:0:
421,306,84330,1,0,0:0:0:0:
382,169,84830,1,8,0:0:0:0:
421,306,85330,1,0,0:0:0:0:
340,250,85663,1,8,0:0:0:0:
