osu file format v14

[General]
AudioFilename: Second Run.mp3
AudioLeadIn: 0
PreviewTime: 61222
Countdown: 0
SampleSet: Soft
StackLeniency: 0.7
Mode: 3
LetterboxInBreaks: 0
SpecialStyle: 0
WidescreenStoryboard: 1

[Editor]
DistanceSpacing: 1
BeatDivisor: 4
GridSize: 8
TimelineZoom: 1.6

[Metadata]
Title:Second Run
TitleUnicode:Second Run
Artist:Nauts
ArtistUnicode:Nauts
Creator:tangjinxi
Version:Lv.21
Source:Talesweaver
Tags:Nam-Goomin,nexon
BeatmapID:804721
BeatmapSetID:290958

[Difficulty]
HPDrainRate:8
CircleSize:7
OverallDifficulty:8
ApproachRate:5
SliderMultiplier:1.4
SliderTickRate:1

[Events]
//Background and Video events
0,0,"BG_second run.jpg",0,0
//Break Periods
//Storyboard Layer 0 (Background)
//Storyboard Layer 1 (Fail)
//Storyboard Layer 2 (Pass)
//Storyboard Layer 3 (Foreground)
//Storyboard Sound Samples

[TimingPoints]
591,315.789473684211,4,2,0,5,1,0
40064,-111.111111111111,4,2,0,5,0,0
40696,-125,4,2,0,5,0,0
41327,-142.857142857143,4,2,0,5,0,0
59169,-125,4,2,0,5,0,0
60275,-111.111111111111,4,2,0,5,0,0
61222,-105.263157894737,4,2,0,5,0,0
61538,-100,4,2,0,5,0,1
96906,-105.263157894737,4,2,0,5,0,0
97538,-111.111111111111,4,2,0,5,0,0
98169,-117.647058823529,4,2,0,5,0,0
98801,-125,4,2,0,5,0,0
99433,-133.333333333333,4,2,0,5,0,0
100696,-142.857142857143,4,2,0,5,0,0
109538,-166.666666666667,4,2,0,5,0,0
110327,-200,4,2,0,5,0,0

[HitObjects]
109,192,591,128,0,906:0:0:0:0:
329,192,591,1,0,0:0:0:0:
475,192,906,128,0,3117:0:0:0:0:
36,192,906,1,0,0:0:0:0:
256,192,906,1,0,0:0:0:0:
109,192,1064,1,0,0:0:0:0:
182,192,1222,1,0,0:0:0:0:
256,192,1380,1,0,0:0:0:0:
402,192,1538,1,0,0:0:0:0:
109,192,1538,1,0,0:0:0:0:
329,192,1696,1,0,0:0:0:0:
256,192,1854,1,0,0:0:0:0:
182,192,2012,1,0,0:0:0:0:
402,192,2169,1,0,0:0:0:0:
36,192,2169,1,0,0:0:0:0:
109,192,2327,1,0,0:0:0:0:
182,192,2485,1,0,0:0:0:0:
256,192,2643,1,0,0:0:0:0:
402,192,2801,1,0,0:0:0:0:
109,192,2801,1,0,0:0:0:0:
329,192,2959,1,0,0:0:0:0:
256,192,3117,1,0,0:0:0:0:
36,192,3275,1,0,0:0:0:0:
109,192,3354,1,0,0:0:0:0:
182,192,3433,128,0,4064:0:0:0:0:
256,192,3433,1,0,0:0:0:0:
475,192,3433,1,0,0:0:0:0:
329,192,3591,1,0,0:0:0:0:
402,192,3748,1,0,0:0:0:0:
475,192,3906,1,0,0:0:0:0:
36,192,4064,128,0,4380:0:0:0:0:
109,192,4064,1,0,0:0:0:0:
329,192,4064,1,0,0:0:0:0:
182,192,4222,1,0,0:0:0:0:
256,192,4380,1,0,0:0:0:0:
329,192,4538,1,0,0:0:0:0:
402,192,4696,1,0,0:0:0:0:
182,192,4696,1,0,0:0:0:0:
36,192,4696,1,0,0:0:0:0:
256,192,4854,1,0,0:0:0:0:
329,192,5012,1,0,0:0:0:0:
402,192,5169,1,0,0:0:0:0:
475,192,5327,1,0,0:0:0:0:
109,192,5327,1,0,0:0:0:0:
256,192,5327,1,0,0:0:0:0:
182,192,5485,1,0,0:0:0:0:
329,192,5643,128,0,5959:0:0:0:0:
475,192,5643,1,0,0:0:0:0:
36,192,5643,1,0,0:0:0:0:
109,192,5801,1,0,0:0:0:0:
402,192,5801,1,0,0:0:0:0:
36,192,5959,1,0,0:0:0:0:
475,192,5959,128,0,6591:0:0:0:0:
256,192,5959,1,0,0:0:0:0:
109,192,6117,1,0,0:0:0:0:
182,192,6275,1,0,0:0:0:0:
256,192,6433,1,0,0:0:0:0:
402,192,6591,1,0,0:0:0:0:
36,192,6591,1,0,0:0:0:0:
329,192,6748,128,0,6906:0:0:0:0:
109,192,6748,1,0,0:0:0:0:
475,192,6906,128,0,7222:0:0:0:0:
402,192,6906,1,0,0:0:0:0:
182,192,6906,1,0,0:0:0:0:
329,192,7064,1,0,0:0:0:0:
36,192,7222,128,0,7854:0:0:0:0:
256,192,7222,1,0,0:0:0:0:
109,192,7222,1,0,0:0:0:0:
182,192,7380,1,0,0:0:0:0:
256,192,7538,1,0,0:0:0:0:
475,192,7538,1,0,0:0:0:0:
402,192,7696,1,0,0:0:0:0:
329,192,7854,1,0,0:0:0:0:
109,192,7854,1,0,0:0:0:0:
256,192,8012,1,0,0:0:0:0:
475,192,8012,1,0,0:0:0:0:
182,192,8169,1,0,0:0:0:0:
402,192,8169,1,0,0:0:0:0:
109,192,8327,1,0,0:0:0:0:
329,192,8327,1,0,0:0:0:0:
36,192,8485,128,0,9117:0:0:0:0:
475,192,8485,1,0,0:0:0:0:
256,192,8485,1,0,0:0:0:0:
182,192,8643,1,0,0:0:0:0:
256,192,8801,1,0,0:0:0:0:
329,192,8959,1,0,0:0:0:0:
109,192,9117,1,0,0:0:0:0:
402,192,9117,1,0,0:0:0:0:
182,192,9275,1,0,0:0:0:0:
329,192,9275,1,0,0:0:0:0:
256,192,9433,128,0,9748:0:0:0:0:
475,192,9433,1,0,0:0:0:0:
329,192,9591,1,0,0:0:0:0:
402,192,9748,1,0,0:0:0:0:
475,192,9748,1,0,0:0:0:0:
109,192,9748,128,0,10222:0:0:0:0:
182,192,9906,1,0,0:0:0:0:
329,192,10222,1,0,0:0:0:0:
402,192,10222,1,0,0:0:0:0:
256,192,10222,128,0,11012:0:0:0:0:
36,192,10380,1,0,0:0:0:0:
182,192,10696,1,0,0:0:0:0:
36,192,10696,128,0,11012:0:0:0:0:
402,192,11012,128,0,11643:0:0:0:0:
109,192,11012,1,0,0:0:0:0:
329,192,11012,1,0,0:0:0:0:
182,192,11169,1,0,0:0:0:0:
256,192,11327,1,0,0:0:0:0:
329,192,11485,1,0,0:0:0:0:
475,192,11643,1,0,0:0:0:0:
109,192,11643,1,0,0:0:0:0:
402,192,11801,1,0,0:0:0:0:
256,192,11801,1,0,0:0:0:0:
182,192,11959,1,0,0:0:0:0:
329,192,11959,1,0,0:0:0:0:
109,192,12117,1,0,0:0:0:0:
256,192,12117,1,0,0:0:0:0:
182,192,12275,1,0,0:0:0:0:
36,192,12275,128,0,12906:0:0:0:0:
475,192,12275,1,0,0:0:0:0:
256,192,12433,1,0,0:0:0:0:
329,192,12591,1,0,0:0:0:0:
402,192,12748,1,0,0:0:0:0:
329,192,12906,1,0,0:0:0:0:
109,192,12906,1,0,0:0:0:0:
475,192,12906,1,0,0:0:0:0:
182,192,13064,1,0,0:0:0:0:
109,192,13222,1,0,0:0:0:0:
329,192,13222,1,0,0:0:0:0:
256,192,13380,1,0,0:0:0:0:
475,192,13380,1,0,0:0:0:0:
109,192,13538,128,0,14485:0:0:0:0:
329,192,13538,1,0,0:0:0:0:
36,192,13538,1,0,0:0:0:0:
182,192,13696,1,0,0:0:0:0:
256,192,13854,1,0,0:0:0:0:
329,192,14012,1,0,0:0:0:0:
402,192,14169,1,0,0:0:0:0:
182,192,14169,1,0,0:0:0:0:
475,192,14327,1,0,0:0:0:0:
36,192,14485,1,0,0:0:0:0:
329,192,14485,1,0,0:0:0:0:
109,192,14643,1,0,0:0:0:0:
182,192,14801,1,0,0:0:0:0:
329,192,14801,1,0,0:0:0:0:
475,192,14801,128,0,15748:0:0:0:0:
36,192,14959,1,0,0:0:0:0:
402,192,15275,128,0,15748:0:0:0:0:
109,192,15275,1,0,0:0:0:0:
256,192,15275,1,0,0:0:0:0:
36,192,15433,1,0,0:0:0:0:
182,192,15748,128,0,15906:0:0:0:0:
329,192,15748,1,0,0:0:0:0:
36,192,15906,128,0,16064:0:0:0:0:
109,192,15906,1,0,0:0:0:0:
182,192,16064,128,0,16538:0:0:0:0:
256,192,16064,1,0,0:0:0:0:
329,192,16222,1,0,0:0:0:0:
402,192,16380,1,0,0:0:0:0:
256,192,16538,1,0,0:0:0:0:
475,192,16538,128,0,17012:0:0:0:0:
36,192,16538,1,0,0:0:0:0:
109,192,16696,1,0,0:0:0:0:
329,192,16696,1,0,0:0:0:0:
329,192,17012,128,0,17959:0:0:0:0:
402,192,17012,1,0,0:0:0:0:
182,192,17012,1,0,0:0:0:0:
256,192,17169,1,0,0:0:0:0:
109,192,17169,1,0,0:0:0:0:
36,192,17327,1,0,0:0:0:0:
182,192,17327,1,0,0:0:0:0:
109,192,17485,1,0,0:0:0:0:
182,192,17643,1,0,0:0:0:0:
256,192,17801,1,0,0:0:0:0:
402,192,17801,1,0,0:0:0:0:
182,192,17959,1,0,0:0:0:0:
475,192,17959,1,0,0:0:0:0:
109,192,18117,1,0,0:0:0:0:
402,192,18117,1,0,0:0:0:0:
36,192,18275,1,0,0:0:0:0:
475,192,18275,1,0,0:0:0:0:
329,192,18275,1,0,0:0:0:0:
109,192,18433,1,0,0:0:0:0:
402,192,18433,1,0,0:0:0:0:
36,192,18591,1,0,0:0:0:0:
329,192,18591,1,0,0:0:0:0:
475,192,18591,128,0,19064:0:0:0:0:
182,192,18748,1,0,0:0:0:0:
109,192,18906,1,0,0:0:0:0:
36,192,19064,1,0,0:0:0:0:
402,192,19064,128,0,20012:0:0:0:0:
329,192,19222,1,0,0:0:0:0:
109,192,19538,1,0,0:0:0:0:
329,192,19696,1,0,0:0:0:0:
109,192,19854,1,0,0:0:0:0:
329,192,20012,1,0,0:0:0:0:
329,192,20485,128,0,21117:0:0:0:0:
182,192,20801,128,0,21117:0:0:0:0:
36,192,21117,128,0,21748:0:0:0:0:
109,192,21117,1,0,0:0:0:0:
475,192,21117,1,0,0:0:0:0:
182,192,21275,1,0,0:0:0:0:
256,192,21433,1,0,0:0:0:0:
329,192,21591,1,0,0:0:0:0:
475,192,21748,1,0,0:0:0:0:
109,192,21906,1,0,0:0:0:0:
402,192,21906,1,0,0:0:0:0:
36,192,22064,1,0,0:0:0:0:
329,192,22064,1,0,0:0:0:0:
109,192,22222,1,0,0:0:0:0:
402,192,22222,1,0,0:0:0:0:
182,192,22380,1,0,0:0:0:0:
475,192,22380,128,0,23012:0:0:0:0:
36,192,22380,1,0,0:0:0:0:
256,192,22538,1,0,0:0:0:0:
329,192,22696,1,0,0:0:0:0:
402,192,22854,1,0,0:0:0:0:
36,192,23012,1,0,0:0:0:0:
256,192,23012,1,0,0:0:0:0:
402,192,23169,1,0,0:0:0:0:
182,192,23327,128,0,23643:0:0:0:0:
329,192,23327,1,0,0:0:0:0:
256,192,23485,1,0,0:0:0:0:
329,192,23643,128,0,23959:0:0:0:0:
36,192,23643,1,0,0:0:0:0:
475,192,23643,1,0,0:0:0:0:
109,192,23801,1,0,0:0:0:0:
402,192,23959,128,0,24117:0:0:0:0:
182,192,23959,1,0,0:0:0:0:
475,192,24117,128,0,24433:0:0:0:0:
256,192,24117,1,0,0:0:0:0:
329,192,24117,1,0,0:0:0:0:
109,192,24275,1,0,0:0:0:0:
402,192,24433,128,0,24748:0:0:0:0:
182,192,24433,1,0,0:0:0:0:
256,192,24433,1,0,0:0:0:0:
475,192,24591,1,0,0:0:0:0:
36,192,24591,1,0,0:0:0:0:
329,192,24748,128,0,25538:0:0:0:0:
109,192,24748,1,0,0:0:0:0:
182,192,24748,1,0,0:0:0:0:
475,192,24906,1,0,0:0:0:0:
36,192,24906,1,0,0:0:0:0:
256,192,24906,1,0,0:0:0:0:
109,192,25064,1,0,0:0:0:0:
182,192,25222,1,0,0:0:0:0:
256,192,25380,1,0,0:0:0:0:
182,192,25538,1,0,0:0:0:0:
475,192,25538,1,0,0:0:0:0:
402,192,25696,1,0,0:0:0:0:
109,192,25854,1,0,0:0:0:0:
329,192,26012,1,0,0:0:0:0:
36,192,26169,128,0,26959:0:0:0:0:
109,192,26169,1,0,0:0:0:0:
475,192,26169,1,0,0:0:0:0:
182,192,26327,1,0,0:0:0:0:
256,192,26485,1,0,0:0:0:0:
329,192,26643,1,0,0:0:0:0:
109,192,26801,1,0,0:0:0:0:
475,192,26801,1,0,0:0:0:0:
182,192,26959,1,0,0:0:0:0:
402,192,26959,1,0,0:0:0:0:
329,192,27117,1,0,0:0:0:0:
109,192,27117,1,0,0:0:0:0:
182,192,27275,1,0,0:0:0:0:
402,192,27275,1,0,0:0:0:0:
475,192,27433,1,0,0:0:0:0:
256,192,27433,1,0,0:0:0:0:
109,192,27433,128,0,28064:0:0:0:0:
36,192,27433,1,0,0:0:0:0:
182,192,27591,1,0,0:0:0:0:
256,192,27748,1,0,0:0:0:0:
329,192,27906,1,0,0:0:0:0:
475,192,28064,1,0,0:0:0:0:
182,192,28064,1,0,0:0:0:0:
402,192,28222,1,0,0:0:0:0:
36,192,28380,128,0,28696:0:0:0:0:
329,192,28380,1,0,0:0:0:0:
109,192,28380,1,0,0:0:0:0:
182,192,28538,1,0,0:0:0:0:
475,192,28696,1,0,0:0:0:0:
402,192,28696,128,0,29327:0:0:0:0:
256,192,28696,1,0,0:0:0:0:
109,192,28854,1,0,0:0:0:0:
182,192,29012,1,0,0:0:0:0:
256,192,29169,1,0,0:0:0:0:
329,192,29327,1,0,0:0:0:0:
109,192,29327,1,0,0:0:0:0:
36,192,29485,1,0,0:0:0:0:
475,192,29485,1,0,0:0:0:0:
109,192,29643,1,0,0:0:0:0:
329,192,29643,1,0,0:0:0:0:
182,192,29801,1,0,0:0:0:0:
402,192,29801,1,0,0:0:0:0:
256,192,29959,1,0,0:0:0:0:
109,192,29959,1,0,0:0:0:0:
475,192,29959,1,0,0:0:0:0:
182,192,30117,1,0,0:0:0:0:
402,192,30117,1,0,0:0:0:0:
329,192,30275,1,0,0:0:0:0:
109,192,30275,1,0,0:0:0:0:
36,192,30433,1,0,0:0:0:0:
256,192,30433,1,0,0:0:0:0:
402,192,30591,1,0,0:0:0:0:
182,192,30591,1,0,0:0:0:0:
475,192,30591,1,0,0:0:0:0:
329,192,30748,1,0,0:0:0:0:
109,192,30748,1,0,0:0:0:0:
256,192,30906,1,0,0:0:0:0:
36,192,30906,1,0,0:0:0:0:
182,192,31064,1,0,0:0:0:0:
109,192,31222,1,0,0:0:0:0:
256,192,31222,1,0,0:0:0:0:
36,192,31380,1,0,0:0:0:0:
329,192,31380,1,0,0:0:0:0:
402,192,31538,1,0,0:0:0:0:
109,192,31538,1,0,0:0:0:0:
182,192,31696,1,0,0:0:0:0:
475,192,31696,1,0,0:0:0:0:
256,192,31854,1,0,0:0:0:0:
402,192,31854,1,0,0:0:0:0:
182,192,32012,1,0,0:0:0:0:
36,192,32012,1,0,0:0:0:0:
329,192,32012,1,0,0:0:0:0:
109,192,32169,1,0,0:0:0:0:
256,192,32169,1,0,0:0:0:0:
402,192,32169,1,0,0:0:0:0:
182,192,32327,1,0,0:0:0:0:
329,192,32327,1,0,0:0:0:0:
475,192,32327,1,0,0:0:0:0:
109,192,32485,128,0,33117:0:0:0:0:
402,192,32485,1,0,0:0:0:0:
256,192,32485,1,0,0:0:0:0:
329,192,32643,1,0,0:0:0:0:
402,192,32801,1,0,0:0:0:0:
475,192,32959,1,0,0:0:0:0:
182,192,33117,1,0,0:0:0:0:
36,192,33117,1,0,0:0:0:0:
182,192,33275,128,0,33354:0:0:0:0:
329,192,33275,1,0,0:0:0:0:
109,192,33433,1,0,0:0:0:0:
182,192,33591,128,0,33748:0:0:0:0:
256,192,33591,1,0,0:0:0:0:
36,192,33748,1,0,0:0:0:0:
402,192,33748,128,0,34064:0:0:0:0:
109,192,33906,1,0,0:0:0:0:
256,192,34064,128,0,34222:0:0:0:0:
182,192,34064,1,0,0:0:0:0:
402,192,34222,1,0,0:0:0:0:
475,192,34222,128,0,35169:0:0:0:0:
256,192,34380,1,0,0:0:0:0:
329,192,34538,128,0,35169:0:0:0:0:
109,192,34538,1,0,0:0:0:0:
402,192,34696,1,0,0:0:0:0:
36,192,34696,1,0,0:0:0:0:
182,192,34854,128,0,35169:0:0:0:0:
256,192,34854,1,0,0:0:0:0:
36,192,35012,1,0,0:0:0:0:
402,192,35012,1,0,0:0:0:0:
109,192,35169,1,0,0:0:0:0:
182,192,35327,128,0,35643:0:0:0:0:
475,192,35327,128,0,35643:0:0:0:0:
402,192,35327,1,0,0:0:0:0:
256,192,35327,1,0,0:0:0:0:
36,192,35643,128,0,35959:0:0:0:0:
329,192,35643,128,0,35959:0:0:0:0:
256,192,35643,1,0,0:0:0:0:
109,192,35643,1,0,0:0:0:0:
182,192,35959,128,0,36275:0:0:0:0:
475,192,35959,128,0,36275:0:0:0:0:
256,192,35959,1,0,0:0:0:0:
402,192,35959,1,0,0:0:0:0:
329,192,36275,1,0,0:0:0:0:
36,192,36275,1,0,0:0:0:0:
402,192,36433,1,0,0:0:0:0:
109,192,36433,1,0,0:0:0:0:
182,192,36591,1,0,0:0:0:0:
475,192,36591,1,0,0:0:0:0:
109,192,36748,1,0,0:0:0:0:
329,192,36748,128,0,37222:0:0:0:0:
402,192,36748,1,0,0:0:0:0:
36,192,36906,1,0,0:0:0:0:
475,192,36906,1,0,0:0:0:0:
256,192,37064,1,0,0:0:0:0:
182,192,37222,1,0,0:0:0:0:
475,192,37222,128,0,38169:0:0:0:0:
402,192,37222,1,0,0:0:0:0:
36,192,37538,128,0,38169:0:0:0:0:
109,192,37538,1,0,0:0:0:0:
329,192,37538,1,0,0:0:0:0:
182,192,37696,1,0,0:0:0:0:
256,192,37854,1,0,0:0:0:0:
329,192,38012,1,0,0:0:0:0:
402,192,38169,1,0,0:0:0:0:
109,192,38169,1,0,0:0:0:0:
329,192,38327,1,0,0:0:0:0:
36,192,38327,1,0,0:0:0:0:
182,192,38485,1,0,0:0:0:0:
475,192,38485,1,0,0:0:0:0:
329,192,38643,1,0,0:0:0:0:
36,192,38643,1,0,0:0:0:0:
182,192,38801,1,0,0:0:0:0:
475,192,38801,1,0,0:0:0:0:
402,192,38801,128,0,39275:0:0:0:0:
256,192,38959,1,0,0:0:0:0:
329,192,39117,1,0,0:0:0:0:
109,192,39275,128,0,39906:0:0:0:0:
475,192,39275,1,0,0:0:0:0:
402,192,39433,1,0,0:0:0:0:
36,192,39433,1,0,0:0:0:0:
329,192,39591,1,0,0:0:0:0:
256,192,39748,1,0,0:0:0:0:
182,192,39906,128,0,40064:0:0:0:0:
402,192,39906,1,0,0:0:0:0:
36,192,40064,1,0,0:0:0:0:
329,192,40064,128,0,40696:0:0:0:0:
475,192,40064,1,0,0:0:0:0:
109,192,40222,1,0,0:0:0:0:
182,192,40380,1,0,0:0:0:0:
109,192,40696,1,0,0:0:0:0:
402,192,41327,128,0,42591:0:0:0:0:
182,192,41327,1,0,0:0:0:0:
256,192,41485,1,0,0:0:0:0:
109,192,41643,1,0,0:0:0:0:
182,192,41801,1,0,0:0:0:0:
36,192,41959,1,0,0:0:0:0:
256,192,42275,1,0,0:0:0:0:
109,192,42433,1,0,0:0:0:0:
36,192,42591,1,0,0:0:0:0:
182,192,42748,1,0,0:0:0:0:
475,192,42906,128,0,43854:0:0:0:0:
109,192,42906,1,0,0:0:0:0:
402,192,43222,128,0,43854:0:0:0:0:
256,192,43222,1,0,0:0:0:0:
329,192,43538,128,0,43854:0:0:0:0:
36,192,43854,1,0,0:0:0:0:
182,192,43854,128,0,45748:0:0:0:0:
256,192,44012,1,0,0:0:0:0:
475,192,44169,1,0,0:0:0:0:
329,192,44327,1,0,0:0:0:0:
109,192,44327,128,0,45748:0:0:0:0:
402,192,44485,1,0,0:0:0:0:
256,192,44643,1,0,0:0:0:0:
36,192,44801,128,0,45748:0:0:0:0:
329,192,44801,1,0,0:0:0:0:
256,192,44959,1,0,0:0:0:0:
402,192,45117,1,0,0:0:0:0:
475,192,45275,1,0,0:0:0:0:
329,192,45433,1,0,0:0:0:0:
402,192,45591,1,0,0:0:0:0:
256,192,45748,1,0,0:0:0:0:
36,192,46064,1,0,0:0:0:0:
329,192,46064,1,0,0:0:0:0:
109,192,46380,1,0,0:0:0:0:
402,192,46380,128,0,47643:0:0:0:0:
256,192,46538,1,0,0:0:0:0:
36,192,46696,1,0,0:0:0:0:
182,192,46854,1,0,0:0:0:0:
329,192,47012,1,0,0:0:0:0:
256,192,47327,1,0,0:0:0:0:
109,192,47485,1,0,0:0:0:0:
36,192,47643,1,0,0:0:0:0:
475,192,47643,1,0,0:0:0:0:
256,192,47801,1,0,0:0:0:0:
475,192,47959,128,0,48591:0:0:0:0:
109,192,47959,1,0,0:0:0:0:
402,192,48275,128,0,48591:0:0:0:0:
182,192,48275,1,0,0:0:0:0:
329,192,48591,128,0,48748:0:0:0:0:
256,192,48748,128,0,48906:0:0:0:0:
182,192,48906,128,0,50485:0:0:0:0:
475,192,48906,1,0,0:0:0:0:
36,192,48906,1,0,0:0:0:0:
329,192,49064,1,0,0:0:0:0:
402,192,49222,1,0,0:0:0:0:
109,192,49380,128,0,50485:0:0:0:0:
256,192,49380,1,0,0:0:0:0:
36,192,49538,1,0,0:0:0:0:
475,192,49538,1,0,0:0:0:0:
256,192,49696,1,0,0:0:0:0:
36,192,49854,128,0,50485:0:0:0:0:
402,192,49854,1,0,0:0:0:0:
329,192,50012,1,0,0:0:0:0:
256,192,50169,1,0,0:0:0:0:
475,192,50169,1,0,0:0:0:0:
402,192,50327,1,0,0:0:0:0:
329,192,50485,1,0,0:0:0:0:
475,192,50643,1,0,0:0:0:0:
36,192,50801,128,0,51117:0:0:0:0:
256,192,50801,128,0,51117:0:0:0:0:
109,192,51117,128,0,51433:0:0:0:0:
329,192,51117,128,0,51433:0:0:0:0:
36,192,51433,1,0,0:0:0:0:
402,192,51433,128,0,52380:0:0:0:0:
256,192,51433,1,0,0:0:0:0:
182,192,51591,1,0,0:0:0:0:
329,192,51748,1,0,0:0:0:0:
256,192,51906,1,0,0:0:0:0:
36,192,52064,1,0,0:0:0:0:
475,192,52064,1,0,0:0:0:0:
182,192,52222,1,0,0:0:0:0:
109,192,52380,1,0,0:0:0:0:
256,192,52538,1,0,0:0:0:0:
475,192,52696,128,0,53012:0:0:0:0:
182,192,52696,1,0,0:0:0:0:
402,192,52696,1,0,0:0:0:0:
329,192,52854,1,0,0:0:0:0:
256,192,53012,1,0,0:0:0:0:
36,192,53012,128,0,53959:0:0:0:0:
329,192,53327,1,0,0:0:0:0:
475,192,53327,1,0,0:0:0:0:
182,192,53327,128,0,53959:0:0:0:0:
329,192,53643,128,0,53959:0:0:0:0:
109,192,53801,1,0,0:0:0:0:
475,192,53959,128,0,54906:0:0:0:0:
402,192,53959,1,0,0:0:0:0:
256,192,53959,1,0,0:0:0:0:
182,192,54117,1,0,0:0:0:0:
329,192,54275,1,0,0:0:0:0:
256,192,54433,1,0,0:0:0:0:
402,192,54591,1,0,0:0:0:0:
329,192,54748,1,0,0:0:0:0:
109,192,54906,1,0,0:0:0:0:
402,192,54906,128,0,55222:0:0:0:0:
182,192,55064,1,0,0:0:0:0:
329,192,55222,128,0,56169:0:0:0:0:
36,192,55222,1,0,0:0:0:0:
475,192,55222,1,0,0:0:0:0:
256,192,55380,1,0,0:0:0:0:
182,192,55538,1,0,0:0:0:0:
109,192,55696,1,0,0:0:0:0:
36,192,55854,1,0,0:0:0:0:
475,192,55854,1,0,0:0:0:0:
256,192,56012,1,0,0:0:0:0:
402,192,56169,128,0,56327:0:0:0:0:
182,192,56169,1,0,0:0:0:0:
256,192,56327,1,0,0:0:0:0:
36,192,56327,128,0,56485:0:0:0:0:
402,192,56485,128,0,56959:0:0:0:0:
182,192,56485,1,0,0:0:0:0:
475,192,56485,1,0,0:0:0:0:
329,192,56643,1,0,0:0:0:0:
109,192,56801,1,0,0:0:0:0:
329,192,56959,128,0,57433:0:0:0:0:
256,192,56959,1,0,0:0:0:0:
36,192,57117,1,0,0:0:0:0:
475,192,57117,1,0,0:0:0:0:
402,192,57275,1,0,0:0:0:0:
256,192,57433,128,0,58538:0:0:0:0:
36,192,57433,1,0,0:0:0:0:
182,192,57433,1,0,0:0:0:0:
402,192,57591,1,0,0:0:0:0:
36,192,57748,128,0,59012:0:0:0:0:
182,192,57748,1,0,0:0:0:0:
329,192,57906,1,0,0:0:0:0:
109,192,58064,1,0,0:0:0:0:
182,192,58222,1,0,0:0:0:0:
475,192,58380,1,0,0:0:0:0:
402,192,58380,1,0,0:0:0:0:
109,192,58538,1,0,0:0:0:0:
329,192,58538,1,0,0:0:0:0:
402,192,58696,1,0,0:0:0:0:
182,192,58696,1,0,0:0:0:0:
475,192,58854,1,0,0:0:0:0:
256,192,58854,1,0,0:0:0:0:
109,192,59012,1,0,0:0:0:0:
475,192,59169,1,0,0:0:0:0:
36,192,59169,1,0,0:0:0:0:
329,192,59169,1,0,0:0:0:0:
182,192,59327,128,0,59485:0:0:0:0:
329,192,59485,128,0,59643:0:0:0:0:
109,192,59643,1,0,0:0:0:0:
402,192,59643,128,0,59959:0:0:0:0:
475,192,59959,128,0,60275:0:0:0:0:
329,192,59959,1,0,0:0:0:0:
182,192,60117,1,0,0:0:0:0:
36,192,60275,1,0,0:0:0:0:
256,192,60275,128,0,60433:0:0:0:0:
329,192,60275,1,0,0:0:0:0:
109,192,60433,128,0,60591:0:0:0:0:
182,192,60433,1,0,0:0:0:0:
256,192,60591,1,0,0:0:0:0:
329,192,60591,128,0,60748:0:0:0:0:
109,192,60748,1,0,0:0:0:0:
182,192,60748,128,0,60906:0:0:0:0:
329,192,60906,1,0,0:0:0:0:
402,192,60906,1,0,0:0:0:0:
256,192,61064,1,0,0:0:0:0:
329,192,61064,1,0,0:0:0:0:
36,192,61222,128,0,62012:0:0:0:0:
182,192,61222,1,0,0:0:0:0:
256,192,61222,1,0,0:0:0:0:
475,192,61380,1,0,0:0:0:0:
109,192,61538,128,0,62485:0:0:0:0:
256,192,61538,1,0,0:0:0:0:
182,192,61538,1,0,0:0:0:0:
329,192,61538,1,0,0:0:0:0:
256,192,61854,1,0,0:0:0:0:
329,192,62012,1,0,0:0:0:0:
36,192,62169,1,0,0:0:0:0:
402,192,62169,1,0,0:0:0:0:
182,192,62327,1,0,0:0:0:0:
475,192,62327,1,0,0:0:0:0:
256,192,62485,128,0,62643:0:0:0:0:
329,192,62485,1,0,0:0:0:0:
402,192,62485,1,0,0:0:0:0:
36,192,62643,1,0,0:0:0:0:
109,192,62643,1,0,0:0:0:0:
329,192,62801,1,0,0:0:0:0:
402,192,62801,1,0,0:0:0:0:
256,192,62801,128,0,63433:0:0:0:0:
182,192,62959,1,0,0:0:0:0:
109,192,63117,1,0,0:0:0:0:
36,192,63275,1,0,0:0:0:0:
475,192,63433,1,0,0:0:0:0:
109,192,63433,1,0,0:0:0:0:
402,192,63591,1,0,0:0:0:0:
182,192,63591,1,0,0:0:0:0:
256,192,63748,128,0,63906:0:0:0:0:
36,192,63748,1,0,0:0:0:0:
329,192,63906,128,0,64064:0:0:0:0:
109,192,63906,1,0,0:0:0:0:
256,192,64064,128,0,64696:0:0:0:0:
475,192,64064,1,0,0:0:0:0:
36,192,64064,1,0,0:0:0:0:
109,192,64222,1,0,0:0:0:0:
182,192,64380,1,0,0:0:0:0:
402,192,64538,1,0,0:0:0:0:
36,192,64696,1,0,0:0:0:0:
182,192,64696,128,0,65959:0:0:0:0:
475,192,64696,1,0,0:0:0:0:
109,192,64696,1,0,0:0:0:0:
402,192,64854,1,0,0:0:0:0:
329,192,65012,1,0,0:0:0:0:
256,192,65169,1,0,0:0:0:0:
109,192,65327,128,0,65959:0:0:0:0:
475,192,65327,1,0,0:0:0:0:
36,192,65327,1,0,0:0:0:0:
402,192,65485,1,0,0:0:0:0:
329,192,65643,1,0,0:0:0:0:
475,192,65801,1,0,0:0:0:0:
36,192,65959,1,0,0:0:0:0:
256,192,65959,128,0,66275:0:0:0:0:
329,192,65959,1,0,0:0:0:0:
109,192,66117,1,0,0:0:0:0:
36,192,66275,128,0,66591:0:0:0:0:
182,192,66275,1,0,0:0:0:0:
475,192,66275,1,0,0:0:0:0:
256,192,66433,1,0,0:0:0:0:
329,192,66591,128,0,67380:0:0:0:0:
182,192,66591,1,0,0:0:0:0:
475,192,66591,1,0,0:0:0:0:
402,192,66748,1,0,0:0:0:0:
256,192,66906,1,0,0:0:0:0:
182,192,67064,1,0,0:0:0:0:
109,192,67222,1,0,0:0:0:0:
475,192,67222,1,0,0:0:0:0:
36,192,67380,1,0,0:0:0:0:
256,192,67380,128,0,67696:0:0:0:0:
402,192,67380,1,0,0:0:0:0:
329,192,67538,128,0,67696:0:0:0:0:
109,192,67538,1,0,0:0:0:0:
475,192,67696,128,0,67854:0:0:0:0:
182,192,67696,1,0,0:0:0:0:
402,192,67854,128,0,68643:0:0:0:0:
36,192,67854,1,0,0:0:0:0:
256,192,67854,1,0,0:0:0:0:
329,192,67854,1,0,0:0:0:0:
109,192,68012,1,0,0:0:0:0:
182,192,68169,1,0,0:0:0:0:
256,192,68327,1,0,0:0:0:0:
36,192,68485,1,0,0:0:0:0:
475,192,68485,1,0,0:0:0:0:
182,192,68643,1,0,0:0:0:0:
329,192,68643,128,0,68959:0:0:0:0:
109,192,68801,1,0,0:0:0:0:
475,192,68801,1,0,0:0:0:0:
256,192,68801,128,0,69117:0:0:0:0:
182,192,68959,128,0,69117:0:0:0:0:
36,192,68959,1,0,0:0:0:0:
402,192,68959,1,0,0:0:0:0:
109,192,69117,128,0,69748:0:0:0:0:
329,192,69117,1,0,0:0:0:0:
182,192,69275,1,0,0:0:0:0:
36,192,69433,1,0,0:0:0:0:
329,192,69591,1,0,0:0:0:0:
475,192,69748,1,0,0:0:0:0:
36,192,69748,1,0,0:0:0:0:
256,192,69748,128,0,70064:0:0:0:0:
402,192,69906,1,0,0:0:0:0:
329,192,70064,1,0,0:0:0:0:
36,192,70064,128,0,70380:0:0:0:0:
256,192,70222,1,0,0:0:0:0:
182,192,70380,128,0,70696:0:0:0:0:
475,192,70380,128,0,70696:0:0:0:0:
329,192,70380,128,0,70696:0:0:0:0:
109,192,70696,1,0,0:0:0:0:
402,192,70696,1,0,0:0:0:0:
256,192,70854,1,0,0:0:0:0:
475,192,70854,1,0,0:0:0:0:
36,192,71012,128,0,71485:0:0:0:0:
109,192,71012,1,0,0:0:0:0:
402,192,71012,1,0,0:0:0:0:
329,192,71012,1,0,0:0:0:0:
256,192,71169,1,0,0:0:0:0:
329,192,71169,1,0,0:0:0:0:
182,192,71327,1,0,0:0:0:0:
256,192,71327,1,0,0:0:0:0:
109,192,71485,1,0,0:0:0:0:
182,192,71485,1,0,0:0:0:0:
329,192,71485,128,0,71643:0:0:0:0:
36,192,71643,1,0,0:0:0:0:
475,192,71643,128,0,72275:0:0:0:0:
256,192,71643,1,0,0:0:0:0:
36,192,71959,1,0,0:0:0:0:
109,192,72117,1,0,0:0:0:0:
182,192,72275,1,0,0:0:0:0:
402,192,72275,1,0,0:0:0:0:
329,192,72433,1,0,0:0:0:0:
475,192,72591,128,0,72906:0:0:0:0:
402,192,72591,1,0,0:0:0:0:
182,192,72591,1,0,0:0:0:0:
329,192,72748,1,0,0:0:0:0:
36,192,72906,1,0,0:0:0:0:
109,192,72906,128,0,73538:0:0:0:0:
256,192,72906,1,0,0:0:0:0:
182,192,73064,1,0,0:0:0:0:
256,192,73222,1,0,0:0:0:0:
329,192,73380,1,0,0:0:0:0:
402,192,73538,1,0,0:0:0:0:
36,192,73538,1,0,0:0:0:0:
256,192,73696,1,0,0:0:0:0:
329,192,73854,128,0,74012:0:0:0:0:
36,192,73854,1,0,0:0:0:0:
475,192,73854,1,0,0:0:0:0:
402,192,74012,128,0,74169:0:0:0:0:
182,192,74012,1,0,0:0:0:0:
36,192,74169,1,0,0:0:0:0:
329,192,74169,128,0,75275:0:0:0:0:
475,192,74169,1,0,0:0:0:0:
109,192,74327,1,0,0:0:0:0:
182,192,74485,1,0,0:0:0:0:
256,192,74643,1,0,0:0:0:0:
36,192,74801,1,0,0:0:0:0:
475,192,74801,1,0,0:0:0:0:
182,192,74959,1,0,0:0:0:0:
36,192,75117,1,0,0:0:0:0:
402,192,75275,128,0,75433:0:0:0:0:
182,192,75275,1,0,0:0:0:0:
475,192,75433,128,0,76064:0:0:0:0:
329,192,75433,1,0,0:0:0:0:
109,192,75433,1,0,0:0:0:0:
256,192,75591,128,0,75748:0:0:0:0:
402,192,75591,1,0,0:0:0:0:
329,192,75748,1,0,0:0:0:0:
182,192,75748,128,0,75906:0:0:0:0:
109,192,75906,128,0,76064:0:0:0:0:
256,192,75906,1,0,0:0:0:0:
36,192,76064,128,0,76222:0:0:0:0:
329,192,76064,1,0,0:0:0:0:
402,192,76064,1,0,0:0:0:0:
182,192,76222,128,0,76380:0:0:0:0:
256,192,76380,128,0,76538:0:0:0:0:
36,192,76380,1,0,0:0:0:0:
329,192,76538,128,0,76696:0:0:0:0:
109,192,76538,1,0,0:0:0:0:
402,192,76696,128,0,77169:0:0:0:0:
182,192,76696,1,0,0:0:0:0:
329,192,76854,1,0,0:0:0:0:
109,192,77012,1,0,0:0:0:0:
182,192,77169,128,0,77643:0:0:0:0:
36,192,77169,1,0,0:0:0:0:
256,192,77169,128,0,77643:0:0:0:0:
329,192,77327,1,0,0:0:0:0:
475,192,77327,1,0,0:0:0:0:
402,192,77485,1,0,0:0:0:0:
329,192,77643,1,0,0:0:0:0:
36,192,77801,1,0,0:0:0:0:
402,192,77801,1,0,0:0:0:0:
182,192,77801,128,0,78591:0:0:0:0:
109,192,77801,128,0,78591:0:0:0:0:
329,192,77959,1,0,0:0:0:0:
256,192,78117,1,0,0:0:0:0:
475,192,78117,1,0,0:0:0:0:
402,192,78275,1,0,0:0:0:0:
329,192,78433,1,0,0:0:0:0:
256,192,78591,1,0,0:0:0:0:
36,192,78748,128,0,78906:0:0:0:0:
329,192,78748,128,0,78906:0:0:0:0:
109,192,78748,1,0,0:0:0:0:
475,192,78906,128,0,79064:0:0:0:0:
182,192,78906,128,0,79064:0:0:0:0:
402,192,78906,1,0,0:0:0:0:
36,192,79064,128,0,79222:0:0:0:0:
329,192,79064,128,0,79222:0:0:0:0:
109,192,79064,1,0,0:0:0:0:
475,192,79222,1,0,0:0:0:0:
182,192,79222,128,0,80485:0:0:0:0:
402,192,79222,1,0,0:0:0:0:
36,192,79380,1,0,0:0:0:0:
109,192,79538,1,0,0:0:0:0:
36,192,79696,128,0,81117:0:0:0:0:
256,192,79696,1,0,0:0:0:0:
109,192,79854,1,0,0:0:0:0:
475,192,79854,1,0,0:0:0:0:
402,192,80012,1,0,0:0:0:0:
256,192,80169,1,0,0:0:0:0:
329,192,80327,1,0,0:0:0:0:
256,192,80485,128,0,80801:0:0:0:0:
109,192,80485,1,0,0:0:0:0:
475,192,80485,1,0,0:0:0:0:
402,192,80643,1,0,0:0:0:0:
182,192,80801,128,0,81117:0:0:0:0:
329,192,80801,1,0,0:0:0:0:
256,192,80959,1,0,0:0:0:0:
109,192,81117,128,0,81748:0:0:0:0:
475,192,81117,1,0,0:0:0:0:
402,192,81117,1,0,0:0:0:0:
329,192,81275,1,0,0:0:0:0:
402,192,81275,1,0,0:0:0:0:
256,192,81433,1,0,0:0:0:0:
329,192,81433,1,0,0:0:0:0:
475,192,81433,128,0,81748:0:0:0:0:
182,192,81591,1,0,0:0:0:0:
256,192,81591,1,0,0:0:0:0:
36,192,81748,128,0,83012:0:0:0:0:
402,192,81748,128,0,82380:0:0:0:0:
329,192,81748,1,0,0:0:0:0:
256,192,81906,1,0,0:0:0:0:
182,192,82064,1,0,0:0:0:0:
109,192,82222,1,0,0:0:0:0:
475,192,82380,1,0,0:0:0:0:
256,192,82380,1,0,0:0:0:0:
182,192,82538,128,0,82696:0:0:0:0:
329,192,82538,1,0,0:0:0:0:
402,192,82696,128,0,83012:0:0:0:0:
109,192,82696,1,0,0:0:0:0:
475,192,82696,1,0,0:0:0:0:
329,192,82854,1,0,0:0:0:0:
109,192,83012,128,0,83643:0:0:0:0:
182,192,83012,1,0,0:0:0:0:
475,192,83012,1,0,0:0:0:0:
256,192,83169,1,0,0:0:0:0:
329,192,83327,1,0,0:0:0:0:
402,192,83485,1,0,0:0:0:0:
36,192,83643,1,0,0:0:0:0:
475,192,83643,1,0,0:0:0:0:
402,192,83801,1,0,0:0:0:0:
109,192,83801,1,0,0:0:0:0:
36,192,83959,128,0,84117:0:0:0:0:
475,192,83959,128,0,84117:0:0:0:0:
182,192,83959,1,0,0:0:0:0:
329,192,83959,1,0,0:0:0:0:
109,192,84117,128,0,84275:0:0:0:0:
402,192,84117,128,0,84275:0:0:0:0:
256,192,84117,1,0,0:0:0:0:
475,192,84275,128,0,84748:0:0:0:0:
36,192,84275,128,0,84748:0:0:0:0:
182,192,84275,1,0,0:0:0:0:
329,192,84275,1,0,0:0:0:0:
109,192,84433,1,0,0:0:0:0:
182,192,84591,1,0,0:0:0:0:
256,192,84748,1,0,0:0:0:0:
475,192,84906,128,0,85064:0:0:0:0:
36,192,84906,1,0,0:0:0:0:
182,192,84906,1,0,0:0:0:0:
402,192,85064,128,0,85222:0:0:0:0:
109,192,85064,1,0,0:0:0:0:
329,192,85222,128,0,85380:0:0:0:0:
182,192,85222,1,0,0:0:0:0:
256,192,85380,128,0,85538:0:0:0:0:
475,192,85380,1,0,0:0:0:0:
36,192,85538,128,0,86327:0:0:0:0:
109,192,85538,1,0,0:0:0:0:
402,192,85538,1,0,0:0:0:0:
182,192,85696,1,0,0:0:0:0:
256,192,85854,1,0,0:0:0:0:
329,192,86012,1,0,0:0:0:0:
402,192,86012,128,0,86801:0:0:0:0:
109,192,86012,1,0,0:0:0:0:
256,192,86169,1,0,0:0:0:0:
109,192,86327,128,0,86485:0:0:0:0:
182,192,86327,1,0,0:0:0:0:
256,192,86485,128,0,86643:0:0:0:0:
329,192,86485,1,0,0:0:0:0:
109,192,86643,128,0,86801:0:0:0:0:
182,192,86643,1,0,0:0:0:0:
475,192,86801,128,0,87748:0:0:0:0:
329,192,86801,128,0,87433:0:0:0:0:
36,192,86801,1,0,0:0:0:0:
109,192,86959,1,0,0:0:0:0:
182,192,87117,1,0,0:0:0:0:
256,192,87275,1,0,0:0:0:0:
402,192,87433,1,0,0:0:0:0:
182,192,87433,1,0,0:0:0:0:
36,192,87591,128,0,87906:0:0:0:0:
109,192,87591,1,0,0:0:0:0:
182,192,87748,128,0,87906:0:0:0:0:
256,192,87748,1,0,0:0:0:0:
475,192,87906,128,0,88064:0:0:0:0:
402,192,87906,1,0,0:0:0:0:
329,192,88064,128,0,88854:0:0:0:0:
256,192,88064,1,0,0:0:0:0:
36,192,88064,1,0,0:0:0:0:
109,192,88222,1,0,0:0:0:0:
475,192,88222,1,0,0:0:0:0:
182,192,88380,1,0,0:0:0:0:
256,192,88538,1,0,0:0:0:0:
36,192,88696,1,0,0:0:0:0:
109,192,88696,1,0,0:0:0:0:
256,192,88854,1,0,0:0:0:0:
475,192,88854,128,0,89012:0:0:0:0:
182,192,89012,1,0,0:0:0:0:
402,192,89012,128,0,89169:0:0:0:0:
109,192,89169,1,0,0:0:0:0:
329,192,89169,128,0,89327:0:0:0:0:
36,192,89327,128,0,89959:0:0:0:0:
475,192,89327,1,0,0:0:0:0:
256,192,89327,1,0,0:0:0:0:
402,192,89485,1,0,0:0:0:0:
109,192,89643,128,0,89959:0:0:0:0:
329,192,89643,1,0,0:0:0:0:
256,192,89801,1,0,0:0:0:0:
475,192,89801,1,0,0:0:0:0:
182,192,89959,1,0,0:0:0:0:
402,192,89959,1,0,0:0:0:0:
36,192,90117,128,0,90275:0:0:0:0:
329,192,90117,1,0,0:0:0:0:
109,192,90275,128,0,90433:0:0:0:0:
256,192,90275,1,0,0:0:0:0:
182,192,90433,128,0,90591:0:0:0:0:
329,192,90433,1,0,0:0:0:0:
402,192,90591,128,0,91222:0:0:0:0:
256,192,90591,128,0,90906:0:0:0:0:
475,192,90591,1,0,0:0:0:0:
329,192,90906,128,0,91064:0:0:0:0:
36,192,90906,1,0,0:0:0:0:
475,192,91064,128,0,91222:0:0:0:0:
109,192,91064,1,0,0:0:0:0:
329,192,91222,128,0,91854:0:0:0:0:
256,192,91222,1,0,0:0:0:0:
182,192,91222,1,0,0:0:0:0:
182,192,91380,1,0,0:0:0:0:
109,192,91380,1,0,0:0:0:0:
109,192,91538,1,0,0:0:0:0:
36,192,91538,1,0,0:0:0:0:
256,192,91696,128,0,91854:0:0:0:0:
475,192,91854,128,0,93117:0:0:0:0:
402,192,91854,1,0,0:0:0:0:
182,192,91854,1,0,0:0:0:0:
36,192,92169,1,0,0:0:0:0:
109,192,92327,1,0,0:0:0:0:
182,192,92485,1,0,0:0:0:0:
329,192,92485,1,0,0:0:0:0:
36,192,92643,1,0,0:0:0:0:
109,192,92643,128,0,92801:0:0:0:0:
329,192,92801,128,0,93117:0:0:0:0:
256,192,92801,1,0,0:0:0:0:
182,192,92959,128,0,93117:0:0:0:0:
109,192,92959,1,0,0:0:0:0:
36,192,93117,128,0,93748:0:0:0:0:
402,192,93117,1,0,0:0:0:0:
109,192,93275,1,0,0:0:0:0:
475,192,93433,1,0,0:0:0:0:
182,192,93433,1,0,0:0:0:0:
256,192,93591,1,0,0:0:0:0:
109,192,93748,1,0,0:0:0:0:
475,192,93748,1,0,0:0:0:0:
256,192,93906,1,0,0:0:0:0:
329,192,94064,128,0,94222:0:0:0:0:
109,192,94064,128,0,94222:0:0:0:0:
36,192,94064,1,0,0:0:0:0:
475,192,94222,128,0,94380:0:0:0:0:
256,192,94222,128,0,94380:0:0:0:0:
402,192,94222,1,0,0:0:0:0:
109,192,94380,128,0,94538:0:0:0:0:
36,192,94380,1,0,0:0:0:0:
329,192,94380,128,0,95012:0:0:0:0:
182,192,94538,1,0,0:0:0:0:
256,192,94696,1,0,0:0:0:0:
402,192,94854,1,0,0:0:0:0:
182,192,95012,1,0,0:0:0:0:
475,192,95012,1,0,0:0:0:0:
329,192,95169,1,0,0:0:0:0:
256,192,95327,1,0,0:0:0:0:
36,192,95327,1,0,0:0:0:0:
402,192,95327,128,0,95643:0:0:0:0:
182,192,95485,1,0,0:0:0:0:
109,192,95643,128,0,96275:0:0:0:0:
36,192,95643,128,0,96275:0:0:0:0:
329,192,95643,1,0,0:0:0:0:
475,192,95643,1,0,0:0:0:0:
402,192,95801,1,0,0:0:0:0:
256,192,95959,1,0,0:0:0:0:
329,192,96117,1,0,0:0:0:0:
182,192,96275,1,0,0:0:0:0:
475,192,96275,1,0,0:0:0:0:
402,192,96433,1,0,0:0:0:0:
36,192,96591,1,0,0:0:0:0:
329,192,96591,1,0,0:0:0:0:
256,192,96748,1,0,0:0:0:0:
109,192,96906,128,0,97380:0:0:0:0:
475,192,96906,1,0,0:0:0:0:
182,192,96906,1,0,0:0:0:0:
402,192,97064,1,0,0:0:0:0:
329,192,97222,1,0,0:0:0:0:
402,192,97380,128,0,98169:0:0:0:0:
256,192,97380,1,0,0:0:0:0:
475,192,97538,1,0,0:0:0:0:
109,192,97538,1,0,0:0:0:0:
36,192,97696,1,0,0:0:0:0:
109,192,97854,1,0,0:0:0:0:
182,192,98012,1,0,0:0:0:0:
329,192,98169,1,0,0:0:0:0:
36,192,98169,1,0,0:0:0:0:
256,192,98169,128,0,98643:0:0:0:0:
109,192,98327,1,0,0:0:0:0:
402,192,98327,1,0,0:0:0:0:
182,192,98485,1,0,0:0:0:0:
329,192,98643,128,0,99117:0:0:0:0:
36,192,98643,1,0,0:0:0:0:
256,192,98801,1,0,0:0:0:0:
475,192,98801,1,0,0:0:0:0:
182,192,98959,1,0,0:0:0:0:
36,192,99117,1,0,0:0:0:0:
256,192,99117,128,0,99433:0:0:0:0:
402,192,99117,1,0,0:0:0:0:
109,192,99275,1,0,0:0:0:0:
402,192,99433,128,0,100064:0:0:0:0:
182,192,99433,1,0,0:0:0:0:
256,192,99591,1,0,0:0:0:0:
109,192,99748,1,0,0:0:0:0:
329,192,99906,1,0,0:0:0:0:
475,192,100064,1,0,0:0:0:0:
182,192,100064,128,0,100696:0:0:0:0:
36,192,100064,1,0,0:0:0:0:
256,192,100222,1,0,0:0:0:0:
329,192,100380,128,0,100696:0:0:0:0:
402,192,100538,1,0,0:0:0:0:
475,192,100696,128,0,101327:0:0:0:0:
109,192,100696,1,0,0:0:0:0:
256,192,100696,1,0,0:0:0:0:
182,192,101327,1,0,0:0:0:0:
36,192,101959,128,0,102433:0:0:0:0:
256,192,102433,1,0,0:0:0:0:
182,192,102906,1,0,0:0:0:0:
109,192,103222,128,0,104801:0:0:0:0:
256,192,104801,1,0,0:0:0:0:
109,192,105117,1,0,0:0:0:0:
256,192,105433,1,0,0:0:0:0:
109,192,105748,128,0,106538:0:0:0:0:
182,192,105748,1,0,0:0:0:0:
475,192,105748,1,0,0:0:0:0:
256,192,105906,1,0,0:0:0:0:
329,192,106064,1,0,0:0:0:0:
402,192,106222,1,0,0:0:0:0:
256,192,106380,1,0,0:0:0:0:
36,192,106538,128,0,107012:0:0:0:0:
475,192,106538,1,0,0:0:0:0:
182,192,106696,1,0,0:0:0:0:
402,192,106854,1,0,0:0:0:0:
329,192,107012,1,0,0:0:0:0:
109,192,107012,1,0,0:0:0:0:
402,192,107485,1,0,0:0:0:0:
182,192,107485,1,0,0:0:0:0:
256,192,107959,1,0,0:0:0:0:
475,192,107959,1,0,0:0:0:0:
36,192,108275,1,0,0:0:0:0:
329,192,108275,1,0,0:0:0:0:
109,192,108748,128,0,109538:0:0:0:0:
329,192,109222,128,0,109952:0:0:0:0:
182,192,109538,128,0,110327:0:0:0:0:
402,192,109952,128,0,110880:0:0:0:0:
256,192,110327,128,0,111906:0:0:0:0:
475,192,110880,128,0,111827:0:0:0:0:
402,192,111867,1,0,0:0:0:0:
329,192,111946,1,0,0:0:0:0:
256,192,112025,1,0,0:0:0:0:
