osu file format v14

[General]
AudioFilename: audio.mp3
AudioLeadIn: 0
PreviewTime: 76110
Countdown: 0
SampleSet: Normal
StackLeniency: 0.7
Mode: 0
LetterboxInBreaks: 0
WidescreenStoryboard: 1

[Editor]
DistanceSpacing: 1.2
BeatDivisor: 4
GridSize: 4
TimelineZoom: 3.1

[Metadata]
Title:Dance Robot Dance
TitleUnicode:ダンスロボットダンス
Artist:Natuyan Seijin feat. Hatsune Miku
ArtistUnicode:ナユタン星人 feat. 初音ミク
Creator:whosthebox
Version:01000100 01000001 01001110 01000011 01000101
Source:
Tags:nayutalien nayutan seijin nayut alien hatsune miku vocaloid 初音ミク
BeatmapID:2109531
BeatmapSetID:1007918

[Difficulty]
HPDrainRate:6
CircleSize:4
OverallDifficulty:8
ApproachRate:9.4
SliderMultiplier:1.7
SliderTickRate:1

[Events]
//Background and Video events
0,0,"drd.png",0,0
//Break Periods
//Storyboard Layer 0 (Background)
//Storyboard Layer 1 (Fail)
//Storyboard Layer 2 (Pass)
//Storyboard Layer 3 (Foreground)
//Storyboard Sound Samples

[TimingPoints]
400,315.789473684211,4,1,0,25,1,0
5452,-100,4,1,0,50,0,0
10505,-90.9090909090909,4,1,0,75,0,0
55978,-80,4,1,0,100,0,1
86294,-90.9090909090909,4,1,0,75,0,0
126715,-133.333333333333,4,1,0,30,0,0
145663,-90.9090909090909,4,1,0,75,0,0
146926,-80,4,1,0,100,0,1
177242,-90.9090909090909,4,1,0,75,0,0

[Colours]
Combo1 : 234,0,0
Combo2 : 255,94,94
Combo3 : 255,0,0
Combo4 : 255,183,183

[HitObjects]
52,200,400,6,0,B|52:282|52:282|141:312,1,170
146,208,873,2,0,B|187:223|187:223|232:206,1,85
187,113,1189,1,0,0:0:0:0:
274,61,1347,2,0,B|367:55|367:55|429:109,1,170
354,180,1821,1,0,0:0:0:0:
434,242,1978,1,0,0:0:0:0:
342,287,2136,2,0,B|273:242|273:242|190:272,1,170
145,179,2610,2,0,B|210:155|210:155|239:84,1,127.5
227,75,2926,6,0,B|145:45|145:45|64:81,1,170
57,180,3400,2,0,B|39:221|39:221|61:260,1,85
149,209,3715,1,0,0:0:0:0:
241,252,3873,2,0,B|327:219|327:219|343:134,1,170
238,141,4347,1,0,0:0:0:0:
174,61,4505,2,0,B|132:129|132:129|37:129,2,170
258,118,5294,1,0,0:0:0:0:
258,118,5373,1,0,0:0:0:0:
258,118,5452,6,0,B|277:158|277:158|344:172,1,85
405,114,5768,1,0,0:0:0:0:
466,195,5926,1,0,0:0:0:0:
466,195,6005,1,0,0:0:0:0:
466,195,6084,2,0,B|442:238|442:238|401:247,1,85
314,200,6400,1,0,0:0:0:0:
236,265,6557,1,0,0:0:0:0:
236,265,6636,1,0,0:0:0:0:
236,265,6715,5,0,0:0:0:0:
236,265,6794,1,0,0:0:0:0:
236,265,6873,1,0,0:0:0:0:
143,222,7031,1,0,0:0:0:0:
104,127,7189,2,0,L|104:76,1,42.5
196,128,7426,2,0,L|196:179,1,42.5
290,130,7663,1,0,0:0:0:0:
385,94,7821,1,0,0:0:0:0:
385,94,7900,1,0,0:0:0:0:
385,94,7978,6,0,B|401:133|401:133|385:184,1,85
291,139,8294,1,0,0:0:0:0:
333,231,8452,1,0,0:0:0:0:
333,231,8531,1,0,0:0:0:0:
333,231,8610,1,0,0:0:0:0:
257,299,8768,2,0,B|219:320|219:320|168:313,1,85
110,236,9084,1,0,0:0:0:0:
110,236,9163,1,0,0:0:0:0:
110,236,9242,6,0,B|74:207|74:207|74:166,1,85
175,162,9557,1,0,0:0:0:0:
170,60,9715,1,0,0:0:0:0:
188,64,9794,1,0,0:0:0:0:
204,60,9873,1,0,0:0:0:0:
220,64,9952,1,0,0:0:0:0:
236,60,10031,1,0,0:0:0:0:
259,85,10110,1,0,0:0:0:0:
277,89,10189,1,0,0:0:0:0:
293,85,10268,1,0,0:0:0:0:
309,89,10347,1,0,0:0:0:0:
325,85,10426,1,0,0:0:0:0:
344,56,10505,6,0,B|394:76|394:76|414:127,1,93.5000028533936
437,222,10821,1,0,0:0:0:0:
347,289,10978,2,0,B|316:323|316:323|248:330,1,93.5000028533936
172,268,11294,2,0,B|203:234|203:234|271:227,1,93.5000028533936
300,128,11610,1,0,0:0:0:0:
195,85,11768,6,0,B|152:73|152:73|102:92,2,93.5000028533936
157,191,12242,2,0,B|185:238|185:238|230:250,1,93.5000028533936
330,216,12557,2,0,B|302:169|302:169|257:157,1,93.5000028533936
217,56,12873,1,0,0:0:0:0:
327,76,13031,6,0,B|376:84|376:84|419:119,1,93.5000028533936
324,185,13347,1,0,0:0:0:0:
351,293,13505,2,0,B|301:302|301:302|258:286,1,93.5000028533936
227,179,13821,2,0,B|177:170|177:170|134:186,1,93.5000028533936
182,287,14136,1,0,0:0:0:0:
73,258,14294,6,0,B|59:304|59:304|83:357,2,93.5000028533936
65,145,14768,2,0,B|65:95|65:95|101:59,1,93.5000028533936
179,139,15084,1,0,0:0:0:0:
275,81,15242,1,0,0:0:0:0:
288,94,15321,1,0,0:0:0:0:
301,107,15400,1,0,0:0:0:0:
314,120,15478,1,0,0:0:0:0:
327,133,15557,6,0,B|357:174|357:174|347:226,1,93.5000028533936
236,204,15873,1,0,0:0:0:0:
185,304,16031,2,0,B|141:326|141:326|90:318,1,93.5000028533936
34,224,16347,2,0,B|78:202|78:202|129:210,1,93.5000028533936
231,235,16663,1,0,0:0:0:0:
233,122,16821,6,0,B|200:82|200:82|146:82,2,93.5000028533936
334,170,17294,2,0,B|316:129|316:129|342:87,1,93.5000028533936
443,137,17610,2,0,B|460:177|460:177|434:219,1,93.5000028533936
328,256,17926,1,0,0:0:0:0:
229,309,18084,6,0,B|187:327|187:327|129:316,1,93.5000028533936
195,219,18400,1,0,0:0:0:0:
84,204,18557,2,0,B|65:161|65:161|82:112,1,93.5000028533936
174,54,18873,2,0,B|193:97|193:97|176:146,2,93.5000028533936
284,77,19347,5,0,0:0:0:0:
371,220,19505,1,0,0:0:0:0:
228,307,19663,1,0,0:0:0:0:
141,164,19821,1,0,0:0:0:0:
141,164,19900,1,0,0:0:0:0:
141,164,19978,1,0,0:0:0:0:
371,220,20136,5,0,0:0:0:0:
377,202,20215,1,0,0:0:0:0:
384,184,20294,1,0,0:0:0:0:
391,167,20373,1,0,0:0:0:0:
399,150,20452,1,0,0:0:0:0:
406,132,20531,1,0,0:0:0:0:
413,114,20610,6,0,B|347:62|347:62|226:62,1,187.000005706787
301,159,21084,1,0,0:0:0:0:
399,212,21242,2,0,B|399:271|399:271|270:271,1,187.000005706787
159,286,21715,2,0,B|94:286|94:286|94:230|94:230|170:230,1,187.000005706787
160,117,22189,1,0,0:0:0:0:
272,117,22347,2,0,B|272:52|272:52|328:52|328:52|328:128,1,187.000005706787
414,190,22821,1,0,0:0:0:0:
319,249,22978,1,0,0:0:0:0:
308,264,23057,1,0,0:0:0:0:
294,277,23136,6,0,B|250:293|250:293|190:274,1,93.5000028533936
218,107,23452,2,0,B|262:91|262:91|322:110,1,93.5000028533936
380,192,23768,2,0,L|180:192,1,187.000005706787
88,148,24242,6,0,B|64:192|64:192|92:244,1,93.5000028533936
187,274,24557,1,0,0:0:0:0:
350,315,24715,1,0,0:0:0:0:
190,208,24873,1,0,0:0:0:0:
358,217,25031,1,0,0:0:0:0:
197,142,25189,1,0,0:0:0:0:
197,142,25268,1,0,0:0:0:0:
197,142,25347,1,0,0:0:0:0:
364,121,25505,1,0,0:0:0:0:
206,77,25663,6,0,B|108:58|108:58|34:133,1,187.000005706787
145,174,26136,1,0,0:0:0:0:
62,249,26294,2,0,B|97:283|97:283|146:286,1,93.5000028533936
234,222,26610,1,0,0:0:0:0:
264,330,26768,2,0,B|363:298|363:298|401:223,1,187.000005706787
288,210,27242,1,0,0:0:0:0:
350,116,27400,2,0,B|439:78|439:78|352:37,1,187.000005706787
254,84,27873,1,0,0:0:0:0:
143,63,28031,1,0,0:0:0:0:
143,63,28110,1,0,0:0:0:0:
143,63,28189,6,0,B|107:152|107:152|151:247,1,187.000005706787
220,150,28663,1,0,0:0:0:0:
253,257,28821,2,0,B|292:226|292:226|341:227,1,93.5000028533936
259,127,29136,2,0,B|220:158|220:158|171:157,1,93.5000028533936
128,259,29452,5,0,0:0:0:0:
323,320,29610,1,0,0:0:0:0:
323,320,29689,1,0,0:0:0:0:
323,320,29768,1,0,0:0:0:0:
384,125,29926,1,0,0:0:0:0:
189,64,30084,2,0,B|152:93|152:93|135:144,1,93.5000028533936
137,137,30321,1,0,0:0:0:0:
137,137,30400,1,0,0:0:0:0:
256,279,30557,1,0,0:0:0:0:
379,137,30715,6,0,B|364:92|364:92|327:63,1,93.5000028533936
262,155,31031,1,0,0:0:0:0:
149,158,31189,2,0,B|105:139|105:139|56:151,1,93.5000028533936
101,255,31505,2,0,B|145:274|145:274|194:262,1,93.5000028533936
281,198,31821,1,0,0:0:0:0:
388,227,31978,6,0,B|377:276|377:276|334:303,2,93.5000028533936
323,134,32452,2,0,B|377:134|377:134|424:105,1,93.5000028533936
320,44,32768,2,0,B|266:44|266:44|219:73,1,93.5000028533936
170,159,33084,1,0,0:0:0:0:
75,98,33242,6,0,B|39:137|39:137|39:197,1,93.5000028533936
122,252,33557,1,0,0:0:0:0:
232,271,33715,2,0,B|281:250|281:250|305:194,1,93.5000028533936
298,100,34031,2,0,B|249:121|249:121|225:177,2,93.5000028533936
381,223,34505,1,0,0:0:0:0:
225,317,34663,1,0,0:0:0:0:
131,161,34821,1,0,0:0:0:0:
287,67,34978,1,0,0:0:0:0:
300,80,35057,1,0,0:0:0:0:
313,93,35136,1,0,0:0:0:0:
381,223,35294,5,0,0:0:0:0:
396,231,35373,1,0,0:0:0:0:
408,247,35452,1,0,0:0:0:0:
424,259,35531,1,0,0:0:0:0:
432,275,35610,1,0,0:0:0:0:
448,287,35689,1,0,0:0:0:0:
460,302,35768,6,0,B|373:342|373:342|264:342,1,187.000005706787
315,234,36242,1,0,0:0:0:0:
296,234,36321,1,0,0:0:0:0:
277,234,36400,1,0,0:0:0:0:
258,234,36478,1,0,0:0:0:0:
239,234,36557,1,0,0:0:0:0:
163,154,36715,1,0,0:0:0:0:
86,236,36873,6,0,B|46:152|46:152|95:68,1,187.000005706787
198,113,37347,1,0,0:0:0:0:
302,73,37505,1,0,0:0:0:0:
302,73,37584,1,0,0:0:0:0:
302,73,37663,1,0,0:0:0:0:
302,73,37742,1,0,0:0:0:0:
302,73,37821,2,0,B|355:76|355:76|399:108,1,93.5000028533936
438,199,38136,1,0,0:0:0:0:
438,199,38215,1,0,0:0:0:0:
438,199,38294,6,0,B|444:247|444:247|415:288,1,93.5000028533936
320,226,38610,1,0,0:0:0:0:
225,286,38768,1,0,0:0:0:0:
208,292,38847,1,0,0:0:0:0:
188,288,38926,1,0,0:0:0:0:
168,292,39005,1,0,0:0:0:0:
148,288,39084,1,0,0:0:0:0:
64,212,39242,1,0,0:0:0:0:
133,123,39400,6,0,B|234:130|234:130|317:86,1,187.000005706787
398,206,39873,1,0,0:0:0:0:
285,332,40031,1,0,0:0:0:0:
132,263,40189,1,0,0:0:0:0:
149,96,40347,1,0,0:0:0:0:
149,96,40426,1,0,0:0:0:0:
149,96,40505,1,0,0:0:0:0:
275,207,40663,1,0,0:0:0:0:
344,53,40821,6,0,B|393:54|393:54|431:84,2,93.5000028533936
350,165,41294,1,0,0:0:0:0:
335,179,41373,1,0,0:0:0:0:
321,192,41452,1,0,0:0:0:0:
307,205,41531,1,0,0:0:0:0:
293,218,41610,1,0,0:0:0:0:
234,122,41768,1,0,0:0:0:0:
121,118,41926,6,0,B|135:71|135:71|172:46,2,93.5000028533936
59,212,42400,1,0,0:0:0:0:
133,294,42557,1,0,0:0:0:0:
133,294,42636,1,0,0:0:0:0:
133,294,42715,1,0,0:0:0:0:
133,294,42794,1,0,0:0:0:0:
133,294,42873,1,0,0:0:0:0:
205,208,43031,1,0,0:0:0:0:
280,291,43189,1,0,0:0:0:0:
280,291,43268,1,0,0:0:0:0:
280,291,43347,6,0,B|334:293|334:293|376:271,1,93.5000028533936
304,182,43663,1,0,0:0:0:0:
352,80,43821,1,0,0:0:0:0:
332,76,43900,1,0,0:0:0:0:
312,80,43978,1,0,0:0:0:0:
292,76,44057,1,0,0:0:0:0:
276,80,44136,1,0,0:0:0:0:
164,60,44294,1,0,0:0:0:0:
140,84,44373,1,0,0:0:0:0:
116,108,44452,1,0,0:0:0:0:
92,132,44531,1,0,0:0:0:0:
68,156,44610,6,0,B|96:256|96:256|192:304,1,187.000005706787
444,228,45242,6,0,B|416:128|416:128|320:80,1,187.000005706787
256,8,45873,5,0,0:0:0:0:
256,192,46505,5,0,0:0:0:0:
256,8,47136,5,0,0:0:0:0:
256,192,47452,5,0,0:0:0:0:
256,376,47768,5,0,0:0:0:0:
256,8,48400,5,0,0:0:0:0:
256,192,48715,5,0,0:0:0:0:
256,376,49031,5,0,0:0:0:0:
256,192,49347,5,0,0:0:0:0:
256,8,49663,5,0,0:0:0:0:
256,192,49978,5,0,0:0:0:0:
256,376,50294,5,0,0:0:0:0:
72,192,50926,5,0,0:0:0:0:
256,192,51557,5,0,0:0:0:0:
72,192,52189,5,0,0:0:0:0:
256,192,52505,5,0,0:0:0:0:
440,192,52821,5,0,0:0:0:0:
72,192,53452,5,0,0:0:0:0:
440,192,53768,5,0,0:0:0:0:
256,8,54084,5,0,0:0:0:0:
256,376,54400,5,0,0:0:0:0:
76,64,54715,5,0,0:0:0:0:
256,324,55031,1,0,0:0:0:0:
436,64,55347,1,0,0:0:0:0:
116,131,55978,6,0,P|91:180|103:228,1,106.25
227,198,56294,1,0,0:0:0:0:
327,276,56452,1,0,0:0:0:0:
323,148,56610,2,0,P|351:93|337:38,1,106.25
217,73,56926,2,0,P|189:128|203:183,1,106.25
319,206,57242,5,0,0:0:0:0:
443,234,57400,1,0,0:0:0:0:
357,328,57557,2,0,P|257:347|168:282,1,212.5
283,224,58031,1,0,0:0:0:0:
400,175,58189,2,0,P|373:127|317:105,1,106.25
205,67,58505,5,0,0:0:0:0:
99,226,58663,1,0,0:0:0:0:
278,167,58821,1,0,0:0:0:0:
103,102,58978,1,0,0:0:0:0:
213,258,59136,6,0,P|319:304|420:263,2,212.5
295,52,59926,1,0,0:0:0:0:
109,95,60084,1,0,0:0:0:0:
339,238,60242,1,0,0:0:0:0:
153,281,60400,1,0,0:0:0:0:
310,128,60557,1,0,0:0:0:0:
124,171,60715,1,0,0:0:0:0:
103,201,60794,1,0,0:0:0:0:
95,237,60873,1,0,0:0:0:0:
104,273,60952,1,0,0:0:0:0:
127,301,61031,6,0,P|192:312|245:288,1,106.25
181,179,61347,2,0,P|246:168|299:192,1,106.25
334,298,61663,1,0,0:0:0:0:
455,338,61821,1,0,0:0:0:0:
434,212,61978,2,0,P|461:114|372:56,1,212.5
307,160,62452,1,0,0:0:0:0:
254,43,62610,2,0,P|212:72|143:72,1,106.25
50,146,62926,2,0,P|45:242|140:300,1,212.5
177,178,63400,1,0,0:0:0:0:
241,287,63557,6,0,P|300:311|354:302,1,106.25
443,229,63873,2,0,P|467:170|458:116,1,106.25
335,145,64189,2,0,P|290:65|179:75,1,212.5
289,232,64663,1,0,0:0:0:0:
130,338,64821,5,0,0:0:0:0:
16,185,64978,1,0,0:0:0:0:
52,163,65057,1,0,0:0:0:0:
88,141,65136,1,0,0:0:0:0:
278,159,65294,1,0,0:0:0:0:
243,183,65373,1,0,0:0:0:0:
209,208,65452,1,0,0:0:0:0:
373,305,65610,1,0,0:0:0:0:
377,261,65689,1,0,0:0:0:0:
373,217,65768,1,0,0:0:0:0:
377,173,65847,1,0,0:0:0:0:
373,129,65926,1,0,0:0:0:0:
377,85,66005,1,0,0:0:0:0:
373,41,66084,6,0,P|261:56|201:129,1,212.5
295,214,66557,1,0,0:0:0:0:
304,341,66715,2,0,P|250:337|203:304,1,106.25
92,251,67031,1,0,0:0:0:0:
184,163,67189,1,0,0:0:0:0:
87,79,67347,6,0,P|186:40|294:75,1,212.5
192,157,67821,1,0,0:0:0:0:
308,207,67978,2,0,P|276:249|211:264,2,106.25
403,121,68452,1,0,0:0:0:0:
462,234,68610,6,0,P|459:314|334:318,2,212.5
336,208,69400,1,0,0:0:0:0:
225,270,69557,2,0,P|165:278|115:256,1,106.25
279,149,69873,5,0,0:0:0:0:
339,329,70031,1,0,0:0:0:0:
187,217,70189,1,0,0:0:0:0:
379,217,70347,1,0,0:0:0:0:
219,329,70505,5,0,0:0:0:0:
119,155,70663,1,0,0:0:0:0:
293,55,70821,1,0,0:0:0:0:
393,229,70978,1,0,0:0:0:0:
256,196,71136,2,0,P|217:226|146:223,1,106.25
60,149,71452,2,0,P|99:119|170:122,1,106.25
280,91,71768,5,0,0:0:0:0:
405,68,71926,1,0,0:0:0:0:
313,214,72084,1,0,0:0:0:0:
438,191,72242,2,0,P|446:248|407:288,1,106.25
300,232,72557,1,0,0:0:0:0:
236,342,72715,6,0,P|128:319|79:222,2,212.5
235,213,73505,1,0,0:0:0:0:
118,160,73663,6,0,P|213:104|324:116,1,212.5
251,258,74136,1,0,0:0:0:0:
103,117,74294,6,0,P|198:61|309:73,1,212.5
268,300,74768,1,0,0:0:0:0:
70,85,74926,6,0,P|115:50|167:38,1,106.25
268,198,75242,1,0,0:0:0:0:
394,54,75400,1,0,0:0:0:0:
394,54,75478,1,0,0:0:0:0:
394,54,75557,1,0,0:0:0:0:
394,245,75715,1,0,0:0:0:0:
382,285,75794,1,0,0:0:0:0:
351,315,75873,1,0,0:0:0:0:
311,331,75952,1,0,0:0:0:0:
268,331,76031,1,0,0:0:0:0:
226,321,76110,1,0,0:0:0:0:
199,287,76189,6,0,P|175:241|121:215,1,106.25
130,66,76505,1,0,0:0:0:0:
246,158,76663,1,0,0:0:0:0:
324,31,76821,2,0,P|369:62|387:120,1,106.25
300,230,77136,1,0,0:0:0:0:
158,185,77294,2,0,P|121:234|117:284,2,106.25
275,134,77768,5,0,0:0:0:0:
328,251,77926,1,0,0:0:0:0:
329,111,78084,5,0,0:0:0:0:
273,285,78242,1,0,0:0:0:0:
245,75,78400,5,0,0:0:0:0:
356,312,78557,1,0,0:0:0:0:
360,56,78715,6,0,P|408:89|432:146,1,106.25
429,280,79031,1,0,0:0:0:0:
319,179,79189,1,0,0:0:0:0:
218,289,79347,2,0,P|164:291|117:257,1,106.25
219,149,79663,1,0,0:0:0:0:
117,39,79821,2,0,P|68:55|33:102,2,106.25
256,88,80294,5,0,0:0:0:0:
328,288,80452,1,0,0:0:0:0:
152,168,80610,1,0,0:0:0:0:
372,168,80768,1,0,0:0:0:0:
192,288,80926,1,0,0:0:0:0:
192,288,81005,1,0,0:0:0:0:
192,288,81084,1,0,0:0:0:0:
192,288,81163,1,0,0:0:0:0:
192,288,81242,6,0,P|228:324|297:325,1,106.25
421,282,81557,1,0,0:0:0:0:
292,206,81715,1,0,0:0:0:0:
415,123,81873,2,0,P|393:76|336:57,1,106.25
231,154,82189,1,0,0:0:0:0:
84,126,82347,2,0,P|108:80|165:60,2,106.25
207,162,82821,5,0,0:0:0:0:
305,222,82978,1,0,0:0:0:0:
196,112,83136,5,0,0:0:0:0:
316,272,83294,1,0,0:0:0:0:
219,63,83452,5,0,0:0:0:0:
293,321,83610,1,0,0:0:0:0:
275,51,83768,6,0,P|330:67|357:106,1,106.25
231,187,84084,1,0,0:0:0:0:
115,93,84242,1,0,0:0:0:0:
57,230,84400,2,0,P|68:286|117:320,1,106.25
191,194,84715,1,0,0:0:0:0:
276,333,84873,2,0,P|307:289|297:238,1,106.25
152,257,85189,5,0,0:0:0:0:
191,88,85347,1,0,0:0:0:0:
360,127,85505,1,0,0:0:0:0:
321,296,85663,1,0,0:0:0:0:
97,112,85821,5,0,0:0:0:0:
336,33,85978,1,0,0:0:0:0:
415,272,86136,1,0,0:0:0:0:
176,351,86294,1,0,0:0:0:0:
256,196,86610,5,0,0:0:0:0:
191,104,86768,2,0,B|140:98|140:98|92:122,1,93.5000028533936
54,219,87084,2,0,B|105:225|105:225|153:201,1,93.5000028533936
229,277,87400,1,0,0:0:0:0:
336,245,87557,6,0,B|381:276|381:276|397:320,2,93.5000028533936
403,154,88031,2,0,B|403:101|403:101|365:66,1,93.5000028533936
288,147,88347,2,0,B|239:152|239:152|194:128,1,93.5000028533936
267,40,88663,1,0,0:0:0:0:
154,44,88821,6,0,B|108:67|108:67|84:121,1,93.5000028533936
158,196,89136,1,0,0:0:0:0:
107,296,89294,2,0,B|145:332|145:332|191:339,1,93.5000028533936
285,284,89610,2,0,B|247:248|247:248|201:241,1,93.5000028533936
259,143,89926,1,0,0:0:0:0:
355,86,90084,6,0,B|332:48|332:48|277:40,2,93.5000028533936
449,147,90557,2,0,B|442:193|442:193|394:233,1,93.5000028533936
318,150,90873,1,0,0:0:0:0:
246,236,91031,1,0,0:0:0:0:
232,222,91110,1,0,0:0:0:0:
218,208,91189,1,0,0:0:0:0:
204,194,91268,1,0,0:0:0:0:
190,180,91347,6,0,B|145:180|145:180|95:215,1,93.5000028533936
156,309,91663,1,0,0:0:0:0:
265,334,91821,2,0,B|316:329|316:329|350:292,1,93.5000028533936
362,186,92136,2,0,B|311:191|311:191|277:228,1,93.5000028533936
169,230,92452,1,0,0:0:0:0:
68,179,92610,6,0,B|49:225|49:225|63:275,2,93.5000028533936
174,144,93084,2,0,B|130:117|130:117|119:72,1,93.5000028533936
231,58,93400,2,0,B|275:85|275:85|286:130,1,93.5000028533936
235,227,93715,1,0,0:0:0:0:
346,214,93873,6,0,B|352:264|352:264|322:305,1,93.5000028533936
217,329,94189,1,0,0:0:0:0:
106,312,94347,2,0,B|65:276|65:276|67:222,1,93.5000028533936
111,133,94663,2,0,B|103:87|103:87|153:44,2,93.5000028533936
138,241,95136,5,0,0:0:0:0:
305,310,95294,1,0,0:0:0:0:
374,143,95452,1,0,0:0:0:0:
207,74,95610,1,0,0:0:0:0:
207,74,95689,1,0,0:0:0:0:
207,74,95768,1,0,0:0:0:0:
305,310,95926,5,0,0:0:0:0:
291,296,96005,1,0,0:0:0:0:
277,282,96084,1,0,0:0:0:0:
263,268,96163,1,0,0:0:0:0:
249,254,96242,1,0,0:0:0:0:
235,240,96321,1,0,0:0:0:0:
221,226,96400,6,0,B|125:208|125:208|70:138,1,187.000005706787
162,74,96873,1,0,0:0:0:0:
162,74,96952,1,0,0:0:0:0:
162,74,97031,2,0,B|209:52|209:52|265:62,1,93.5000028533936
229,170,97347,1,0,0:0:0:0:
333,128,97505,1,0,0:0:0:0:
333,128,97584,1,0,0:0:0:0:
333,128,97663,2,0,B|366:161|366:161|362:223,1,93.5000028533936
254,235,97978,1,0,0:0:0:0:
180,319,98136,2,0,B|141:288|141:288|143:233,1,93.5000028533936
290,94,98452,5,0,0:0:0:0:
354,226,98768,5,0,0:0:0:0:
158,158,98926,2,0,B|83:213|83:213|101:307,1,187.000005706787
201,255,99400,1,0,0:0:0:0:
201,255,99478,1,0,0:0:0:0:
201,255,99557,2,0,B|244:282|244:282|297:275,1,93.5000028533936
271,164,99873,1,0,0:0:0:0:
379,134,100031,1,0,0:0:0:0:
379,134,100110,1,0,0:0:0:0:
379,134,100189,1,0,0:0:0:0:
299,54,100347,1,0,0:0:0:0:
280,54,100426,1,0,0:0:0:0:
261,54,100505,2,0,B|215:54|215:54|175:78,1,93.5000028533936
134,184,100821,1,0,0:0:0:0:
248,314,100978,5,0,0:0:0:0:
264,70,101294,5,0,0:0:0:0:
378,200,101452,2,0,B|363:288|363:288|263:323,1,187.000005706787
273,207,101926,1,0,0:0:0:0:
273,207,102005,1,0,0:0:0:0:
273,207,102084,2,0,B|227:224|227:224|175:220,1,93.5000028533936
73,250,102400,1,0,0:0:0:0:
133,156,102557,1,0,0:0:0:0:
72,61,102715,1,0,0:0:0:0:
90,61,102794,1,0,0:0:0:0:
108,61,102873,2,0,B|154:77|154:77|205:56,1,93.5000028533936
308,65,103189,2,0,B|354:49|354:49|405:70,1,93.5000028533936
407,235,103505,5,0,0:0:0:0:
105,149,103821,5,0,0:0:0:0:
213,343,103978,2,0,B|312:320|312:320|373:238,1,187.000005706787
426,158,104452,1,0,0:0:0:0:
426,158,104531,1,0,0:0:0:0:
426,158,104610,2,0,B|412:111|412:111|365:90,1,93.5000028533936
268,46,104926,1,0,0:0:0:0:
197,133,105084,1,0,0:0:0:0:
103,70,105242,2,0,B|59:92|59:92|41:142,2,93.5000028533936
157,167,105715,5,0,0:0:0:0:
170,180,105794,1,0,0:0:0:0:
183,193,105873,1,0,0:0:0:0:
293,175,106031,5,0,0:0:0:0:
306,188,106110,1,0,0:0:0:0:
319,201,106189,1,0,0:0:0:0:
189,308,106347,1,0,0:0:0:0:
323,76,106505,6,0,B|412:115|412:115|423:211,1,187.000005706787
338,278,106978,1,0,0:0:0:0:
319,278,107057,1,0,0:0:0:0:
300,278,107136,1,0,0:0:0:0:
281,278,107215,1,0,0:0:0:0:
262,278,107294,1,0,0:0:0:0:
150,265,107452,1,0,0:0:0:0:
84,173,107610,6,0,B|117:86|117:86|221:55,1,187.000005706787
254,161,108084,1,0,0:0:0:0:
329,76,108242,1,0,0:0:0:0:
342,89,108321,1,0,0:0:0:0:
355,102,108400,1,0,0:0:0:0:
368,115,108478,1,0,0:0:0:0:
381,128,108557,2,0,B|412:171|412:171|400:219,1,93.5000028533936
309,274,108873,1,0,0:0:0:0:
309,274,108952,1,0,0:0:0:0:
309,274,109031,6,0,B|271:304|271:304|225:307,1,93.5000028533936
196,197,109347,1,0,0:0:0:0:
85,218,109505,1,0,0:0:0:0:
79,201,109584,1,0,0:0:0:0:
83,181,109663,1,0,0:0:0:0:
79,161,109742,1,0,0:0:0:0:
83,141,109821,1,0,0:0:0:0:
195,134,109978,1,0,0:0:0:0:
276,56,110136,6,0,B|377:48|377:48|449:107,1,187.000005706787
370,255,110610,1,0,0:0:0:0:
193,306,110768,1,0,0:0:0:0:
319,78,110926,1,0,0:0:0:0:
142,129,111084,1,0,0:0:0:0:
142,129,111163,1,0,0:0:0:0:
142,129,111242,1,0,0:0:0:0:
258,248,111400,1,0,0:0:0:0:
326,93,111557,6,0,B|378:83|378:83|413:42,2,93.5000028533936
221,49,112031,1,0,0:0:0:0:
221,49,112110,1,0,0:0:0:0:
221,49,112189,1,0,0:0:0:0:
221,49,112268,1,0,0:0:0:0:
221,49,112347,1,0,0:0:0:0:
158,141,112505,1,0,0:0:0:0:
49,114,112663,6,0,B|83:73|83:73|66:17,2,93.5000028533936
110,208,113136,1,0,0:0:0:0:
59,308,113294,1,0,0:0:0:0:
77,308,113373,1,0,0:0:0:0:
95,308,113452,1,0,0:0:0:0:
113,308,113531,1,0,0:0:0:0:
131,308,113610,1,0,0:0:0:0:
199,219,113768,1,0,0:0:0:0:
264,310,113926,1,0,0:0:0:0:
264,310,114005,1,0,0:0:0:0:
264,310,114084,6,0,B|314:297|314:297|341:253,1,93.5000028533936
420,186,114400,1,0,0:0:0:0:
321,131,114557,1,0,0:0:0:0:
325,147,114636,1,0,0:0:0:0:
321,167,114715,1,0,0:0:0:0:
325,187,114794,1,0,0:0:0:0:
321,207,114873,1,0,0:0:0:0:
218,160,115031,1,0,0:0:0:0:
194,136,115110,1,0,0:0:0:0:
170,112,115189,1,0,0:0:0:0:
146,88,115268,1,0,0:0:0:0:
122,64,115347,6,0,B|47:132|47:132|61:224,1,187.000005706787
390,320,115978,6,0,B|465:252|465:252|451:160,1,187.000005706787
256,8,116610,5,0,0:0:0:0:
256,192,117242,5,0,0:0:0:0:
256,8,117873,5,0,0:0:0:0:
256,192,118189,5,0,0:0:0:0:
256,376,118505,5,0,0:0:0:0:
256,8,119136,5,0,0:0:0:0:
256,192,119452,5,0,0:0:0:0:
256,376,119768,5,0,0:0:0:0:
256,192,120084,5,0,0:0:0:0:
256,8,120400,5,0,0:0:0:0:
256,192,120715,5,0,0:0:0:0:
256,376,121031,5,0,0:0:0:0:
72,192,121663,5,0,0:0:0:0:
256,192,122294,5,0,0:0:0:0:
72,192,122926,5,0,0:0:0:0:
256,192,123242,5,0,0:0:0:0:
440,192,123557,5,0,0:0:0:0:
72,192,124189,5,0,0:0:0:0:
440,192,124505,5,0,0:0:0:0:
256,8,124821,5,0,0:0:0:0:
256,376,125136,5,0,0:0:0:0:
436,64,125452,5,0,0:0:0:0:
256,324,125768,1,0,0:0:0:0:
76,64,126084,1,0,0:0:0:0:
81,218,126715,6,0,P|125:268|184:270,1,127.500004863739,12|0,0:0|0:0,0:0:0:0:
166,117,127347,2,0,P|230:102|288:136,1,127.500004863739
419,198,127978,1,0,0:0:0:0:
331,323,128294,1,0,0:0:0:0:
256,189,128610,2,0,P|190:184|136:233,1,127.500004863739
187,72,129242,6,0,P|123:88|68:53,2,127.500004863739
317,152,130189,1,0,0:0:0:0:
445,68,130505,2,0,P|412:222|204:241,1,382.500014591218
136,115,131768,6,0,P|71:140|46:202,1,127.500004863739
88,337,132400,1,0,0:0:0:0:
201,234,132715,2,0,P|267:221|331:268,1,127.500004863739
433,349,133347,2,0,P|467:286|454:224,1,127.500004863739
459,79,133978,2,0,P|415:41|346:33,2,127.500004863739
343,179,134926,2,0,P|251:257|148:183,2,255.000009727478
59,62,136821,6,0,P|86:119|46:180,1,127.500004863739
127,308,137452,2,0,P|196:335|260:294,1,127.500004863739
197,168,138084,1,0,0:0:0:0:
310,65,138400,2,0,P|375:79|412:126,1,127.500004863739
275,194,139031,1,0,0:0:0:0:
375,309,139347,6,0,P|310:330|243:316,1,127.500004863739
100,308,139978,2,0,P|70:258|108:201,1,127.500004863739
255,194,140610,1,0,0:0:0:0:
376,75,141242,6,0,P|398:116|397:144,1,63.7500024318696
375,283,141715,2,0,P|287:318|202:280,1,191.250007295609
75,195,142505,6,0,P|61:164|73:130,1,63.7500024318696
209,76,142978,2,0,P|297:38|383:88,1,191.250007295609
463,205,143768,6,0,P|450:270|381:299,1,127.500004863739
173,156,144400,2,0,P|153:97|177:40,1,127.500004863739
334,40,145031,2,0,P|357:97|338:157,1,127.500004863739
136,255,145663,5,0,0:0:0:0:
216,106,145821,1,0,0:0:0:0:
71,247,145978,5,0,0:0:0:0:
278,123,146136,1,0,0:0:0:0:
102,313,146294,5,0,0:0:0:0:
248,47,146452,1,0,0:0:0:0:
248,47,146531,1,0,0:0:0:0:
248,47,146610,1,0,0:0:0:0:
403,128,146926,6,0,P|427:173|416:224,1,106.25
290,196,147242,1,0,0:0:0:0:
203,290,147400,1,0,0:0:0:0:
90,230,147557,2,0,P|70:181|90:123,1,106.25
187,56,147873,2,0,P|207:105|187:163,1,106.25
208,282,148189,5,0,0:0:0:0:
317,217,148347,1,0,0:0:0:0:
376,329,148505,2,0,P|461:261|466:164,1,212.5
338,151,148978,1,0,0:0:0:0:
419,52,149136,2,0,P|364:35|303:54,1,106.25
161,113,149452,5,0,0:0:0:0:
169,304,149610,1,0,0:0:0:0:
59,148,149768,1,0,0:0:0:0:
234,213,149926,1,0,0:0:0:0:
55,272,150084,6,0,P|130:338|257:328,2,212.5
191,135,150873,1,0,0:0:0:0:
321,249,151031,1,0,0:0:0:0:
348,108,151189,1,0,0:0:0:0:
164,276,151347,1,0,0:0:0:0:
133,81,151505,1,0,0:0:0:0:
379,303,151663,1,0,0:0:0:0:
410,274,151742,1,0,0:0:0:0:
428,235,151821,1,0,0:0:0:0:
426,192,151900,1,0,0:0:0:0:
411,152,151978,6,0,P|375:106|320:84,1,106.25
278,202,152294,2,0,P|235:237|173:235,1,106.25
81,163,152610,1,0,0:0:0:0:
141,50,152768,1,0,0:0:0:0:
244,123,152926,2,0,P|354:141|369:230,1,212.5
243,247,153400,1,0,0:0:0:0:
164,146,153557,2,0,P|110:133|44:161,1,106.25
36,272,153873,2,0,P|94:329|228:338,1,212.5
177,219,154347,1,0,0:0:0:0:
180,92,154505,6,0,P|238:100|278:134,1,106.25
402,120,154821,2,0,P|405:170|356:218,1,106.25
298,317,155136,2,0,P|203:349|102:295,1,212.5
33,123,155610,1,0,0:0:0:0:
178,245,155768,5,0,0:0:0:0:
299,97,155926,1,0,0:0:0:0:
299,140,156005,1,0,0:0:0:0:
299,183,156084,1,0,0:0:0:0:
460,285,156242,1,0,0:0:0:0:
460,242,156321,1,0,0:0:0:0:
460,199,156400,1,0,0:0:0:0:
339,50,156557,1,0,0:0:0:0:
295,46,156636,1,0,0:0:0:0:
251,50,156715,1,0,0:0:0:0:
207,46,156794,1,0,0:0:0:0:
163,50,156873,1,0,0:0:0:0:
119,46,156952,1,0,0:0:0:0:
75,50,157031,6,0,P|90:162|163:222,1,212.5
273,158,157505,1,0,0:0:0:0:
397,129,157663,2,0,P|402:190|366:239,1,106.25
256,263,157978,1,0,0:0:0:0:
146,327,158136,1,0,0:0:0:0:
131,200,158294,6,0,P|104:101|180:29,1,212.5
249,134,158768,1,0,0:0:0:0:
369,93,158926,2,0,P|336:53|274:37,2,106.25
478,160,159400,1,0,0:0:0:0:
419,273,159557,6,0,P|354:343|232:313,2,212.5
300,224,160347,1,0,0:0:0:0:
175,250,160505,2,0,P|148:199|161:141,1,106.25
278,119,160821,5,0,0:0:0:0:
338,299,160978,1,0,0:0:0:0:
369,65,161136,5,0,0:0:0:0:
429,245,161294,1,0,0:0:0:0:
452,57,161452,5,0,0:0:0:0:
229,202,161610,1,0,0:0:0:0:
481,181,161768,5,0,0:0:0:0:
258,326,161926,1,0,0:0:0:0:
464,116,162084,6,0,P|425:154|364:169,1,106.25
289,46,162400,2,0,P|238:61|201:98,1,106.25
85,191,162715,5,0,0:0:0:0:
32,307,162873,1,0,0:0:0:0:
152,349,163031,1,0,0:0:0:0:
203,232,163189,2,0,P|229:284|278:302,1,106.25
329,163,163505,1,0,0:0:0:0:
472,202,163663,6,0,P|453:302|357:346,2,212.5
324,221,164452,1,0,0:0:0:0:
187,279,164610,6,0,P|186:177|255:97,1,212.5
374,240,165084,1,0,0:0:0:0:
136,264,165242,6,0,P|135:162|204:82,1,212.5
415,260,165715,1,0,0:0:0:0:
82,266,165873,6,0,P|71:218|92:147,1,106.25
195,315,166189,1,0,0:0:0:0:
251,130,166347,1,0,0:0:0:0:
251,130,166426,1,0,0:0:0:0:
251,130,166505,1,0,0:0:0:0:
442,122,166663,1,0,0:0:0:0:
430,82,166742,1,0,0:0:0:0:
399,52,166821,1,0,0:0:0:0:
359,36,166900,1,0,0:0:0:0:
316,36,166978,1,0,0:0:0:0:
274,46,167057,1,0,0:0:0:0:
247,80,167136,6,0,P|223:126|169:152,1,106.25
67,48,167452,1,0,0:0:0:0:
34,193,167610,1,0,0:0:0:0:
129,306,167768,2,0,P|173:346|226:347,1,106.25
238,201,168084,1,0,0:0:0:0:
357,112,168242,2,0,P|394:155|406:211,2,106.25
208,129,168715,5,0,0:0:0:0:
75,196,168873,1,0,0:0:0:0:
262,164,169031,5,0,0:0:0:0:
35,149,169189,1,0,0:0:0:0:
264,97,169347,5,0,0:0:0:0:
16,227,169505,1,0,0:0:0:0:
328,176,169663,6,0,P|348:226|325:282,1,106.25
193,327,169978,1,0,0:0:0:0:
55,267,170136,1,0,0:0:0:0:
181,188,170294,2,0,P|135:156|121:106,1,106.25
262,61,170610,1,0,0:0:0:0:
399,119,170768,2,0,P|451:93|474:38,2,106.25
249,127,171242,5,0,0:0:0:0:
177,327,171400,1,0,0:0:0:0:
113,127,171557,1,0,0:0:0:0:
293,247,171715,1,0,0:0:0:0:
73,247,171873,1,0,0:0:0:0:
73,247,171952,1,0,0:0:0:0:
73,247,172031,1,0,0:0:0:0:
73,247,172110,1,0,0:0:0:0:
73,247,172189,6,0,P|55:195|95:137,1,106.25
206,77,172505,1,0,0:0:0:0:
316,177,172663,1,0,0:0:0:0:
371,38,172821,2,0,P|420:71|441:123,1,106.25
291,128,173136,1,0,0:0:0:0:
143,109,173294,2,0,P|168:64|228:44,2,106.25
272,184,173768,5,0,0:0:0:0:
402,256,173926,1,0,0:0:0:0:
273,104,174084,5,0,0:0:0:0:
403,335,174242,1,0,0:0:0:0:
344,147,174400,5,0,0:0:0:0:
330,300,174557,1,0,0:0:0:0:
346,61,174715,6,0,P|290:47|236:66,1,106.25
105,117,175031,1,0,0:0:0:0:
309,194,175189,1,0,0:0:0:0:
171,250,175347,2,0,P|200:294|266:320,1,106.25
292,177,175663,1,0,0:0:0:0:
411,266,175821,2,0,P|440:205|434:164,1,106.25
327,65,176136,5,0,0:0:0:0:
129,121,176294,1,0,0:0:0:0:
185,319,176452,1,0,0:0:0:0:
383,263,176610,1,0,0:0:0:0:
87,249,176768,5,0,0:0:0:0:
313,361,176926,1,0,0:0:0:0:
425,135,177084,1,0,0:0:0:0:
199,23,177242,1,0,0:0:0:0:
256,196,177557,5,0,0:0:0:0:
321,104,177715,2,0,B|372:98|372:98|420:122,1,93.5000028533936
453,221,178031,2,0,B|402:227|402:227|354:203,1,93.5000028533936
251,218,178347,1,0,0:0:0:0:
212,323,178505,6,0,B|257:331|257:331|314:320,2,93.5000028533936
103,293,178978,2,0,B|92:247|92:247|109:195,1,93.5000028533936
86,91,179294,2,0,B|135:86|135:86|180:110,1,93.5000028533936
248,191,179610,1,0,0:0:0:0:
360,196,179768,6,0,B|405:171|405:171|421:119,1,93.5000028533936
305,115,180084,1,0,0:0:0:0:
193,123,180242,2,0,B|194:71|194:71|163:36,1,93.5000028533936
89,122,180557,2,0,B|88:174|88:174|119:209,1,93.5000028533936
228,210,180873,1,0,0:0:0:0:
265,315,181031,6,0,B|313:298|313:298|348:250,2,93.5000028533936
154,292,181505,2,0,B|120:255|120:255|119:204,1,93.5000028533936
232,216,181821,1,0,0:0:0:0:
334,171,181978,1,0,0:0:0:0:
320,157,182057,1,0,0:0:0:0:
306,143,182136,1,0,0:0:0:0:
292,129,182215,1,0,0:0:0:0:
278,115,182294,6,0,B|322:85|322:85|388:89,1,93.5000028533936
437,171,182610,1,0,0:0:0:0:
459,281,182768,2,0,B|430:312|430:312|379:317,1,93.5000028533936
362,205,183084,2,0,B|311:210|311:210|277:247,1,93.5000028533936
247,348,183400,1,0,0:0:0:0:
153,287,183557,6,0,B|127:330|127:330|71:336,2,93.5000028533936
62,219,184031,2,0,B|48:170|48:170|69:120,1,93.5000028533936
159,68,184347,2,0,B|173:117|173:117|152:167,1,93.5000028533936
202,259,184663,1,0,0:0:0:0:
294,322,184821,6,0,B|323:278|323:278|319:226,1,93.5000028533936
262,140,185136,1,0,0:0:0:0:
332,53,185294,2,0,B|378:78|378:78|400:123,1,93.5000028533936
441,217,185610,2,0,B|452:265|452:265|424:309,2,93.5000028533936
303,311,186084,5,0,0:0:0:0:
137,239,186242,1,0,0:0:0:0:
209,73,186400,1,0,0:0:0:0:
375,145,186557,5,0,0:0:0:0:
137,145,186873,1,0,0:0:0:0:
256,192,187189,12,0,188452,0:0:0:0:
