osu file format v14

[General]
AudioFilename: Sunrise.mp3
AudioLeadIn: 0
PreviewTime: 85360
Countdown: 0
SampleSet: Normal
StackLeniency: 0.7
Mode: 1
LetterboxInBreaks: 0
WidescreenStoryboard: 1

[Editor]
DistanceSpacing: 0.8
BeatDivisor: 4
GridSize: 16
TimelineZoom: 1

[Metadata]
Title:Sunrise
TitleUnicode:Sunrise
Artist:Natteke ft. tieff
ArtistUnicode:Natteke ft. tieff
Creator:numbermaniac
Version:Futsuu
Source:osu!stream
Tags:Diva Days instrumental
BeatmapID:1063180
BeatmapSetID:499538

[Difficulty]
HPDrainRate:6
CircleSize:4
OverallDifficulty:4
ApproachRate:8
SliderMultiplier:1.4
SliderTickRate:1

[Events]
//Background and Video events
0,0,"Sunrise.jpg",0,0
//Break Periods
//Storyboard Layer 0 (Background)
//Storyboard Layer 1 (Fail)
//Storyboard Layer 2 (Pass)
//Storyboard Layer 3 (Foreground)
//Storyboard Sound Samples

[TimingPoints]
4230,521.739130434783,4,1,0,60,1,0
85621,-100,4,1,0,60,0,1
119012,-100,4,1,0,60,0,0

[HitObjects]
256,192,4230,5,0,0:0:0:0:
256,192,6316,1,0,0:0:0:0:
256,192,8403,1,0,0:0:0:0:
256,192,9447,1,0,0:0:0:0:
256,192,9969,1,0,0:0:0:0:
256,192,10490,1,8,0:0:0:0:
256,192,11534,1,0,0:0:0:0:
256,192,12056,1,8,0:0:0:0:
256,192,12577,1,0,0:0:0:0:
256,192,14143,1,0,0:0:0:0:
256,192,14664,1,0,0:0:0:0:
256,192,15186,1,8,0:0:0:0:
256,192,16751,1,0,0:0:0:0:
256,192,17273,1,8,0:0:0:0:
256,192,18838,1,8,0:0:0:0:
256,192,19621,1,0,0:0:0:0:
256,192,19882,1,8,0:0:0:0:
256,192,20403,1,8,0:0:0:0:
256,192,20925,1,8,0:0:0:0:
256,192,21969,1,0,0:0:0:0:
256,192,22490,1,8,0:0:0:0:
256,192,23012,1,0,0:0:0:0:
256,192,24056,1,0,0:0:0:0:
256,192,24577,1,0,0:0:0:0:
256,192,25099,1,8,0:0:0:0:
256,192,25621,1,8,0:0:0:0:
256,192,26403,1,8,0:0:0:0:
256,192,26664,1,0,0:0:0:0:
256,192,28230,1,0,0:0:0:0:
256,192,28751,1,8,0:0:0:0:
256,192,29273,1,8,0:0:0:0:
256,192,30056,1,0,0:0:0:0:
256,192,30577,1,8,0:0:0:0:
256,192,30838,1,0,0:0:0:0:
256,192,31360,1,8,0:0:0:0:
256,192,32143,1,8,0:0:0:0:
256,192,32925,1,0,0:0:0:0:
256,192,33969,1,0,0:0:0:0:
256,192,34230,1,8,0:0:0:0:
256,192,35012,1,0,0:0:0:0:
256,192,35534,1,0,0:0:0:0:
256,192,36577,1,0,0:0:0:0:
256,192,37099,1,8,0:0:0:0:
256,192,37621,1,8,0:0:0:0:
256,192,38664,1,0,0:0:0:0:
256,192,39186,1,8,0:0:0:0:
256,192,39708,1,8,0:0:0:0:
256,192,40751,1,0,0:0:0:0:
256,192,41795,1,8,0:0:0:0:
256,192,42838,1,0,0:0:0:0:
256,192,43360,1,8,0:0:0:0:
256,192,43882,1,0,0:0:0:0:
256,192,44143,1,8,0:0:0:0:
256,192,44925,1,8,0:0:0:0:
256,192,45447,1,0,0:0:0:0:
256,192,45969,1,8,0:0:0:0:
256,192,47012,1,0,0:0:0:0:
360,192,48056,1,12,0:0:0:0:
256,192,48577,1,0,0:0:0:0:
256,192,49621,1,0,0:0:0:0:
256,192,50143,1,8,0:0:0:0:
256,192,50664,1,8,0:0:0:0:
256,192,51186,1,0,0:0:0:0:
256,192,52230,1,8,0:0:0:0:
256,192,52751,1,8,0:0:0:0:
256,192,54316,1,0,0:0:0:0:
256,192,54838,1,0,0:0:0:0:
256,192,55360,1,8,0:0:0:0:
256,192,55882,1,8,0:0:0:0:
256,192,56403,1,0,0:0:0:0:
256,192,57447,1,0,0:0:0:0:
256,192,58490,1,0,0:0:0:0:
256,192,59273,1,8,0:0:0:0:
256,192,60577,1,0,0:0:0:0:
256,192,61621,1,0,0:0:0:0:
256,192,62664,1,8,0:0:0:0:
256,192,63708,1,0,0:0:0:0:
256,192,64230,1,0,0:0:0:0:
256,192,64751,1,8,0:0:0:0:
256,192,65795,1,0,0:0:0:0:
256,192,66838,1,8,0:0:0:0:
256,192,67360,1,0,0:0:0:0:
256,192,67882,1,0,0:0:0:0:
256,192,68925,1,0,0:0:0:0:
256,192,69447,1,8,0:0:0:0:
256,192,70490,1,8,0:0:0:0:
256,192,71012,1,0,0:0:0:0:
256,192,72056,1,8,0:0:0:0:
256,192,72577,1,0,0:0:0:0:
256,192,73099,1,8,0:0:0:0:
256,192,74143,1,0,0:0:0:0:
256,192,75186,1,0,0:0:0:0:
256,192,75969,1,8,0:0:0:0:
256,192,77273,1,8,0:0:0:0:
256,192,77534,1,8,0:0:0:0:
256,192,78056,1,8,0:0:0:0:
256,192,78838,1,8,0:0:0:0:
256,192,79360,1,0,0:0:0:0:
256,192,79882,1,0,0:0:0:0:
256,192,80403,1,0,0:0:0:0:
256,192,80925,1,8,0:0:0:0:
256,192,81447,1,0,0:0:0:0:
184,192,82490,1,4,0:0:0:0:
256,192,83012,1,0,0:0:0:0:
188,192,85099,1,4,0:0:0:0:
256,192,85621,1,8,0:0:0:0:
256,192,86012,1,8,0:0:0:0:
256,192,86403,1,0,0:0:0:0:
256,192,87186,1,0,0:0:0:0:
256,192,87708,1,0,0:0:0:0:
256,192,88099,1,0,0:0:0:0:
256,192,88490,1,8,0:0:0:0:
256,192,89273,1,8,0:0:0:0:
256,192,89795,1,0,0:0:0:0:
256,192,90316,1,0,0:0:0:0:
256,192,91360,1,0,0:0:0:0:
256,192,91882,1,8,0:0:0:0:
256,192,92925,1,0,0:0:0:0:
256,192,93447,1,0,0:0:0:0:
256,192,93969,1,8,0:0:0:0:
256,192,94490,1,0,0:0:0:0:
256,192,95534,1,0,0:0:0:0:
256,192,96056,1,0,0:0:0:0:
256,192,97099,1,0,0:0:0:0:
256,192,97621,1,8,0:0:0:0:
256,192,98143,1,0,0:0:0:0:
256,192,98403,1,0,0:0:0:0:
256,192,98664,1,8,0:0:0:0:
256,192,99708,1,0,0:0:0:0:
256,192,100230,1,8,0:0:0:0:
256,192,101273,1,0,0:0:0:0:
256,192,101795,1,0,0:0:0:0:
256,192,102316,1,8,0:0:0:0:
256,192,103360,1,8,0:0:0:0:
256,192,104403,1,8,0:0:0:0:
256,192,105969,1,0,0:0:0:0:
256,192,106490,1,0,0:0:0:0:
256,192,106751,1,0,0:0:0:0:
256,192,107012,1,8,0:0:0:0:
256,192,108056,1,8,0:0:0:0:
256,192,108316,1,0,0:0:0:0:
256,192,108838,1,0,0:0:0:0:
256,192,109099,1,8,0:0:0:0:
256,192,110664,1,8,0:0:0:0:
256,192,111186,1,0,0:0:0:0:
256,192,111708,1,8,0:0:0:0:
256,192,111969,1,8,0:0:0:0:
256,192,112230,1,0,0:0:0:0:
256,192,112751,1,8,0:0:0:0:
256,192,113273,1,8,0:0:0:0:
256,192,114056,1,8,0:0:0:0:
256,192,114838,1,0,0:0:0:0:
256,192,115360,1,0,0:0:0:0:
256,192,116403,1,8,0:0:0:0:
256,192,116925,1,8,0:0:0:0:
256,192,117447,1,8,0:0:0:0:
256,192,117969,1,0,0:0:0:0:
256,192,118490,1,0,0:0:0:0:
256,192,119012,12,0,123186,0:0:0:0:
