osu file format v14

[General]
AudioFilename: audio.mp3
AudioLeadIn: 0
PreviewTime: 58557
Countdown: 0
SampleSet: Soft
StackLeniency: 0.8
Mode: 0
LetterboxInBreaks: 0
WidescreenStoryboard: 0

[Editor]
Bookmarks: 12686,25073,49847,59137,71524,87008,99395,124169,133460,145847,158234,170621,183008,189202,201976,220169,223266,229460,241847,257137
DistanceSpacing: 1.1
BeatDivisor: 4
GridSize: 8
TimelineZoom: 1.9

[Metadata]
Title:Endroll
TitleUnicode:エンドロール
Artist:Natsushiro Takaaki
ArtistUnicode:夏代孝明
Creator:alevi
Version:Oriental's Hard
Source:
Tags:jpop j-pop japanese pop male vocals vocalist utaite gänger ganger gaenger ゆーえい Yuei P-ch! oriental ernua
BeatmapID:3213586
BeatmapSetID:1568908

[Difficulty]
HPDrainRate:4.8
CircleSize:3.5
OverallDifficulty:7
ApproachRate:8
SliderMultiplier:1.5
SliderTickRate:1

[Events]
//Background and Video events
0,0,"thumb-1920-1100553.jpg",0,0
Video,-64,"endroll_video.mp4"
//Break Periods
//Storyboard Layer 0 (Background)
//Storyboard Layer 1 (Fail)
//Storyboard Layer 2 (Pass)
//Storyboard Layer 3 (Foreground)
//Storyboard Layer 4 (Overlay)
//Storyboard Sound Samples

[TimingPoints]
299,387.096774193548,4,1,2,30,1,0
10944,-125,4,2,2,60,0,0
11911,-125,4,2,2,60,0,0
12686,-100,4,2,2,70,0,0
12976,-100,4,2,2,5,0,0
13073,-100,4,2,2,70,0,0
16073,-100,4,2,2,5,0,0
16170,-100,4,2,2,70,0,0
18782,-100,4,2,2,5,0,0
18879,-100,4,2,2,70,0,0
19169,-100,4,2,2,5,0,0
19266,-100,4,2,2,70,0,0
24976,-100,4,2,2,5,0,0
25073,-125,4,2,2,60,0,0
26621,-100,4,2,2,60,0,0
26718,-125,4,2,2,60,0,0
32815,-100,4,2,2,60,0,0
32912,-125,4,2,2,60,0,0
37750,-125,4,2,2,5,0,0
37847,-125,4,2,2,60,0,0
53073,-125,4,2,2,5,0,0
53202,-125,4,2,2,60,0,0
53331,-125,4,2,2,5,0,0
53460,-125,4,2,2,60,0,0
53589,-125,4,2,2,5,0,0
53718,-125,4,2,2,60,0,0
53847,-125,4,2,2,5,0,0
53976,-125,4,2,2,60,0,0
54105,-125,4,2,2,5,0,0
54234,-125,4,2,2,60,0,0
54363,-125,4,2,2,5,0,0
54492,-125,4,2,2,60,0,0
54621,-125,4,2,2,5,0,0
54750,-125,4,2,2,60,0,0
54879,-125,4,2,2,5,0,0
55008,-125,4,2,2,60,0,0
55137,-125,4,2,2,5,0,0
55266,-125,4,2,2,60,0,0
56040,-100,4,2,2,70,0,0
59137,-83.3333333333333,4,2,2,80,0,1
59234,-83.3333333333333,4,2,2,80,0,0
65621,-83.3333333333333,4,2,2,5,0,0
65718,-83.3333333333333,4,2,2,80,0,0
66589,-83.3333333333333,4,2,2,5,0,0
66686,-83.3333333333333,4,2,2,80,0,0
71524,-83.3333333333333,4,2,2,80,0,1
71621,-83.3333333333333,4,2,2,80,0,0
79460,-83.3333333333333,4,2,2,5,0,0
79557,-83.3333333333333,4,2,2,80,0,0
79750,-83.3333333333333,4,2,2,5,0,0
79847,-83.3333333333333,4,2,2,80,0,0
86911,-83.3333333333333,4,2,2,5,0,0
87008,-100,4,2,2,70,0,0
87298,-100,4,2,2,5,0,0
87395,-100,4,2,2,70,0,0
90395,-100,4,2,2,5,0,0
90492,-100,4,2,2,70,0,0
93105,-100,4,2,2,5,0,0
93202,-100,4,2,2,70,0,0
93492,-100,4,2,2,5,0,0
93589,-100,4,2,2,70,0,0
99298,-100,4,2,2,5,0,0
99395,-125,4,2,2,40,0,0
107234,-125,4,2,2,5,0,0
107331,-125,4,2,2,40,0,0
110040,-125,4,2,2,60,0,0
114202,-125,4,2,2,5,0,0
114298,-125,4,2,2,60,0,0
115750,-125,4,2,2,5,0,0
115846,-125,4,2,2,60,0,0
127395,-125,4,2,2,5,0,0
127524,-125,4,2,2,60,0,0
127653,-125,4,2,2,5,0,0
127782,-125,4,2,2,60,0,0
127911,-125,4,2,2,5,0,0
128040,-125,4,2,2,60,0,0
128169,-125,4,2,2,5,0,0
128298,-125,4,2,2,60,0,0
128428,-125,4,2,2,5,0,0
128557,-125,4,2,2,60,0,0
128686,-125,4,2,2,5,0,0
128815,-125,4,2,2,60,0,0
128944,-125,4,2,2,5,0,0
129073,-125,4,2,2,60,0,0
129202,-125,4,2,2,5,0,0
129331,-125,4,2,2,60,0,0
129460,-125,4,2,2,5,0,0
129589,-125,4,2,2,60,0,0
130363,-100,4,2,2,70,0,0
133460,-83.3333333333333,4,2,2,80,0,1
133557,-83.3333333333333,4,2,2,80,0,0
139944,-83.3333333333333,4,2,2,5,0,0
140040,-83.3333333333333,4,2,2,80,0,0
140911,-83.3333333333333,4,2,2,5,0,0
141007,-83.3333333333333,4,2,2,80,0,0
145847,-83.3333333333333,4,2,2,80,0,1
145944,-83.3333333333333,4,2,2,80,0,0
153782,-83.3333333333333,4,2,2,5,0,0
153879,-83.3333333333333,4,2,2,80,0,0
154073,-83.3333333333333,4,2,2,5,0,0
154169,-83.3333333333333,4,2,2,80,0,0
157653,-100,4,2,2,60,0,0
158137,-100,4,2,2,5,0,0
158234,-125,4,2,2,40,0,0
165492,-125,4,2,2,5,0,0
165589,-125,4,2,2,40,0,0
167815,-125,4,2,2,5,0,0
167912,-125,4,2,2,40,0,0
170040,-100,4,2,2,60,0,0
170524,-100,4,2,2,5,0,0
170621,-100,4,2,2,70,0,0
173621,-100,4,2,2,5,0,0
173718,-100,4,2,2,70,0,0
183008,-83.3333333333333,4,2,2,80,0,1
189202,-166.666666666667,4,2,2,40,0,0
198298,-166.666666666667,4,2,2,60,0,0
199653,-100,4,2,2,70,0,0
201976,-83.3333333333333,4,2,2,80,0,1
208073,-83.3333333333333,4,2,2,5,0,1
208169,-83.3333333333333,4,2,2,80,0,1
209040,-83.3333333333333,4,2,2,5,0,1
209137,-83.3333333333333,4,2,2,80,0,1
219686,-83.3333333333333,4,2,2,5,0,1
219783,-83.3333333333333,4,2,2,80,0,1
220169,-83.3333333333333,4,2,2,80,0,0
222202,-83.3333333333333,4,2,2,5,0,0
222298,-83.3333333333333,4,2,2,80,0,0
223266,-83.3333333333333,4,2,2,80,0,1
229460,-100,4,2,2,70,0,0
229750,-100,4,2,2,5,0,0
229847,-100,4,2,2,70,0,0
235557,-100,4,2,2,5,0,0
235653,-100,4,2,2,70,0,0
237298,-100,4,2,2,5,0,0
237395,-100,4,2,2,70,0,0
247944,-100,4,2,2,5,0,0
248040,-100,4,2,2,70,0,0

[Colours]
Combo1 : 152,80,239
Combo2 : 230,110,150
Combo3 : 234,28,131
Combo4 : 163,156,245

[HitObjects]
256,192,6492,12,8,10944,0:0:0:0:
25,281,11911,5,0,1:0:0:0:
25,281,12105,1,0,1:0:0:0:
58,177,12298,2,0,B|81:157|81:157|106:171,1,60,12|0,0:0|0:0,0:0:0:0:
142,251,12686,6,0,P|197:244|271:239,1,112.5,6|0,0:0|0:0,0:0:0:0:
265,245,13073,2,0,P|283:213|276:177,1,75,10|0,0:0|0:0,0:0:0:0:
197,132,13460,1,2,0:0:0:0:
348,103,13653,2,0,P|323:75|286:71,1,75,0|0,1:0|0:0,0:0:0:0:
384,188,14040,6,0,P|373:223|387:256,1,75,10|0,0:0|0:0,0:0:0:0:
439,114,14427,2,0,P|474:105|496:76,1,75,2|8,1:2|0:0,0:0:0:0:
348,103,14815,2,0,P|323:75|286:71,1,75,2|0,0:0|0:0,0:0:0:0:
384,188,15202,1,2,1:2:0:0:
439,114,15395,1,8,0:0:0:0:
348,103,15589,1,0,1:0:0:0:
339,105,15686,1,0,1:0:0:0:
330,107,15782,6,0,B|277:99|277:99|268:104|268:104|219:98,1,112.5,0|0,1:0|0:0,0:0:0:0:
209,92,16169,2,0,L|215:166,1,75,10|0,0:0|0:0,0:0:0:0:
182,252,16557,1,2,0:0:0:0:
79,184,16750,2,0,P|63:150|70:114,1,75,0|0,1:0|0:0,0:0:0:0:
107,308,17137,6,0,P|67:295|47:265,1,75,10|0,0:0|0:0,0:0:0:0:
182,252,17524,2,0,P|165:213|175:178,1,75,2|8,1:2|0:0,0:0:0:0:
273,273,17911,2,0,P|292:235|325:221,1,75,2|0,0:0|0:0,0:0:0:0:
315,356,18298,1,2,1:2:0:0:
210,371,18492,2,0,P|266:364|322:362,1,112.5,8|0,0:0|0:0,0:0:0:0:
330,372,18879,6,0,P|384:353|388:299,1,112.5,6|0,1:2|0:0,0:0:0:0:
383,295,19266,2,0,P|358:267|354:230,1,75,10|0,0:0|0:0,0:0:0:0:
401,154,19653,1,2,0:0:0:0:
262,181,19847,2,0,P|280:149|314:133,1,75,0|0,1:0|0:0,0:0:0:0:
468,175,20234,6,0,P|431:174|400:153,1,75,10|0,0:0|0:0,0:0:0:0:
360,0,20621,2,0,P|378:32|374:69,1,75,2|8,1:2|0:0,0:0:0:0:
262,181,21008,2,0,P|280:149|314:133,1,75,2|0,0:0|0:0,0:0:0:0:
468,175,21395,1,2,1:2:0:0:
425,254,21589,2,0,P|383:256|330:261,1,75,8|0,0:0|0:0,0:0:0:0:
341,267,21879,1,0,0:0:0:0:
332,276,21976,6,0,P|303:298|266:296,1,75,2|0,1:2|0:0,0:0:0:0:
194,241,22363,2,0,P|198:207|204:157,1,75,8|0,0:0|0:0,0:0:0:0:
271,108,22750,1,0,1:0:0:0:
271,108,22944,1,2,0:0:0:0:
139,58,23137,1,10,0:0:0:0:
70,117,23331,6,0,P|47:186|80:251,1,150,2|0,1:2|1:0,0:0:0:0:
206,316,23911,1,8,0:0:0:0:
78,358,24105,1,0,0:0:0:0:
171,234,24298,5,8,0:0:0:0:
260,244,24492,1,0,3:0:0:0:
349,254,24686,2,0,B|379:265|379:265|387:303|393:360,1,112.5,8|0,0:0|0:0,0:0:0:0:
392,357,25073,5,2,1:2:0:0:
392,357,25847,1,2,0:0:0:0:
475,324,26040,2,0,P|502:267|472:207,1,120,2|2,0:0|0:0,0:0:0:0:
404,173,26621,6,0,B|350:175|350:175|345:181|345:181|288:183,2,112.5,14|14|14,0:0|0:0|0:0,0:0:0:0:
234,112,27589,1,2,0:0:0:0:
162,166,27782,1,10,0:0:0:0:
164,178,27879,1,10,0:0:0:0:
166,190,27976,1,2,0:0:0:0:
111,261,28169,6,0,L|43:252,1,60,6|2,0:0|0:0,0:0:0:0:
193,304,28557,2,0,L|252:311,1,60,10|2,0:0|0:0,0:0:0:0:
116,350,28944,1,2,0:0:0:0:
116,350,29137,2,0,L|57:343,1,60,2|2,1:2|0:0,0:0:0:0:
193,303,29524,6,0,P|229:258|223:200,1,120,10|2,0:0|0:0,0:0:0:0:
150,146,30105,1,10,0:0:0:0:
26,171,30298,2,0,B|80:166|80:166|97:149|97:149|138:144,1,120,2|2,0:0|0:0,0:0:0:0:
203,81,30879,1,10,0:0:0:0:
285,117,31073,1,10,0:0:0:0:
283,128,31169,1,8,0:0:0:0:
282,139,31266,5,2,0:0:0:0:
282,139,32040,2,0,P|311:143|341:148,1,60,2|2,0:0|0:0,0:0:0:0:
355,141,32331,2,0,P|384:173|380:216,1,90,2|2,0:0|0:0,0:0:0:0:
319,284,32815,6,0,B|278:282|225:287|225:287|240:276,2,112.5,10|14|14,0:0|0:0|0:0,0:0:0:0:
152,351,33782,1,2,0:0:0:0:
87,287,33976,1,2,0:0:0:0:
89,275,34073,1,8,0:0:0:0:
91,263,34170,1,2,0:0:0:0:
142,189,34363,6,0,L|227:200,1,60,6|2,1:2|0:0,0:0:0:0:
304,111,34751,2,0,L|245:119,1,60,10|2,0:0|0:0,0:0:0:0:
174,25,35138,1,2,0:0:0:0:
174,24,35331,2,0,L|233:31,1,60,2|2,1:2|0:0,0:0:0:0:
92,65,35718,6,0,P|99:124|105:184,1,120,10|2,0:0|0:0,0:0:0:0:
167,247,36299,1,8,0:0:0:0:
56,311,36492,2,0,B|110:316|110:316|127:333|127:333|169:337,1,120,2|2,0:0|0:0,0:0:0:0:
245,290,37073,1,10,0:0:0:0:
320,340,37267,1,10,0:0:0:0:
319,350,37363,1,8,0:0:0:0:
318,360,37460,6,0,P|366:365|400:325,1,90,6|0,1:2|0:0,0:0:0:0:
400,328,37847,2,0,P|402:298|389:271,1,60,8|0,0:0|0:0,0:0:0:0:
321,212,38234,1,2,0:0:0:0:
443,154,38428,2,0,P|413:151|384:148,1,60,0|0,1:0|0:0,0:0:0:0:
321,212,38815,1,10,0:0:0:0:
308,65,39008,5,2,0:0:0:0:
225,101,39202,1,0,1:0:0:0:
227,113,39298,1,2,0:0:0:0:
228,125,39395,2,0,P|231:154|234:184,1,60,8|2,0:0|0:0,0:0:0:0:
176,253,39782,1,0,0:0:0:0:
176,253,39976,2,0,P|146:250|116:246,1,60,2|10,1:2|0:0,0:0:0:0:
230,324,40363,1,2,0:0:0:0:
325,231,40557,6,0,P|327:261|314:287,1,60,2|2,1:2|0:0,0:0:0:0:
176,343,40944,2,0,P|200:325|230:324,1,60,10|2,0:0|0:0,0:0:0:0:
303,376,41331,1,2,0:0:0:0:
303,376,41524,2,0,P|332:373|362:370,1,60,2|2,1:2|0:0,0:0:0:0:
466,283,41911,6,0,B|374:262|374:262|386:284,1,120,10|2,0:0|1:2,0:0:0:0:
457,375,42492,1,8,0:0:0:0:
479,287,42686,2,0,P|472:227|468:167,1,120,2|2,0:0|1:2,0:0:0:0:
406,102,43266,1,10,0:0:0:0:
406,102,43460,1,2,0:0:0:0:
282,165,43653,6,0,P|223:154|164:148,1,120,6|8,1:2|0:0,0:0:0:0:
104,81,44234,1,0,0:0:0:0:
51,199,44428,1,2,0:0:0:0:
51,199,44621,2,0,P|34:174|35:144,1,60,2|0,1:2|0:0,0:0:0:0:
175,140,45008,6,0,P|168:181|166:224,1,60,10|0,0:0|0:0,0:0:0:0:
116,276,45395,2,0,P|87:298|60:299,1,60,2|8,0:0|0:0,0:0:0:0:
208,281,45782,2,0,P|241:295|255:317,1,60,2|0,0:0|0:0,0:0:0:0:
166,199,46169,1,2,1:2:0:0:
166,199,46363,2,0,P|169:169|175:140,1,60,10|2,0:0|0:0,0:0:0:0:
264,110,46750,5,6,1:2:0:0:
264,110,46944,1,0,1:0:0:0:
131,53,47137,2,0,P|160:51|190:46,1,60,8|0,0:0|0:0,0:0:0:0:
268,0,47524,1,0,0:0:0:0:
358,88,47717,2,0,P|362:117|353:145,1,60,0|8,1:0|0:0,0:0:0:0:
241,167,48105,6,0,P|300:160|360:157,1,120,0|0,1:0|1:0,0:0:0:0:
426,219,48686,1,10,0:0:0:0:
362,335,48879,1,2,1:2:0:0:
362,335,49073,2,0,P|324:339|291:320,1,60,10|0,0:0|3:0,0:0:0:0:
246,261,49460,1,0,3:0:0:0:
246,261,49653,1,0,3:0:0:0:
95,289,49847,6,0,P|51:293|9:303,2,80,6|10|2,0:0|0:0|1:2,0:0:0:0:
186,194,50621,2,0,P|142:189|100:180,2,80,2|10|2,1:2|0:0|1:2,0:0:0:0:
261,323,51395,2,0,P|217:327|175:337,2,80,2|10|2,1:2|0:0|1:2,0:0:0:0:
368,179,52169,5,10,0:0:0:0:
248,231,52428,1,10,0:0:0:0:
353,308,52686,1,10,0:0:0:0:
266,136,52944,6,0,L|270:93,1,40,6|0,0:0|0:0,0:0:0:0:
178,148,53202,2,0,L|182:105,1,40,10|0,0:0|0:0,0:0:0:0:
90,160,53460,2,0,L|94:117,1,40,2|0,1:2|0:0,0:0:0:0:
61,253,53718,6,0,L|56:306,1,40,2|0,1:2|0:0,0:0:0:0:
169,237,53976,2,0,L|164:290,1,40,10|0,0:0|0:0,0:0:0:0:
279,222,54234,2,0,L|274:275,1,40,2|0,1:2|0:0,0:0:0:0:
368,315,54492,6,0,L|372:368,1,40,2|0,1:2|0:0,0:0:0:0:
425,209,54750,2,0,L|429:262,1,40,10|0,0:0|0:0,0:0:0:0:
482,103,55008,2,0,L|486:156,1,40,2|0,1:2|0:0,0:0:0:0:
420,26,55266,5,10,0:0:0:0:
389,110,55460,1,2,1:2:0:0:
331,42,55653,1,10,0:0:0:0:
322,45,55751,1,8,0:0:0:0:
313,48,55847,1,0,3:0:0:0:
231,122,56040,6,0,P|171:114|75:105,1,150,14|0,0:0|1:0,0:0:0:0:
11,48,56621,1,0,1:0:0:0:
32,206,56815,1,0,1:0:0:0:
32,206,57008,2,0,P|68:210|104:198,1,75,8|10,0:0|0:0,0:0:0:0:
224,111,57395,6,0,P|203:183|189:256,1,150,10|10,0:0|0:0,0:0:0:0:
66,304,57976,1,8,0:0:0:0:
73,312,58073,1,0,3:0:0:0:
82,318,58169,2,0,P|100:314|119:313,1,37.5,8|0,3:2|1:0,0:0:0:0:
205,346,58363,1,10,0:0:0:0:
205,346,58944,1,10,0:0:0:0:
215,351,59040,1,8,0:0:0:0:
224,357,59137,6,0,B|314:362|281:276|380:278,1,179.999994506836,6|10,1:2|0:0,0:0:0:0:
509,370,59718,1,0,0:0:0:0:
508,370,59911,2,0,P|466:377|434:348,1,89.9999972534181,2|0,1:2|0:0,0:0:0:0:
472,210,60298,1,10,0:0:0:0:
472,210,60492,6,0,P|490:120|500:31,1,179.999994506836,2|2,0:0|0:0,0:0:0:0:
334,2,61073,1,10,0:0:0:0:
275,81,61266,1,2,0:0:0:0:
407,73,61460,1,2,1:2:0:0:
407,73,61653,2,0,P|401:118|393:167,1,89.9999972534181,2|10,0:0|0:0,0:0:0:0:
377,259,62040,1,2,0:0:0:0:
484,184,62234,6,0,P|389:200|306:212,2,179.999994506836,2|10|2,0:0|0:0|1:2,0:0:0:0:
413,373,63395,1,10,0:0:0:0:
289,312,63589,6,0,P|202:288|110:277,1,179.999994506836,2|2,0:0|0:0,0:0:0:0:
43,375,64169,1,10,0:0:0:0:
183,334,64363,1,2,0:0:0:0:
197,235,64557,2,0,P|173:199|106:186,1,89.9999972534181,2|0,1:2|0:0,0:0:0:0:
49,210,64847,1,0,0:0:0:0:
38,214,64944,2,0,L|49:147,3,44.999998626709,8|8|10|8,0:0|0:0|0:0|0:0,0:0:0:0:
41,157,65331,6,0,P|79:103|144:92,1,134.999995880127,2|0,1:2|0:0,0:0:0:0:
156,98,65718,2,0,P|194:119|239:115,1,89.9999972534181,8|2,0:0|0:0,0:0:0:0:
365,43,66105,1,2,1:2:0:0:
454,85,66298,1,0,0:0:0:0:
462,93,66395,2,0,L|454:182,1,89.9999972534181,2|0,0:0|0:0,0:0:0:0:
462,193,66686,6,0,P|372:195|282:207,1,179.999994506836,2|0,0:0|0:0,0:0:0:0:
213,91,67266,2,0,P|184:122|193:165,1,89.9999972534181,10|0,0:0|0:0,0:0:0:0:
130,296,67653,1,2,1:2:0:0:
130,296,67847,2,0,P|174:292|208:263,1,89.9999972534181,2|8,0:0|0:0,0:0:0:0:
314,338,68234,6,0,P|227:314|138:305,1,179.999994506836,2|2,0:0|0:0,0:0:0:0:
0,384,68815,2,0,P|32:365|39:300,1,89.9999972534181,10|0,0:0|0:0,0:0:0:0:
21,173,69202,1,2,1:2:0:0:
21,173,69395,2,0,P|47:218|92:223,1,89.9999972534181,2|10,0:0|0:0,0:0:0:0:
152,120,69782,6,0,P|141:209|131:298,1,179.999994506836,6|2,0:0|0:0,0:0:0:0:
271,353,70363,1,10,0:0:0:0:
247,242,70557,1,2,0:0:0:0:
184,380,70750,1,2,0:0:0:0:
282,349,70944,1,0,1:0:0:0:
380,318,71137,1,10,0:0:0:0:
380,306,71233,1,8,0:0:0:0:
381,295,71330,1,10,0:0:0:0:
382,284,71427,1,8,0:0:0:0:
383,273,71524,6,0,B|388:212|388:212|379:186|379:186|385:95,1,179.999994506836,2|10,1:2|0:0,0:0:0:0:
243,70,72105,1,2,0:0:0:0:
243,70,72298,2,0,P|213:101|219:144,1,89.9999972534181,2|0,1:2|0:0,0:0:0:0:
323,15,72685,1,10,0:0:0:0:
323,15,72879,6,0,P|233:33|144:43,1,179.999994506836,2|2,0:0|0:0,0:0:0:0:
80,174,73460,1,10,0:0:0:0:
41,82,73653,1,2,0:0:0:0:
173,140,73847,1,2,1:2:0:0:
173,140,74040,2,0,P|179:191|156:235,1,89.9999972534181,2|10,0:0|0:0,0:0:0:0:
93,298,74427,1,2,0:0:0:0:
263,264,74621,6,0,P|173:272|85:292,1,179.999994506836,2|10,0:0|0:0,0:0:0:0:
144,372,75202,1,2,0:0:0:0:
144,371,75395,2,0,P|187:359|232:356,1,89.9999972534181,2|0,1:2|0:0,0:0:0:0:
329,377,75782,1,10,0:0:0:0:
464,329,75976,6,0,P|509:256|478:174,1,179.999994506836,2|2,0:0|0:0,0:0:0:0:
327,135,76556,1,10,0:0:0:0:
417,93,76750,1,2,0:0:0:0:
386,202,76944,2,0,P|320:187|192:172,1,179.999994506836,2|8,1:2|0:0,0:0:0:0:
200,182,77428,1,8,0:0:0:0:
191,192,77524,1,0,3:0:0:0:
219,328,77718,6,0,B|278:325|278:325|283:319|283:319|350:314,2,134.999995880127,12|10|10,0:0|0:0|0:0,0:0:0:0:
135,275,78492,2,0,B|76:278|76:278|71:284|71:284|3:288,2,134.999995880127,14|10|10,0:0|0:0|0:0,0:0:0:0:
190,192,79266,6,0,P|222:160|228:116,1,89.9999972534181,10|0,0:0|0:0,0:0:0:0:
238,110,79557,2,0,P|222:68|185:44,1,89.9999972534181,0|0,3:0|0:0,0:0:0:0:
195,35,79847,2,0,B|102:39|102:39|98:50|98:50|15:56,1,179.999994506836,10|2,0:0|1:2,0:0:0:0:
76,139,80428,1,10,0:0:0:0:
73,151,80525,1,8,0:0:0:0:
72,164,80621,1,0,3:0:0:0:
3,287,80815,6,0,B|30:323|30:323|95:327|171:302,1,179.999994506836,6|8,0:0|0:0,0:0:0:0:
243,245,81395,1,2,0:0:0:0:
244,232,81491,1,0,0:0:0:0:
246,219,81588,1,0,1:0:0:0:
329,289,81782,2,0,P|333:244|341:183,1,89.9999972534181,2|8,0:0|0:0,0:0:0:0:
431,160,82169,6,0,B|493:118|460:36|460:36|420:27,1,179.999994506836,2|2,0:0|0:0,0:0:0:0:
268,89,82750,2,0,P|308:108|352:104,1,89.9999972534181,10|2,0:0|0:0,0:0:0:0:
324,12,83137,1,2,1:2:0:0:
324,12,83331,1,2,0:0:0:0:
224,0,83524,2,0,P|187:23|171:65,1,89.9999972534181,10|2,0:0|0:0,0:0:0:0:
57,110,83911,6,0,P|56:155|85:196,1,89.9999972534181,6|0,0:0|1:0,0:0:0:0:
225,287,84298,2,0,P|135:220|32:201,1,179.999994506836,8|8,0:0|0:0,0:0:0:0:
51,367,84879,1,0,1:0:0:0:
2,280,85073,1,8,0:0:0:0:
147,349,85266,6,0,P|235:334|325:326,1,179.999994506836,4|0,0:0|1:0,0:0:0:0:
487,353,85847,2,0,P|446:339|419:304,1,89.9999972534181,8|0,0:0|1:0,0:0:0:0:
355,239,86234,1,8,0:0:0:0:
351,229,86331,1,8,0:0:0:0:
346,218,86428,2,0,L|351:174,1,44.999998626709,8|8,0:0|0:0,0:0:0:0:
413,106,86621,2,0,B|378:95|361:64|361:64|340:91|301:90,1,134.999995880127,14|0,0:0|0:0,0:0:0:0:
287,88,87008,6,0,P|253:72|247:-3,1,112.5,0|0,1:0|0:0,0:0:0:0:
234,8,87395,2,0,P|200:29|193:68,1,75,10|0,0:0|0:0,0:0:0:0:
212,149,87782,1,2,0:0:0:0:
89,210,87975,2,0,B|117:234|117:234|153:223,1,75,0|0,1:0|0:0,0:0:0:0:
230,325,88363,6,0,B|202:301|202:301|165:311,1,75,10|0,0:0|0:0,0:0:0:0:
271,240,88750,2,0,B|299:264|299:264|335:253,1,75,2|8,1:2|0:0,0:0:0:0:
412,355,89138,2,0,B|384:331|384:331|347:341,1,75,2|0,0:0|0:0,0:0:0:0:
488,304,89524,1,2,1:2:0:0:
442,226,89717,1,8,0:0:0:0:
492,151,89911,1,2,0:0:0:0:
490,142,90008,1,2,0:0:0:0:
487,133,90104,6,0,P|430:129|375:121,1,112.5,0|0,1:0|0:0,0:0:0:0:
363,128,90492,2,0,P|326:130|297:107,1,75,10|0,0:0|0:0,0:0:0:0:
233,43,90879,1,2,0:0:0:0:
155,144,91072,2,0,P|151:107|146:69,1,75,0|0,1:0|0:0,0:0:0:0:
201,235,91460,6,0,P|226:208|261:196,1,75,10|0,0:0|0:0,0:0:0:0:
82,216,91847,2,0,P|64:183|34:160,1,75,2|8,1:2|0:0,0:0:0:0:
171,292,92234,2,0,P|175:255|196:224,1,75,2|0,0:0|0:0,0:0:0:0:
95,337,92620,1,2,1:2:0:0:
227,375,92814,2,0,P|282:360|343:358,1,112.5,8|0,0:0|0:0,0:0:0:0:
348,350,93201,6,0,P|391:334|391:267,1,112.5,0|0,1:0|0:0,0:0:0:0:
386,260,93588,2,0,P|349:253|316:235,1,75,10|0,0:0|0:0,0:0:0:0:
279,154,93975,1,2,0:0:0:0:
367,78,94169,2,0,P|380:112|370:148,1,75,2|2,1:2|0:0,0:0:0:0:
308,243,94557,6,0,P|269:235|230:233,1,75,10|0,0:0|0:0,0:0:0:0:
136,367,94944,2,0,P|172:367|198:341,1,75,2|8,1:2|0:0,0:0:0:0:
139,250,95331,2,0,P|102:243|64:240,1,75,2|0,0:0|0:0,0:0:0:0:
13,367,95717,1,2,1:2:0:0:
57,251,95911,2,0,P|55:209|50:156,1,75,8|0,0:0|0:0,0:0:0:0:
44,167,96202,1,2,0:0:0:0:
35,158,96298,6,0,P|13:129|15:92,1,75,2|0,1:2|0:0,0:0:0:0:
78,28,96685,2,0,P|115:32|154:36,1,75,8|0,0:0|0:0,0:0:0:0:
212,103,97072,1,0,1:0:0:0:
212,103,97266,1,6,0:0:0:0:
173,250,97459,1,10,0:0:0:0:
235,315,97653,6,0,B|316:327|287:261|375:269,1,150,2|0,1:2|1:0,0:0:0:0:
458,379,98233,1,8,0:0:0:0:
370,358,98427,1,0,0:0:0:0:
475,276,98620,5,0,1:0:0:0:
465,187,98814,1,2,3:2:0:0:
455,98,99008,2,0,P|404:70|338:96,1,112.5,2|0,3:2|0:0,0:0:0:0:
345,91,99395,6,0,P|348:117|350:150,1,60,6|0,0:0|0:0,0:0:0:0:
260,159,99782,2,0,P|256:129|254:99,1,60,2|0,0:0|0:0,0:0:0:0:
184,42,100169,2,0,L|190:-10,2,30,2|2|2,0:0|0:0|0:0,0:0:0:0:
178,54,100460,2,0,P|144:82|100:79,1,90,2|2,0:0|0:0,0:0:0:0:
91,72,100847,1,2,0:0:0:0:
84,63,100944,5,2,0:0:0:0:
13,118,101137,1,2,0:0:0:0:
17,208,101331,1,2,0:0:0:0:
92,255,101524,1,2,0:0:0:0:
176,227,101718,2,0,P|206:228|238:233,1,60,2|2,0:0|0:0,0:0:0:0:
315,276,102105,2,0,P|344:277|376:282,1,60,2|2,0:0|0:0,0:0:0:0:
409,365,102492,6,0,P|350:368|275:374,1,120,2|0,0:0|0:0,0:0:0:0:
211,326,103073,1,2,0:0:0:0:
127,358,103266,2,0,P|97:356|74:338,1,60,2|2,0:0|0:0,0:0:0:0:
70,329,103557,1,0,0:0:0:0:
69,319,103653,1,2,0:0:0:0:
99,233,103847,6,0,P|158:236|218:239,1,120,2|2,0:0|0:0,0:0:0:0:
290,185,104428,1,2,0:0:0:0:
257,101,104621,1,2,0:0:0:0:
373,140,104815,2,0,P|383:167|382:197,1,60,2|2,0:0|0:0,0:0:0:0:
438,267,105202,2,0,P|433:296|417:321,1,60,2|2,0:0|0:0,0:0:0:0:
299,366,105589,6,0,P|240:353|180:346,1,120,2|0,0:0|0:0,0:0:0:0:
117,283,106169,1,2,0:0:0:0:
21,376,106363,1,2,0:0:0:0:
21,376,106557,2,0,P|27:347|31:318,1,60,2|2,0:0|0:0,0:0:0:0:
69,203,106944,6,0,P|94:188|156:200,1,90,2|0,0:0|0:0,0:0:0:0:
164,206,107331,2,0,P|188:222|218:223,1,60,2|2,0:0|0:0,0:0:0:0:
291,171,107718,2,0,P|296:109|303:31,2,120,2|2|2,0:0|0:0|0:0,0:0:0:0:
421,227,108686,6,0,P|462:269|460:327,1,120,2|0,0:0|0:0,0:0:0:0:
391,380,109266,1,2,0:0:0:0:
391,380,109460,2,0,P|364:368|335:363,1,60,2|2,0:0|3:2,0:0:0:0:
244,374,109847,1,2,0:0:0:0:
348,273,110040,1,10,0:0:0:0:
348,273,111008,5,10,0:0:0:0:
349,262,111105,2,0,L|357:192,1,60,0|0,3:0|3:0,0:0:0:0:
349,191,111395,2,0,P|330:168|302:161,1,60,14|2,0:0|0:0,0:0:0:0:
194,222,111782,6,0,P|134:231|75:238,1,120,2|8,0:0|0:0,0:0:0:0:
28,63,112557,2,0,P|46:48|97:47,1,60,2|0,0:0|1:0,0:0:0:0:
88,32,112847,2,0,P|131:37|163:68,1,90,2|10,0:0|0:0,0:0:0:0:
162,82,113234,1,2,0:0:0:0:
161,95,113331,5,2,0:0:0:0:
215,165,113524,1,2,1:2:0:0:
304,156,113718,1,10,0:0:0:0:
334,71,113911,2,0,P|365:39|409:33,1,90,2|0,0:0|0:0,0:0:0:0:
420,44,114298,2,0,P|417:75|413:103,1,60,2|8,1:2|0:0,0:0:0:0:
460,181,114686,1,2,0:0:0:0:
411,294,114879,6,0,P|382:287|353:283,1,60,2|2,1:2|0:0,0:0:0:0:
342,288,115169,1,0,0:0:0:0:
332,294,115266,1,10,0:0:0:0:
260,349,115460,2,0,P|233:362|162:371,1,90,2|0,0:0|0:0,0:0:0:0:
160,366,115847,2,0,P|143:341|145:312,1,60,2|2,1:2|0:0,0:0:0:0:
53,359,116234,6,0,P|56:299|81:245,1,120,10|2,0:0|1:2,0:0:0:0:
191,190,116815,2,0,P|207:214|205:243,1,60,10|2,0:0|0:0,0:0:0:0:
104,155,117202,1,2,0:0:0:0:
104,155,117395,2,0,P|111:125|116:96,1,60,2|10,1:2|0:0,0:0:0:0:
195,53,117782,1,2,0:0:0:0:
199,60,117879,1,0,0:0:0:0:
202,67,117976,6,0,P|263:66|322:60,1,120,6|8,0:0|0:0,0:0:0:0:
404,98,118557,1,2,0:0:0:0:
375,213,118750,1,2,0:0:0:0:
375,213,118944,2,0,P|350:230|321:231,1,60,2|0,1:2|0:0,0:0:0:0:
201,194,119331,6,0,P|211:172|253:197,1,60,10|0,0:0|0:0,0:0:0:0:
260,306,119718,2,0,P|230:304|206:287,1,60,2|8,0:0|0:0,0:0:0:0:
108,202,120105,2,0,P|112:172|116:142,1,60,2|0,0:0|0:0,0:0:0:0:
19,250,120492,1,2,1:2:0:0:
19,250,120686,2,0,P|25:298|39:317,1,60,10|2,0:0|0:0,0:0:0:0:
108,353,121073,5,6,0:0:0:0:
108,353,121266,1,0,1:0:0:0:
203,276,121460,2,0,P|261:287|321:291,1,120,8|0,0:0|1:0,0:0:0:0:
393,236,122040,1,0,1:0:0:0:
435,315,122234,1,8,0:0:0:0:
459,175,122428,6,0,P|407:146|349:157,1,120,4|0,0:0|1:0,0:0:0:0:
270,199,123008,1,10,0:0:0:0:
200,76,123202,1,2,0:0:0:0:
200,75,123395,2,0,P|203:104|206:134,1,60,8|2,0:0|3:2,0:0:0:0:
157,210,123782,1,2,3:2:0:0:
157,210,123976,1,2,3:2:0:0:
66,174,124169,6,0,P|47:140|48:101,2,80,6|10|2,0:0|0:0|0:0,0:0:0:0:
109,286,124943,2,0,P|65:281|23:272,2,80,2|10|2,0:0|0:0|0:0,0:0:0:0:
232,357,125717,2,0,P|188:361|146:371,2,80,2|10|2,0:0|0:0|0:0,0:0:0:0:
340,226,126491,5,10,0:0:0:0:
424,326,126749,1,10,0:0:0:0:
468,202,127008,1,10,0:0:0:0:
422,91,127266,6,0,L|379:87,1,40,6|0,0:0|0:0,0:0:0:0:
303,118,127524,2,0,L|260:114,1,40,10|0,0:0|0:0,0:0:0:0:
184,145,127782,2,0,L|141:141,1,40,2|0,0:0|0:0,0:0:0:0:
56,156,128040,6,0,P|49:174|54:194,1,40,2|0,0:0|0:0,0:0:0:0:
41,282,128298,2,0,P|51:298|69:306,1,40,10|0,0:0|0:0,0:0:0:0:
131,371,128557,2,0,P|150:372|168:363,1,40,2|0,0:0|0:0,0:0:0:0:
279,321,128815,6,0,L|332:325,1,40,2|0,0:0|0:0,0:0:0:0:
441,286,129073,2,0,L|388:282,1,40,10|0,0:0|0:0,0:0:0:0:
301,208,129331,2,0,L|354:212,1,40,2|0,0:0|0:0,0:0:0:0:
428,173,129588,5,10,0:0:0:0:
508,134,129782,1,2,0:0:0:0:
434,84,129975,1,10,0:0:0:0:
425,86,130073,1,8,0:0:0:0:
416,89,130169,1,2,0:0:0:0:
304,116,130363,6,0,P|244:108|148:99,1,150,14|0,0:0|1:0,0:0:0:0:
78,51,130943,1,0,1:0:0:0:
97,193,131137,1,0,1:0:0:0:
97,193,131330,2,0,P|133:197|169:185,1,75,8|10,0:0|0:0,0:0:0:0:
33,132,131717,6,0,P|53:203|68:277,1,150,10|10,0:0|0:0,0:0:0:0:
116,378,132298,1,10,0:0:0:0:
125,374,132395,1,0,1:0:0:0:
134,367,132492,2,0,P|136:348|141:330,1,37.5,2|0,1:2|1:0,0:0:0:0:
223,290,132685,1,10,0:0:0:0:
294,344,132879,1,2,0:0:0:0:
303,341,132976,1,8,0:0:0:0:
312,338,133073,2,0,L|359:346,3,37.5,10|8|10|8,0:0|0:0|0:0|0:0,0:0:0:0:
358,352,133460,6,0,P|425:297|425:210,1,179.999994506836,2|10,0:0|0:0,0:0:0:0:
255,175,134040,1,0,0:0:0:0:
255,175,134234,2,0,P|284:208|328:211,1,89.9999972534181,2|0,1:2|0:0,0:0:0:0:
402,103,134621,1,10,0:0:0:0:
402,103,134815,6,0,P|312:85|223:75,1,179.999994506836,2|2,0:0|0:0,0:0:0:0:
113,207,135396,1,10,0:0:0:0:
68,118,135589,1,2,0:0:0:0:
190,154,135783,1,2,1:2:0:0:
190,154,135976,2,0,P|204:190|196:246,1,89.9999972534181,2|10,0:0|0:0,0:0:0:0:
120,305,136363,1,2,0:0:0:0:
308,284,136557,6,0,P|218:291|130:311,1,179.999994506836,2|10,0:0|0:0,0:0:0:0:
46,362,137137,1,0,0:0:0:0:
46,362,137331,2,0,P|40:282|51:262,1,89.9999972534181,2|0,1:2|0:0,0:0:0:0:
198,240,137718,1,10,0:0:0:0:
47,158,137912,6,0,P|118:211|205:232,1,179.999994506836,2|2,0:0|0:0,0:0:0:0:
315,140,138492,1,10,0:0:0:0:
282,46,138686,1,2,0:0:0:0:
182,40,138880,2,0,P|157:76|167:119,1,89.9999972534181,2|0,1:2|0:0,0:0:0:0:
162,131,139169,1,0,0:0:0:0:
158,142,139266,2,0,L|202:138,3,44.999998626709,8|8|10|8,0:0|0:0|0:0|0:0,0:0:0:0:
214,145,139653,6,0,P|205:211|196:278,1,134.999995880127,4|0,0:0|0:0,0:0:0:0:
204,291,140040,2,0,P|166:314|122:311,1,89.9999972534181,8|2,0:0|0:0,0:0:0:0:
24,214,140427,1,2,1:2:0:0:
32,115,140620,1,0,0:0:0:0:
35,101,140718,2,0,P|72:77|116:80,1,89.9999972534181,2|0,0:0|0:0,0:0:0:0:
127,87,141008,6,0,P|216:75|306:73,1,179.999994506836,2|0,0:0|0:0,0:0:0:0:
367,189,141589,2,0,P|398:218|441:208,1,89.9999972534181,10|0,0:0|0:0,0:0:0:0:
493,68,141975,1,2,1:2:0:0:
493,68,142169,2,0,P|439:72|405:101,1,89.9999972534181,2|8,0:0|0:0,0:0:0:0:
351,188,142557,6,0,P|421:230|472:165,1,179.999994506836,2|2,0:0|0:0,0:0:0:0:
310,104,143137,2,0,P|274:129|258:170,1,89.9999972534181,10|0,0:0|0:0,0:0:0:0:
114,155,143524,1,2,1:2:0:0:
114,155,143717,2,0,P|140:200|185:205,1,89.9999972534181,2|10,0:0|0:0,0:0:0:0:
347,196,144104,6,0,P|258:207|169:217,1,179.999994506836,6|2,0:0|0:0,0:0:0:0:
103,358,144685,1,10,0:0:0:0:
189,308,144879,1,2,0:0:0:0:
70,247,145072,1,2,0:0:0:0:
38,153,145266,1,0,1:0:0:0:
88,67,145460,1,10,0:0:0:0:
95,58,145558,1,8,0:0:0:0:
101,50,145653,1,10,0:0:0:0:
107,41,145750,1,8,0:0:0:0:
114,34,145847,6,0,P|180:43|296:53,1,179.999994506836,2|10,0:0|0:0,0:0:0:0:
349,176,146427,1,2,0:0:0:0:
349,176,146621,2,0,P|379:145|373:102,1,89.9999972534181,2|0,1:2|0:0,0:0:0:0:
275,236,147007,1,10,0:0:0:0:
275,236,147201,6,0,P|365:218|454:208,1,179.999994506836,2|2,0:0|0:0,0:0:0:0:
420,368,147782,1,10,0:0:0:0:
490,298,147975,1,2,0:0:0:0:
328,339,148169,1,2,1:2:0:0:
328,339,148363,2,0,P|284:339|242:323,1,89.9999972534181,2|10,0:0|0:0,0:0:0:0:
177,248,148749,1,2,0:0:0:0:
147,355,148943,6,0,B|134:363|123:378|123:378|98:291|165:251,1,179.999994506836,2|10,0:0|0:0,0:0:0:0:
103,138,149524,1,2,0:0:0:0:
103,138,149717,2,0,P|147:133|187:154,1,89.9999972534181,2|0,1:2|0:0,0:0:0:0:
334,238,150104,1,10,0:0:0:0:
334,238,150298,6,0,P|238:253|137:258,1,179.999994506836,2|2,0:0|0:0,0:0:0:0:
49,377,150878,1,10,0:0:0:0:
137,346,151072,1,2,0:0:0:0:
44,277,151266,2,0,P|3:201|38:121,1,179.999994506836,2|8,1:2|0:0,0:0:0:0:
52,123,151750,1,8,0:0:0:0:
65,124,151846,1,0,3:0:0:0:
193,140,152040,6,0,B|190:81|190:81|184:76|184:76|179:9,2,134.999995880127,6|10|10,0:0|0:0|0:0,0:0:0:0:
275,194,152814,2,0,B|278:253|278:253|284:258|284:258|288:326,2,134.999995880127,10|10|10,0:0|0:0|0:0,0:0:0:0:
322,107,153588,6,0,P|354:75|398:69,1,89.9999972534181,10|0,0:0|0:0,0:0:0:0:
404,59,153879,2,0,P|446:75|470:112,1,89.9999972534181,10|0,0:0|0:0,0:0:0:0:
479,102,154169,2,0,B|475:195|475:195|464:199|464:199|458:282,1,179.999994506836,14|2,0:0|1:2,0:0:0:0:
394,350,154750,1,10,0:0:0:0:
383,348,154847,1,8,0:0:0:0:
372,346,154943,1,0,3:0:0:0:
261,282,155137,6,0,P|163:294|63:297,1,179.999994506836,6|0,0:0|1:0,0:0:0:0:
23,216,155718,1,0,1:0:0:0:
66,127,155911,1,0,1:0:0:0:
164,120,156104,2,0,P|175:77|179:31,1,89.9999972534181,2|8,0:0|0:0,0:0:0:0:
274,4,156492,1,2,0:0:0:0:
336,125,156686,5,4,1:2:0:0:
336,125,157653,1,2,3:2:0:0:
413,170,157846,2,0,P|406:223|400:289,1,112.5,2|0,3:2|0:0,0:0:0:0:
408,292,158234,6,0,P|362:326|304:317,1,120,6|0,0:0|0:0,0:0:0:0:
231,260,158815,1,0,1:0:0:0:
152,351,159008,2,0,P|145:291|133:233,1,120,8|0,0:0|1:0,0:0:0:0:
65,172,159589,6,0,P|37:112|71:45,1,120
131,20,160169,2,0,P|159:29|189:30,1,60,0|0,1:0|0:0,0:0:0:0:
279,111,160557,2,0,B|338:126|364:89|361:82|388:48|442:58,1,180,10|2,0:0|0:0,0:0:0:0:
450,68,161234,1,0,0:0:0:0:
459,77,161331,6,0,P|441:147|434:210,1,120,2|0,0:0|1:0,0:0:0:0:
378,264,161911,1,0,1:0:0:0:
471,323,162105,2,0,P|426:284|368:271,1,120,8|0,0:0|0:0,0:0:0:0:
284,303,162686,6,0,P|222:251|234:209,1,120
288,157,163266,2,0,P|291:126|295:91,1,60,0|0,1:0|0:0,0:0:0:0:
196,42,163653,2,0,P|165:72|166:108,1,60,8|2,0:0|0:0,0:0:0:0:
47,88,164040,2,0,P|58:129|90:147,1,60,2|2,0:0|0:0,0:0:0:0:
17,243,164428,6,0,P|76:235|136:233,1,120,2|0,0:0|1:0,0:0:0:0:
206,289,165008,1,0,1:0:0:0:
329,268,165202,2,0,P|370:253|395:216,1,90,8|0,0:0|0:0,0:0:0:0:
394,203,165589,2,0,P|389:173|386:143,1,60,2|0,0:0|0:0,0:0:0:0:
341,38,165976,5,2,0:0:0:0:
341,38,166169,2,0,P|318:56|315:85,1,60,0|0,0:0|1:0,0:0:0:0:
386,143,166557,2,0,B|441:140|441:140|447:135|447:135|503:132,1,120,2|0,0:0|0:0,0:0:0:0:
476,217,167137,2,0,P|463:255|459:274,1,60,2|0,0:0|0:0,0:0:0:0:
391,333,167524,6,0,P|374:291|340:262,1,90,2|0,0:0|0:0,0:0:0:0:
330,256,167911,2,0,P|301:246|271:247,1,60
198,300,168298,2,0,P|138:294|65:290,1,120,8|0,0:0|1:0,0:0:0:0:
23,178,168879,1,6,0:0:0:0:
23,178,170040,5,0,1:0:0:0:
26,167,170137,1,0,1:0:0:0:
30,156,170234,2,0,B|59:144|73:122|73:122|93:142|127:141,1,112.5,12|0,0:0|0:0,0:0:0:0:
139,140,170621,6,0,P|175:135|204:111,1,75,2|0,0:0|0:0,0:0:0:0:
234,3,171008,2,0,P|240:75|294:128,1,150,10|0,0:0|0:0,0:0:0:0:
376,93,171589,1,0,0:0:0:0:
490,135,171782,1,10,0:0:0:0:
490,135,171976,6,0,P|484:181|481:233,1,75,2|0,0:0|1:0,0:0:0:0:
408,304,172363,2,0,P|387:269|400:229,1,75,0|8,1:0|0:0,0:0:0:0:
483,349,172750,2,0,P|406:353|333:361,1,150,0|2,1:0|0:0,0:0:0:0:
270,297,173331,2,0,P|230:256|161:271,1,112.5,10|0,0:0|0:0,0:0:0:0:
168,270,173718,6,0,P|178:306|185:342,1,75,2|0,1:2|0:0,0:0:0:0:
100,376,174105,2,0,P|87:302|68:229,1,150,8|0,0:0|1:0,0:0:0:0:
147,138,174686,1,2,0:0:0:0:
158,141,174782,1,2,0:0:0:0:
169,144,174879,1,10,0:0:0:0:
257,161,175073,6,0,B|344:170|310:101|390:110,1,150
468,153,175653,1,8,0:0:0:0:
480,271,175847,2,0,P|418:308|347:292,1,150,0|2,0:0|0:0,0:0:0:0:
283,229,176428,1,10,0:0:0:0:
271,231,176524,1,8,0:0:0:0:
259,233,176621,1,8,0:0:0:0:
138,254,176815,6,0,P|107:299|118:355,2,112.5,10|2|2,0:0|1:2|1:2,0:0:0:0:
273,197,177589,2,0,P|324:177|348:128,2,112.5,6|2|2,0:0|1:2|1:2,0:0:0:0:
131,163,178363,2,0,P|79:147|30:173,2,112.5,10|2|2,0:0|1:2|1:2,0:0:0:0:
215,128,179137,2,0,P|213:74|174:34,2,112.5,6|2|2,0:0|1:2|1:2,0:0:0:0:
226,273,179911,6,0,P|259:316|315:324,1,112.5,14|2,0:0|1:2,0:0:0:0:
442,284,180492,1,2,1:2:0:0:
448,193,180686,2,0,P|452:137|457:81,1,112.5,6|2,0:0|1:2,0:0:0:0:
336,22,181266,1,0,1:2:0:0:
246,38,181460,6,0,P|212:80|219:135,1,112.5,6|2,0:0|1:2,0:0:0:0:
318,226,182040,1,2,1:2:0:0:
270,302,182234,2,0,P|192:293|178:294,1,75,10|8,0:0|0:0,0:0:0:0:
188,283,182524,1,8,0:0:0:0:
181,272,182621,2,0,P|181:258|184:234,3,37.5,8|8|8|8,0:0|0:0|0:0|0:0,0:0:0:0:
104,203,183008,6,0,P|99:247|95:292,1,89.9999972534181,4|8,0:0|0:0,0:0:0:0:
84,303,183298,2,0,P|11:294|5:263,1,89.9999972534181,0|0,1:0|1:0,0:0:0:0:
5,275,183589,1,8,0:0:0:0:
19,168,183782,2,0,P|43:130|84:112,1,89.9999972534181,2|8,0:0|0:0,0:0:0:0:
96,106,184073,2,0,P|140:114|184:118,1,89.9999972534181,0|0,1:0|1:0,0:0:0:0:
191,131,184363,1,8,0:0:0:0:
296,108,184557,6,0,P|299:63|304:7,1,89.9999972534181,2|8,1:2|0:0,0:0:0:0:
316,13,184847,2,0,P|360:12|395:39,1,89.9999972534181,0|0,1:0|1:0,0:0:0:0:
398,53,185137,1,8,0:0:0:0:
377,150,185331,1,2,1:2:0:0:
453,212,185524,1,8,0:0:0:0:
468,210,185621,1,0,1:0:0:0:
483,208,185718,2,0,L|479:252,3,44.999998626709,0|0|8|0,1:0|1:0|0:0|0:0,0:0:0:0:
427,319,186105,6,0,P|386:300|341:294,1,89.9999972534181,10|0,0:0|1:0,0:0:0:0:
248,327,186492,1,0,1:0:0:0:
179,255,186686,1,0,1:0:0:0:
226,167,186879,1,8,0:0:0:0:
324,184,187073,1,8,0:0:0:0:
370,96,187266,1,10,0:0:0:0:
300,25,187460,6,0,P|211:39|121:49,1,179.999994506836,10|8,0:0|0:0,0:0:0:0:
45,113,188040,1,8,0:0:0:0:
46,126,188137,1,0,3:0:0:0:
47,139,188234,1,0,3:0:0:0:
48,152,188331,1,0,1:0:0:0:
49,165,188428,1,10,0:0:0:0:
49,165,189202,6,0,B|196:186|139:60|289:80,1,269.999991760254,6|2,0:0|0:0,0:0:0:0:
355,135,190557,2,0,P|333:222|318:311,1,179.999994506836,2|2,0:0|0:0,0:0:0:0:
244,352,191524,2,0,L|184:344,1,44.999998626709,2|2,0:0|0:0,0:0:0:0:
224,263,191911,2,0,L|164:255,1,44.999998626709,2|2,0:0|0:0,0:0:0:0:
104,215,192298,6,0,P|217:208|382:188,1,269.999991760254,2|2,0:0|0:0,0:0:0:0:
452,220,193653,2,0,P|507:163|486:64,1,179.999994506836,2|2,0:0|0:0,0:0:0:0:
415,29,194621,2,0,P|348:37|330:38,2,67.4999979400635,2|2|2,0:0|0:0|0:0,0:0:0:0:
492,69,195395,6,0,P|475:160|467:222,1,134.999995880127,0|2,0:0|0:0,0:0:0:0:
421,274,196169,2,0,P|392:290|359:286,1,67.4999979400635,2|2,0:0|0:0,0:0:0:0:
258,207,196750,2,0,P|223:179|180:182,1,89.9999972534181,2|0,0:0|0:0,0:0:0:0:
110,233,197331,2,0,P|112:266|115:296,1,44.999998626709,2|0,0:0|0:0,0:0:0:0:
185,324,197718,1,2,0:0:0:0:
185,324,197911,1,2,0:0:0:0:
21,373,198298,5,2,0:0:0:0:
25,359,198395,1,8,0:0:0:0:
29,345,198492,1,8,0:0:0:0:
29,345,199653,1,8,0:0:0:0:
68,229,199847,6,0,P|142:226|220:220,1,150,6|2,0:0|1:2,0:0:0:0:
270,338,200428,2,0,P|294:310|298:273,1,75,10|2,0:2|1:2,0:0:0:0:
426,261,200815,2,0,P|407:228|373:213,1,75,14|2,0:2|0:2,0:0:0:0:
340,130,201202,1,2,0:2:0:0:
392,57,201395,1,0,3:0:0:0:
383,48,201492,1,0,3:0:0:0:
373,40,201589,2,0,P|317:30|270:27,1,75,2|0,0:0|1:0,0:0:0:0:
177,42,201976,6,0,P|176:85|210:112,1,89.9999972534181,14|0,0:0|0:0,0:0:0:0:
333,138,202363,2,0,P|244:139|171:189,1,179.999994506836,2|2,1:2|0:0,0:0:0:0:
67,324,202944,6,0,P|8:370|-16:364,1,89.9999972534181,10|0,0:0|0:0,0:0:0:0:
160,295,203331,2,0,P|170:369|153:387,1,89.9999972534181,14|2,0:0|0:0,0:0:0:0:
182,198,203718,1,14,0:0:0:0:
182,198,203911,2,0,P|251:225|258:250,1,89.9999972534181,2|2,0:0|0:0,0:0:0:0:
317,311,204298,2,0,L|366:308,3,44.999998626709,10|8|10|8,0:0|0:0|0:0|0:0,0:0:0:0:
410,242,204686,6,0,P|415:198|422:153,1,89.9999972534181,6|0,0:0|0:0,0:0:0:0:
369,69,205073,2,0,P|316:67|283:98,1,89.9999972534181,10|0,0:0|0:0,0:0:0:0:
215,155,205460,2,0,P|126:141|36:136,1,179.999994506836,2|10,1:2|0:0,0:0:0:0:
51,240,206040,6,0,B|97:229|116:181|116:181|116:233|155:261,1,179.999994506836,2|2,0:0|0:0,0:0:0:0:
280,304,206621,1,10,0:0:0:0:
191,351,206815,1,2,0:0:0:0:
240,227,207008,2,0,P|298:262|364:271,2,134.999995880127,2|2|2,1:2|0:0|0:0,0:0:0:0:
307,153,207783,6,0,P|367:120|377:43,1,134.999995880127,0|0,1:0|0:0,0:0:0:0:
373,46,208170,2,0,P|337:72|294:68,1,89.9999972534181,8|2,0:0|0:0,0:0:0:0:
160,16,208557,1,2,1:2:0:0:
67,51,208750,1,0,0:0:0:0:
59,59,208847,2,0,L|67:148,1,89.9999972534181,2|0,0:0|0:0,0:0:0:0:
77,158,209138,6,0,B|179:146|135:222|242:203,1,179.999994506836,2|0,0:0|0:0,0:0:0:0:
355,118,209719,2,0,P|364:160|335:192,1,89.9999972534181,10|0,0:0|0:0,0:0:0:0:
450,249,210106,1,2,1:2:0:0:
450,249,210298,2,0,P|413:274|369:274,1,89.9999972534181,2|8,0:0|0:0,0:0:0:0:
260,327,210686,6,0,P|173:303|84:294,1,179.999994506836,2|2,0:0|0:0,0:0:0:0:
31,177,211266,2,0,P|37:146|107:120,1,89.9999972534181,10|0,0:0|0:0,0:0:0:0:
207,146,211653,1,10,0:0:0:0:
207,146,211847,2,0,P|211:101|218:53,1,89.9999972534181,2|10,0:0|0:0,0:0:0:0:
313,0,212234,6,0,P|301:89|292:178,1,179.999994506836,14|2,0:0|0:0,0:0:0:0:
384,305,212815,1,10,0:0:0:0:
385,180,213008,1,2,1:2:0:0:
286,274,213202,1,2,0:0:0:0:
188,243,213395,1,0,1:0:0:0:
90,212,213589,1,10,0:0:0:0:
87,201,213686,1,8,0:0:0:0:
84,190,213782,1,10,0:0:0:0:
81,179,213879,1,8,0:0:0:0:
78,168,213976,6,0,B|77:217|67:249|67:249|81:272|81:272|72:310|70:354,1,179.999994506836,2|10,0:0|0:0,0:0:0:0:
182,380,214557,1,2,0:0:0:0:
182,380,214750,2,0,P|232:373|255:304,1,89.9999972534181,2|0,1:2|0:0,0:0:0:0:
188,243,215137,1,10,0:0:0:0:
188,243,215331,6,0,P|278:261|367:271,1,179.999994506836,2|2,0:0|0:0,0:0:0:0:
443,146,215911,1,10,0:0:0:0:
458,243,216105,1,2,0:0:0:0:
353,177,216298,1,2,1:2:0:0:
353,177,216492,2,0,P|350:125|344:78,1,89.9999972534181,2|10,0:0|0:0,0:0:0:0:
258,39,216879,1,2,0:0:0:0:
434,56,217073,6,0,P|344:48|256:28,1,179.999994506836,2|10,0:0|0:0,0:0:0:0:
160,52,217653,1,2,0:0:0:0:
160,52,217848,2,0,P|136:89|141:133,1,89.9999972534181,2|0,1:2|0:0,0:0:0:0:
241,218,218234,1,10,0:0:0:0:
83,267,218428,6,0,P|158:221|247:226,1,179.999994506836,2|2,0:0|0:0,0:0:0:0:
360,307,219008,1,10,0:0:0:0:
266,339,219202,1,2,0:0:0:0:
339,214,219395,2,0,B|356:183|356:183|349:79,1,134.999995880127,2|0,1:2|0:0,0:0:0:0:
335,68,219782,2,0,L|331:10,3,44.999998626709,8|8|8|8,0:0|0:0|0:0|0:0,0:0:0:0:
247,46,220169,6,0,B|250:105|250:105|256:110|256:110|262:178,2,119.999996337891,2|10|10,1:2|0:0|0:0,0:0:0:0:
159,93,220944,2,0,B|162:152|162:152|168:157|168:157|173:223,2,119.999996337891,2|10|10,1:2|0:0|0:0,0:0:0:0:
66,57,221718,6,0,P|34:89|28:133,1,89.9999972534181,10|0,0:0|3:0,0:0:0:0:
18,139,222008,2,0,P|34:181|71:205,1,89.9999972534181,0|0,3:0|0:0,0:0:0:0:
85,201,222298,2,0,B|76:275|76:275|66:288|66:288|58:378,1,179.999994506836,14|2,0:0|0:0,0:0:0:0:
155,359,222879,1,10,0:0:0:0:
156,346,222976,1,8,0:0:0:0:
158,334,223073,1,10,0:0:0:0:
160,322,223169,1,8,0:0:0:0:
162,310,223267,6,0,B|242:270|242:270|329:298,1,179.999994506836,2|8,0:0|0:0,0:0:0:0:
407,356,223847,1,2,0:0:0:0:
420,355,223943,1,0,0:0:0:0:
433,352,224040,1,0,1:0:0:0:
469,235,224235,2,0,P|473:190|481:129,1,89.9999972534181,2|8,0:0|0:0,0:0:0:0:
405,78,224622,6,0,P|316:93|226:99,1,179.999994506836,2|2,0:0|0:0,0:0:0:0:
155,169,225203,2,0,P|110:173|70:154,1,89.9999972534181,10|2,0:0|0:0,0:0:0:0:
43,58,225590,1,2,1:2:0:0:
43,58,225782,1,2,0:0:0:0:
188,16,225976,2,0,P|151:39|134:80,1,89.9999972534181,10|2,0:0|0:0,0:0:0:0:
243,179,226363,6,0,P|236:223|231:268,1,89.9999972534181,0|0,1:0|1:0,0:0:0:0:
100,345,226750,2,0,P|57:316|61:248,1,89.9999972534181,8|0,0:0|1:0,0:0:0:0:
146,202,227137,1,8,0:0:0:0:
225,263,227331,2,0,P|296:250|339:249,1,89.9999972534181,8|10,0:0|0:0,0:0:0:0:
202,360,227718,6,0,P|290:344|380:336,1,179.999994506836,4|8,0:0|0:0,0:0:0:0:
498,219,228298,2,0,P|485:260|444:271,1,89.9999972534181,8|10,0:0|0:0,0:0:0:0:
432,265,228589,1,0,0:0:0:0:
422,256,228686,1,10,0:0:0:0:
378,167,228879,1,0,3:0:0:0:
448,97,229073,2,0,P|451:74|455:32,3,44.999998626709,8|8|8|8,0:0|0:0|0:0|0:0,0:0:0:0:
378,14,229460,6,0,P|320:6|277:50,1,112.5,6|0,0:0|0:0,0:0:0:0:
276,52,229848,2,0,P|248:77|211:79,1,75,8|0,0:0|0:0,0:0:0:0:
128,44,230235,1,0,1:0:0:0:
33,124,230428,2,0,P|30:166|52:196,1,75,2|8,0:0|0:0,0:0:0:0:
124,240,230816,6,0,P|186:227|281:221,1,150,2|0,0:0|0:0,0:0:0:0:
379,315,231395,1,8,0:0:0:0:
379,315,231589,2,0,P|343:324|312:306,1,75,0|0,0:0|1:0,0:0:0:0:
355,178,231976,2,0,P|389:192|427:200,1,75,2|8,0:0|0:0,0:0:0:0:
478,127,232363,6,0,P|405:106|335:79,1,150,2|0,0:0|0:0,0:0:0:0:
254,117,232944,2,0,P|211:132|166:126,1,75,8|0,0:0|0:0,0:0:0:0:
112,73,233331,2,0,P|81:52|45:56,1,75
16,177,233718,1,10,0:0:0:0:
81,238,233911,6,0,P|156:230|231:227,1,150,2|0,0:0|0:0,0:0:0:0:
307,179,234492,1,8,0:0:0:0:
440,211,234686,2,0,P|477:274|450:360,1,150
377,374,235266,2,0,P|318:360|250:352,1,112.5,8|0,0:0|0:0,0:0:0:0:
258,342,235654,6,0,B|244:263|314:288|299:205,1,150,2|8,0:0|0:0,0:0:0:0:
245,134,236234,1,2,0:0:0:0:
233,136,236331,1,0,0:0:0:0:
221,138,236428,1,0,1:0:0:0:
155,199,236621,1,0,0:0:0:0:
45,106,236815,1,10,0:0:0:0:
45,106,237008,6,0,P|56:143|67:235,1,112.5,2|0,0:0|0:0,0:0:0:0:
58,229,237395,2,0,P|61:266|57:303,1,75,0|8,0:0|0:0,0:0:0:0:
159,366,237782,2,0,B|241:374|212:311|293:317,1,150,2|2,0:0|0:0,0:0:0:0:
399,368,238363,2,0,P|431:361|462:308,1,75,10|2,0:0|0:0,0:0:0:0:
428,244,238750,5,6,1:2:0:0:
428,244,238944,1,0,1:0:0:0:
498,150,239137,2,0,P|423:157|348:163,1,150,8|0,0:0|0:0,0:0:0:0:
208,112,239718,1,0,1:0:0:0:
253,189,239911,1,8,0:0:0:0:
290,66,240105,6,0,P|221:19|138:49,1,150,6|2,0:0|0:0,0:0:0:0:
82,129,240686,2,0,P|77:91|73:54,1,75,10|14,0:0|0:0,0:0:0:0:
166,192,241073,2,0,P|170:155|175:118,1,75,2|2,0:0|0:0,0:0:0:0:
85,228,241461,2,0,L|32:239,3,37.5,8|8|8|8,0:0|0:0|0:0|0:0,0:0:0:0:
35,318,241847,6,0,P|67:334|106:332,1,75,2|0,0:0|0:0,0:0:0:0:
189,363,242235,2,0,P|263:345|305:285,1,150,8|0,0:0|1:0,0:0:0:0:
242,140,242815,2,0,P|239:182|261:212,1,75,2|8,0:0|0:0,0:0:0:0:
347,210,243203,6,0,P|409:197|504:191,1,150,2|0,0:0|0:0,0:0:0:0:
480,74,243782,1,8,0:0:0:0:
480,74,243976,2,0,P|443:53|389:63,1,75,0|0,0:0|1:0,0:0:0:0:
283,97,244363,2,0,P|320:118|374:108,1,75,2|8,0:0|0:0,0:0:0:0:
229,32,244750,6,0,P|235:106|241:181,1,150,2|0,0:0|0:0,0:0:0:0:
179,246,245331,2,0,P|142:239|96:233,1,75,8|0,0:0|0:0,0:0:0:0:
90,322,245718,2,0,P|127:329|173:335,1,75,0|2,0:0|0:0,0:0:0:0:
243,376,246105,1,8,0:0:0:0:
350,340,246298,6,0,P|387:284|360:190,1,150,2|0,0:0|0:0,0:0:0:0:
296,159,246879,1,8,0:0:0:0:
320,45,247073,2,0,P|386:13|455:36,1,150
499,118,247653,2,0,P|487:196|482:251,1,112.5,8|0,0:0|0:0,0:0:0:0:
473,235,248041,6,0,P|483:291|489:346,2,112.5,10|2|2,0:0|1:2|1:2,0:0:0:0:
393,191,248815,2,0,P|403:135|409:79,2,112.5,14|2|2,0:0|1:2|1:2,0:0:0:0:
327,253,249589,6,0,P|292:273|245:263,1,75,10|0,0:0|3:0,0:0:0:0:
249,259,249879,1,0,3:0:0:0:
241,247,249976,1,0,3:0:0:0:
176,184,250169,2,0,P|91:204|18:212,1,150,14|2,0:0|0:0,0:0:0:0:
39,300,250750,2,0,P|57:303|75:308,3,37.5,10|8|8|8,0:0|0:0|0:0|0:0,0:0:0:0:
130,373,251137,6,0,P|154:345|160:309,1,75,2|0,1:2|0:0,0:0:0:0:
130,223,251524,2,0,P|144:147|159:50,1,150,8|0,0:0|1:0,0:0:0:0:
297,19,252105,2,0,P|322:49|327:100,1,75,2|8,0:0|0:0,0:0:0:0:
265,148,252492,6,0,P|336:123|409:135,1,150,2|0,0:0|0:0,0:0:0:0:
438,221,253073,1,8,0:0:0:0:
366,347,253266,2,0,P|283:331|206:323,1,150
101,364,253847,2,0,P|65:353|53:311,1,75,8|0,0:0|0:0,0:0:0:0:
114,221,254234,6,0,B|151:212|168:172|168:172|196:205|230:210,1,150,14|8,0:0|0:0,0:0:0:0:
372,237,254815,1,0,1:0:0:0:
291,275,255008,1,8,0:0:0:0:
273,131,255202,1,0,1:0:0:0:
361,148,255395,1,8,0:0:0:0:
281,40,255589,6,0,P|200:57|114:65,1,150,10|8,0:0|0:0,0:0:0:0:
59,116,256169,2,0,P|63:192|81:209,1,75,8|8,0:0|0:0,0:0:0:0:
129,245,256557,1,8,0:0:0:0:
200,190,256750,1,8,0:0:0:0:
284,223,256944,1,8,0:0:0:0:
308,347,257137,5,10,1:2:0:0:
