osu file format v14

[General]
AudioFilename: audio.mp3
AudioLeadIn: 0
PreviewTime: -1
Countdown: 0
SampleSet: None
StackLeniency: 0.2
Mode: 0
LetterboxInBreaks: 0
WidescreenStoryboard: 1

[Editor]
Bookmarks: 32210
DistanceSpacing: 1
BeatDivisor: 4
GridSize: 4
TimelineZoom: 1

[Metadata]
Title:Juggernaut
TitleUnicode:ジャガーノート
Artist:Natsushiro (CV: Hatsune Miku)
ArtistUnicode:Natsushiro (CV: Hatsune Miku)
Creator:shifperior
Version:Normal
Source:
Tags:shifs Hatsune_Miku Natsuyo Kōmei Jugg
BeatmapID:1994776
BeatmapSetID:955193

[Difficulty]
HPDrainRate:3
CircleSize:2
OverallDifficulty:3
ApproachRate:6
SliderMultiplier:1
SliderTickRate:1

[Events]
//Background and Video events
0,0,"994193.jpg",0,0
//Break Periods
2,41568,50739
2,72042,80107
2,122568,129055
2,139147,140265
//Storyboard Layer 0 (Background)
//Storyboard Layer 1 (Fail)
//Storyboard Layer 2 (Pass)
//Storyboard Layer 3 (Foreground)
//Storyboard Sound Samples

[TimingPoints]
0,315.789473684211,4,3,0,60,1,0
8842,-500,4,3,0,60,0,0
11368,-100,4,3,0,60,0,0
30947,-166.666666666667,4,3,0,60,0,0
31578,-100,4,3,0,60,0,0
41684,-166.666666666667,4,3,0,60,0,0
51789,-90.9090909090909,4,2,0,80,0,1
70578,-166.666666666667,4,2,0,80,0,1
72000,-100,4,3,0,60,0,0
102315,-90.9090909090909,4,2,0,60,0,1
121263,-142.857142857143,4,2,0,60,0,0
122526,-100,4,3,0,60,0,0
151578,-90.9090909090909,4,2,0,60,0,1
171789,-100,4,3,0,60,0,0

[HitObjects]
126,209,631,6,0,P|204:135|312:148,1,200
228,239,2368,6,0,P|310:255|343:196,1,150
379,120,3157,1,0,0:0:0:0:
279,132,3473,1,0,0:0:0:0:
152,168,3789,6,0,P|166:296|280:285,1,250
310,227,4894,6,0,L|279:132,1,100
261,80,5368,1,0,0:0:0:0:
354,44,5684,1,0,0:0:0:0:
436,100,6000,1,0,0:0:0:0:
363,196,6315,6,0,B|293:271|293:271|210:213,1,200
218,133,7421,2,0,B|274:76|274:76|342:123,1,150
417,168,8210,1,0,0:0:0:0:
454,260,8526,1,0,0:0:0:0:
256,192,8842,12,0,10736,0:0:0:0:
160,143,11526,6,0,P|262:80|305:129,1,200
342,214,12473,1,0,0:0:0:0:
241,212,12789,1,0,0:0:0:0:
293,296,13105,1,0,0:0:0:0:
193,295,13420,1,0,0:0:0:0:
160,241,14052,6,0,P|262:303|305:254,1,200
342,170,14999,1,0,0:0:0:0:
241,172,15315,1,0,0:0:0:0:
293,88,15631,1,0,0:0:0:0:
193,89,15946,1,0,0:0:0:0:
212,126,16578,6,0,L|169:158,2,50
286,77,17052,2,0,P|338:51|378:59,1,100
405,100,17526,1,0,0:0:0:0:
359,189,17842,1,0,0:0:0:0:
271,209,18157,2,0,L|222:220,1,50
200,265,18473,2,0,L|151:276,1,50
64,247,18947,6,0,P|83:133|198:136,1,250
283,173,20052,2,0,B|260:227|293:224|272:272,2,100
371,162,20842,2,0,P|436:146|469:160,2,100
271,176,21789,5,0,0:0:0:0:
207,127,22105,1,0,0:0:0:0:
171,300,24157,5,0,0:0:0:0:
209,267,24315,2,0,B|236:242|277:261|322:243,2,100
101,270,26684,6,0,B|153:179|153:179|203:268,1,200
265,337,27631,1,0,0:0:0:0:
363,320,27947,2,0,L|363:267,2,50
171,258,29052,6,0,B|149:156|149:156|314:135,1,250
256,192,30157,12,0,31263,0:0:0:0:
148,92,31894,5,0,0:0:0:0:
117,165,32210,1,0,0:0:0:0:
148,92,34421,5,0,0:0:0:0:
117,165,34737,1,0,0:0:0:0:
228,231,36789,6,0,P|299:148|347:193,1,200
420,259,37736,1,0,0:0:0:0:
342,322,38052,1,0,0:0:0:0:
272,249,38368,2,0,L|221:185,1,80
133,216,39157,6,0,B|151:117|151:117|223:188,1,200
321,297,40263,2,0,P|395:266|395:192,1,150
375,107,41052,1,0,0:0:0:0:
276,125,41368,1,0,0:0:0:0:
160,194,51789,6,0,P|229:333|334:236,1,330.000010070801
364,174,53052,2,0,P|294:34|189:131,1,330.000010070801
227,208,54315,1,0,0:0:0:0:
322,221,54631,1,0,0:0:0:0:
341,126,54947,1,0,0:0:0:0:
246,113,55263,1,0,0:0:0:0:
284,167,55578,5,0,0:0:0:0:
80,210,56842,6,0,P|87:294|153:336,1,165.0000050354
203,326,57473,2,0,L|345:201,1,165.0000050354
370,182,58105,2,0,L|297:96,1,110.000003356934
245,113,58578,2,0,L|203:153,2,55.0000016784668
143,69,59210,2,0,L|101:109,2,55.0000016784668
144,234,60000,1,0,0:0:0:0:
256,192,60315,12,0,61263,0:0:0:0:
435,310,61894,5,0,0:0:0:0:
417,215,62210,1,0,0:0:0:0:
307,222,62526,2,0,L|277:102,1,110.000003356934
180,61,63157,5,0,0:0:0:0:
162,156,63473,1,0,0:0:0:0:
52,144,63789,2,0,L|22:263,1,110.000003356934
82,345,64421,6,0,L|125:182,1,165.0000050354
177,171,65052,2,0,L|133:333,1,165.0000050354
188,343,65684,1,0,0:0:0:0:
272,201,66157,2,0,P|242:130|168:144,1,165.0000050354
165,254,66947,6,0,B|187:289|229:278|263:320,1,110.000003356934
311,309,67421,1,0,0:0:0:0:
388,231,67736,1,0,0:0:0:0:
322,148,68052,2,0,P|265:111|206:121,1,110.000003356934
125,159,68684,2,0,P|94:218|102:283,1,110.000003356934
160,352,69315,1,0,0:0:0:0:
256,192,70105,12,0,71842,0:0:0:0:
154,274,81157,6,0,P|204:177|293:177,1,200
352,248,82105,6,0,L|246:299,1,100
215,309,82578,1,0,0:0:0:0:
158,247,82736,2,0,L|167:130,1,100
175,97,83209,1,0,0:0:0:0:
257,80,83368,2,0,L|353:146,1,100
377,169,83841,1,0,0:0:0:0:
352,248,84000,2,0,L|246:299,1,100
215,309,84473,1,0,0:0:0:0:
145,261,84631,6,0,B|273:217|236:93|359:54,1,300
429,119,85894,1,0,0:0:0:0:
427,219,86210,1,0,0:0:0:0:
347,279,86526,1,0,0:0:0:0:
196,280,87000,5,0,0:0:0:0:
202,230,87157,2,0,L|209:130,1,100
125,113,87631,1,0,0:0:0:0:
119,163,87788,2,0,L|111:262,1,100
171,343,88421,1,0,0:0:0:0:
270,343,88736,1,0,0:0:0:0:
330,262,89052,1,0,0:0:0:0:
256,192,89684,12,0,91263,0:0:0:0:
104,164,92052,5,0,0:0:0:0:
118,116,92210,1,0,0:0:0:0:
211,164,92526,1,0,0:0:0:0:
246,199,92684,1,0,0:0:0:0:
283,230,92842,6,0,L|207:316,1,100
167,311,93315,1,0,0:0:0:0:
83,256,93631,1,0,0:0:0:0:
138,172,93947,1,0,0:0:0:0:
60,108,94263,1,0,0:0:0:0:
185,76,94736,6,0,B|251:61|251:61|251:87|264:126|293:143,1,150
328,178,95368,2,0,P|320:237|280:281,1,100
246,276,95842,1,0,0:0:0:0:
150,245,96157,1,0,0:0:0:0:
185,151,96473,1,0,0:0:0:0:
371,342,97105,5,0,0:0:0:0:
375,278,97263,1,0,0:0:0:0:
187,239,97736,5,0,0:0:0:0:
191,175,97894,1,0,0:0:0:0:
444,128,98368,5,0,0:0:0:0:
406,200,98526,2,0,L|317:156,2,100
481,255,99473,5,0,0:0:0:0:
416,254,99631,1,0,0:0:0:0:
352,256,99789,1,0,0:0:0:0:
260,299,100263,5,0,0:0:0:0:
264,235,100421,1,0,0:0:0:0:
92,150,100894,5,0,0:0:0:0:
96,86,101052,1,0,0:0:0:0:
264,235,101684,5,0,0:0:0:0:
268,171,101842,1,0,0:0:0:0:
352,190,102315,6,0,P|282:50|177:147,1,330.000010070801
148,210,103578,2,0,P|217:349|322:252,1,330.000010070801
285,176,104841,1,0,0:0:0:0:
190,163,105157,1,0,0:0:0:0:
171,258,105473,1,0,0:0:0:0:
266,271,105789,1,0,0:0:0:0:
228,217,106104,5,0,0:0:0:0:
432,174,107368,6,0,P|425:90|359:48,1,165.0000050354
309,58,107999,2,0,L|167:183,1,165.0000050354
142,202,108631,2,0,L|215:288,1,110.000003356934
267,271,109104,2,0,L|309:231,2,55.0000016784668
369,315,109736,2,0,L|411:275,2,55.0000016784668
368,150,110526,1,0,0:0:0:0:
256,192,110842,12,0,111789,0:0:0:0:
77,74,112420,5,0,0:0:0:0:
95,169,112736,1,0,0:0:0:0:
205,162,113052,2,0,L|234:281,1,110.000003356934
332,323,113683,5,0,0:0:0:0:
350,228,113999,1,0,0:0:0:0:
460,240,114315,2,0,L|489:120,1,110.000003356934
430,39,114947,6,0,L|386:201,1,165.0000050354
335,213,115578,2,0,L|378:50,1,165.0000050354
324,41,116210,1,0,0:0:0:0:
240,183,116683,2,0,P|270:254|344:240,1,165.0000050354
347,130,117473,6,0,B|324:94|283:106|248:63,1,110.000003356934
201,75,117947,1,0,0:0:0:0:
124,153,118262,1,0,0:0:0:0:
189,235,118578,2,0,P|246:272|305:262,1,110.000003356934
387,225,119210,2,0,P|417:165|409:100,1,110.000003356934
352,32,119841,1,0,0:0:0:0:
256,192,120631,12,0,122368,0:0:0:0:
167,115,130105,5,0,0:0:0:0:
363,261,131368,5,0,0:0:0:0:
138,313,132631,5,0,0:0:0:0:
333,90,133894,5,0,0:0:0:0:
260,203,135157,6,0,L|285:267,2,50
229,128,135631,1,0,0:0:0:0:
98,100,136105,5,0,0:0:0:0:
141,183,136421,2,0,L|141:237,2,50
190,105,136895,1,0,0:0:0:0:
256,192,137368,1,0,0:0:0:0:
256,192,137684,12,0,138947,0:0:0:0:
256,192,141315,5,0,0:0:0:0:
319,210,141473,2,0,L|356:316,2,100
261,291,142421,1,0,0:0:0:0:
212,299,142578,1,0,0:0:0:0:
182,258,142736,5,0,0:0:0:0:
224,167,143052,1,0,0:0:0:0:
316,128,143368,2,0,P|361:183|372:230,1,100
290,245,144000,6,0,B|293:280|293:280|280:313|280:313|285:366,1,100
212,361,144631,2,0,B|206:311|206:311|219:278|219:278|216:242,1,100
144,236,145263,2,0,B|147:271|147:271|134:304|134:304|139:357,1,100
133,214,146526,5,0,0:0:0:0:
178,148,146684,1,0,0:0:0:0:
292,156,147000,1,0,0:0:0:0:
342,217,147157,2,0,L|286:261,1,50
205,220,147631,5,0,0:0:0:0:
155,159,147788,2,0,L|211:115,1,50
292,156,148263,5,0,0:0:0:0:
342,217,148420,2,0,L|286:261,1,50
205,220,148894,5,0,0:0:0:0:
155,159,149051,2,0,L|211:115,1,50
292,106,149526,5,0,0:0:0:0:
341,99,149684,1,0,0:0:0:0:
256,192,150000,12,0,150947,0:0:0:0:
115,76,151578,6,0,P|118:101|147:146,2,55.0000016784668
204,87,152210,2,0,P|224:119|230:156,2,55.0000016784668
147,242,152842,5,0,0:0:0:0:
185,158,153157,1,0,0:0:0:0:
274,196,153473,1,0,0:0:0:0:
233,283,153789,1,0,0:0:0:0:
175,228,154105,6,0,B|258:268|348:220,1,165.0000050354
340,144,154736,2,0,B|257:104|167:152,1,165.0000050354
256,192,155368,1,0,0:0:0:0:
171,157,155842,6,0,B|136:173|122:175|101:206|137:238|180:240|202:239|207:272|185:297|161:297|131:305,1,220.000006713867
204,311,156631,2,0,P|255:340|325:349,1,110.000003356934
360,345,157105,5,0,0:0:0:0:
397,304,157263,2,0,P|447:207|443:146,1,165.0000050354
409,111,157894,2,0,P|353:74|300:84,1,110.000003356934
268,111,158368,5,0,0:0:0:0:
232,153,158526,1,0,0:0:0:0:
69,183,159000,5,0,0:0:0:0:
108,144,159157,1,0,0:0:0:0:
256,192,159789,5,0,0:0:0:0:
256,192,160105,12,0,161052,0:0:0:0:
200,80,161684,5,0,0:0:0:0:
156,165,161842,1,0,0:0:0:0:
112,250,162000,1,0,0:0:0:0:
197,289,162315,2,0,L|255:192,1,110.000003356934
306,80,162947,5,0,0:0:0:0:
350,165,163105,1,0,0:0:0:0:
394,250,163263,1,0,0:0:0:0:
309,289,163578,2,0,L|251:192,1,110.000003356934
133,156,164210,6,0,P|124:248|175:299,1,165.0000050354
254,292,164842,2,0,L|207:131,1,165.0000050354
291,102,165473,2,0,L|332:235,1,137.500004196167
322,324,166105,2,0,B|199:335|199:335|213:280,1,165.0000050354
186,215,166736,1,0,0:0:0:0:
77,193,167052,1,0,0:0:0:0:
83,138,167210,2,0,P|96:90|169:63,1,110.000003356934
190,123,167842,5,0,0:0:0:0:
251,199,168157,1,0,0:0:0:0:
169,253,168473,1,0,0:0:0:0:
108,177,168788,1,0,0:0:0:0:
180,189,169105,5,0,0:0:0:0:
180,189,169894,5,0,0:0:0:0:
256,192,170210,12,0,174000,0:0:0:0:
