osu file format v14

[General]
AudioFilename: audio.mp3
AudioLeadIn: 1500
PreviewTime: 28745
Countdown: 0
SampleSet: None
StackLeniency: 0.7
Mode: 0
LetterboxInBreaks: 0
WidescreenStoryboard: 0

[Editor]
DistanceSpacing: 1.8
BeatDivisor: 4
GridSize: 4
TimelineZoom: 2.799999

[Metadata]
Title:ne! ko!
TitleUnicode:ネ!コ!
Artist:Natsumi Takamori, Sendai Eri, Asakawa Yuu, Tanezaki Atsumi
ArtistUnicode:高森奈津美・仙台エリ・浅川悠・種﨑敦美
Creator:MiLu
Version:Insane
Source:ノラと皇女と野良猫ハート
Tags:
BeatmapID:1368203
BeatmapSetID:645710

[Difficulty]
HPDrainRate:5
CircleSize:4
OverallDifficulty:8
ApproachRate:9
SliderMultiplier:1.7
SliderTickRate:1

[Events]
//Background and Video events
0,0,"vvv.png",0,0
//Break Periods
//Storyboard Layer 0 (Background)
//Storyboard Layer 1 (Fail)
//Storyboard Layer 2 (Pass)
//Storyboard Layer 3 (Foreground)
//Storyboard Sound Samples

[TimingPoints]
64,329.67032967033,4,1,1,60,1,0
10531,-100,4,1,1,50,0,0
11190,-100,4,2,1,10,0,0
11272,-100,4,1,1,50,0,0
11684,-100,4,2,1,10,0,0
11767,-100,4,1,1,50,0,0
28745,-100,4,1,1,70,0,0
28827,-100,4,1,1,50,0,0
29074,-83.3333333333333,4,1,1,60,0,1
31135,-83.3333333333333,4,1,1,40,0,1
31465,-83.3333333333333,4,1,1,60,0,1
45064,-100,4,1,1,60,0,0
47042,-100,4,2,1,10,0,0

[Colours]
Combo1 : 0,238,60
Combo2 : 255,128,0
Combo3 : 47,140,255

[HitObjects]
104,328,64,6,0,P|152:336|192:328,1,85
220,264,311,1,0,0:0:0:0:
252,200,393,2,0,L|212:172,1,42.5
108,148,558,2,0,L|148:176,1,42.5
296,348,723,2,0,L|256:320,1,42.5
104,236,888,2,0,L|144:264,1,42.5
308,264,1053,5,0,0:0:0:0:
340,200,1135,1,0,0:0:0:0:
344,128,1217,1,0,0:0:0:0:
320,60,1300,2,0,P|276:48|228:60,1,85
200,116,1547,6,0,L|108:96,1,85,2|2,0:0|0:0,0:0:0:0:
228,156,2042,6,0,L|136:136,1,85,2|2,0:0|0:0,0:0:0:0:
20,112,2371,1,0,0:0:0:0:
20,112,2454,1,0,0:0:0:0:
20,112,2536,1,0,0:0:0:0:
20,112,2618,1,0,0:0:0:0:
20,112,2701,1,0,0:0:0:0:
100,232,2866,6,0,P|108:280|112:320,1,85,0|8,0:0|0:0,0:0:0:0:
28,360,3195,1,0,0:0:0:0:
104,144,3360,2,0,P|124:104|132:64,1,85
48,24,3690,1,8,0:0:0:0:
176,196,3855,6,0,L|264:180,1,85
400,256,4184,2,0,L|488:240,1,85,0|8,0:0|0:0,0:0:0:0:
440,112,4514,1,0,0:0:0:0:
372,340,4679,1,0,0:0:0:0:
468,28,4844,1,0,0:0:0:0:
356,172,5009,1,8,0:0:0:0:
380,44,5173,5,0,0:0:0:0:
380,44,5256,1,0,0:0:0:0:
380,44,5338,1,0,0:0:0:0:
483,240,5503,2,0,P|496:280|504:324,1,85,0|8,0:0|0:0,0:0:0:0:
268,136,5833,2,0,P|276:92|280:52,1,85
356,172,6162,2,0,P|369:212|377:256,1,85,0|8,0:0|0:0,0:0:0:0:
372,340,6492,1,0,0:0:0:0:
268,136,6657,6,0,P|276:92|280:52,1,85
220,208,6987,1,8,0:0:0:0:
280,51,7151,1,0,0:0:0:0:
376,254,7316,1,0,0:0:0:0:
180,132,7481,1,0,0:0:0:0:
483,240,7646,1,8,0:0:0:0:
132,204,7811,1,0,0:0:0:0:
356,172,7976,6,0,B|396:160|396:160|412:120,2,85,0|0|8,0:0|0:0|0:0,0:0:0:0:
196,48,8635,1,0,0:0:0:0:
316,336,8965,1,8,0:0:0:0:
316,336,9129,1,0,0:0:0:0:
108,24,9459,6,0,P|116:72|124:108,1,85,0|8,0:0|0:0,0:0:0:0:
412,352,9954,1,0,0:0:0:0:
504,320,10118,1,0,0:0:0:0:
316,336,10283,1,8,0:0:0:0:
432,260,10448,1,0,0:0:0:0:
220,316,10613,6,2,P|160:328|236:248,1,297.5,2|0,0:0|0:0,0:0:0:0:
288,288,11272,2,0,P|348:304|404:188,1,212.5,2|0,0:0|0:0,0:0:0:0:
344,152,11767,6,0,L|256:132,1,85,2|0,0:0|0:0,0:0:0:0:
88,164,12096,1,0,0:0:0:0:
224,56,12261,1,2,0:0:0:0:
232,239,12426,1,0,0:0:0:0:
140,40,12591,1,2,0:0:0:0:
12,124,12756,1,0,0:0:0:0:
0,160,12838,1,0,0:0:0:0:
8,196,12921,1,2,0:0:0:0:
24,232,13003,1,0,0:0:0:0:
60,244,13085,1,0,0:0:0:0:
100,248,13168,1,0,0:0:0:0:
136,236,13250,6,0,P|152:280|156:320,1,85,2|0,0:0|0:0,0:0:0:0:
140,40,13580,2,0,P|184:60|216:80,1,85,8|0,0:0|0:0,0:0:0:0:
232,239,13910,1,0,0:0:0:0:
288,36,14074,1,2,0:0:0:0:
188,164,14239,1,8,0:0:0:0:
140,40,14404,1,0,0:0:0:0:
136,236,14569,6,0,P|130:278|115:317,2,85,2|0|8,0:0|0:0|0:0,0:0:0:0:
60,16,15064,2,0,P|65:58|80:97,1,85,2|0,0:0|0:0,0:0:0:0:
188,164,15393,1,0,0:0:0:0:
140,40,15558,1,8,0:0:0:0:
268,136,15723,6,0,P|312:152|352:152,1,85,0|2,0:0|0:0,0:0:0:0:
432,124,16053,1,0,0:0:0:0:
320,68,16217,1,8,0:0:0:0:
356,228,16382,1,0,0:0:0:0:
400,44,16547,1,2,0:0:0:0:
252,220,16712,1,0,0:0:0:0:
472,256,16877,1,8,0:0:0:0:
320,68,17042,5,0,0:0:0:0:
420,324,17206,1,2,1:3:0:0:
188,164,17371,1,2,1:3:0:0:
468,144,17536,1,0,0:0:0:0:
268,344,17701,1,2,1:3:0:0:
276,352,18031,6,2,B|252:312|180:296|144:320|144:320|156:344,1,170,2|0,0:0|0:0,0:0:0:0:
208,328,18443,1,0,0:0:0:0:
232,280,18525,2,0,P|240:232|240:192,1,85,2|0,0:0|0:0,0:0:0:0:
364,352,18855,2,0,P|356:304|356:264,1,85,8|0,0:0|0:0,0:0:0:0:
184,132,19184,1,0,0:0:0:0:
268,344,19349,1,2,0:0:0:0:
480,260,19514,1,8,0:0:0:0:
396,48,19679,1,0,0:0:0:0:
240,195,19844,5,2,0:0:0:0:
320,72,20009,1,0,0:0:0:0:
420,176,20173,1,0,0:0:0:0:
340,299,20338,1,2,0:0:0:0:
104,104,20668,2,0,B|68:84|68:84|56:40,2,85
184,72,21162,5,0,0:0:0:0:
188,92,21245,1,0,0:0:0:0:
192,112,21327,2,0,L|200:156,1,42.5
256,240,21492,1,0,0:0:0:0:
256,240,21574,1,0,0:0:0:0:
256,240,21657,2,0,L|268:196,1,42.5
296,100,21822,5,0,0:0:0:0:
296,100,21904,2,0,P|340:108|376:136,1,85
424,220,22151,1,0,0:0:0:0:
424,220,22234,1,0,0:0:0:0:
424,220,22316,2,0,L|412:268,1,42.5
360,348,22481,5,0,0:0:0:0:
340,344,22564,1,0,0:0:0:0:
320,340,22646,1,0,0:0:0:0:
200,316,22811,2,0,L|176:280,2,42.5
256,240,23140,5,2,0:0:0:0:
108,108,23305,1,0,0:0:0:0:
120,344,23470,1,2,0:0:0:0:
184,72,23635,1,0,0:0:0:0:
200,316,23800,6,0,P|176:280|160:240,1,85,2|0,0:0|0:0,0:0:0:0:
156,204,24047,1,0,0:0:0:0:
172,168,24129,1,0,0:0:0:0:
204,148,24212,1,0,0:0:0:0:
240,140,24294,1,0,0:0:0:0:
276,148,24377,1,0,0:0:0:0:
308,168,24459,1,0,0:0:0:0:
468,340,24624,5,0,0:0:0:0:
432,332,24706,1,0,0:0:0:0:
396,324,24789,1,0,0:0:0:0:
360,316,24871,1,0,0:0:0:0:
324,308,24954,2,2,P|392:260|392:180,1,170
276,64,25448,5,2,0:0:0:0:
276,64,25531,1,0,0:0:0:0:
276,64,25613,1,0,0:0:0:0:
276,64,25695,1,0,0:0:0:0:
276,64,25778,1,2,0:0:0:0:
40,192,25943,6,0,P|56:180|68:156,1,42.5
104,280,26107,2,0,P|111:261|110:234,1,42.5
204,308,26272,2,0,P|201:288|186:265,1,42.5
172,200,26437,5,2,0:0:0:0:
172,200,26520,1,0,0:0:0:0:
172,200,26602,2,0,L|180:152,1,42.5
200,44,26767,2,0,L|192:88,1,42.5
260,116,26932,2,0,L|252:160,1,42.5
204,308,27096,5,2,0:0:0:0:
212,288,27179,1,0,0:0:0:0:
220,268,27261,2,0,L|252:236,1,42.5
344,228,27426,2,0,L|312:196,1,42.5
332,320,27591,2,0,L|300:288,1,42.5
172,200,27756,5,2,0:0:0:0:
136,212,27838,1,0,0:0:0:0:
108,240,27921,1,0,0:0:0:0:
92,276,28003,1,0,0:0:0:0:
76,308,28085,1,2,0:0:0:0:
52,276,28168,1,0,0:0:0:0:
32,244,28250,1,0,0:0:0:0:
28,204,28333,1,0,0:0:0:0:
48,172,28415,1,2,0:0:0:0:
76,144,28498,1,0,0:0:0:0:
96,112,28580,1,0,0:0:0:0:
108,76,28662,1,0,0:0:0:0:
100,40,28745,1,4,1:2:0:0:
172,200,28910,5,0,0:0:0:0:
200,212,28992,1,0,0:0:0:0:
232,224,29074,2,0,L|332:208,1,101.999996887207
504,184,29404,1,0,0:0:0:0:
344,88,29569,1,0,0:0:0:0:
344,88,29651,1,0,0:0:0:0:
344,88,29734,1,0,0:0:0:0:
203,295,29899,2,0,P|191:239|171:199,1,101.999996887207
20,72,30228,1,0,0:0:0:0:
20,244,30393,6,0,B|20:312|64:360|64:360|88:320|132:328,2,203.999993774414
120,56,31217,1,8,0:0:0:0:
120,56,31382,1,8,0:0:0:0:
203,295,31547,5,0,0:0:0:0:
203,295,31629,1,0,0:0:0:0:
203,295,31712,2,0,P|191:239|171:199,1,101.999996887207
20,72,32042,1,0,0:0:0:0:
71,215,32206,1,0,0:0:0:0:
120,56,32371,2,0,B|164:36|164:36|220:40,1,101.999996887207
276,80,32618,2,0,B|384:72|384:72|424:44,1,152.999995330811
208,116,33031,6,0,P|200:172|204:228,1,101.999996887207
480,188,33360,2,0,P|488:132|484:76,1,101.999996887207
344,76,33690,1,0,0:0:0:0:
312,216,33855,1,0,0:0:0:0:
208,116,34020,1,0,0:0:0:0:
396,164,34184,5,0,0:0:0:0:
400,200,34267,1,0,0:0:0:0:
404,236,34349,2,0,P|416:292|432:336,1,101.999996887207
480,188,34679,1,0,0:0:0:0:
332,352,34844,1,0,0:0:0:0:
484,88,35009,2,0,B|420:88|388:16|388:16|376:56|344:76,1,203.999993774414
208,116,35503,5,0,0:0:0:0:
180,96,35585,1,0,0:0:0:0:
160,64,35668,2,0,P|152:120|132:164,1,101.999996887207
20,248,35998,1,0,0:0:0:0:
76,68,36162,1,0,0:0:0:0:
108,252,36327,2,0,B|152:272|216:236|220:180|220:180|260:212,1,203.999993774414
388,332,36822,5,0,0:0:0:0:
364,304,36904,1,0,0:0:0:0:
352,272,36987,2,0,B|340:220|340:220|344:168,1,101.999996887207
372,128,37234,1,0,0:0:0:0:
372,128,37316,2,0,L|268:108,1,101.999996887207
220,96,37564,1,0,0:0:0:0:
180,128,37646,2,0,P|196:184|196:232,1,101.999996887207
160,264,37893,1,0,0:0:0:0:
116,236,37976,2,0,P|96:192|64:148,1,101.999996887207
20,120,38223,5,0,0:0:0:0:
20,120,38305,1,0,0:0:0:0:
96,316,38470,1,0,0:0:0:0:
180,128,38635,1,0,0:0:0:0:
164,352,38800,1,0,0:0:0:0:
112,92,38965,1,0,0:0:0:0:
240,344,39129,1,0,0:0:0:0:
236,76,39294,1,0,0:0:0:0:
272,60,39377,1,0,0:0:0:0:
312,60,39459,1,0,0:0:0:0:
352,72,39542,1,0,0:0:0:0:
388,92,39624,6,0,L|368:192,1,101.999996887207
292,196,39871,2,0,L|200:144,1,101.999996887207
236,76,40118,2,0,L|288:56,1,50.9999984436036
352,24,40283,5,0,0:0:0:0:
340,264,40531,1,0,0:0:0:0:
132,132,40778,1,0,0:0:0:0:
236,76,40943,5,0,0:0:0:0:
236,320,41107,1,0,0:0:0:0:
388,92,41272,1,0,0:0:0:0:
132,132,41437,1,0,0:0:0:0:
316,344,41602,2,0,P|388:336|424:268,1,152.999995330811
396,204,41932,1,0,0:0:0:0:
236,320,42261,6,0,L|136:304,1,101.999996887207
100,300,42509,1,0,0:0:0:0:
100,300,42591,1,0,0:0:0:0:
92,76,42756,1,0,0:0:0:0:
108,108,42838,1,0,0:0:0:0:
132,132,42921,1,0,0:0:0:0:
388,92,43085,2,0,L|396:40,2,50.9999984436036
280,260,43415,1,0,0:0:0:0:
256,192,43498,1,0,0:0:0:0:
236,124,43580,5,0,0:0:0:0:
424,272,43910,1,0,0:0:0:0:
92,76,44239,2,0,P|52:168|120:232,1,203.999993774414
236,124,44734,2,0,P|280:184|280:260,1,152.999995330811
236,320,45064,5,2,0:0:0:0:
492,120,45228,1,2,0:0:0:0:
164,292,45558,1,2,0:0:0:0:
92,76,45722,1,0,0:0:0:0:
424,272,46053,1,2,0:0:0:0:
32,140,46382,5,2,0:0:0:0:
164,292,46547,1,0,0:0:0:0:
92,76,46712,2,0,P|168:152|72:216,1,255,2|0,0:0|0:0,0:0:0:0:
