osu file format v14

[General]
AudioFilename: neko.ogg
AudioLeadIn: 0
PreviewTime: 28901
Countdown: 0
SampleSet: Soft
StackLeniency: 0.7
Mode: 3
LetterboxInBreaks: 0
SpecialStyle: 0
WidescreenStoryboard: 1

[Editor]
DistanceSpacing: 0.8
BeatDivisor: 4
GridSize: 32
TimelineZoom: 2.4

[Metadata]
Title:Ne! Ko! (TV Size)
TitleUnicode:ネ!コ! (TV Size)
Artist:Natsumi Takamori, Eri Sendai, Yuu Asakawa, Atsumi Tanezaki
ArtistUnicode:パトリシア・オブ・エンド(CV:高森奈津美)・黒木未知(CV:仙台エリ)・夕莉シャチ(CV:浅川悠)・明日原ユウキ(CV:種﨑敦美)
Creator:MapleSyrup-
Version:Extra
Source:ノラと皇女と野良猫ハート
Tags:Nora to Oujo to Noraneko Heart Nora Princess and Stray Cat Noratoto ノラとと Patricia of End, Michi Kuroki, Shachi Yuri, Yuki Asuhara はと Hato 森慎太郎 Mori Shintarou ミントフォレスト Mint Forest HARUKAZE DMM.futureworks グッズセットC92 jpop j-pop j pop japanese anime
BeatmapID:4075328
BeatmapSetID:1965109

[Difficulty]
HPDrainRate:7.5
CircleSize:7
OverallDifficulty:7
ApproachRate:5
SliderMultiplier:1.4
SliderTickRate:1

[Events]
//Background and Video events
0,0,"bg.jpg",0,0
//Break Periods
//Storyboard Layer 0 (Background)
//Storyboard Layer 1 (Fail)
//Storyboard Layer 2 (Pass)
//Storyboard Layer 3 (Foreground)
//Storyboard Layer 4 (Overlay)
//Storyboard Sound Samples

[TimingPoints]
55,329.67032967033,4,2,1,60,1,0
29065,-100,4,2,1,60,0,1
46703,-100,4,2,1,60,0,0

[HitObjects]
182,192,55,128,0,137:0:0:0:0:
109,192,55,128,0,137:0:0:0:0:
36,192,55,128,0,137:0:0:0:0:
475,192,55,128,0,137:0:0:0:0:
256,192,137,128,0,219:0:0:0:0:
329,192,137,128,0,219:0:0:0:0:
402,192,219,128,0,302:0:0:0:0:
109,192,219,128,0,302:0:0:0:0:
36,192,219,128,0,302:0:0:0:0:
182,192,302,128,0,384:0:0:0:0:
256,192,302,128,0,384:0:0:0:0:
329,192,384,128,0,467:0:0:0:0:
402,192,384,128,0,467:0:0:0:0:
475,192,384,128,0,467:0:0:0:0:
36,192,384,128,0,467:0:0:0:0:
182,192,467,128,0,549:0:0:0:0:
256,192,467,128,0,549:0:0:0:0:
109,192,549,128,0,631:0:0:0:0:
402,192,549,128,0,631:0:0:0:0:
475,192,549,128,0,631:0:0:0:0:
329,192,631,128,0,714:0:0:0:0:
256,192,631,128,0,714:0:0:0:0:
475,192,714,128,0,796:0:0:0:0:
182,192,714,128,0,796:0:0:0:0:
109,192,714,128,0,796:0:0:0:0:
36,192,714,128,0,796:0:0:0:0:
402,192,796,128,0,879:0:0:0:0:
329,192,796,128,0,879:0:0:0:0:
475,192,879,128,0,961:0:0:0:0:
36,192,879,128,0,961:0:0:0:0:
109,192,879,128,0,961:0:0:0:0:
182,192,961,128,0,1044:0:0:0:0:
256,192,961,128,0,1044:0:0:0:0:
329,192,1044,128,0,1126:0:0:0:0:
402,192,1044,128,0,1126:0:0:0:0:
475,192,1044,128,0,1126:0:0:0:0:
36,192,1044,128,0,1126:0:0:0:0:
109,192,1126,128,0,1208:0:0:0:0:
182,192,1126,128,0,1208:0:0:0:0:
36,192,1208,128,0,1291:0:0:0:0:
402,192,1208,128,0,1291:0:0:0:0:
475,192,1208,128,0,1291:0:0:0:0:
256,192,1291,1,0,0:0:0:0:
329,192,1291,128,0,1620:0:0:0:0:
402,192,1538,128,0,1620:0:0:0:0:
475,192,1538,128,0,1620:0:0:0:0:
109,192,1538,128,0,1620:0:0:0:0:
36,192,1538,128,0,1620:0:0:0:0:
256,192,1538,128,0,1785:0:0:0:0:
182,192,1703,128,0,2115:0:0:0:0:
329,192,1703,128,0,1785:0:0:0:0:
475,192,1703,128,0,1785:0:0:0:0:
109,192,1703,128,0,1785:0:0:0:0:
36,192,1703,128,0,1785:0:0:0:0:
402,192,2033,128,0,2115:0:0:0:0:
475,192,2033,128,0,2115:0:0:0:0:
109,192,2033,128,0,2115:0:0:0:0:
36,192,2033,128,0,2362:0:0:0:0:
256,192,2033,128,0,2115:0:0:0:0:
329,192,2197,128,0,2280:0:0:0:0:
402,192,2197,128,0,2280:0:0:0:0:
475,192,2197,128,0,2280:0:0:0:0:
109,192,2280,128,0,2362:0:0:0:0:
182,192,2280,128,0,2362:0:0:0:0:
256,192,2362,128,0,2445:0:0:0:0:
329,192,2362,128,0,2445:0:0:0:0:
402,192,2362,128,0,2445:0:0:0:0:
109,192,2445,128,0,2527:0:0:0:0:
36,192,2445,128,0,2527:0:0:0:0:
182,192,2527,128,0,2609:0:0:0:0:
329,192,2527,128,0,2609:0:0:0:0:
256,192,2527,128,0,2609:0:0:0:0:
402,192,2609,128,0,2692:0:0:0:0:
475,192,2609,128,0,2692:0:0:0:0:
109,192,2692,1,0,0:0:0:0:
36,192,2692,128,0,3104:0:0:0:0:
256,192,2692,1,0,0:0:0:0:
182,192,2692,1,0,0:0:0:0:
109,192,2857,128,0,3104:0:0:0:0:
402,192,2857,128,0,2939:0:0:0:0:
402,192,3022,128,0,3434:0:0:0:0:
475,192,3022,1,0,0:0:0:0:
182,192,3022,1,0,0:0:0:0:
256,192,3022,1,0,0:0:0:0:
329,192,3186,128,0,3434:0:0:0:0:
109,192,3186,128,0,3269:0:0:0:0:
109,192,3351,128,0,3763:0:0:0:0:
36,192,3351,1,0,0:0:0:0:
182,192,3351,1,0,0:0:0:0:
256,192,3351,1,0,0:0:0:0:
182,192,3516,128,0,3763:0:0:0:0:
475,192,3516,128,0,3598:0:0:0:0:
475,192,3681,128,0,4093:0:0:0:0:
402,192,3681,1,0,0:0:0:0:
256,192,3681,1,0,0:0:0:0:
329,192,3681,1,0,0:0:0:0:
402,192,3846,128,0,4093:0:0:0:0:
182,192,3846,128,0,3928:0:0:0:0:
182,192,4011,128,0,4423:0:0:0:0:
36,192,4011,1,0,0:0:0:0:
256,192,4011,1,0,0:0:0:0:
109,192,4011,1,0,0:0:0:0:
36,192,4175,128,0,4423:0:0:0:0:
402,192,4175,128,0,4258:0:0:0:0:
402,192,4340,128,0,4752:0:0:0:0:
256,192,4340,1,0,0:0:0:0:
475,192,4340,1,0,0:0:0:0:
329,192,4340,1,0,0:0:0:0:
256,192,4505,128,0,4752:0:0:0:0:
109,192,4505,128,0,4587:0:0:0:0:
109,192,4670,128,0,5082:0:0:0:0:
36,192,4670,1,0,0:0:0:0:
475,192,4670,1,0,0:0:0:0:
182,192,4670,1,0,0:0:0:0:
256,192,4835,128,0,5082:0:0:0:0:
329,192,4835,128,0,4917:0:0:0:0:
475,192,5000,1,0,0:0:0:0:
182,192,5000,1,0,0:0:0:0:
329,192,5000,128,0,5247:0:0:0:0:
402,192,5000,1,0,0:0:0:0:
182,192,5164,128,0,5247:0:0:0:0:
36,192,5164,128,0,5247:0:0:0:0:
256,192,5247,1,0,0:0:0:0:
109,192,5329,1,0,0:0:0:0:
402,192,5329,1,0,0:0:0:0:
36,192,5329,128,0,5824:0:0:0:0:
329,192,5329,128,0,5659:0:0:0:0:
182,192,5494,1,0,0:0:0:0:
109,192,5494,128,0,5824:0:0:0:0:
256,192,5659,1,0,0:0:0:0:
475,192,5659,1,0,0:0:0:0:
182,192,5659,128,0,5824:0:0:0:0:
402,192,5659,128,0,5824:0:0:0:0:
329,192,5824,1,0,0:0:0:0:
256,192,5824,128,0,5989:0:0:0:0:
402,192,5989,1,0,0:0:0:0:
109,192,5989,1,0,0:0:0:0:
475,192,5989,128,0,6483:0:0:0:0:
182,192,5989,128,0,6318:0:0:0:0:
329,192,6153,1,0,0:0:0:0:
402,192,6153,128,0,6483:0:0:0:0:
256,192,6318,1,0,0:0:0:0:
36,192,6318,1,0,0:0:0:0:
329,192,6318,128,0,6483:0:0:0:0:
109,192,6318,128,0,6483:0:0:0:0:
182,192,6483,1,0,0:0:0:0:
256,192,6483,128,0,6648:0:0:0:0:
109,192,6648,1,0,0:0:0:0:
36,192,6648,1,0,0:0:0:0:
182,192,6648,128,0,7307:0:0:0:0:
475,192,6648,128,0,6813:0:0:0:0:
402,192,6730,128,0,6895:0:0:0:0:
329,192,6813,128,0,7060:0:0:0:0:
256,192,6895,128,0,6978:0:0:0:0:
402,192,6978,128,0,7142:0:0:0:0:
109,192,6978,1,0,0:0:0:0:
36,192,6978,1,0,0:0:0:0:
475,192,7060,128,0,7225:0:0:0:0:
256,192,7142,1,0,0:0:0:0:
329,192,7307,128,0,7967:0:0:0:0:
402,192,7307,1,0,0:0:0:0:
475,192,7307,1,0,0:0:0:0:
36,192,7307,128,0,7472:0:0:0:0:
109,192,7390,128,0,7555:0:0:0:0:
182,192,7472,128,0,7719:0:0:0:0:
256,192,7555,128,0,7637:0:0:0:0:
109,192,7637,128,0,7802:0:0:0:0:
402,192,7637,1,0,0:0:0:0:
475,192,7637,1,0,0:0:0:0:
36,192,7719,128,0,7884:0:0:0:0:
256,192,7802,1,0,0:0:0:0:
256,192,7967,1,0,0:0:0:0:
109,192,7967,128,0,8049:0:0:0:0:
182,192,7967,128,0,8049:0:0:0:0:
475,192,7967,128,0,8131:0:0:0:0:
182,192,8131,128,0,8379:0:0:0:0:
36,192,8131,128,0,8379:0:0:0:0:
402,192,8296,1,0,0:0:0:0:
256,192,8296,128,0,8379:0:0:0:0:
329,192,8296,128,0,8379:0:0:0:0:
475,192,8296,128,0,8708:0:0:0:0:
329,192,8461,128,0,8708:0:0:0:0:
256,192,8626,128,0,8708:0:0:0:0:
109,192,8626,1,0,0:0:0:0:
182,192,8626,128,0,8708:0:0:0:0:
36,192,8626,128,0,9038:0:0:0:0:
109,192,8791,128,0,9038:0:0:0:0:
402,192,8956,128,0,9038:0:0:0:0:
256,192,8956,1,0,0:0:0:0:
329,192,8956,128,0,9038:0:0:0:0:
475,192,8956,128,0,9368:0:0:0:0:
36,192,9120,128,0,9368:0:0:0:0:
402,192,9120,128,0,9368:0:0:0:0:
182,192,9285,128,0,9368:0:0:0:0:
109,192,9285,128,0,9368:0:0:0:0:
256,192,9285,1,0,0:0:0:0:
182,192,9450,128,0,9697:0:0:0:0:
475,192,9450,128,0,9697:0:0:0:0:
402,192,9615,1,0,0:0:0:0:
256,192,9615,128,0,9697:0:0:0:0:
329,192,9615,128,0,9697:0:0:0:0:
36,192,9615,128,0,10027:0:0:0:0:
329,192,9780,128,0,10027:0:0:0:0:
475,192,9945,128,0,10274:0:0:0:0:
402,192,9945,1,0,0:0:0:0:
256,192,9945,128,0,10027:0:0:0:0:
109,192,9945,128,0,10027:0:0:0:0:
109,192,10109,1,0,0:0:0:0:
182,192,10109,128,0,10192:0:0:0:0:
329,192,10109,128,0,10192:0:0:0:0:
182,192,10274,1,0,0:0:0:0:
256,192,10274,128,0,10357:0:0:0:0:
402,192,10274,128,0,10357:0:0:0:0:
109,192,10357,128,0,10439:0:0:0:0:
36,192,10357,128,0,10439:0:0:0:0:
256,192,10439,1,0,0:0:0:0:
329,192,10439,128,0,10522:0:0:0:0:
475,192,10439,128,0,10522:0:0:0:0:
182,192,10522,128,0,10604:0:0:0:0:
109,192,10522,128,0,10604:0:0:0:0:
36,192,10604,1,0,0:0:0:0:
329,192,10604,128,0,10686:0:0:0:0:
402,192,10604,128,0,10686:0:0:0:0:
475,192,10604,128,0,10686:0:0:0:0:
182,192,11263,128,0,11346:0:0:0:0:
109,192,11263,128,0,11346:0:0:0:0:
36,192,11263,128,0,11346:0:0:0:0:
475,192,11263,1,0,0:0:0:0:
402,192,11758,128,0,11840:0:0:0:0:
475,192,11758,128,0,11840:0:0:0:0:
109,192,11758,128,0,11840:0:0:0:0:
36,192,11758,128,0,11840:0:0:0:0:
256,192,11758,128,0,12087:0:0:0:0:
402,192,12087,1,0,0:0:0:0:
329,192,12087,128,0,12170:0:0:0:0:
475,192,12087,128,0,12170:0:0:0:0:
182,192,12087,1,0,0:0:0:0:
329,192,12252,1,0,0:0:0:0:
256,192,12252,128,0,12335:0:0:0:0:
402,192,12252,128,0,12335:0:0:0:0:
109,192,12252,1,0,0:0:0:0:
256,192,12417,1,0,0:0:0:0:
182,192,12417,128,0,12500:0:0:0:0:
329,192,12417,128,0,12500:0:0:0:0:
36,192,12417,1,0,0:0:0:0:
182,192,12582,1,0,0:0:0:0:
109,192,12582,128,0,12664:0:0:0:0:
256,192,12582,128,0,12664:0:0:0:0:
475,192,12582,1,0,0:0:0:0:
109,192,12747,1,0,0:0:0:0:
182,192,12747,128,0,12829:0:0:0:0:
329,192,12747,128,0,12829:0:0:0:0:
36,192,12747,128,0,12829:0:0:0:0:
402,192,12829,128,0,12912:0:0:0:0:
475,192,12829,128,0,12912:0:0:0:0:
36,192,12912,1,0,0:0:0:0:
109,192,12912,128,0,12994:0:0:0:0:
256,192,12912,128,0,12994:0:0:0:0:
329,192,12994,128,0,13076:0:0:0:0:
402,192,12994,128,0,13076:0:0:0:0:
475,192,13076,1,0,0:0:0:0:
182,192,13076,128,0,13159:0:0:0:0:
36,192,13076,128,0,13159:0:0:0:0:
256,192,13159,128,0,13241:0:0:0:0:
329,192,13159,128,0,13241:0:0:0:0:
36,192,13241,1,0,0:0:0:0:
402,192,13241,128,0,13489:0:0:0:0:
475,192,13241,128,0,13489:0:0:0:0:
109,192,13241,128,0,13406:0:0:0:0:
182,192,13324,128,0,13489:0:0:0:0:
256,192,13406,128,0,13571:0:0:0:0:
329,192,13489,128,0,13571:0:0:0:0:
475,192,13571,1,0,0:0:0:0:
402,192,13571,128,0,13736:0:0:0:0:
109,192,13571,128,0,13818:0:0:0:0:
36,192,13571,128,0,13818:0:0:0:0:
329,192,13653,128,0,13818:0:0:0:0:
256,192,13736,128,0,13901:0:0:0:0:
182,192,13818,128,0,13901:0:0:0:0:
475,192,13901,128,0,14230:0:0:0:0:
329,192,13901,1,0,0:0:0:0:
109,192,13901,128,0,14065:0:0:0:0:
36,192,13901,128,0,14065:0:0:0:0:
402,192,14065,128,0,14395:0:0:0:0:
256,192,14065,1,0,0:0:0:0:
329,192,14230,128,0,14560:0:0:0:0:
109,192,14230,1,0,0:0:0:0:
182,192,14230,128,0,14395:0:0:0:0:
36,192,14230,128,0,14395:0:0:0:0:
109,192,14395,1,0,0:0:0:0:
256,192,14395,128,0,14560:0:0:0:0:
182,192,14560,1,0,0:0:0:0:
36,192,14560,128,0,14890:0:0:0:0:
475,192,14560,128,0,14725:0:0:0:0:
402,192,14560,128,0,14725:0:0:0:0:
256,192,14725,1,0,0:0:0:0:
109,192,14725,128,0,15055:0:0:0:0:
402,192,14890,1,0,0:0:0:0:
182,192,14890,128,0,15219:0:0:0:0:
475,192,14890,128,0,15055:0:0:0:0:
329,192,14890,128,0,15055:0:0:0:0:
402,192,15055,1,0,0:0:0:0:
256,192,15055,128,0,15137:0:0:0:0:
109,192,15137,128,0,15302:0:0:0:0:
329,192,15219,128,0,15384:0:0:0:0:
475,192,15219,1,0,0:0:0:0:
36,192,15219,128,0,15384:0:0:0:0:
256,192,15302,128,0,15467:0:0:0:0:
402,192,15384,1,0,0:0:0:0:
182,192,15384,128,0,15714:0:0:0:0:
109,192,15549,1,0,0:0:0:0:
36,192,15549,1,0,0:0:0:0:
256,192,15549,1,0,0:0:0:0:
329,192,15549,128,0,15714:0:0:0:0:
475,192,15714,128,0,15879:0:0:0:0:
36,192,15714,128,0,15879:0:0:0:0:
109,192,15796,128,0,15961:0:0:0:0:
182,192,15879,128,0,16044:0:0:0:0:
256,192,15879,1,0,0:0:0:0:
329,192,15879,1,0,0:0:0:0:
402,192,15879,128,0,16208:0:0:0:0:
109,192,16044,128,0,16208:0:0:0:0:
329,192,16044,128,0,16373:0:0:0:0:
256,192,16208,128,0,16373:0:0:0:0:
475,192,16208,1,0,0:0:0:0:
36,192,16208,128,0,16373:0:0:0:0:
182,192,16208,1,0,0:0:0:0:
182,192,16373,128,0,16538:0:0:0:0:
475,192,16373,1,0,0:0:0:0:
36,192,16538,1,0,0:0:0:0:
329,192,16538,128,0,16703:0:0:0:0:
256,192,16538,1,0,0:0:0:0:
109,192,16538,128,0,16868:0:0:0:0:
402,192,16703,128,0,16868:0:0:0:0:
182,192,16703,128,0,16868:0:0:0:0:
36,192,16868,1,0,0:0:0:0:
256,192,16868,128,0,16950:0:0:0:0:
329,192,16868,128,0,16950:0:0:0:0:
475,192,16868,1,0,0:0:0:0:
182,192,16950,128,0,17033:0:0:0:0:
109,192,16950,128,0,17033:0:0:0:0:
402,192,17033,128,0,17115:0:0:0:0:
329,192,17033,128,0,17115:0:0:0:0:
109,192,17115,128,0,17197:0:0:0:0:
36,192,17115,128,0,17197:0:0:0:0:
475,192,17197,128,0,17280:0:0:0:0:
402,192,17197,128,0,17280:0:0:0:0:
256,192,17197,128,0,17280:0:0:0:0:
182,192,17197,128,0,17280:0:0:0:0:
402,192,17362,128,0,17445:0:0:0:0:
329,192,17362,128,0,17445:0:0:0:0:
182,192,17362,128,0,17445:0:0:0:0:
109,192,17362,128,0,17445:0:0:0:0:
256,192,17527,128,0,17609:0:0:0:0:
329,192,17527,128,0,17609:0:0:0:0:
36,192,17527,128,0,17609:0:0:0:0:
109,192,17527,128,0,17609:0:0:0:0:
256,192,17692,128,0,17774:0:0:0:0:
402,192,17692,128,0,17774:0:0:0:0:
475,192,17692,128,0,17774:0:0:0:0:
182,192,17692,128,0,17774:0:0:0:0:
36,192,17692,128,0,17774:0:0:0:0:
109,192,18022,128,0,18186:0:0:0:0:
402,192,18022,128,0,18186:0:0:0:0:
475,192,18022,1,0,0:0:0:0:
256,192,18022,1,0,0:0:0:0:
36,192,18022,1,0,0:0:0:0:
182,192,18186,128,0,18351:0:0:0:0:
329,192,18186,128,0,18351:0:0:0:0:
402,192,18351,1,0,0:0:0:0:
109,192,18351,1,0,0:0:0:0:
36,192,18351,1,0,0:0:0:0:
475,192,18351,1,0,0:0:0:0:
329,192,18434,1,0,0:0:0:0:
182,192,18434,1,0,0:0:0:0:
256,192,18434,1,0,0:0:0:0:
109,192,18516,128,0,18763:0:0:0:0:
36,192,18516,128,0,18763:0:0:0:0:
402,192,18516,128,0,18681:0:0:0:0:
475,192,18516,1,0,0:0:0:0:
329,192,18598,128,0,18763:0:0:0:0:
256,192,18681,128,0,18846:0:0:0:0:
182,192,18763,128,0,18846:0:0:0:0:
36,192,18846,1,0,0:0:0:0:
109,192,18846,128,0,19011:0:0:0:0:
475,192,18846,128,0,19093:0:0:0:0:
402,192,18846,128,0,19093:0:0:0:0:
182,192,18928,128,0,19093:0:0:0:0:
256,192,19011,128,0,19175:0:0:0:0:
329,192,19093,128,0,19175:0:0:0:0:
36,192,19175,128,0,19505:0:0:0:0:
182,192,19175,1,0,0:0:0:0:
475,192,19175,128,0,19340:0:0:0:0:
402,192,19175,128,0,19340:0:0:0:0:
109,192,19340,128,0,19670:0:0:0:0:
256,192,19340,1,0,0:0:0:0:
182,192,19505,128,0,19835:0:0:0:0:
402,192,19505,1,0,0:0:0:0:
475,192,19505,128,0,19670:0:0:0:0:
329,192,19505,128,0,19670:0:0:0:0:
402,192,19670,1,0,0:0:0:0:
256,192,19670,128,0,19835:0:0:0:0:
329,192,19835,1,0,0:0:0:0:
475,192,19835,128,0,20164:0:0:0:0:
109,192,19835,128,0,20000:0:0:0:0:
36,192,19835,128,0,20000:0:0:0:0:
256,192,20000,1,0,0:0:0:0:
402,192,20000,128,0,20329:0:0:0:0:
329,192,20164,128,0,20494:0:0:0:0:
109,192,20164,1,0,0:0:0:0:
36,192,20164,1,0,0:0:0:0:
109,192,20329,1,0,0:0:0:0:
256,192,20329,128,0,20412:0:0:0:0:
182,192,20329,1,0,0:0:0:0:
402,192,20412,128,0,20576:0:0:0:0:
36,192,20494,1,0,0:0:0:0:
182,192,20494,128,0,20659:0:0:0:0:
475,192,20494,128,0,20659:0:0:0:0:
256,192,20576,128,0,20741:0:0:0:0:
109,192,20659,1,0,0:0:0:0:
402,192,20659,128,0,20741:0:0:0:0:
329,192,20659,128,0,20741:0:0:0:0:
36,192,20741,128,0,20824:0:0:0:0:
182,192,20741,128,0,20824:0:0:0:0:
402,192,20824,128,0,20906:0:0:0:0:
475,192,20824,128,0,20906:0:0:0:0:
329,192,20824,1,0,0:0:0:0:
109,192,20906,128,0,20989:0:0:0:0:
256,192,20906,128,0,20989:0:0:0:0:
475,192,20989,128,0,21071:0:0:0:0:
36,192,20989,128,0,21071:0:0:0:0:
402,192,20989,1,0,0:0:0:0:
182,192,21071,128,0,21153:0:0:0:0:
329,192,21071,128,0,21153:0:0:0:0:
109,192,21153,1,0,0:0:0:0:
256,192,21153,128,0,21318:0:0:0:0:
36,192,21153,128,0,21483:0:0:0:0:
475,192,21153,128,0,21483:0:0:0:0:
182,192,21318,1,0,0:0:0:0:
329,192,21318,128,0,21483:0:0:0:0:
109,192,21318,128,0,21648:0:0:0:0:
256,192,21483,1,0,0:0:0:0:
182,192,21483,128,0,21648:0:0:0:0:
402,192,21483,128,0,21648:0:0:0:0:
256,192,21648,1,0,0:0:0:0:
475,192,21648,128,0,21978:0:0:0:0:
329,192,21648,128,0,21813:0:0:0:0:
36,192,21648,128,0,21978:0:0:0:0:
182,192,21813,1,0,0:0:0:0:
402,192,21813,128,0,21978:0:0:0:0:
256,192,21813,128,0,21978:0:0:0:0:
329,192,21978,128,0,22142:0:0:0:0:
182,192,21978,128,0,22142:0:0:0:0:
109,192,21978,1,0,0:0:0:0:
402,192,22142,1,0,0:0:0:0:
475,192,22142,128,0,22472:0:0:0:0:
256,192,22142,128,0,22307:0:0:0:0:
36,192,22142,128,0,22472:0:0:0:0:
182,192,22307,128,0,22472:0:0:0:0:
329,192,22307,1,0,0:0:0:0:
402,192,22307,128,0,22637:0:0:0:0:
109,192,22472,128,0,22637:0:0:0:0:
329,192,22472,128,0,22637:0:0:0:0:
256,192,22472,1,0,0:0:0:0:
475,192,22637,128,0,22967:0:0:0:0:
256,192,22637,1,0,0:0:0:0:
36,192,22637,128,0,22967:0:0:0:0:
182,192,22637,128,0,22802:0:0:0:0:
256,192,22802,128,0,22967:0:0:0:0:
109,192,22802,128,0,22967:0:0:0:0:
329,192,22802,1,0,0:0:0:0:
182,192,22967,128,0,23131:0:0:0:0:
402,192,22967,1,0,0:0:0:0:
329,192,22967,128,0,23131:0:0:0:0:
256,192,23131,1,0,0:0:0:0:
109,192,23131,1,0,0:0:0:0:
475,192,23131,128,0,23296:0:0:0:0:
36,192,23131,128,0,23379:0:0:0:0:
402,192,23131,128,0,23296:0:0:0:0:
256,192,23296,128,0,23379:0:0:0:0:
109,192,23296,128,0,23379:0:0:0:0:
329,192,23296,128,0,23379:0:0:0:0:
256,192,23461,1,0,0:0:0:0:
402,192,23461,1,0,0:0:0:0:
475,192,23461,128,0,23708:0:0:0:0:
36,192,23461,128,0,23626:0:0:0:0:
109,192,23461,128,0,23626:0:0:0:0:
402,192,23626,128,0,23708:0:0:0:0:
256,192,23626,128,0,23708:0:0:0:0:
182,192,23626,128,0,23708:0:0:0:0:
109,192,23791,1,0,0:0:0:0:
36,192,23791,1,0,0:0:0:0:
256,192,23791,1,0,0:0:0:0:
402,192,23791,128,0,24038:0:0:0:0:
475,192,23791,128,0,24038:0:0:0:0:
329,192,23956,1,0,0:0:0:0:
182,192,23956,128,0,24038:0:0:0:0:
256,192,23956,128,0,24038:0:0:0:0:
109,192,24038,128,0,24120:0:0:0:0:
36,192,24038,128,0,24120:0:0:0:0:
402,192,24120,1,0,0:0:0:0:
256,192,24120,128,0,24203:0:0:0:0:
329,192,24120,128,0,24203:0:0:0:0:
182,192,24203,128,0,24285:0:0:0:0:
109,192,24203,128,0,24285:0:0:0:0:
475,192,24285,1,0,0:0:0:0:
329,192,24285,128,0,24368:0:0:0:0:
402,192,24285,128,0,24368:0:0:0:0:
109,192,24368,128,0,24450:0:0:0:0:
36,192,24368,128,0,24450:0:0:0:0:
182,192,24450,1,0,0:0:0:0:
256,192,24450,128,0,24533:0:0:0:0:
329,192,24450,128,0,24533:0:0:0:0:
402,192,24533,128,0,24615:0:0:0:0:
475,192,24533,128,0,24615:0:0:0:0:
109,192,24615,1,0,0:0:0:0:
256,192,24615,128,0,24697:0:0:0:0:
182,192,24615,128,0,24697:0:0:0:0:
329,192,24697,128,0,24780:0:0:0:0:
402,192,24697,128,0,24780:0:0:0:0:
36,192,24780,1,0,0:0:0:0:
182,192,24780,128,0,24862:0:0:0:0:
109,192,24780,128,0,24862:0:0:0:0:
256,192,24862,128,0,24945:0:0:0:0:
329,192,24862,128,0,24945:0:0:0:0:
402,192,24945,1,0,0:0:0:0:
475,192,24945,1,0,0:0:0:0:
109,192,24945,128,0,25274:0:0:0:0:
36,192,24945,128,0,25274:0:0:0:0:
256,192,25274,1,0,0:0:0:0:
402,192,25274,128,0,25357:0:0:0:0:
329,192,25274,128,0,25357:0:0:0:0:
182,192,25357,128,0,25439:0:0:0:0:
109,192,25357,128,0,25439:0:0:0:0:
329,192,25439,1,0,0:0:0:0:
475,192,25439,128,0,25522:0:0:0:0:
402,192,25439,128,0,25522:0:0:0:0:
109,192,25522,128,0,25604:0:0:0:0:
36,192,25522,128,0,25604:0:0:0:0:
256,192,25604,1,0,0:0:0:0:
329,192,25604,128,0,25686:0:0:0:0:
402,192,25604,128,0,25686:0:0:0:0:
109,192,25686,128,0,25769:0:0:0:0:
182,192,25686,128,0,25769:0:0:0:0:
475,192,25769,128,0,25851:0:0:0:0:
256,192,25769,128,0,25851:0:0:0:0:
36,192,25769,128,0,25851:0:0:0:0:
402,192,25851,128,0,25934:0:0:0:0:
182,192,25851,128,0,25934:0:0:0:0:
329,192,25934,128,0,26016:0:0:0:0:
109,192,25934,128,0,26016:0:0:0:0:
402,192,26016,128,0,26098:0:0:0:0:
182,192,26016,128,0,26098:0:0:0:0:
36,192,26098,128,0,26181:0:0:0:0:
256,192,26098,128,0,26181:0:0:0:0:
475,192,26098,128,0,26181:0:0:0:0:
109,192,26181,128,0,26263:0:0:0:0:
329,192,26181,128,0,26263:0:0:0:0:
182,192,26263,128,0,26346:0:0:0:0:
402,192,26263,128,0,26346:0:0:0:0:
109,192,26346,128,0,26428:0:0:0:0:
36,192,26346,128,0,26428:0:0:0:0:
256,192,26428,128,0,26511:0:0:0:0:
402,192,26428,128,0,26511:0:0:0:0:
475,192,26428,128,0,26511:0:0:0:0:
109,192,26511,128,0,26593:0:0:0:0:
182,192,26511,128,0,26593:0:0:0:0:
329,192,26593,128,0,26675:0:0:0:0:
475,192,26593,128,0,26675:0:0:0:0:
402,192,26593,128,0,26675:0:0:0:0:
256,192,26675,128,0,26758:0:0:0:0:
182,192,26675,128,0,26758:0:0:0:0:
109,192,26758,128,0,26840:0:0:0:0:
36,192,26758,128,0,26840:0:0:0:0:
475,192,26758,128,0,26840:0:0:0:0:
329,192,26840,128,0,26923:0:0:0:0:
256,192,26840,128,0,26923:0:0:0:0:
182,192,26923,128,0,27005:0:0:0:0:
109,192,26923,128,0,27005:0:0:0:0:
475,192,26923,128,0,27005:0:0:0:0:
329,192,27005,128,0,27087:0:0:0:0:
402,192,27005,128,0,27087:0:0:0:0:
256,192,27087,128,0,27170:0:0:0:0:
109,192,27087,128,0,27170:0:0:0:0:
36,192,27087,128,0,27170:0:0:0:0:
402,192,27170,128,0,27252:0:0:0:0:
475,192,27170,128,0,27252:0:0:0:0:
182,192,27252,128,0,27335:0:0:0:0:
109,192,27252,128,0,27335:0:0:0:0:
36,192,27252,128,0,27335:0:0:0:0:
329,192,27335,128,0,27417:0:0:0:0:
256,192,27335,128,0,27417:0:0:0:0:
402,192,27417,128,0,27500:0:0:0:0:
475,192,27417,128,0,27500:0:0:0:0:
36,192,27417,128,0,27500:0:0:0:0:
182,192,27500,128,0,27582:0:0:0:0:
256,192,27500,128,0,27582:0:0:0:0:
329,192,27582,128,0,27664:0:0:0:0:
402,192,27582,128,0,27664:0:0:0:0:
36,192,27582,128,0,27664:0:0:0:0:
109,192,27664,128,0,27747:0:0:0:0:
182,192,27664,128,0,27747:0:0:0:0:
256,192,27747,128,0,27829:0:0:0:0:
402,192,27747,128,0,27829:0:0:0:0:
475,192,27747,128,0,27829:0:0:0:0:
329,192,27829,128,0,27912:0:0:0:0:
182,192,27912,128,0,27994:0:0:0:0:
109,192,27912,128,0,27994:0:0:0:0:
36,192,27912,128,0,27994:0:0:0:0:
329,192,27994,128,0,28076:0:0:0:0:
402,192,27994,128,0,28076:0:0:0:0:
475,192,27994,128,0,28076:0:0:0:0:
256,192,28076,128,0,28159:0:0:0:0:
109,192,28076,128,0,28159:0:0:0:0:
36,192,28076,128,0,28159:0:0:0:0:
182,192,28159,128,0,28241:0:0:0:0:
329,192,28241,128,0,28324:0:0:0:0:
402,192,28241,128,0,28324:0:0:0:0:
475,192,28241,128,0,28324:0:0:0:0:
182,192,28324,128,0,28406:0:0:0:0:
109,192,28324,128,0,28406:0:0:0:0:
36,192,28324,128,0,28406:0:0:0:0:
256,192,28406,128,0,28489:0:0:0:0:
402,192,28406,128,0,28489:0:0:0:0:
475,192,28406,128,0,28489:0:0:0:0:
329,192,28489,128,0,28571:0:0:0:0:
182,192,28571,128,0,28653:0:0:0:0:
109,192,28571,128,0,28653:0:0:0:0:
36,192,28571,128,0,28653:0:0:0:0:
402,192,28653,128,0,28901:0:0:0:0:
475,192,28653,128,0,28901:0:0:0:0:
329,192,28653,128,0,28736:0:0:0:0:
109,192,28736,128,0,28901:0:0:0:0:
36,192,28736,128,0,28901:0:0:0:0:
256,192,28736,128,0,28901:0:0:0:0:
329,192,28901,128,0,29065:0:0:0:0:
182,192,28901,128,0,29065:0:0:0:0:
36,192,29065,1,0,0:0:0:0:
402,192,29065,128,0,29230:0:0:0:0:
475,192,29065,128,0,29230:0:0:0:0:
109,192,29065,1,0,0:0:0:0:
36,192,29230,128,0,29395:0:0:0:0:
256,192,29230,128,0,29395:0:0:0:0:
109,192,29313,128,0,29478:0:0:0:0:
329,192,29395,1,0,0:0:0:0:
402,192,29395,1,0,0:0:0:0:
182,192,29395,128,0,29560:0:0:0:0:
475,192,29395,1,0,0:0:0:0:
256,192,29478,128,0,29642:0:0:0:0:
329,192,29560,128,0,29642:0:0:0:0:
402,192,29560,128,0,29642:0:0:0:0:
475,192,29725,1,0,0:0:0:0:
109,192,29725,128,0,29890:0:0:0:0:
36,192,29725,128,0,29890:0:0:0:0:
402,192,29725,1,0,0:0:0:0:
256,192,29890,128,0,30055:0:0:0:0:
475,192,29890,128,0,30055:0:0:0:0:
402,192,29972,128,0,30137:0:0:0:0:
182,192,30055,1,0,0:0:0:0:
109,192,30055,1,0,0:0:0:0:
36,192,30055,1,0,0:0:0:0:
329,192,30055,128,0,30219:0:0:0:0:
256,192,30137,128,0,30302:0:0:0:0:
182,192,30219,128,0,30302:0:0:0:0:
36,192,30219,128,0,30302:0:0:0:0:
36,192,30384,1,0,0:0:0:0:
109,192,30384,128,0,30549:0:0:0:0:
475,192,30384,128,0,30549:0:0:0:0:
402,192,30384,128,0,30549:0:0:0:0:
182,192,30467,128,0,30631:0:0:0:0:
256,192,30549,128,0,30714:0:0:0:0:
329,192,30631,128,0,30714:0:0:0:0:
109,192,30714,128,0,30879:0:0:0:0:
36,192,30714,128,0,30879:0:0:0:0:
402,192,30714,128,0,30879:0:0:0:0:
475,192,30714,1,0,0:0:0:0:
329,192,30796,128,0,30961:0:0:0:0:
256,192,30879,128,0,31044:0:0:0:0:
182,192,30961,128,0,31044:0:0:0:0:
475,192,31044,1,0,0:0:0:0:
36,192,31044,128,0,31208:0:0:0:0:
402,192,31044,1,0,0:0:0:0:
329,192,31044,128,0,31208:0:0:0:0:
109,192,31126,128,0,31291:0:0:0:0:
402,192,31208,1,0,0:0:0:0:
182,192,31208,128,0,31373:0:0:0:0:
475,192,31208,128,0,31373:0:0:0:0:
256,192,31291,128,0,31538:0:0:0:0:
329,192,31373,1,0,0:0:0:0:
109,192,31373,128,0,31538:0:0:0:0:
36,192,31373,128,0,31538:0:0:0:0:
402,192,31373,1,0,0:0:0:0:
475,192,31538,1,0,0:0:0:0:
182,192,31538,1,0,0:0:0:0:
402,192,31620,1,0,0:0:0:0:
36,192,31703,1,0,0:0:0:0:
109,192,31703,128,0,31868:0:0:0:0:
256,192,31703,1,0,0:0:0:0:
329,192,31703,128,0,31868:0:0:0:0:
182,192,31868,128,0,32033:0:0:0:0:
402,192,31868,128,0,32033:0:0:0:0:
256,192,32033,128,0,32197:0:0:0:0:
36,192,32033,1,0,0:0:0:0:
475,192,32033,128,0,32197:0:0:0:0:
109,192,32033,128,0,32362:0:0:0:0:
329,192,32197,128,0,32362:0:0:0:0:
36,192,32197,128,0,32362:0:0:0:0:
402,192,32362,128,0,32527:0:0:0:0:
256,192,32362,1,0,0:0:0:0:
475,192,32362,1,0,0:0:0:0:
182,192,32362,128,0,32527:0:0:0:0:
329,192,32527,128,0,32692:0:0:0:0:
109,192,32527,128,0,32692:0:0:0:0:
256,192,32692,128,0,32857:0:0:0:0:
475,192,32692,1,0,0:0:0:0:
36,192,32692,128,0,32857:0:0:0:0:
402,192,32692,128,0,33022:0:0:0:0:
182,192,32857,128,0,33022:0:0:0:0:
109,192,32857,128,0,33022:0:0:0:0:
475,192,33022,128,0,33351:0:0:0:0:
36,192,33022,1,0,0:0:0:0:
329,192,33022,128,0,33186:0:0:0:0:
256,192,33022,1,0,0:0:0:0:
256,192,33186,128,0,33351:0:0:0:0:
402,192,33186,128,0,33681:0:0:0:0:
329,192,33351,128,0,33516:0:0:0:0:
182,192,33351,128,0,33516:0:0:0:0:
36,192,33351,1,0,0:0:0:0:
109,192,33351,1,0,0:0:0:0:
475,192,33516,128,0,33846:0:0:0:0:
109,192,33516,128,0,33681:0:0:0:0:
36,192,33681,128,0,34011:0:0:0:0:
182,192,33681,128,0,33846:0:0:0:0:
256,192,33681,1,0,0:0:0:0:
329,192,33681,1,0,0:0:0:0:
256,192,33846,128,0,34011:0:0:0:0:
109,192,33846,128,0,34175:0:0:0:0:
182,192,34011,128,0,34175:0:0:0:0:
329,192,34011,128,0,34175:0:0:0:0:
402,192,34011,1,0,0:0:0:0:
475,192,34011,1,0,0:0:0:0:
475,192,34175,1,0,0:0:0:0:
402,192,34175,1,0,0:0:0:0:
36,192,34175,128,0,34505:0:0:0:0:
256,192,34258,1,0,0:0:0:0:
182,192,34340,1,0,0:0:0:0:
475,192,34340,1,0,0:0:0:0:
402,192,34340,128,0,34670:0:0:0:0:
109,192,34340,128,0,34670:0:0:0:0:
256,192,34505,1,0,0:0:0:0:
182,192,34505,128,0,34835:0:0:0:0:
329,192,34670,1,0,0:0:0:0:
256,192,34670,128,0,35000:0:0:0:0:
36,192,34670,128,0,34835:0:0:0:0:
475,192,34670,128,0,34835:0:0:0:0:
402,192,34835,1,0,0:0:0:0:
329,192,34835,128,0,35000:0:0:0:0:
36,192,35000,128,0,35164:0:0:0:0:
402,192,35000,128,0,35164:0:0:0:0:
475,192,35000,128,0,35164:0:0:0:0:
182,192,35000,1,0,0:0:0:0:
109,192,35082,128,0,35247:0:0:0:0:
182,192,35164,128,0,35329:0:0:0:0:
329,192,35164,1,0,0:0:0:0:
256,192,35247,128,0,35412:0:0:0:0:
36,192,35329,128,0,35494:0:0:0:0:
402,192,35329,128,0,35494:0:0:0:0:
329,192,35329,128,0,35494:0:0:0:0:
109,192,35329,1,0,0:0:0:0:
475,192,35494,128,0,35824:0:0:0:0:
182,192,35494,128,0,35659:0:0:0:0:
109,192,35659,128,0,35989:0:0:0:0:
36,192,35659,1,0,0:0:0:0:
329,192,35659,1,0,0:0:0:0:
402,192,35659,128,0,35989:0:0:0:0:
329,192,35824,128,0,36153:0:0:0:0:
256,192,35824,1,0,0:0:0:0:
256,192,35989,128,0,36318:0:0:0:0:
182,192,35989,1,0,0:0:0:0:
475,192,35989,128,0,36153:0:0:0:0:
36,192,35989,128,0,36153:0:0:0:0:
109,192,36153,1,0,0:0:0:0:
182,192,36153,128,0,36318:0:0:0:0:
36,192,36318,128,0,36483:0:0:0:0:
109,192,36318,128,0,36483:0:0:0:0:
475,192,36318,128,0,36483:0:0:0:0:
329,192,36318,1,0,0:0:0:0:
402,192,36401,128,0,36565:0:0:0:0:
182,192,36483,1,0,0:0:0:0:
329,192,36483,128,0,36648:0:0:0:0:
256,192,36565,128,0,36730:0:0:0:0:
475,192,36648,128,0,36813:0:0:0:0:
182,192,36648,128,0,36813:0:0:0:0:
109,192,36648,128,0,36813:0:0:0:0:
402,192,36648,1,0,0:0:0:0:
36,192,36813,1,0,0:0:0:0:
256,192,36813,1,0,0:0:0:0:
109,192,36895,1,0,0:0:0:0:
182,192,36978,128,0,37142:0:0:0:0:
402,192,36978,128,0,37142:0:0:0:0:
475,192,36978,128,0,37142:0:0:0:0:
329,192,36978,1,0,0:0:0:0:
256,192,37142,1,0,0:0:0:0:
36,192,37142,1,0,0:0:0:0:
109,192,37142,1,0,0:0:0:0:
329,192,37225,1,0,0:0:0:0:
402,192,37225,1,0,0:0:0:0:
475,192,37225,1,0,0:0:0:0:
182,192,37307,128,0,37472:0:0:0:0:
109,192,37307,128,0,37472:0:0:0:0:
36,192,37307,128,0,37472:0:0:0:0:
402,192,37472,1,0,0:0:0:0:
329,192,37472,1,0,0:0:0:0:
256,192,37472,1,0,0:0:0:0:
109,192,37555,1,0,0:0:0:0:
36,192,37555,1,0,0:0:0:0:
475,192,37555,1,0,0:0:0:0:
182,192,37637,128,0,37802:0:0:0:0:
256,192,37637,128,0,37802:0:0:0:0:
329,192,37637,128,0,37802:0:0:0:0:
402,192,37802,1,0,0:0:0:0:
475,192,37802,1,0,0:0:0:0:
36,192,37802,1,0,0:0:0:0:
256,192,37884,1,0,0:0:0:0:
182,192,37884,1,0,0:0:0:0:
109,192,37884,1,0,0:0:0:0:
329,192,37967,128,0,38131:0:0:0:0:
402,192,37967,128,0,38131:0:0:0:0:
475,192,37967,128,0,38131:0:0:0:0:
256,192,38131,1,0,0:0:0:0:
109,192,38131,1,0,0:0:0:0:
36,192,38131,1,0,0:0:0:0:
182,192,38214,1,0,0:0:0:0:
402,192,38214,1,0,0:0:0:0:
475,192,38214,1,0,0:0:0:0:
329,192,38296,128,0,38461:0:0:0:0:
109,192,38296,128,0,38461:0:0:0:0:
36,192,38296,128,0,38461:0:0:0:0:
256,192,38461,1,0,0:0:0:0:
402,192,38461,1,0,0:0:0:0:
475,192,38461,1,0,0:0:0:0:
182,192,38544,1,0,0:0:0:0:
109,192,38544,1,0,0:0:0:0:
36,192,38544,1,0,0:0:0:0:
329,192,38626,128,0,38791:0:0:0:0:
475,192,38626,128,0,38791:0:0:0:0:
402,192,38626,128,0,38791:0:0:0:0:
256,192,38791,1,0,0:0:0:0:
182,192,38791,1,0,0:0:0:0:
109,192,38791,1,0,0:0:0:0:
402,192,38873,1,0,0:0:0:0:
475,192,38873,1,0,0:0:0:0:
36,192,38873,1,0,0:0:0:0:
329,192,38956,128,0,39120:0:0:0:0:
182,192,38956,128,0,39120:0:0:0:0:
256,192,38956,128,0,39120:0:0:0:0:
109,192,39120,128,0,39203:0:0:0:0:
36,192,39120,128,0,39203:0:0:0:0:
182,192,39203,128,0,39285:0:0:0:0:
256,192,39203,128,0,39285:0:0:0:0:
475,192,39285,128,0,39368:0:0:0:0:
402,192,39285,128,0,39368:0:0:0:0:
329,192,39368,128,0,39450:0:0:0:0:
256,192,39368,128,0,39450:0:0:0:0:
182,192,39450,128,0,39533:0:0:0:0:
109,192,39450,128,0,39533:0:0:0:0:
329,192,39533,128,0,39615:0:0:0:0:
402,192,39533,128,0,39615:0:0:0:0:
36,192,39615,128,0,39945:0:0:0:0:
256,192,39615,128,0,39862:0:0:0:0:
475,192,39615,1,0,0:0:0:0:
109,192,39615,128,0,39697:0:0:0:0:
182,192,39615,1,0,0:0:0:0:
109,192,39862,128,0,39945:0:0:0:0:
329,192,39862,1,0,0:0:0:0:
182,192,39862,128,0,40192:0:0:0:0:
402,192,39862,128,0,40192:0:0:0:0:
256,192,40109,1,0,0:0:0:0:
329,192,40109,128,0,40192:0:0:0:0:
109,192,40109,128,0,40192:0:0:0:0:
36,192,40109,128,0,40357:0:0:0:0:
475,192,40274,128,0,40604:0:0:0:0:
256,192,40274,128,0,40522:0:0:0:0:
182,192,40274,128,0,40357:0:0:0:0:
402,192,40274,128,0,40357:0:0:0:0:
329,192,40274,1,0,0:0:0:0:
329,192,40522,128,0,40851:0:0:0:0:
109,192,40522,128,0,40851:0:0:0:0:
402,192,40522,128,0,40604:0:0:0:0:
182,192,40522,1,0,0:0:0:0:
256,192,40769,1,0,0:0:0:0:
182,192,40769,128,0,40851:0:0:0:0:
402,192,40769,128,0,40851:0:0:0:0:
475,192,40769,128,0,41016:0:0:0:0:
36,192,40934,1,0,0:0:0:0:
256,192,40934,1,0,0:0:0:0:
109,192,40934,128,0,41098:0:0:0:0:
329,192,40934,128,0,41016:0:0:0:0:
182,192,41098,128,0,41263:0:0:0:0:
256,192,41263,128,0,41428:0:0:0:0:
402,192,41428,128,0,41593:0:0:0:0:
36,192,41428,1,0,0:0:0:0:
109,192,41428,1,0,0:0:0:0:
182,192,41511,1,0,0:0:0:0:
36,192,41593,128,0,41923:0:0:0:0:
475,192,41593,1,0,0:0:0:0:
329,192,41593,1,0,0:0:0:0:
109,192,41593,1,0,0:0:0:0:
329,192,41758,1,0,0:0:0:0:
256,192,41758,1,0,0:0:0:0:
182,192,41923,128,0,42252:0:0:0:0:
402,192,41923,1,0,0:0:0:0:
475,192,41923,1,0,0:0:0:0:
402,192,42087,1,0,0:0:0:0:
329,192,42087,1,0,0:0:0:0:
329,192,42252,1,0,0:0:0:0:
256,192,42252,128,0,42417:0:0:0:0:
109,192,42252,128,0,42417:0:0:0:0:
36,192,42252,128,0,42417:0:0:0:0:
402,192,42417,1,0,0:0:0:0:
475,192,42417,1,0,0:0:0:0:
182,192,42417,1,0,0:0:0:0:
329,192,42500,1,0,0:0:0:0:
256,192,42500,1,0,0:0:0:0:
36,192,42500,1,0,0:0:0:0:
182,192,42582,128,0,42747:0:0:0:0:
109,192,42582,128,0,42747:0:0:0:0:
475,192,42582,128,0,42747:0:0:0:0:
256,192,42747,1,0,0:0:0:0:
329,192,42747,1,0,0:0:0:0:
402,192,42747,1,0,0:0:0:0:
182,192,42829,1,0,0:0:0:0:
109,192,42829,1,0,0:0:0:0:
36,192,42829,1,0,0:0:0:0:
256,192,42912,128,0,43076:0:0:0:0:
402,192,42912,128,0,43076:0:0:0:0:
475,192,42912,128,0,43076:0:0:0:0:
329,192,43076,1,0,0:0:0:0:
36,192,43076,1,0,0:0:0:0:
109,192,43076,1,0,0:0:0:0:
256,192,43159,1,0,0:0:0:0:
475,192,43159,1,0,0:0:0:0:
182,192,43159,1,0,0:0:0:0:
402,192,43241,128,0,43406:0:0:0:0:
36,192,43241,128,0,43406:0:0:0:0:
329,192,43241,128,0,43406:0:0:0:0:
256,192,43406,1,0,0:0:0:0:
182,192,43406,1,0,0:0:0:0:
109,192,43406,1,0,0:0:0:0:
329,192,43489,1,0,0:0:0:0:
475,192,43489,1,0,0:0:0:0:
402,192,43489,1,0,0:0:0:0:
256,192,43571,1,0,0:0:0:0:
36,192,43571,128,0,44395:0:0:0:0:
109,192,43571,128,0,43736:0:0:0:0:
182,192,43571,128,0,43736:0:0:0:0:
475,192,43901,128,0,44395:0:0:0:0:
256,192,43901,1,0,0:0:0:0:
329,192,43901,128,0,44065:0:0:0:0:
402,192,43901,128,0,44065:0:0:0:0:
402,192,44230,128,0,44395:0:0:0:0:
109,192,44230,128,0,44395:0:0:0:0:
182,192,44230,1,0,0:0:0:0:
329,192,44230,1,0,0:0:0:0:
329,192,44560,1,0,0:0:0:0:
256,192,44560,1,0,0:0:0:0:
36,192,44560,1,0,0:0:0:0:
182,192,44560,1,0,0:0:0:0:
402,192,44560,1,0,0:0:0:0:
182,192,44725,128,0,44807:0:0:0:0:
256,192,44725,128,0,44807:0:0:0:0:
329,192,44725,128,0,44807:0:0:0:0:
36,192,44725,128,0,45302:0:0:0:0:
402,192,44725,128,0,44807:0:0:0:0:
256,192,45055,1,0,0:0:0:0:
475,192,45055,1,0,0:0:0:0:
402,192,45055,1,0,0:0:0:0:
182,192,45055,1,0,0:0:0:0:
329,192,45055,1,0,0:0:0:0:
329,192,45219,128,0,45302:0:0:0:0:
256,192,45219,128,0,45302:0:0:0:0:
182,192,45219,128,0,45302:0:0:0:0:
475,192,45219,128,0,45796:0:0:0:0:
109,192,45384,1,0,0:0:0:0:
402,192,45384,1,0,0:0:0:0:
182,192,45467,1,0,0:0:0:0:
329,192,45467,1,0,0:0:0:0:
109,192,45549,1,0,0:0:0:0:
402,192,45549,1,0,0:0:0:0:
36,192,45549,1,0,0:0:0:0:
256,192,45549,1,0,0:0:0:0:
402,192,45714,128,0,45796:0:0:0:0:
36,192,45714,128,0,45796:0:0:0:0:
109,192,45714,128,0,46126:0:0:0:0:
182,192,45714,128,0,45796:0:0:0:0:
256,192,45714,128,0,45796:0:0:0:0:
182,192,46044,128,0,46126:0:0:0:0:
329,192,46044,128,0,46126:0:0:0:0:
475,192,46044,128,0,46126:0:0:0:0:
256,192,46044,128,0,46373:0:0:0:0:
402,192,46044,128,0,46126:0:0:0:0:
402,192,46373,1,0,0:0:0:0:
109,192,46373,1,0,0:0:0:0:
182,192,46373,128,0,46538:0:0:0:0:
329,192,46373,128,0,46538:0:0:0:0:
402,192,46538,128,0,46703:0:0:0:0:
475,192,46538,1,0,0:0:0:0:
109,192,46538,128,0,46703:0:0:0:0:
36,192,46538,1,0,0:0:0:0:
182,192,46703,128,0,47527:0:0:0:0:
256,192,46703,128,0,47527:0:0:0:0:
329,192,46703,128,0,47527:0:0:0:0:
475,192,46703,128,0,47527:0:0:0:0:
36,192,46703,128,0,47527:0:0:0:0:
