osu file format v14

[General]
AudioFilename: neko.ogg
AudioLeadIn: 0
PreviewTime: 28901
Countdown: 0
SampleSet: Soft
StackLeniency: 0.7
Mode: 3
LetterboxInBreaks: 0
SpecialStyle: 0
WidescreenStoryboard: 1

[Editor]
DistanceSpacing: 0.8
BeatDivisor: 4
GridSize: 32
TimelineZoom: 2.4

[Metadata]
Title:Ne! Ko! (TV Size)
TitleUnicode:ネ!コ! (TV Size)
Artist:Natsumi Takamori, Eri Sendai, Yuu Asakawa, Atsumi Tanezaki
ArtistUnicode:パトリシア・オブ・エンド(CV:高森奈津美)・黒木未知(CV:仙台エリ)・夕莉シャチ(CV:浅川悠)・明日原ユウキ(CV:種﨑敦美)
Creator:MapleSyrup-
Version:Another
Source:ノラと皇女と野良猫ハート
Tags:Nora to Oujo to Noraneko Heart Nora Princess and Stray Cat Noratoto ノラとと Patricia of End, Michi Kuroki, Shachi Yuri, Yuki Asuhara はと Hato 森慎太郎 Mori Shintarou ミントフォレスト Mint Forest HARUKAZE DMM.futureworks グッズセットC92 jpop j-pop j pop japanese anime
BeatmapID:4075805
BeatmapSetID:1965109

[Difficulty]
HPDrainRate:7
CircleSize:7
OverallDifficulty:7
ApproachRate:5
SliderMultiplier:1.4
SliderTickRate:1

[Events]
//Background and Video events
0,0,"bg.jpg",0,0
//Break Periods
//Storyboard Layer 0 (Background)
//Storyboard Layer 1 (Fail)
//Storyboard Layer 2 (Pass)
//Storyboard Layer 3 (Foreground)
//Storyboard Layer 4 (Overlay)
//Storyboard Sound Samples

[TimingPoints]
55,329.67032967033,4,2,1,60,1,0
29065,-100,4,2,1,60,0,1
46703,-100,4,2,1,60,0,0

[HitObjects]
182,192,55,128,0,137:0:0:0:0:
109,192,55,128,0,137:0:0:0:0:
475,192,55,128,0,137:0:0:0:0:
329,192,137,1,0,0:0:0:0:
256,192,137,1,0,0:0:0:0:
109,192,219,1,0,0:0:0:0:
36,192,219,1,0,0:0:0:0:
182,192,302,1,0,0:0:0:0:
256,192,302,1,0,0:0:0:0:
329,192,384,128,0,467:0:0:0:0:
402,192,384,128,0,467:0:0:0:0:
475,192,384,128,0,467:0:0:0:0:
109,192,467,1,0,0:0:0:0:
36,192,467,1,0,0:0:0:0:
256,192,549,1,0,0:0:0:0:
475,192,549,1,0,0:0:0:0:
182,192,631,1,0,0:0:0:0:
109,192,631,1,0,0:0:0:0:
329,192,714,128,0,796:0:0:0:0:
402,192,714,128,0,796:0:0:0:0:
36,192,714,128,0,796:0:0:0:0:
256,192,796,1,0,0:0:0:0:
182,192,796,1,0,0:0:0:0:
402,192,879,1,0,0:0:0:0:
475,192,879,1,0,0:0:0:0:
329,192,961,1,0,0:0:0:0:
256,192,961,1,0,0:0:0:0:
182,192,1044,128,0,1126:0:0:0:0:
36,192,1044,128,0,1126:0:0:0:0:
109,192,1044,128,0,1126:0:0:0:0:
475,192,1126,1,0,0:0:0:0:
402,192,1126,1,0,0:0:0:0:
36,192,1208,1,0,0:0:0:0:
256,192,1208,1,0,0:0:0:0:
402,192,1291,1,0,0:0:0:0:
329,192,1291,128,0,1538:0:0:0:0:
182,192,1538,1,0,0:0:0:0:
36,192,1538,1,0,0:0:0:0:
109,192,1538,1,0,0:0:0:0:
475,192,1538,1,0,0:0:0:0:
182,192,1703,128,0,2033:0:0:0:0:
109,192,1703,128,0,1785:0:0:0:0:
36,192,1703,128,0,1785:0:0:0:0:
475,192,1703,128,0,1785:0:0:0:0:
36,192,2033,1,0,0:0:0:0:
402,192,2033,1,0,0:0:0:0:
475,192,2033,1,0,0:0:0:0:
329,192,2033,128,0,2197:0:0:0:0:
36,192,2197,1,0,0:0:0:0:
475,192,2197,1,0,0:0:0:0:
109,192,2197,1,0,0:0:0:0:
182,192,2280,1,0,0:0:0:0:
256,192,2280,1,0,0:0:0:0:
329,192,2362,1,0,0:0:0:0:
402,192,2362,1,0,0:0:0:0:
109,192,2445,1,0,0:0:0:0:
182,192,2445,1,0,0:0:0:0:
256,192,2527,1,0,0:0:0:0:
329,192,2527,1,0,0:0:0:0:
402,192,2609,1,0,0:0:0:0:
475,192,2609,1,0,0:0:0:0:
256,192,2692,1,0,0:0:0:0:
182,192,2692,1,0,0:0:0:0:
36,192,2692,128,0,3022:0:0:0:0:
109,192,2692,1,0,0:0:0:0:
182,192,2857,128,0,3022:0:0:0:0:
475,192,3022,128,0,3351:0:0:0:0:
402,192,3022,1,0,0:0:0:0:
256,192,3022,1,0,0:0:0:0:
109,192,3022,1,0,0:0:0:0:
402,192,3186,128,0,3351:0:0:0:0:
36,192,3351,128,0,3681:0:0:0:0:
256,192,3351,1,0,0:0:0:0:
109,192,3351,1,0,0:0:0:0:
329,192,3351,1,0,0:0:0:0:
109,192,3516,128,0,3681:0:0:0:0:
475,192,3681,128,0,4011:0:0:0:0:
329,192,3681,1,0,0:0:0:0:
256,192,3681,1,0,0:0:0:0:
182,192,3681,1,0,0:0:0:0:
329,192,3846,128,0,4011:0:0:0:0:
182,192,4011,128,0,4340:0:0:0:0:
256,192,4011,1,0,0:0:0:0:
36,192,4011,1,0,0:0:0:0:
402,192,4011,1,0,0:0:0:0:
36,192,4175,128,0,4340:0:0:0:0:
329,192,4340,128,0,4670:0:0:0:0:
256,192,4340,1,0,0:0:0:0:
402,192,4340,1,0,0:0:0:0:
109,192,4340,1,0,0:0:0:0:
402,192,4505,128,0,4670:0:0:0:0:
182,192,4670,128,0,5000:0:0:0:0:
109,192,4670,1,0,0:0:0:0:
256,192,4670,1,0,0:0:0:0:
475,192,4670,1,0,0:0:0:0:
109,192,4835,128,0,5000:0:0:0:0:
475,192,5000,1,0,0:0:0:0:
256,192,5000,1,0,0:0:0:0:
36,192,5000,1,0,0:0:0:0:
329,192,5000,128,0,5164:0:0:0:0:
109,192,5164,1,0,0:0:0:0:
475,192,5164,128,0,5329:0:0:0:0:
256,192,5247,1,0,0:0:0:0:
182,192,5329,1,0,0:0:0:0:
402,192,5329,1,0,0:0:0:0:
36,192,5329,128,0,5824:0:0:0:0:
329,192,5329,1,0,0:0:0:0:
109,192,5494,128,0,5824:0:0:0:0:
256,192,5494,1,0,0:0:0:0:
329,192,5659,1,0,0:0:0:0:
475,192,5659,1,0,0:0:0:0:
182,192,5659,128,0,5989:0:0:0:0:
402,192,5824,1,0,0:0:0:0:
256,192,5824,128,0,5989:0:0:0:0:
475,192,5989,128,0,6483:0:0:0:0:
329,192,5989,1,0,0:0:0:0:
109,192,5989,1,0,0:0:0:0:
36,192,5989,1,0,0:0:0:0:
402,192,6153,128,0,6483:0:0:0:0:
256,192,6153,1,0,0:0:0:0:
182,192,6318,1,0,0:0:0:0:
36,192,6318,1,0,0:0:0:0:
329,192,6318,128,0,6648:0:0:0:0:
256,192,6483,128,0,6648:0:0:0:0:
109,192,6483,1,0,0:0:0:0:
182,192,6648,1,0,0:0:0:0:
36,192,6648,128,0,7307:0:0:0:0:
475,192,6648,1,0,0:0:0:0:
402,192,6648,1,0,0:0:0:0:
329,192,6730,1,0,0:0:0:0:
256,192,6813,1,0,0:0:0:0:
109,192,6895,1,0,0:0:0:0:
475,192,6978,1,0,0:0:0:0:
402,192,6978,1,0,0:0:0:0:
182,192,6978,1,0,0:0:0:0:
329,192,7060,1,0,0:0:0:0:
109,192,7142,1,0,0:0:0:0:
256,192,7142,1,0,0:0:0:0:
475,192,7307,128,0,7967:0:0:0:0:
329,192,7307,1,0,0:0:0:0:
109,192,7307,1,0,0:0:0:0:
402,192,7307,1,0,0:0:0:0:
182,192,7390,1,0,0:0:0:0:
256,192,7472,1,0,0:0:0:0:
402,192,7555,1,0,0:0:0:0:
109,192,7637,1,0,0:0:0:0:
36,192,7637,1,0,0:0:0:0:
329,192,7637,1,0,0:0:0:0:
182,192,7719,1,0,0:0:0:0:
256,192,7802,1,0,0:0:0:0:
402,192,7802,1,0,0:0:0:0:
36,192,7967,128,0,8131:0:0:0:0:
109,192,7967,1,0,0:0:0:0:
182,192,7967,1,0,0:0:0:0:
329,192,7967,1,0,0:0:0:0:
475,192,8131,128,0,8296:0:0:0:0:
329,192,8131,128,0,8296:0:0:0:0:
36,192,8296,128,0,8626:0:0:0:0:
109,192,8296,1,0,0:0:0:0:
256,192,8296,1,0,0:0:0:0:
402,192,8296,1,0,0:0:0:0:
182,192,8461,128,0,8626:0:0:0:0:
475,192,8626,128,0,8956:0:0:0:0:
402,192,8626,1,0,0:0:0:0:
329,192,8626,1,0,0:0:0:0:
256,192,8626,1,0,0:0:0:0:
402,192,8791,128,0,8956:0:0:0:0:
36,192,8956,128,0,9120:0:0:0:0:
182,192,8956,1,0,0:0:0:0:
109,192,8956,1,0,0:0:0:0:
256,192,8956,1,0,0:0:0:0:
475,192,9120,128,0,9450:0:0:0:0:
109,192,9120,128,0,9285:0:0:0:0:
402,192,9285,1,0,0:0:0:0:
329,192,9285,1,0,0:0:0:0:
256,192,9285,1,0,0:0:0:0:
36,192,9450,128,0,9615:0:0:0:0:
329,192,9450,128,0,9615:0:0:0:0:
475,192,9615,128,0,9945:0:0:0:0:
256,192,9615,1,0,0:0:0:0:
182,192,9615,1,0,0:0:0:0:
109,192,9615,1,0,0:0:0:0:
182,192,9780,128,0,9945:0:0:0:0:
36,192,9945,128,0,10274:0:0:0:0:
402,192,9945,1,0,0:0:0:0:
256,192,9945,1,0,0:0:0:0:
329,192,9945,1,0,0:0:0:0:
256,192,10109,1,0,0:0:0:0:
182,192,10109,1,0,0:0:0:0:
182,192,10274,1,0,0:0:0:0:
109,192,10274,1,0,0:0:0:0:
329,192,10274,1,0,0:0:0:0:
402,192,10357,1,0,0:0:0:0:
475,192,10357,1,0,0:0:0:0:
109,192,10439,1,0,0:0:0:0:
36,192,10439,1,0,0:0:0:0:
329,192,10522,1,0,0:0:0:0:
402,192,10522,1,0,0:0:0:0:
475,192,10604,1,0,0:0:0:0:
182,192,10604,128,0,10686:0:0:0:0:
256,192,10604,128,0,10686:0:0:0:0:
36,192,10604,128,0,10686:0:0:0:0:
36,192,11263,1,0,0:0:0:0:
256,192,11263,128,0,11346:0:0:0:0:
329,192,11263,128,0,11346:0:0:0:0:
475,192,11263,128,0,11346:0:0:0:0:
182,192,11758,1,0,0:0:0:0:
329,192,11758,1,0,0:0:0:0:
256,192,11758,1,0,0:0:0:0:
475,192,11758,128,0,12087:0:0:0:0:
36,192,11758,128,0,12087:0:0:0:0:
256,192,12087,1,0,0:0:0:0:
402,192,12087,128,0,12170:0:0:0:0:
329,192,12087,128,0,12170:0:0:0:0:
182,192,12252,1,0,0:0:0:0:
329,192,12252,128,0,12335:0:0:0:0:
256,192,12252,128,0,12335:0:0:0:0:
109,192,12417,1,0,0:0:0:0:
182,192,12417,128,0,12500:0:0:0:0:
256,192,12417,128,0,12500:0:0:0:0:
36,192,12582,1,0,0:0:0:0:
182,192,12582,128,0,12664:0:0:0:0:
109,192,12582,128,0,12664:0:0:0:0:
329,192,12747,1,0,0:0:0:0:
109,192,12747,128,0,12829:0:0:0:0:
36,192,12747,128,0,12829:0:0:0:0:
402,192,12829,1,0,0:0:0:0:
475,192,12829,1,0,0:0:0:0:
256,192,12912,1,0,0:0:0:0:
182,192,12912,1,0,0:0:0:0:
329,192,12994,1,0,0:0:0:0:
402,192,12994,1,0,0:0:0:0:
109,192,13076,1,0,0:0:0:0:
182,192,13076,1,0,0:0:0:0:
256,192,13159,1,0,0:0:0:0:
329,192,13159,1,0,0:0:0:0:
36,192,13241,1,0,0:0:0:0:
109,192,13241,1,0,0:0:0:0:
475,192,13241,128,0,13406:0:0:0:0:
402,192,13241,128,0,13406:0:0:0:0:
182,192,13324,1,0,0:0:0:0:
256,192,13406,1,0,0:0:0:0:
329,192,13489,1,0,0:0:0:0:
475,192,13571,1,0,0:0:0:0:
402,192,13571,1,0,0:0:0:0:
109,192,13571,128,0,13736:0:0:0:0:
36,192,13571,128,0,13736:0:0:0:0:
329,192,13653,1,0,0:0:0:0:
256,192,13736,1,0,0:0:0:0:
182,192,13818,1,0,0:0:0:0:
109,192,13901,1,0,0:0:0:0:
36,192,13901,1,0,0:0:0:0:
329,192,13901,1,0,0:0:0:0:
475,192,13901,128,0,14230:0:0:0:0:
402,192,14065,128,0,14395:0:0:0:0:
256,192,14065,1,0,0:0:0:0:
329,192,14230,128,0,14560:0:0:0:0:
182,192,14230,1,0,0:0:0:0:
36,192,14230,1,0,0:0:0:0:
256,192,14395,128,0,14560:0:0:0:0:
109,192,14395,1,0,0:0:0:0:
36,192,14560,128,0,14890:0:0:0:0:
182,192,14560,1,0,0:0:0:0:
402,192,14560,1,0,0:0:0:0:
475,192,14560,1,0,0:0:0:0:
109,192,14725,128,0,15055:0:0:0:0:
256,192,14725,1,0,0:0:0:0:
182,192,14890,128,0,15055:0:0:0:0:
329,192,14890,1,0,0:0:0:0:
475,192,14890,1,0,0:0:0:0:
402,192,15055,1,0,0:0:0:0:
36,192,15055,1,0,0:0:0:0:
329,192,15137,1,0,0:0:0:0:
256,192,15219,1,0,0:0:0:0:
475,192,15219,1,0,0:0:0:0:
109,192,15219,1,0,0:0:0:0:
402,192,15302,1,0,0:0:0:0:
329,192,15384,1,0,0:0:0:0:
182,192,15384,128,0,15549:0:0:0:0:
256,192,15549,128,0,15714:0:0:0:0:
402,192,15549,1,0,0:0:0:0:
475,192,15549,1,0,0:0:0:0:
36,192,15549,1,0,0:0:0:0:
109,192,15714,1,0,0:0:0:0:
182,192,15796,1,0,0:0:0:0:
475,192,15879,1,0,0:0:0:0:
402,192,15879,1,0,0:0:0:0:
36,192,15879,128,0,16208:0:0:0:0:
256,192,15879,1,0,0:0:0:0:
109,192,16044,128,0,16373:0:0:0:0:
329,192,16044,1,0,0:0:0:0:
182,192,16208,128,0,16538:0:0:0:0:
475,192,16208,1,0,0:0:0:0:
256,192,16208,1,0,0:0:0:0:
36,192,16373,128,0,16538:0:0:0:0:
402,192,16373,1,0,0:0:0:0:
475,192,16538,128,0,16868:0:0:0:0:
109,192,16538,1,0,0:0:0:0:
329,192,16538,1,0,0:0:0:0:
256,192,16538,1,0,0:0:0:0:
402,192,16703,128,0,16868:0:0:0:0:
182,192,16703,1,0,0:0:0:0:
109,192,16868,1,0,0:0:0:0:
36,192,16868,1,0,0:0:0:0:
256,192,16868,1,0,0:0:0:0:
329,192,16950,1,0,0:0:0:0:
402,192,16950,1,0,0:0:0:0:
109,192,17033,1,0,0:0:0:0:
182,192,17033,1,0,0:0:0:0:
256,192,17115,1,0,0:0:0:0:
329,192,17115,1,0,0:0:0:0:
402,192,17197,1,0,0:0:0:0:
475,192,17197,1,0,0:0:0:0:
182,192,17197,128,0,17280:0:0:0:0:
36,192,17197,128,0,17280:0:0:0:0:
329,192,17362,1,0,0:0:0:0:
36,192,17362,128,0,17445:0:0:0:0:
182,192,17362,128,0,17445:0:0:0:0:
109,192,17527,1,0,0:0:0:0:
256,192,17527,1,0,0:0:0:0:
329,192,17527,128,0,17609:0:0:0:0:
475,192,17527,128,0,17609:0:0:0:0:
109,192,17692,1,0,0:0:0:0:
475,192,17692,128,0,17774:0:0:0:0:
329,192,17692,128,0,17774:0:0:0:0:
36,192,18022,1,0,0:0:0:0:
475,192,18022,1,0,0:0:0:0:
402,192,18022,128,0,18186:0:0:0:0:
109,192,18022,128,0,18186:0:0:0:0:
329,192,18186,128,0,18351:0:0:0:0:
182,192,18186,128,0,18351:0:0:0:0:
36,192,18351,1,0,0:0:0:0:
256,192,18351,1,0,0:0:0:0:
475,192,18351,1,0,0:0:0:0:
182,192,18434,1,0,0:0:0:0:
329,192,18434,1,0,0:0:0:0:
475,192,18516,1,0,0:0:0:0:
402,192,18516,1,0,0:0:0:0:
36,192,18516,128,0,18681:0:0:0:0:
109,192,18516,128,0,18681:0:0:0:0:
329,192,18598,1,0,0:0:0:0:
256,192,18681,1,0,0:0:0:0:
182,192,18763,1,0,0:0:0:0:
36,192,18846,1,0,0:0:0:0:
109,192,18846,1,0,0:0:0:0:
402,192,18846,128,0,19011:0:0:0:0:
475,192,18846,128,0,19011:0:0:0:0:
182,192,18928,1,0,0:0:0:0:
256,192,19011,1,0,0:0:0:0:
329,192,19093,1,0,0:0:0:0:
402,192,19175,1,0,0:0:0:0:
475,192,19175,1,0,0:0:0:0:
182,192,19175,1,0,0:0:0:0:
36,192,19175,128,0,19505:0:0:0:0:
109,192,19340,128,0,19670:0:0:0:0:
256,192,19340,1,0,0:0:0:0:
182,192,19505,128,0,19835:0:0:0:0:
329,192,19505,1,0,0:0:0:0:
475,192,19505,1,0,0:0:0:0:
256,192,19670,128,0,19835:0:0:0:0:
402,192,19670,1,0,0:0:0:0:
475,192,19835,128,0,20164:0:0:0:0:
329,192,19835,1,0,0:0:0:0:
109,192,19835,1,0,0:0:0:0:
36,192,19835,1,0,0:0:0:0:
256,192,20000,1,0,0:0:0:0:
402,192,20000,128,0,20164:0:0:0:0:
329,192,20164,128,0,20329:0:0:0:0:
36,192,20164,1,0,0:0:0:0:
109,192,20164,1,0,0:0:0:0:
109,192,20329,1,0,0:0:0:0:
475,192,20329,1,0,0:0:0:0:
402,192,20329,1,0,0:0:0:0:
182,192,20412,1,0,0:0:0:0:
256,192,20494,1,0,0:0:0:0:
36,192,20494,1,0,0:0:0:0:
402,192,20494,1,0,0:0:0:0:
109,192,20576,1,0,0:0:0:0:
182,192,20659,1,0,0:0:0:0:
329,192,20659,1,0,0:0:0:0:
475,192,20659,1,0,0:0:0:0:
256,192,20741,1,0,0:0:0:0:
36,192,20741,1,0,0:0:0:0:
402,192,20824,1,0,0:0:0:0:
475,192,20824,1,0,0:0:0:0:
182,192,20906,1,0,0:0:0:0:
109,192,20906,1,0,0:0:0:0:
402,192,20989,1,0,0:0:0:0:
329,192,20989,1,0,0:0:0:0:
182,192,21071,1,0,0:0:0:0:
256,192,21071,1,0,0:0:0:0:
109,192,21153,1,0,0:0:0:0:
475,192,21153,128,0,21483:0:0:0:0:
329,192,21153,1,0,0:0:0:0:
36,192,21153,128,0,21318:0:0:0:0:
182,192,21318,1,0,0:0:0:0:
109,192,21318,128,0,21483:0:0:0:0:
256,192,21483,1,0,0:0:0:0:
182,192,21483,128,0,21813:0:0:0:0:
402,192,21648,1,0,0:0:0:0:
475,192,21648,1,0,0:0:0:0:
36,192,21648,128,0,21813:0:0:0:0:
256,192,21648,1,0,0:0:0:0:
329,192,21813,1,0,0:0:0:0:
402,192,21813,1,0,0:0:0:0:
256,192,21978,1,0,0:0:0:0:
329,192,21978,1,0,0:0:0:0:
402,192,22142,1,0,0:0:0:0:
36,192,22142,128,0,22472:0:0:0:0:
182,192,22142,1,0,0:0:0:0:
475,192,22142,128,0,22307:0:0:0:0:
329,192,22307,1,0,0:0:0:0:
402,192,22307,128,0,22472:0:0:0:0:
256,192,22472,1,0,0:0:0:0:
329,192,22472,128,0,22802:0:0:0:0:
109,192,22637,1,0,0:0:0:0:
36,192,22637,1,0,0:0:0:0:
475,192,22637,128,0,22802:0:0:0:0:
256,192,22637,1,0,0:0:0:0:
182,192,22802,1,0,0:0:0:0:
109,192,22802,1,0,0:0:0:0:
256,192,22967,1,0,0:0:0:0:
182,192,22967,1,0,0:0:0:0:
475,192,23131,128,0,23296:0:0:0:0:
109,192,23131,1,0,0:0:0:0:
402,192,23131,1,0,0:0:0:0:
36,192,23131,128,0,23296:0:0:0:0:
256,192,23296,128,0,23461:0:0:0:0:
329,192,23296,128,0,23461:0:0:0:0:
402,192,23461,1,0,0:0:0:0:
36,192,23461,128,0,23626:0:0:0:0:
475,192,23461,128,0,23626:0:0:0:0:
109,192,23461,1,0,0:0:0:0:
256,192,23626,128,0,23791:0:0:0:0:
182,192,23626,128,0,23791:0:0:0:0:
36,192,23791,1,0,0:0:0:0:
109,192,23791,1,0,0:0:0:0:
402,192,23791,128,0,23956:0:0:0:0:
475,192,23791,128,0,23956:0:0:0:0:
256,192,23956,1,0,0:0:0:0:
182,192,23956,1,0,0:0:0:0:
109,192,24038,1,0,0:0:0:0:
36,192,24038,1,0,0:0:0:0:
329,192,24120,1,0,0:0:0:0:
256,192,24120,1,0,0:0:0:0:
475,192,24120,1,0,0:0:0:0:
182,192,24203,1,0,0:0:0:0:
109,192,24203,1,0,0:0:0:0:
329,192,24285,1,0,0:0:0:0:
402,192,24285,1,0,0:0:0:0:
109,192,24368,1,0,0:0:0:0:
36,192,24368,1,0,0:0:0:0:
256,192,24450,1,0,0:0:0:0:
329,192,24450,1,0,0:0:0:0:
182,192,24450,1,0,0:0:0:0:
402,192,24533,1,0,0:0:0:0:
475,192,24533,1,0,0:0:0:0:
36,192,24615,1,0,0:0:0:0:
256,192,24615,1,0,0:0:0:0:
182,192,24615,1,0,0:0:0:0:
402,192,24697,1,0,0:0:0:0:
329,192,24697,1,0,0:0:0:0:
109,192,24780,1,0,0:0:0:0:
182,192,24780,1,0,0:0:0:0:
36,192,24780,1,0,0:0:0:0:
402,192,24862,1,0,0:0:0:0:
475,192,24862,1,0,0:0:0:0:
256,192,24945,1,0,0:0:0:0:
329,192,24945,1,0,0:0:0:0:
109,192,24945,128,0,25274:0:0:0:0:
36,192,24945,128,0,25274:0:0:0:0:
182,192,25274,1,0,0:0:0:0:
402,192,25274,1,0,0:0:0:0:
475,192,25274,1,0,0:0:0:0:
329,192,25357,1,0,0:0:0:0:
256,192,25357,1,0,0:0:0:0:
109,192,25439,1,0,0:0:0:0:
36,192,25439,1,0,0:0:0:0:
329,192,25522,1,0,0:0:0:0:
402,192,25522,1,0,0:0:0:0:
109,192,25604,1,0,0:0:0:0:
182,192,25604,1,0,0:0:0:0:
475,192,25686,1,0,0:0:0:0:
402,192,25686,1,0,0:0:0:0:
256,192,25769,1,0,0:0:0:0:
36,192,25769,1,0,0:0:0:0:
329,192,25851,1,0,0:0:0:0:
109,192,25851,1,0,0:0:0:0:
182,192,25934,1,0,0:0:0:0:
402,192,25934,1,0,0:0:0:0:
109,192,26016,1,0,0:0:0:0:
36,192,26016,1,0,0:0:0:0:
256,192,26098,1,0,0:0:0:0:
475,192,26098,1,0,0:0:0:0:
402,192,26181,1,0,0:0:0:0:
182,192,26181,1,0,0:0:0:0:
329,192,26263,1,0,0:0:0:0:
109,192,26263,1,0,0:0:0:0:
256,192,26346,1,0,0:0:0:0:
36,192,26346,1,0,0:0:0:0:
402,192,26428,128,0,26511:0:0:0:0:
475,192,26428,128,0,26511:0:0:0:0:
182,192,26428,128,0,26511:0:0:0:0:
109,192,26511,1,0,0:0:0:0:
36,192,26511,1,0,0:0:0:0:
256,192,26593,1,0,0:0:0:0:
329,192,26593,1,0,0:0:0:0:
182,192,26675,1,0,0:0:0:0:
109,192,26675,1,0,0:0:0:0:
329,192,26758,128,0,26840:0:0:0:0:
402,192,26758,128,0,26840:0:0:0:0:
475,192,26758,128,0,26840:0:0:0:0:
182,192,26840,1,0,0:0:0:0:
256,192,26840,1,0,0:0:0:0:
109,192,26923,1,0,0:0:0:0:
36,192,26923,1,0,0:0:0:0:
402,192,27005,1,0,0:0:0:0:
475,192,27005,1,0,0:0:0:0:
109,192,27087,128,0,27170:0:0:0:0:
36,192,27087,128,0,27170:0:0:0:0:
329,192,27087,128,0,27170:0:0:0:0:
475,192,27170,1,0,0:0:0:0:
402,192,27170,1,0,0:0:0:0:
256,192,27252,1,0,0:0:0:0:
182,192,27252,1,0,0:0:0:0:
402,192,27335,1,0,0:0:0:0:
329,192,27335,1,0,0:0:0:0:
182,192,27417,128,0,27500:0:0:0:0:
109,192,27417,128,0,27500:0:0:0:0:
36,192,27417,128,0,27500:0:0:0:0:
329,192,27500,1,0,0:0:0:0:
256,192,27500,1,0,0:0:0:0:
402,192,27582,1,0,0:0:0:0:
475,192,27582,1,0,0:0:0:0:
36,192,27664,1,0,0:0:0:0:
109,192,27664,1,0,0:0:0:0:
182,192,27747,128,0,27829:0:0:0:0:
402,192,27747,128,0,27829:0:0:0:0:
475,192,27747,128,0,27829:0:0:0:0:
329,192,27829,1,0,0:0:0:0:
256,192,27912,1,0,0:0:0:0:
182,192,27912,1,0,0:0:0:0:
109,192,27912,1,0,0:0:0:0:
402,192,27994,1,0,0:0:0:0:
475,192,27994,1,0,0:0:0:0:
329,192,28076,128,0,28159:0:0:0:0:
109,192,28076,128,0,28159:0:0:0:0:
36,192,28076,128,0,28159:0:0:0:0:
182,192,28159,1,0,0:0:0:0:
256,192,28241,1,0,0:0:0:0:
329,192,28241,1,0,0:0:0:0:
402,192,28241,1,0,0:0:0:0:
109,192,28324,1,0,0:0:0:0:
36,192,28324,1,0,0:0:0:0:
182,192,28406,128,0,28489:0:0:0:0:
402,192,28406,128,0,28489:0:0:0:0:
475,192,28406,128,0,28489:0:0:0:0:
329,192,28489,1,0,0:0:0:0:
256,192,28571,1,0,0:0:0:0:
182,192,28571,1,0,0:0:0:0:
109,192,28571,1,0,0:0:0:0:
402,192,28653,1,0,0:0:0:0:
475,192,28653,1,0,0:0:0:0:
329,192,28736,1,0,0:0:0:0:
256,192,28736,1,0,0:0:0:0:
109,192,28736,128,0,28901:0:0:0:0:
36,192,28736,128,0,28901:0:0:0:0:
182,192,28901,128,0,29065:0:0:0:0:
36,192,29065,1,0,0:0:0:0:
402,192,29065,128,0,29230:0:0:0:0:
475,192,29065,128,0,29230:0:0:0:0:
256,192,29065,128,0,29230:0:0:0:0:
36,192,29230,1,0,0:0:0:0:
109,192,29313,1,0,0:0:0:0:
182,192,29395,1,0,0:0:0:0:
256,192,29478,1,0,0:0:0:0:
329,192,29560,128,0,29642:0:0:0:0:
402,192,29560,128,0,29642:0:0:0:0:
475,192,29725,1,0,0:0:0:0:
256,192,29725,128,0,29890:0:0:0:0:
36,192,29725,128,0,29890:0:0:0:0:
109,192,29725,128,0,29890:0:0:0:0:
475,192,29890,1,0,0:0:0:0:
402,192,29972,1,0,0:0:0:0:
329,192,30055,1,0,0:0:0:0:
256,192,30137,1,0,0:0:0:0:
182,192,30219,128,0,30302:0:0:0:0:
36,192,30219,128,0,30302:0:0:0:0:
109,192,30384,1,0,0:0:0:0:
402,192,30384,128,0,30549:0:0:0:0:
475,192,30384,128,0,30549:0:0:0:0:
182,192,30467,1,0,0:0:0:0:
256,192,30549,1,0,0:0:0:0:
329,192,30631,1,0,0:0:0:0:
402,192,30714,1,0,0:0:0:0:
109,192,30714,128,0,30879:0:0:0:0:
36,192,30714,128,0,30879:0:0:0:0:
329,192,30796,1,0,0:0:0:0:
256,192,30879,1,0,0:0:0:0:
182,192,30961,1,0,0:0:0:0:
329,192,31044,1,0,0:0:0:0:
402,192,31044,1,0,0:0:0:0:
475,192,31044,1,0,0:0:0:0:
36,192,31044,128,0,31208:0:0:0:0:
109,192,31126,128,0,31291:0:0:0:0:
182,192,31208,128,0,31373:0:0:0:0:
402,192,31208,1,0,0:0:0:0:
475,192,31208,1,0,0:0:0:0:
256,192,31291,128,0,31373:0:0:0:0:
402,192,31373,1,0,0:0:0:0:
475,192,31373,1,0,0:0:0:0:
109,192,31373,128,0,31538:0:0:0:0:
36,192,31373,128,0,31538:0:0:0:0:
182,192,31538,1,0,0:0:0:0:
256,192,31620,1,0,0:0:0:0:
36,192,31703,1,0,0:0:0:0:
329,192,31703,1,0,0:0:0:0:
475,192,31703,128,0,31868:0:0:0:0:
109,192,31703,1,0,0:0:0:0:
256,192,31868,1,0,0:0:0:0:
402,192,31868,128,0,32033:0:0:0:0:
329,192,32033,128,0,32197:0:0:0:0:
182,192,32033,1,0,0:0:0:0:
109,192,32033,128,0,32362:0:0:0:0:
256,192,32197,128,0,32362:0:0:0:0:
402,192,32197,1,0,0:0:0:0:
182,192,32362,1,0,0:0:0:0:
329,192,32362,1,0,0:0:0:0:
475,192,32362,1,0,0:0:0:0:
36,192,32362,128,0,32527:0:0:0:0:
109,192,32527,128,0,32692:0:0:0:0:
256,192,32527,1,0,0:0:0:0:
182,192,32692,128,0,32857:0:0:0:0:
329,192,32692,1,0,0:0:0:0:
402,192,32692,128,0,33022:0:0:0:0:
256,192,32857,128,0,33022:0:0:0:0:
109,192,32857,1,0,0:0:0:0:
475,192,33022,128,0,33351:0:0:0:0:
36,192,33022,1,0,0:0:0:0:
182,192,33022,1,0,0:0:0:0:
329,192,33022,128,0,33186:0:0:0:0:
402,192,33186,128,0,33516:0:0:0:0:
256,192,33186,128,0,33351:0:0:0:0:
329,192,33351,128,0,33516:0:0:0:0:
182,192,33351,128,0,33516:0:0:0:0:
109,192,33351,1,0,0:0:0:0:
475,192,33516,128,0,33681:0:0:0:0:
256,192,33516,128,0,33681:0:0:0:0:
36,192,33681,128,0,34011:0:0:0:0:
182,192,33681,128,0,33846:0:0:0:0:
329,192,33681,1,0,0:0:0:0:
402,192,33681,1,0,0:0:0:0:
109,192,33846,128,0,34175:0:0:0:0:
256,192,33846,128,0,34011:0:0:0:0:
182,192,34011,128,0,34175:0:0:0:0:
329,192,34011,128,0,34175:0:0:0:0:
402,192,34011,1,0,0:0:0:0:
36,192,34175,128,0,34340:0:0:0:0:
256,192,34175,1,0,0:0:0:0:
329,192,34258,1,0,0:0:0:0:
109,192,34340,1,0,0:0:0:0:
182,192,34340,128,0,34670:0:0:0:0:
475,192,34340,1,0,0:0:0:0:
402,192,34340,1,0,0:0:0:0:
329,192,34505,1,0,0:0:0:0:
36,192,34505,128,0,34835:0:0:0:0:
402,192,34670,1,0,0:0:0:0:
475,192,34670,1,0,0:0:0:0:
256,192,34670,128,0,35000:0:0:0:0:
109,192,34835,128,0,35000:0:0:0:0:
329,192,34835,1,0,0:0:0:0:
36,192,35000,1,0,0:0:0:0:
182,192,35000,1,0,0:0:0:0:
475,192,35000,1,0,0:0:0:0:
256,192,35082,1,0,0:0:0:0:
329,192,35164,1,0,0:0:0:0:
109,192,35164,1,0,0:0:0:0:
182,192,35247,1,0,0:0:0:0:
256,192,35329,1,0,0:0:0:0:
402,192,35329,128,0,35494:0:0:0:0:
475,192,35329,128,0,35494:0:0:0:0:
36,192,35329,1,0,0:0:0:0:
182,192,35494,1,0,0:0:0:0:
402,192,35659,1,0,0:0:0:0:
329,192,35659,128,0,35989:0:0:0:0:
109,192,35659,1,0,0:0:0:0:
36,192,35659,1,0,0:0:0:0:
475,192,35824,128,0,36153:0:0:0:0:
182,192,35824,1,0,0:0:0:0:
36,192,35989,1,0,0:0:0:0:
256,192,35989,128,0,36318:0:0:0:0:
109,192,35989,1,0,0:0:0:0:
402,192,36153,128,0,36318:0:0:0:0:
182,192,36153,1,0,0:0:0:0:
329,192,36318,1,0,0:0:0:0:
475,192,36318,1,0,0:0:0:0:
36,192,36318,1,0,0:0:0:0:
256,192,36401,1,0,0:0:0:0:
182,192,36483,1,0,0:0:0:0:
402,192,36483,1,0,0:0:0:0:
329,192,36565,1,0,0:0:0:0:
109,192,36648,128,0,36813:0:0:0:0:
36,192,36648,128,0,36813:0:0:0:0:
256,192,36648,1,0,0:0:0:0:
475,192,36648,1,0,0:0:0:0:
182,192,36813,1,0,0:0:0:0:
329,192,36895,1,0,0:0:0:0:
109,192,36978,128,0,37142:0:0:0:0:
36,192,36978,128,0,37142:0:0:0:0:
402,192,36978,1,0,0:0:0:0:
475,192,36978,1,0,0:0:0:0:
256,192,37142,1,0,0:0:0:0:
329,192,37142,1,0,0:0:0:0:
182,192,37142,1,0,0:0:0:0:
475,192,37225,1,0,0:0:0:0:
402,192,37225,1,0,0:0:0:0:
256,192,37307,1,0,0:0:0:0:
182,192,37307,128,0,37472:0:0:0:0:
109,192,37307,128,0,37472:0:0:0:0:
329,192,37472,1,0,0:0:0:0:
402,192,37472,1,0,0:0:0:0:
475,192,37472,1,0,0:0:0:0:
109,192,37555,1,0,0:0:0:0:
36,192,37555,1,0,0:0:0:0:
256,192,37637,128,0,37802:0:0:0:0:
182,192,37637,128,0,37802:0:0:0:0:
329,192,37637,1,0,0:0:0:0:
402,192,37802,1,0,0:0:0:0:
475,192,37802,1,0,0:0:0:0:
36,192,37802,1,0,0:0:0:0:
109,192,37884,1,0,0:0:0:0:
182,192,37884,1,0,0:0:0:0:
256,192,37967,128,0,38131:0:0:0:0:
329,192,37967,128,0,38131:0:0:0:0:
402,192,37967,1,0,0:0:0:0:
475,192,38131,1,0,0:0:0:0:
109,192,38131,1,0,0:0:0:0:
36,192,38131,1,0,0:0:0:0:
182,192,38214,1,0,0:0:0:0:
256,192,38214,1,0,0:0:0:0:
402,192,38296,128,0,38461:0:0:0:0:
475,192,38296,128,0,38461:0:0:0:0:
329,192,38296,1,0,0:0:0:0:
256,192,38461,1,0,0:0:0:0:
182,192,38461,1,0,0:0:0:0:
109,192,38461,1,0,0:0:0:0:
36,192,38544,1,0,0:0:0:0:
475,192,38544,1,0,0:0:0:0:
256,192,38626,1,0,0:0:0:0:
329,192,38626,128,0,38791:0:0:0:0:
402,192,38626,128,0,38791:0:0:0:0:
182,192,38791,1,0,0:0:0:0:
109,192,38791,1,0,0:0:0:0:
36,192,38791,1,0,0:0:0:0:
402,192,38873,1,0,0:0:0:0:
475,192,38873,1,0,0:0:0:0:
256,192,38956,128,0,39120:0:0:0:0:
329,192,38956,128,0,39120:0:0:0:0:
182,192,38956,1,0,0:0:0:0:
109,192,39120,1,0,0:0:0:0:
36,192,39120,1,0,0:0:0:0:
256,192,39203,1,0,0:0:0:0:
182,192,39203,1,0,0:0:0:0:
329,192,39285,1,0,0:0:0:0:
402,192,39285,1,0,0:0:0:0:
182,192,39368,1,0,0:0:0:0:
109,192,39368,1,0,0:0:0:0:
329,192,39450,1,0,0:0:0:0:
256,192,39450,1,0,0:0:0:0:
402,192,39533,1,0,0:0:0:0:
475,192,39533,1,0,0:0:0:0:
256,192,39615,1,0,0:0:0:0:
182,192,39615,1,0,0:0:0:0:
109,192,39615,1,0,0:0:0:0:
36,192,39615,128,0,39862:0:0:0:0:
182,192,39862,1,0,0:0:0:0:
256,192,39862,1,0,0:0:0:0:
329,192,39862,1,0,0:0:0:0:
402,192,39862,128,0,40109:0:0:0:0:
182,192,40109,1,0,0:0:0:0:
256,192,40109,1,0,0:0:0:0:
329,192,40109,1,0,0:0:0:0:
109,192,40109,128,0,40274:0:0:0:0:
256,192,40274,1,0,0:0:0:0:
329,192,40274,1,0,0:0:0:0:
402,192,40274,1,0,0:0:0:0:
475,192,40274,128,0,40522:0:0:0:0:
182,192,40522,1,0,0:0:0:0:
329,192,40522,1,0,0:0:0:0:
256,192,40522,1,0,0:0:0:0:
109,192,40522,128,0,40769:0:0:0:0:
329,192,40769,1,0,0:0:0:0:
256,192,40769,1,0,0:0:0:0:
182,192,40769,1,0,0:0:0:0:
402,192,40769,128,0,40934:0:0:0:0:
36,192,40934,1,0,0:0:0:0:
475,192,40934,1,0,0:0:0:0:
256,192,40934,1,0,0:0:0:0:
109,192,40934,128,0,41098:0:0:0:0:
182,192,41098,128,0,41263:0:0:0:0:
256,192,41263,128,0,41428:0:0:0:0:
329,192,41428,128,0,41593:0:0:0:0:
182,192,41428,1,0,0:0:0:0:
109,192,41511,1,0,0:0:0:0:
256,192,41593,1,0,0:0:0:0:
475,192,41593,1,0,0:0:0:0:
36,192,41593,128,0,41923:0:0:0:0:
402,192,41593,1,0,0:0:0:0:
329,192,41758,1,0,0:0:0:0:
182,192,41923,128,0,42252:0:0:0:0:
256,192,41923,1,0,0:0:0:0:
475,192,41923,1,0,0:0:0:0:
402,192,42087,1,0,0:0:0:0:
329,192,42252,1,0,0:0:0:0:
256,192,42252,1,0,0:0:0:0:
109,192,42252,128,0,42417:0:0:0:0:
36,192,42252,128,0,42417:0:0:0:0:
402,192,42417,1,0,0:0:0:0:
475,192,42417,1,0,0:0:0:0:
182,192,42417,1,0,0:0:0:0:
256,192,42500,1,0,0:0:0:0:
329,192,42500,1,0,0:0:0:0:
36,192,42582,1,0,0:0:0:0:
109,192,42582,128,0,42747:0:0:0:0:
182,192,42582,128,0,42747:0:0:0:0:
329,192,42747,1,0,0:0:0:0:
402,192,42747,1,0,0:0:0:0:
475,192,42747,1,0,0:0:0:0:
182,192,42829,1,0,0:0:0:0:
109,192,42829,1,0,0:0:0:0:
402,192,42912,128,0,43076:0:0:0:0:
475,192,42912,128,0,43076:0:0:0:0:
256,192,42912,1,0,0:0:0:0:
109,192,43076,1,0,0:0:0:0:
36,192,43076,1,0,0:0:0:0:
329,192,43076,1,0,0:0:0:0:
256,192,43159,1,0,0:0:0:0:
182,192,43159,1,0,0:0:0:0:
329,192,43241,128,0,43406:0:0:0:0:
402,192,43241,128,0,43406:0:0:0:0:
475,192,43241,1,0,0:0:0:0:
109,192,43406,1,0,0:0:0:0:
36,192,43406,1,0,0:0:0:0:
182,192,43406,1,0,0:0:0:0:
402,192,43489,1,0,0:0:0:0:
475,192,43489,1,0,0:0:0:0:
109,192,43571,128,0,43736:0:0:0:0:
36,192,43571,128,0,44395:0:0:0:0:
256,192,43571,1,0,0:0:0:0:
329,192,43571,1,0,0:0:0:0:
402,192,43901,128,0,44065:0:0:0:0:
256,192,43901,1,0,0:0:0:0:
109,192,43901,1,0,0:0:0:0:
475,192,43901,128,0,44395:0:0:0:0:
402,192,44230,1,0,0:0:0:0:
329,192,44230,128,0,44395:0:0:0:0:
109,192,44230,1,0,0:0:0:0:
182,192,44230,128,0,44395:0:0:0:0:
36,192,44560,1,0,0:0:0:0:
402,192,44560,1,0,0:0:0:0:
182,192,44560,1,0,0:0:0:0:
329,192,44560,1,0,0:0:0:0:
402,192,44725,1,0,0:0:0:0:
36,192,44725,128,0,45219:0:0:0:0:
182,192,44725,1,0,0:0:0:0:
329,192,44725,1,0,0:0:0:0:
475,192,45055,1,0,0:0:0:0:
109,192,45055,1,0,0:0:0:0:
256,192,45055,1,0,0:0:0:0:
402,192,45055,1,0,0:0:0:0:
109,192,45219,1,0,0:0:0:0:
256,192,45219,1,0,0:0:0:0:
475,192,45219,128,0,45714:0:0:0:0:
402,192,45219,1,0,0:0:0:0:
182,192,45384,1,0,0:0:0:0:
329,192,45384,1,0,0:0:0:0:
256,192,45467,1,0,0:0:0:0:
402,192,45549,1,0,0:0:0:0:
109,192,45549,1,0,0:0:0:0:
36,192,45549,1,0,0:0:0:0:
329,192,45549,1,0,0:0:0:0:
402,192,45714,1,0,0:0:0:0:
36,192,45714,1,0,0:0:0:0:
109,192,45714,128,0,46044:0:0:0:0:
329,192,45714,1,0,0:0:0:0:
182,192,46044,1,0,0:0:0:0:
402,192,46044,1,0,0:0:0:0:
475,192,46044,1,0,0:0:0:0:
256,192,46044,128,0,46373:0:0:0:0:
36,192,46373,1,0,0:0:0:0:
329,192,46373,1,0,0:0:0:0:
475,192,46373,1,0,0:0:0:0:
182,192,46373,1,0,0:0:0:0:
329,192,46538,1,0,0:0:0:0:
402,192,46538,1,0,0:0:0:0:
182,192,46538,1,0,0:0:0:0:
109,192,46538,1,0,0:0:0:0:
256,192,46703,128,0,47527:0:0:0:0:
475,192,46703,128,0,47527:0:0:0:0:
402,192,46703,128,0,47527:0:0:0:0:
109,192,46703,128,0,47527:0:0:0:0:
36,192,46703,128,0,47527:0:0:0:0:
