osu file format v14

[General]
AudioFilename: audio.mp3
AudioLeadIn: 0
PreviewTime: 134531
Countdown: 0
SampleSet: Soft
StackLeniency: 0.5
Mode: 0
LetterboxInBreaks: 0
WidescreenStoryboard: 0

[Editor]
DistanceSpacing: 0.6
BeatDivisor: 4
GridSize: 32
TimelineZoom: 1.7

[Metadata]
Title:Shukufuku
TitleUnicode:祝福
Artist:Natsume Itsuki x Aitsuki Nakuru
ArtistUnicode:棗いつき×藍月なくる
Creator:eringiRa
Version:Precious
Source:機動戦士ガンダム 水星の魔女
Tags:The Blessing YOASOBI Ayase ikura mobile suit gundam the witch from mercury kidou senshi gundam suisei no majo g_witch anime opening op japanese cover electronic pop jpop j-pop いつきんくる itsukinkuru なくちゃ Sightread Yoshino
BeatmapID:3949978
BeatmapSetID:1914644

[Difficulty]
HPDrainRate:5
CircleSize:4
OverallDifficulty:8
ApproachRate:9
SliderMultiplier:1.77
SliderTickRate:1

[Events]
//Background and Video events
0,0,"b.jpg",0,0
//Break Periods
2,124496,132167
//Storyboard Layer 0 (Background)
//Storyboard Layer 1 (Fail)
//Storyboard Layer 2 (Pass)
//Storyboard Layer 3 (Foreground)
//Storyboard Layer 4 (Overlay)
//Storyboard Sound Samples

[TimingPoints]
1473,352.941176470588,4,2,1,40,1,0
1473,-133.333333333333,4,2,1,40,0,0
7120,-133.333333333333,4,2,1,50,0,0
12414,-222.222222222221,4,2,1,70,0,0
12767,-100,4,2,1,70,0,0
24061,-133.333333333333,4,2,1,50,0,0
35355,-111.111111111111,4,2,1,60,0,0
57943,-100,4,2,1,80,0,1
69237,-181.818181818181,4,2,1,80,0,1
69502,-181.818181818181,4,2,1,5,0,1
69590,-76.9230769230769,4,2,1,80,0,1
69678,-76.9230769230769,4,2,1,5,0,1
69767,-100,4,2,1,80,0,1
76296,-200,4,2,1,70,0,0
77708,-100,4,2,1,70,0,0
100296,-111.111111111111,4,2,1,60,0,0
110531,-133.333333333333,4,2,1,60,0,0
111590,-250,4,2,1,45,0,0
113002,-250,4,2,1,40,0,0
113708,-200,4,2,1,40,0,0
132767,-100,4,2,1,60,0,0
134531,-133.333333333333,4,2,1,60,0,0
134708,-111.111111111111,4,2,1,5,0,0
135590,-100,4,2,1,80,0,1
146884,-200,4,2,1,80,0,1
147149,-200,4,2,1,5,0,1
147237,-76.9230769230769,4,2,1,80,0,1
147325,-76.9230769230769,4,2,1,5,0,1
147414,-100,4,2,1,80,0,1
153943,-200,4,2,1,80,0,1
154649,-133.333333333333,4,2,1,65,0,1
155355,-133.333333333333,4,2,1,50,0,0
177943,-200,4,2,1,70,0,0
180767,-100,4,2,1,70,0,0
191178,-83.3333333333333,4,2,1,70,0,0

[Colours]
Combo1 : 255,128,191
Combo2 : 128,255,255
Combo3 : 125,66,162

[HitObjects]
24,50,1473,6,0,P|70:40|123:117,1,132.750005064011,2|2,1:2|0:0,0:0:0:0:
211,19,2002,2,0,P|170:35|140:41,1,66.3750025320054,2|8,0:0|0:0,0:0:0:0:
260,120,2355,1,2,0:0:0:0:
299,17,2531,1,2,0:0:0:0:
252,129,2708,2,0,P|261:171|266:199,1,66.3750025320054,2|0,0:0|0:0,0:0:0:0:
391,146,3061,5,2,0:0:0:0:
339,76,3237,2,0,P|377:66|415:59,1,66.3750025320054,2|2,1:2|0:0,0:0:0:0:
494,146,3590,1,8,0:0:0:0:
359,245,3767,2,0,L|352:216,4,16.5937506330014,2|2|2|2|2,0:0|0:0|0:0|0:0|0:0,0:0:0:0:
371,259,4296,6,0,P|330:273|289:286,1,66.3750025320054,0|2,1:2|0:0,0:0:0:0:
142,174,4649,1,2,1:2:0:0:
216,124,4825,2,0,P|230:169|232:198,1,66.3750025320054,2|8,0:0|0:0,0:0:0:0:
139,357,5178,5,2,0:0:0:0:
35,230,5355,1,2,0:0:0:0:
142,174,5531,2,0,P|123:232|108:258,1,66.3750025320054,2|0,0:0|0:0,0:0:0:0:
83,27,5884,5,2,0:0:0:0:
19,83,6061,2,0,P|55:99|86:109,1,66.3750025320054,2|2,1:2|0:0,0:0:0:0:
285,96,6414,5,8,0:0:0:0:
196,15,6590,1,2,0:0:0:0:
196,15,6767,1,2,0:0:0:0:
256,178,6943,1,2,0:0:0:0:
359,19,7120,5,6,1:2:0:0:
285,96,7296,1,2,0:0:0:0:
430,201,7472,1,2,1:2:0:0:
437,117,7649,2,0,P|396:131|361:144,1,66.3750025320054,2|0,0:0|1:2,0:0:0:0:
306,257,8002,5,2,0:0:0:0:
197,195,8178,1,2,1:2:0:0:
176,334,8355,2,0,P|218:323|250:317,1,66.3750025320054,2|0,0:0|1:2,0:0:0:0:
37,221,8708,5,2,0:0:0:0:
163,318,8884,1,2,1:2:0:0:
23,375,9061,2,0,P|40:324|59:290,1,66.3750025320054,2|0,0:0|1:2,0:0:0:0:
197,195,9414,5,2,0:0:0:0:
119,183,9590,2,0,P|129:239|136:259,1,66.3750025320054,2|2,1:2|0:0,0:0:0:0:
209,40,9943,5,2,1:2:0:0:
119,183,10120,1,2,0:0:0:0:
72,33,10296,1,2,1:2:0:0:
271,103,10472,1,2,1:2:0:0:
271,103,10561,1,0,1:2:0:0:
271,103,10649,2,0,P|234:122|208:131,1,66.3750025320054,0|2,1:2|0:0,0:0:0:0:
366,224,11002,5,2,1:2:0:0:
446,23,11178,1,2,1:2:0:0:
446,23,12414,6,0,L|385:3,1,59.7374981769562,4|0,2:3|0:0,0:0:0:0:
470,10,12767,5,4,1:2:0:0:
373,145,12943,1,2,0:0:0:0:
255,17,13120,6,0,L|282:124,1,88.5,10|0,0:0|0:0,0:0:0:0:
276,102,13384,1,2,0:0:0:0:
276,102,13472,1,2,1:2:0:0:
396,227,13649,1,2,0:0:0:0:
432,233,13737,1,2,0:0:0:0:
464,215,13825,1,10,0:2:0:0:
480,181,13913,1,2,0:0:0:0:
471,146,14002,2,0,P|409:138|360:128,1,88.5,2|2,0:0|1:2,0:0:0:0:
227,27,14355,5,2,0:0:0:0:
367,134,14531,1,10,0:0:0:0:
235,228,14708,2,0,P|251:174|263:130,1,88.5,2|0,0:0|1:2,0:0:0:0:
233,356,15061,5,2,0:0:0:0:
161,183,15237,1,10,0:2:0:0:
299,291,15414,1,2,0:0:0:0:
299,291,15502,1,2,0:0:0:0:
299,291,15590,5,2,1:2:0:0:
124,376,15767,1,2,0:0:0:0:
89,267,15943,2,0,P|141:286|185:300,1,88.5,8|2,0:0|0:0,0:0:0:0:
172,296,16208,1,2,0:0:0:0:
172,296,16296,1,2,1:2:0:0:
300,176,16472,1,2,0:0:0:0:
300,176,16561,1,2,0:0:0:0:
300,176,16649,2,0,L|244:191,1,44.25,10|2,0:2|0:0,0:0:0:0:
129,117,16825,6,0,P|139:69|143:22,1,88.5,2|2,0:0|1:2,0:0:0:0:
145,218,17178,5,2,0:0:0:0:
42,62,17355,1,10,0:0:0:0:
257,69,17531,2,0,P|216:80|151:95,1,88.5,2|0,0:0|1:2,0:0:0:0:
365,1,17884,5,10,0:0:0:0:
300,176,18061,1,10,0:2:0:0:
441,40,18237,1,2,1:2:0:0:
441,40,18325,1,0,1:0:0:0:
441,40,18414,5,4,1:2:0:0:
268,79,18590,1,2,0:0:0:0:
373,229,18767,2,0,P|398:188|385:144,1,88.5,10|0,0:0|0:0,0:0:0:0:
389,150,19031,1,2,0:0:0:0:
389,150,19120,1,2,1:2:0:0:
488,343,19296,5,2,0:0:0:0:
467,317,19384,1,2,0:0:0:0:
437,302,19472,1,10,0:2:0:0:
404,302,19560,1,2,0:0:0:0:
374,314,19649,2,0,P|326:348|281:338,1,88.5,2|2,0:0|1:2,0:0:0:0:
149,176,20002,5,2,0:0:0:0:
312,271,20178,1,10,0:0:0:0:
149,370,20355,2,0,P|163:318|172:265,1,88.5,2|0,0:0|1:2,0:0:0:0:
231,138,20708,5,2,0:0:0:0:
85,303,20884,2,0,P|37:283|34:236,1,88.5,10|2,0:2|0:0,0:0:0:0:
29,251,21149,1,2,0:0:0:0:
29,251,21237,5,2,1:2:0:0:
168,100,21414,1,2,0:0:0:0:
70,63,21590,2,0,P|88:125|96:164,1,88.5,8|2,0:0|0:0,0:0:0:0:
93,148,21855,1,2,0:0:0:0:
93,148,21943,1,2,1:2:0:0:
226,41,22120,2,0,L|174:24,1,44.25,2|2,0:0|0:0,0:0:0:0:
266,150,22296,1,10,0:2:0:0:
266,150,22384,1,2,0:0:0:0:
266,150,22472,6,0,B|377:149|296:82|441:73,1,177,6|0,1:2|0:0,0:0:0:0:
495,179,23002,2,0,P|446:182|412:264,1,132.75,2|0,1:2|0:0,0:0:0:0:
426,271,23355,2,0,P|363:292|292:330,1,132.75,2|0,1:2|0:0,0:0:0:0:
296,342,23708,1,2,1:2:0:0:
153,272,23884,1,0,1:2:0:0:
153,272,23972,1,0,1:2:0:0:
153,272,24061,6,0,P|204:304|192:386,1,132.750005064011,6|0,1:2|1:2,0:0:0:0:
259,232,24590,1,2,0:0:0:0:
127,347,24767,2,0,P|82:335|53:330,1,66.3750025320054,2|0,1:2|0:0,0:0:0:0:
0,244,25120,1,0,1:2:0:0:
78,195,25296,1,2,0:0:0:0:
78,195,25384,1,2,0:0:0:0:
78,195,25472,6,0,P|85:235|91:264,1,66.3750025320054,2|0,1:2|0:0,0:0:0:0:
198,142,25825,2,0,P|155:133|126:125,1,66.3750025320054,2|0,1:2|0:0,0:0:0:0:
244,212,26178,2,0,P|227:254|213:290,1,66.3750025320054,2|0,1:2|0:0,0:0:0:0:
329,329,26531,2,0,P|295:343|264:356,1,66.3750025320054,2|0,1:2|0:0,0:0:0:0:
378,250,26884,6,0,P|412:267|418:367,1,132.750005064011,2|0,1:2|1:2,0:0:0:0:
512,264,27414,1,2,0:0:0:0:
512,264,27590,2,0,P|473:275|441:280,1,66.3750025320054,2|0,1:2|0:0,0:0:0:0:
345,159,27943,2,0,P|377:170|415:180,1,66.3750025320054,0|0,1:2|0:0,0:0:0:0:
308,64,28296,6,0,P|264:67|232:143,1,132.750005064011,2|0,1:2|1:2,0:0:0:0:
231,140,28825,1,2,0:0:0:0:
121,41,29002,2,0,P|162:52|232:73,2,99.5625037980081,2|2|2,1:2|0:0|1:2,0:0:0:0:
51,23,29620,1,0,1:2:0:0:
51,23,29708,6,0,B|13:92|111:73|47:162,1,132.750005064011,2|2,1:2|1:2,0:0:0:0:
58,144,30237,1,0,0:0:0:0:
135,216,30414,2,0,P|91:232|60:238,1,66.3750025320054,2|0,1:2|0:0,0:0:0:0:
215,149,30767,2,0,P|174:132|140:118,1,66.3750025320054,2|0,1:2|0:0,0:0:0:0:
313,234,31120,6,0,P|257:243|240:323,1,132.750005064011,2|2,1:2|1:2,0:0:0:0:
234,308,31649,1,0,0:0:0:0:
373,342,31825,2,0,P|333:325|305:310,1,66.3750025320054,2|0,1:2|0:0,0:0:0:0:
436,219,32178,1,2,1:2:0:0:
436,219,32531,6,0,P|453:285|476:365,1,132.750005064011,2|0,1:2|1:2,0:0:0:0:
470,347,33061,1,2,0:0:0:0:
371,274,33237,2,0,P|414:287|437:292,1,66.3750025320054,2|0,1:2|0:0,0:0:0:0:
271,166,33590,5,2,1:2:0:0:
218,235,33767,2,0,P|232:268|247:301,1,66.3750025320054,2|0,0:0|1:2,0:0:0:0:
99,146,34120,5,2,1:2:0:0:
205,230,34296,1,2,1:2:0:0:
103,359,34472,2,0,P|55:343|15:336,1,66.3750025320054,2|0,1:2|1:2,0:0:0:0:
26,318,34737,1,0,1:0:0:0:
26,318,34825,2,0,L|13:264,1,33.1875012660027,2|0,1:2|1:0,0:0:0:0:
119,202,35002,1,2,1:2:0:0:
139,209,35090,1,0,1:2:0:0:
162,215,35179,1,0,1:2:0:0:
184,222,35267,1,0,1:2:0:0:
205,230,35355,6,0,P|240:302|224:398,1,159.29999513855,6|10,1:2|0:0,0:0:0:0:
372,243,35884,1,2,1:2:0:0:
372,243,35972,1,0,1:0:0:0:
372,243,36061,2,0,P|327:232|290:220,1,79.649997569275,2|0,1:2|0:0,0:0:0:0:
139,164,36414,5,10,0:0:0:0:
316,71,36590,1,2,0:0:0:0:
244,12,36767,2,0,P|226:96|209:196,1,159.29999513855,2|10,1:2|0:0,0:0:0:0:
73,22,37296,1,0,0:0:0:0:
61,100,37472,2,0,P|101:90|143:73,1,79.649997569275,2|0,1:2|0:0,0:0:0:0:
254,237,37825,2,0,P|222:203|130:218,1,119.474996353912,10|0,0:0|0:0,0:0:0:0:
82,258,38178,6,0,P|93:300|104:341,1,79.649997569275,2|0,1:2|0:0,0:0:0:0:
187,279,38531,1,8,0:0:0:0:
21,180,38708,1,2,1:2:0:0:
21,180,38796,1,0,1:2:0:0:
21,180,38884,2,0,P|61:169|98:159,1,79.649997569275,0|0,1:2|0:0,0:0:0:0:
286,31,39237,5,8,0:0:0:0:
201,104,39414,1,0,0:0:0:0:
290,139,39590,2,0,P|233:120|198:116,1,79.649997569275,0|0,1:2|0:0,0:0:0:0:
378,32,39943,5,8,0:0:0:0:
438,192,40120,1,0,1:2:0:0:
438,192,40208,1,0,1:2:0:0:
438,192,40296,2,0,P|452:145|463:108,1,79.649997569275,2|0,1:2|0:0,0:0:0:0:
273,259,40649,2,0,P|265:304|291:339,1,79.649997569275,10|0,0:0|0:0,0:0:0:0:
489,359,41002,6,0,B|389:349|465:292|320:291,1,159.29999513855,0|10,1:2|0:0,0:0:0:0:
220,191,41531,1,0,1:2:0:0:
220,191,41620,1,0,1:2:0:0:
220,191,41708,2,0,P|259:183|300:175,1,79.649997569275,2|0,1:2|0:0,0:0:0:0:
176,42,42061,5,10,0:0:0:0:
89,171,42237,1,0,0:0:0:0:
14,119,42414,2,0,P|55:135|91:145,1,79.649997569275,2|0,1:2|0:0,0:0:0:0:
251,16,42767,2,0,P|207:32|175:42,1,79.649997569275,10|0,0:0|0:0,0:0:0:0:
413,73,43120,2,0,P|354:69|307:168,1,159.29999513855,2|8,1:2|0:0,0:0:0:0:
255,34,43649,1,2,0:0:0:0:
390,154,43825,5,2,1:2:0:0:
243,245,44002,1,0,1:2:0:0:
212,123,44178,1,8,0:0:0:0:
234,128,44267,1,8,0:0:0:0:
257,134,44355,1,10,0:0:0:0:
279,139,44443,1,8,0:0:0:0:
302,145,44531,1,10,0:0:0:0:
161,53,44708,5,0,1:2:0:0:
243,245,44884,1,8,0:0:0:0:
21,148,45061,6,0,P|81:151|115:247,1,159.29999513855,4|8,1:2|0:0,0:0:0:0:
212,123,45590,1,0,1:2:0:0:
45,232,45767,1,8,0:0:0:0:
45,232,45855,1,8,0:0:0:0:
45,232,45943,5,0,1:2:0:0:
44,326,46120,1,8,0:0:0:0:
132,380,46296,1,0,1:2:0:0:
200,284,46472,1,8,0:0:0:0:
188,279,46561,1,8,0:0:0:0:
176,274,46649,5,4,1:2:0:0:
242,384,46825,1,2,0:0:0:0:
370,253,47002,1,10,0:0:0:0:
261,192,47178,1,2,0:0:0:0:
253,203,47531,5,2,0:0:0:0:
337,177,47708,1,10,0:0:0:0:
420,151,47884,1,2,0:0:0:0:
431,173,48237,5,2,0:0:0:0:
329,130,48414,1,8,0:0:0:0:
230,86,48590,1,2,0:0:0:0:
216,96,48944,5,2,0:0:0:0:
333,27,49120,1,10,0:0:0:0:
266,227,49296,1,2,0:0:0:0:
281,219,49649,5,2,0:0:0:0:
169,352,49825,1,10,0:0:0:0:
68,274,50002,1,2,0:0:0:0:
58,285,50355,5,2,0:0:0:0:
210,177,50532,1,10,0:0:0:0:
90,94,50708,1,2,0:0:0:0:
76,108,51061,5,2,0:0:0:0:
198,14,51237,1,10,0:0:0:0:
300,141,51414,2,0,P|235:160|197:172,1,79.649997569275,2|0,0:0|1:2,0:0:0:0:
403,25,51767,5,2,1:2:0:0:
308,125,51943,1,10,0:0:0:0:
462,212,52120,1,10,0:0:0:0:
462,212,52208,1,0,1:2:0:0:
462,212,52296,5,6,1:2:0:0:
390,123,52472,1,2,0:0:0:0:
476,91,52649,1,10,0:0:0:0:
315,233,52825,2,0,P|365:251|406:264,1,79.649997569275,2|0,0:0|1:2,0:0:0:0:
254,352,53178,5,2,0:0:0:0:
178,156,53355,1,10,0:0:0:0:
77,288,53531,2,0,P|136:270|170:261,1,79.649997569275,2|0,0:0|1:2,0:0:0:0:
315,233,53884,5,2,0:0:0:0:
172,133,54061,1,10,0:0:0:0:
244,79,54237,2,0,P|257:130|263:158,1,79.649997569275,2|0,0:0|1:2,0:0:0:0:
59,23,54590,5,2,1:2:0:0:
172,133,54767,1,2,1:2:0:0:
111,80,54943,1,10,0:0:0:0:
111,80,55296,5,2,0:0:0:0:
66,182,55472,1,2,0:0:0:0:
8,119,55649,1,2,0:0:0:0:
66,182,55825,5,2,0:0:0:0:
172,133,56002,1,2,0:0:0:0:
100,323,56178,1,2,0:0:0:0:
278,206,56355,5,6,1:2:0:0:
287,214,56708,1,2,1:2:0:0:
82,71,56884,1,14,0:0:0:0:
82,71,57943,6,0,P|157:58|245:27,1,132.75,6|0,1:2|0:0,0:0:0:0:
229,22,58296,1,10,0:0:0:0:
355,136,58472,2,0,P|338:185|327:229,1,88.5,2|0,0:0|1:2,0:0:0:0:
411,21,58825,5,2,0:0:0:0:
265,124,59002,1,10,0:0:0:0:
421,199,59178,2,0,P|472:184|518:174,1,88.5,2|0,0:0|1:2,0:0:0:0:
323,318,59531,5,2,0:0:0:0:
263,197,59708,1,8,0:0:0:0:
352,233,59884,1,2,1:2:0:0:
352,233,59972,1,0,1:2:0:0:
352,233,60061,1,2,1:2:0:0:
217,378,60237,1,2,0:0:0:0:
138,225,60414,1,10,0:0:0:0:
253,280,60590,1,2,0:0:0:0:
93,374,60767,6,0,L|124:229,1,132.75,2|0,1:2|0:0,0:0:0:0:
138,225,61120,1,10,0:0:0:0:
45,80,61296,2,0,P|26:138|11:169,1,88.5,2|0,0:0|1:2,0:0:0:0:
153,2,61649,5,2,0:0:0:0:
35,69,61825,1,10,0:0:0:0:
211,115,62002,2,0,P|147:145|103:152,1,88.5,2|0,0:0|1:2,0:0:0:0:
374,69,62355,5,2,0:0:0:0:
282,47,62531,2,0,P|297:104|311:143,1,88.5,10|0,0:0|0:0,0:0:0:0:
408,239,62884,5,2,1:2:0:0:
454,148,63061,1,2,0:0:0:0:
305,222,63237,1,10,0:0:0:0:
386,339,63414,1,2,0:0:0:0:
510,253,63590,6,0,P|459:241|422:233,1,88.5,6|0,1:2|0:0,0:0:0:0:
185,308,63943,1,10,0:0:0:0:
251,378,64120,2,0,P|270:322|276:285,1,88.5,2|0,0:0|1:2,0:0:0:0:
98,225,64472,5,2,0:0:0:0:
209,159,64649,1,10,0:0:0:0:
86,242,64825,2,0,P|40:229|-8:221,1,88.5,2|2,0:0|1:2,0:0:0:0:
174,91,65178,1,2,0:0:0:0:
59,44,65355,1,8,0:0:0:0:
132,171,65531,1,2,1:2:0:0:
132,171,65620,1,0,1:2:0:0:
132,171,65708,5,2,1:2:0:0:
223,2,65884,1,2,0:0:0:0:
80,59,66061,1,10,0:0:0:0:
236,199,66237,1,2,0:0:0:0:
290,85,66414,6,0,P|229:101|189:112,1,88.5,2|0,1:2|0:0,0:0:0:0:
457,102,66767,1,10,0:0:0:0:
384,37,66943,2,0,P|373:89|365:129,1,88.5,2|0,0:0|1:2,0:0:0:0:
238,13,67296,5,2,0:0:0:0:
372,136,67472,1,10,0:0:0:0:
205,210,67649,2,0,P|218:158|223:115,1,88.5,2|4,0:0|1:2,0:0:0:0:
84,39,68002,5,8,0:0:0:0:
74,47,68090,1,8,0:0:0:0:
61,50,68178,1,8,0:0:0:0:
123,139,68355,5,8,0:0:0:0:
136,142,68443,1,8,0:0:0:0:
146,150,68531,1,0,1:2:0:0:
34,233,68708,5,8,0:0:0:0:
17,225,68796,1,0,1:2:0:0:
0,218,68884,1,0,1:2:0:0:
58,371,69061,1,0,1:2:0:0:
185,235,69237,6,0,L|103:260,1,73.0125022281647,6|0,1:2|0:0,0:0:0:0:
197,218,69590,6,0,L|283:236,1,57.5249973667146,10|0,0:0|0:0,0:0:0:0:
389,290,69767,6,0,L|247:327,1,132.75,2|0,0:0|0:0,0:0:0:0:
248,342,70120,1,2,0:0:0:0:
396,171,70296,1,10,0:0:0:0:
309,146,70472,2,0,P|325:206|336:240,1,88.5,2|0,0:0|1:2,0:0:0:0:
466,91,70825,2,0,P|405:68|366:55,1,88.5,2|8,0:0|0:0,0:0:0:0:
228,187,71178,6,0,P|177:175|165:80,1,132.75,2|0,0:0|0:0,0:0:0:0:
169,81,71531,1,2,0:0:0:0:
65,242,71708,1,10,0:0:0:0:
9,144,71884,1,2,0:0:0:0:
179,217,72061,6,0,P|154:287|142:325,1,88.5,2|0,1:2|0:0,0:0:0:0:
221,356,72414,2,0,P|264:356|291:323,1,88.5,10|0,0:0|0:0,0:0:0:0:
371,261,72767,2,0,P|329:246|278:222,1,88.5,2|0,1:2|0:0,0:0:0:0:
443,129,73120,2,0,P|452:188|463:234,1,88.5,10|0,0:0|0:0,0:0:0:0:
276,76,73472,6,0,P|329:61|368:47,1,88.5,2|0,1:2|0:0,0:0:0:0:
196,224,73825,2,0,P|155:202|144:158,1,88.5,10|0,0:0|0:0,0:0:0:0:
61,42,74178,2,0,P|46:100|32:141,1,88.5,2|0,1:2|0:0,0:0:0:0:
147,22,74531,5,10,0:0:0:0:
229,159,74708,1,0,1:2:0:0:
229,159,74796,1,0,1:2:0:0:
229,159,74884,2,0,P|283:146|329:137,1,88.5,6|0,1:2|0:0,0:0:0:0:
205,256,75237,5,10,0:0:0:0:
117,106,75414,1,0,1:2:0:0:
117,106,75502,1,0,1:2:0:0:
117,106,75590,2,0,P|103:161|95:200,1,88.5,2|0,1:2|1:2,0:0:0:0:
222,338,75943,6,0,P|282:308|277:221,1,132.75,2|0,1:2|0:0,0:0:0:0:
266,226,76296,6,0,L|89:269,1,177,4|6,1:2|1:2,0:0:0:0:
94,267,77355,6,0,P|94:260|92:271,1,66.375,4|0,3:0|0:0,0:0:0:0:
149,321,77708,5,4,1:2:0:0:
23,178,77884,1,2,0:0:0:0:
109,152,78061,2,0,P|100:204|86:246,1,88.5,10|0,0:0|0:0,0:0:0:0:
89,237,78325,1,2,0:0:0:0:
89,237,78413,1,2,1:2:0:0:
191,128,78590,5,2,0:0:0:0:
178,97,78678,1,2,0:0:0:0:
153,76,78766,1,10,0:2:0:0:
121,68,78854,1,2,0:0:0:0:
89,77,78943,2,0,P|43:95|0:106,1,88.5,2|2,0:0|1:2,0:0:0:0:
215,0,79296,5,2,0:0:0:0:
109,152,79472,1,10,0:0:0:0:
303,108,79649,2,0,P|242:95|187:85,1,88.5,2|0,0:0|1:2,0:0:0:0:
405,11,80002,5,2,0:0:0:0:
302,117,80178,1,10,0:2:0:0:
471,198,80355,1,2,0:0:0:0:
471,198,80443,1,2,0:0:0:0:
471,198,80531,5,2,1:2:0:0:
426,100,80708,1,2,0:0:0:0:
254,211,80884,2,0,P|311:224|362:237,1,88.5,8|2,0:0|0:0,0:0:0:0:
340,231,81149,1,2,0:0:0:0:
340,231,81237,1,2,1:2:0:0:
196,375,81414,1,2,0:0:0:0:
196,375,81502,1,2,0:0:0:0:
196,375,81590,2,0,L|184:318,1,44.25,10|2,0:2|0:0,0:0:0:0:
88,225,81767,6,0,L|66:323,1,88.5,2|2,0:0|1:2,0:0:0:0:
49,106,82120,1,2,0:0:0:0:
171,260,82296,1,10,0:0:0:0:
257,133,82472,2,0,P|209:148|174:161,1,88.5,2|0,0:0|1:2,0:0:0:0:
351,42,82825,5,10,0:0:0:0:
245,4,83002,1,10,0:2:0:0:
352,171,83178,1,2,1:2:0:0:
352,171,83267,1,0,1:0:0:0:
352,171,83355,5,4,1:2:0:0:
429,97,83531,1,2,0:0:0:0:
276,223,83708,2,0,P|341:246|388:255,1,88.5,10|0,0:0|0:0,0:0:0:0:
359,250,83972,1,2,0:0:0:0:
359,250,84061,1,2,1:2:0:0:
208,374,84237,1,2,0:0:0:0:
203,341,84325,1,2,0:0:0:0:
183,315,84413,1,10,0:2:0:0:
152,304,84501,1,2,0:0:0:0:
120,311,84590,6,0,P|71:327|29:336,1,88.5,2|2,0:0|1:2,0:0:0:0:
196,139,84943,1,2,0:0:0:0:
48,240,85120,1,10,0:0:0:0:
203,341,85296,2,0,P|204:287|169:248,1,88.5,2|0,0:0|1:2,0:0:0:0:
329,103,85649,5,2,0:0:0:0:
294,291,85825,1,10,0:2:0:0:
414,162,86002,1,2,0:0:0:0:
414,162,86090,1,2,0:0:0:0:
414,162,86178,5,2,1:2:0:0:
254,213,86355,1,2,0:0:0:0:
413,366,86531,2,0,P|423:313|432:260,1,88.5,8|2,0:0|0:0,0:0:0:0:
428,278,86796,1,2,0:0:0:0:
428,278,86884,1,2,1:2:0:0:
283,151,87061,5,2,0:0:0:0:
251,138,87149,1,2,0:0:0:0:
217,149,87237,1,10,0:2:0:0:
197,176,87325,1,2,0:0:0:0:
197,211,87414,6,0,P|259:197|342:179,1,132.75,6|0,1:2|0:0,0:0:0:0:
349,199,87767,5,2,0:0:0:0:
390,111,87943,1,2,1:2:0:0:
431,22,88120,1,2,1:2:0:0:
449,195,88296,5,2,1:2:0:0:
329,25,88472,1,2,1:2:0:0:
480,98,88649,1,2,1:2:0:0:
327,182,88825,1,10,0:0:0:0:
327,182,88914,1,8,0:0:0:0:
327,182,89002,6,0,P|279:193|232:203,1,88.5,4|0,1:2|0:0,0:0:0:0:
165,136,89267,2,0,P|208:126|251:116,1,88.5,2|0,0:0|0:0,0:0:0:0:
308,63,89531,1,2,0:0:0:0:
308,49,89620,1,2,0:0:0:0:
300,38,89708,5,2,1:2:0:0:
210,5,89884,1,2,0:0:0:0:
104,55,90061,1,10,0:0:0:0:
57,168,90237,1,2,1:2:0:0:
57,168,90325,1,0,1:2:0:0:
57,168,90414,6,0,P|76:234|79:265,1,88.5,2|0,1:2|0:0,0:0:0:0:
78,253,90678,1,2,0:0:0:0:
78,253,90767,1,8,0:0:0:0:
249,145,90943,2,0,P|199:173|149:177,1,88.5,2|0,0:0|1:2,0:0:0:0:
364,65,91296,5,2,0:0:0:0:
305,244,91472,1,10,0:0:0:0:
366,52,91649,1,2,0:0:0:0:
490,187,91825,5,2,1:2:0:0:
397,253,92002,1,2,0:0:0:0:
324,120,92178,1,10,0:0:0:0:
413,166,92355,1,2,1:2:0:0:
413,166,92443,1,0,1:2:0:0:
413,166,92531,2,0,P|402:225|393:283,1,88.5,0|0,1:2|1:2,0:0:0:0:
397,253,92796,1,2,1:2:0:0:
397,253,92884,1,8,0:0:0:0:
280,372,93061,1,2,0:0:0:0:
187,230,93237,5,2,1:2:0:0:
276,210,93414,2,0,P|264:266|241:308,1,88.5,2|8,0:0|0:0,0:0:0:0:
68,158,93767,2,0,P|125:147|208:130,1,132.75,2|0,0:0|0:0,0:0:0:0:
221,114,94120,5,10,0:2:0:0:
46,38,94296,1,10,0:0:0:0:
142,228,94472,1,10,0:0:0:0:
142,228,94561,1,8,0:0:0:0:
142,228,94649,6,0,P|129:285|117:334,1,88.5,6|0,1:2|0:0,0:0:0:0:
204,348,94914,2,0,P|214:304|224:261,1,88.5,2|0,0:0|0:0,0:0:0:0:
261,195,95178,1,2,0:0:0:0:
271,186,95267,1,0,0:0:0:0:
283,182,95355,5,0,1:2:0:0:
363,156,95531,1,2,0:0:0:0:
467,219,95708,1,10,0:0:0:0:
492,337,95884,1,2,0:0:0:0:
364,380,96061,6,0,P|377:308|380:278,1,88.5,2|0,1:2|1:2,0:0:0:0:
378,292,96325,1,2,1:2:0:0:
378,292,96414,1,8,0:0:0:0:
209,182,96590,2,0,P|225:249|234:293,1,88.5,2|0,0:0|1:2,0:0:0:0:
234,73,96943,5,2,0:0:0:0:
96,196,97120,1,10,0:0:0:0:
246,67,97296,1,2,0:0:0:0:
120,14,97472,5,2,1:2:0:0:
209,182,97649,1,2,0:0:0:0:
316,11,97825,1,10,0:0:0:0:
246,67,98002,1,2,0:0:0:0:
246,67,98090,1,2,0:0:0:0:
246,67,98178,2,0,P|303:84|343:97,1,88.5,2|2,1:2|1:2,0:0:0:0:
330,92,98443,1,0,1:2:0:0:
330,92,98531,1,10,0:0:0:0:
487,148,98708,6,0,P|431:153|389:243,1,132.75,6|0,1:2|0:0,0:0:0:0:
389,236,99061,1,0,1:2:0:0:
505,342,99237,2,0,P|454:359|403:378,1,88.5,2|0,1:2|0:0,0:0:0:0:
232,271,99590,5,2,1:2:0:0:
274,185,99767,1,8,0:0:0:0:
309,361,99943,1,2,1:2:0:0:
118,218,100120,1,8,0:0:0:0:
118,218,100208,1,8,0:0:0:0:
118,218,100296,6,0,P|171:207|207:200,1,79.649997569275,6|2,1:2|0:0,0:0:0:0:
345,110,100649,1,10,0:0:0:0:
243,66,100825,1,2,0:0:0:0:
354,123,101002,2,0,P|304:140|275:154,1,79.649997569275,2|0,1:2|0:0,0:0:0:0:
401,35,101355,5,10,0:0:0:0:
467,98,101531,2,0,P|466:147|426:181,1,79.649997569275,2|0,0:0|1:2,0:0:0:0:
351,224,101884,5,2,0:0:0:0:
443,181,102061,1,10,0:0:0:0:
505,274,102237,2,0,P|454:289|412:306,1,79.649997569275,2|0,0:0|1:2,0:0:0:0:
339,372,102590,5,2,0:0:0:0:
229,264,102767,1,10,0:0:0:0:
314,229,102943,1,2,1:2:0:0:
314,229,103031,1,0,1:2:0:0:
314,229,103120,6,0,P|304:275|298:308,2,79.649997569275,2|2|10,1:2|0:0|0:0,0:0:0:0:
174,112,103649,1,2,0:0:0:0:
241,160,103825,2,0,P|202:185|159:202,1,79.649997569275,2|0,1:2|0:0,0:0:0:0:
1,88,104178,5,10,0:0:0:0:
81,56,104355,2,0,P|74:114|64:150,1,79.649997569275,2|0,0:0|1:2,0:0:0:0:
11,259,104708,5,2,0:0:0:0:
114,198,104884,1,10,0:0:0:0:
1,267,105061,2,0,P|47:281|86:295,1,79.649997569275,2|0,0:0|1:2,0:0:0:0:
186,336,105414,5,2,1:2:0:0:
207,259,105590,1,10,0:0:0:0:
229,182,105767,1,10,0:0:0:0:
278,358,105943,5,6,1:2:0:0:
278,358,106120,1,2,0:0:0:0:
308,265,106296,2,0,P|263:274|219:285,1,79.649997569275,10|2,0:0|0:0,0:0:0:0:
426,359,106649,2,0,P|462:316|442:217,1,159.29999513855,2|10,1:2|0:0,0:0:0:0:
315,150,107178,2,0,P|308:193|298:235,1,79.649997569275,2|0,0:0|1:2,0:0:0:0:
389,56,107531,5,2,0:0:0:0:
306,137,107708,1,10,0:0:0:0:
443,144,107884,2,0,P|399:161|378:192,1,79.649997569275,2|0,0:0|1:2,0:0:0:0:
219,68,108237,1,2,0:0:0:0:
277,6,108414,2,0,P|293:55|306:87,1,79.649997569275,8|2,0:0|0:0,0:0:0:0:
205,252,108767,6,0,P|163:241|144:204,1,79.649997569275,6|2,1:2|0:2,0:0:0:0:
91,132,109120,1,2,1:2:0:0:
91,132,109296,1,2,1:2:0:0:
181,24,109472,5,2,1:2:0:0:
202,101,109649,1,2,0:0:0:0:
223,177,109825,1,2,1:2:0:0:
104,36,110002,2,0,P|53:53|19:64,1,79.649997569275,2|0,1:2|0:0,0:0:0:0:
115,18,110355,1,2,1:2:0:0:
276,169,110531,6,0,B|417:190|346:78|489:96|489:96|445:91|404:151,1,331.875012660027,6|0,1:2|0:0,0:0:0:0:
482,174,111590,2,0,P|470:216|449:315,1,141.6,4|2,0:3|0:0,0:0:0:0:
296,146,113002,5,2,1:2:0:0:
362,232,113178,1,0,1:2:0:0:
362,232,113708,6,0,P|321:244|276:269,1,88.5,2|2,0:0|0:0,0:0:0:0:
226,323,114237,2,0,P|206:309|183:302,1,44.25,2|0,0:0|0:0,0:0:0:0:
124,255,114590,2,0,P|85:251|41:332,1,132.75,2|2,0:0|0:0,0:0:0:0:
38,321,115472,1,2,0:0:0:0:
124,255,115825,5,2,1:2:0:0:
39,151,116001,1,0,1:2:0:0:
39,151,116531,6,0,L|137:129,1,88.5,2|2,0:0|0:0,0:0:0:0:
176,69,117061,2,0,L|224:84,1,44.25,2|0,0:0|0:0,0:0:0:0:
284,132,117414,1,2,0:0:0:0:
284,132,117590,2,0,P|291:171|265:209,1,88.5,2|2,0:0|0:0,0:0:0:0:
284,132,118649,5,2,1:2:0:0:
413,84,118825,1,0,1:2:0:0:
413,84,119178,5,2,0:0:0:0:
413,84,119355,2,0,P|401:132|389:188,1,88.5,2|2,0:0|0:0,0:0:0:0:
452,226,119884,2,0,P|458:254|468:274,1,44.25,2|0,0:0|0:0,0:0:0:0:
431,336,120237,1,2,0:0:0:0:
431,336,120414,2,0,P|402:325|383:323,1,44.25,2|0,0:0|0:0,0:0:0:0:
324,270,120767,2,0,P|287:285|231:300,1,88.5,2|2,0:0|0:0,0:0:0:0:
28,354,121472,5,2,1:2:0:0:
104,263,121648,1,0,1:2:0:0:
104,263,121825,2,0,P|92:220|90:207,1,44.25,2|0,0:0|0:0,0:0:0:0:
179,171,122178,2,0,P|170:198|167:216,1,44.25,2|0,0:0|0:0,0:0:0:0:
260,161,122531,2,0,P|250:133|246:115,1,44.25,2|0,0:0|0:0,0:0:0:0:
168,49,122884,6,0,P|149:70|81:71,1,88.5,2|2,0:0|0:0,0:0:0:0:
11,146,123590,2,0,P|44:146|84:200,1,88.5,2|2,0:0|0:0,0:0:0:0:
180,143,124296,5,2,0:0:0:0:
22,47,132767,6,0,P|70:54|79:137,1,132.75,6|0,1:2|0:0,0:0:0:0:
64,217,133120,2,0,L|158:198,1,88.5,8|0,0:0|0:0,0:0:0:0:
324,148,133472,1,2,1:2:0:0:
231,29,133649,1,8,0:0:0:0:
235,48,133737,1,8,0:0:0:0:
239,67,133825,1,0,1:2:0:0:
243,86,133914,1,0,1:2:0:0:
247,105,134002,6,0,L|221:248,1,132.75,8|0,0:0|0:0,0:0:0:0:
235,258,134355,1,10,1:2:0:0:
324,148,134531,2,0,P|394:150|410:217,1,132.750005064011,10|2,1:2|0:0,0:0:0:0:
470,274,135590,6,0,B|356:281|445:345|313:356,1,177,6|10,1:2|0:0,0:0:0:0:
203,243,136120,2,0,P|190:190|175:146,1,88.5,2|0,0:0|1:2,0:0:0:0:
352,78,136472,2,0,P|332:148|322:193,1,88.5,2|10,0:0|0:0,0:0:0:0:
173,64,136825,6,0,B|92:84|148:126|24:127,1,132.75,2|0,0:0|0:0,0:0:0:0:
35,108,137178,1,2,0:0:0:0:
263,24,137355,2,0,P|249:77|240:125,1,88.5,8|0,0:0|0:0,0:0:0:0:
174,289,137708,5,2,1:2:0:0:
343,182,137884,1,2,0:0:0:0:
296,364,138061,1,10,0:0:0:0:
254,227,138237,1,2,1:2:0:0:
254,227,138325,1,0,1:2:0:0:
254,227,138414,6,0,P|206:210|166:192,1,88.5,2|0,1:2|0:0,0:0:0:0:
26,349,138767,1,10,0:0:0:0:
90,275,138943,2,0,P|105:325|111:364,1,88.5,2|0,0:0|1:2,0:0:0:0:
208,113,139296,5,2,0:0:0:0:
90,275,139472,1,10,0:0:0:0:
12,145,139649,2,0,P|61:160|98:174,1,88.5,2|0,0:0|1:2,0:0:0:0:
224,105,140002,1,2,0:0:0:0:
198,35,140178,2,0,P|150:62|144:109,1,88.5,10|0,0:0|0:0,0:0:0:0:
268,217,140531,5,2,1:2:0:0:
345,24,140708,1,2,0:0:0:0:
224,105,140884,1,10,0:0:0:0:
425,111,141061,1,2,1:2:0:0:
425,111,141149,1,0,1:2:0:0:
425,111,141237,6,0,P|377:125|338:138,1,88.5,6|0,1:2|0:0,0:0:0:0:
198,35,141590,1,10,0:0:0:0:
262,198,141767,2,0,P|247:246|235:290,1,88.5,2|0,0:0|1:2,0:0:0:0:
141,109,142120,5,2,0:0:0:0:
273,194,142296,1,10,0:0:0:0:
127,297,142472,2,0,P|68:279|23:264,1,88.5,2|2,0:0|1:2,0:0:0:0:
148,183,142825,1,2,0:0:0:0:
214,371,143002,1,8,0:0:0:0:
321,217,143178,1,2,1:2:0:0:
321,217,143267,1,0,1:2:0:0:
321,217,143355,5,2,1:2:0:0:
208,262,143531,1,2,0:0:0:0:
380,382,143708,2,0,P|391:323|400:276,1,88.5,10|2,0:0|0:0,0:0:0:0:
456,102,144061,6,0,B|343:100|428:181|272:191,1,177,2|10,1:2|0:0,0:0:0:0:
199,54,144590,2,0,P|258:70|299:82,1,88.5,2|0,0:0|1:2,0:0:0:0:
46,178,144943,5,2,0:0:0:0:
189,60,145120,1,10,0:0:0:0:
84,0,145296,1,2,0:0:0:0:
171,154,145472,5,4,1:2:0:0:
6,115,145649,1,8,0:0:0:0:
16,106,145737,1,8,0:0:0:0:
29,107,145825,1,8,0:0:0:0:
146,229,146002,5,10,0:0:0:0:
132,229,146090,1,8,0:0:0:0:
123,220,146178,1,2,1:2:0:0:
252,124,146355,5,10,0:0:0:0:
250,137,146443,1,0,1:2:0:0:
248,150,146531,1,2,1:2:0:0:
341,258,146708,1,2,1:2:0:0:
457,104,146884,6,0,L|381:123,1,66.375,6|0,1:2|0:0,0:0:0:0:
322,71,147237,6,0,B|308:46|308:46|357:87,1,57.5249973667146,10|0,0:0|0:0,0:0:0:0:
505,172,147414,6,0,P|432:190|374:205,1,132.75,2|0,0:0|0:0,0:0:0:0:
355,187,147767,1,2,0:0:0:0:
491,278,147943,1,10,0:0:0:0:
320,360,148120,2,0,P|342:309|332:259,1,88.5,2|0,0:0|1:2,0:0:0:0:
168,201,148472,1,2,0:0:0:0:
231,139,148649,2,0,P|245:187|264:234,1,88.5,8|2,0:0|1:2,0:0:0:0:
258,222,148914,1,0,1:2:0:0:
258,222,149002,5,2,1:2:0:0:
339,120,149178,1,2,0:0:0:0:
176,70,149355,2,0,P|235:55|269:42,1,88.5,10|2,0:0|0:0,0:0:0:0:
76,55,149708,6,0,B|50:55|36:22|36:22|2:77|10:118|65:156,1,177,2|10,1:2|0:0,0:0:0:0:
166,232,150237,1,0,0:0:0:0:
221,158,150414,2,0,P|175:150|133:141,1,88.5,2|0,1:2|0:0,0:0:0:0:
8,300,150767,1,10,0:0:0:0:
81,237,150943,1,0,1:2:0:0:
81,237,151031,1,0,1:2:0:0:
81,237,151120,6,0,P|98:301|112:352,1,88.5,2|0,1:2|0:0,0:0:0:0:
229,363,151472,2,0,P|240:304|259:249,1,88.5,10|0,0:0|0:0,0:0:0:0:
381,195,151825,6,0,P|424:199|459:174,1,88.5,2|0,1:2|0:0,0:0:0:0:
439,92,152178,2,0,P|395:87|360:112,1,88.5,10|0,0:0|0:0,0:0:0:0:
202,59,152531,6,0,B|220:33|220:13|220:13|253:159,1,177,6|10,1:2|0:0,0:0:0:0:
177,198,153061,1,0,1:2:0:0:
177,198,153149,1,0,1:2:0:0:
177,198,153237,1,2,1:2:0:0:
69,218,153414,1,0,1:2:0:0:
33,59,153590,1,2,1:2:0:0:
146,117,153767,1,2,1:2:0:0:
0,237,153943,6,0,P|64:248|138:274,1,132.75,4|2,1:2|0:0,0:0:0:0:
234,160,154649,6,0,B|248:134|231:108|231:108|280:122|307:162|259:240,1,199.125007596016,4|2,1:2|0:0,0:0:0:0:
210,303,155355,6,0,P|247:273|344:291,1,132.750005064011,6|2,1:2|0:0,0:0:0:0:
391,350,155884,1,0,0:0:0:0:
391,350,156061,2,0,P|432:335|462:325,1,66.3750025320054,10|0,0:0|0:0,0:0:0:0:
512,264,156414,2,0,P|480:252|449:241,1,66.3750025320054,2|0,0:0|0:0,0:0:0:0:
293,145,156767,6,0,P|337:131|385:203,1,132.750005064011,2|0,0:0|1:2,0:0:0:0:
387,189,157472,1,10,0:0:0:0:
485,64,157649,2,0,B|398:68|458:115|338:115,1,132.750005064011,0|2,1:2|0:0,0:0:0:0:
248,23,158178,6,0,P|267:52|296:157,2,132.750005064011,2|2|10,1:2|0:0|0:0,0:0:0:0:
248,23,159237,2,0,P|216:42|182:50,1,66.3750025320054,2|0,0:0|0:0,0:0:0:0:
70,71,159590,2,0,P|111:84|133:115,1,66.3750025320054,2|0,1:2|0:0,0:0:0:0:
191,157,159943,2,0,P|202:193|194:225,1,66.3750025320054,2|0,1:2|0:0,0:0:0:0:
36,246,160296,5,10,0:0:0:0:
0,162,160472,2,0,P|56:175|144:199,1,132.750005064011,0|0,1:2|0:0,0:0:0:0:
277,256,161002,6,0,P|216:257|192:334,2,132.750005064011,6|2|10,1:2|0:0|0:0,0:0:0:0:
277,256,162061,2,0,P|313:293|340:293,1,66.3750025320054,2|0,0:0|0:0,0:0:0:0:
398,247,162414,2,0,P|408:200|426:118,1,132.750005064011,2|2,0:0|1:2,0:0:0:0:
426,117,163120,1,10,0:0:0:0:
401,29,163296,2,0,P|457:26|509:104,1,132.750005064011,0|0,1:2|0:0,0:0:0:0:
373,171,163825,6,0,P|286:187|229:201,1,132.750005064011,2|2,1:2|0:0,0:0:0:0:
130,128,164355,1,0,0:0:0:0:
131,52,164531,2,0,P|189:64|206:140,1,132.750005064011,10|2,0:0|0:0,0:0:0:0:
93,248,165237,6,0,P|40:237|8:231,1,66.3750025320054,2|0,1:2|0:0,0:0:0:0:
28,155,165590,2,0,P|60:161|93:168,1,66.3750025320054,0|2,1:2|0:0,0:0:0:0:
179,284,165943,2,0,B|295:309|233:198|371:230,1,199.125007596016,10|2,0:0|0:0,0:0:0:0:
442,290,166649,6,0,P|451:245|476:151,1,132.750005064011,6|2,1:2|0:0,0:0:0:0:
412,89,167178,2,0,P|401:128|389:169,1,66.3750025320054,2|8,0:0|0:0,0:0:0:0:
277,54,167531,1,2,0:0:0:0:
350,27,167708,1,2,0:0:0:0:
270,67,167884,2,0,P|227:55|201:51,1,66.3750025320054,2|0,0:0|0:0,0:0:0:0:
106,97,168237,5,2,0:0:0:0:
100,24,168414,2,0,P|114:63|125:98,1,66.3750025320054,2|2,1:2|0:0,0:0:0:0:
197,129,168767,1,10,0:0:0:0:
112,195,168943,2,0,P|73:184|36:184,2,66.3750025320054,2|2|2,1:2|0:0|0:0,0:0:0:0:
216,214,169472,6,0,P|265:204|284:122,2,132.750005064011,2|2|10,1:2|0:0|0:0,0:0:0:0:
152,268,170355,1,0,0:0:0:0:
152,268,170531,2,0,P|129:304|135:337,1,66.3750025320054,2|0,0:0|0:0,0:0:0:0:
197,371,170884,6,0,P|235:359|273:352,1,66.3750025320054,2|0,1:2|0:0,0:0:0:0:
321,292,171237,2,0,P|359:300|394:307,1,66.3750025320054,2|0,1:2|0:0,0:0:0:0:
462,214,171590,1,10,0:0:0:0:
359,175,171767,2,0,L|388:319,1,132.750005064011,0|0,1:2|0:0,0:0:0:0:
238,158,172296,6,0,B|325:143|268:102|368:97,1,132.750005064011,6|2,1:2|0:0,0:0:0:0:
507,78,172825,1,0,0:0:0:0:
413,15,173002,2,0,P|430:80|432:99,1,66.3750025320054,10|0,0:0|0:0,0:0:0:0:
496,222,173355,2,0,P|481:182|468:154,1,66.3750025320054,2|0,0:0|0:0,0:0:0:0:
324,211,173708,1,2,0:0:0:0:
324,212,174061,6,0,P|370:229|396:237,1,66.3750025320054,2|0,1:2|0:0,0:0:0:0:
496,222,174414,1,10,0:0:0:0:
443,303,174590,2,0,P|376:319|318:368,1,132.750005064011,0|0,1:2|0:0,0:0:0:0:
241,378,175120,6,0,P|230:331|198:248,1,132.750005064011,2|0,1:2|0:0,0:0:0:0:
62,134,175649,1,0,0:0:0:0:
55,210,175825,2,0,P|104:204|141:132,1,132.750005064011,10|0,0:0|0:0,0:0:0:0:
141,135,176531,6,0,P|133:98|128:65,1,66.3750025320054,2|0,1:2|0:0,0:0:0:0:
213,35,176884,2,0,P|218:67|225:100,1,66.3750025320054,0|0,1:2|0:0,0:0:0:0:
330,52,177237,1,10,0:0:0:0:
275,171,177414,2,0,P|221:134|144:160,1,132.750005064011,0|0,1:2|0:0,0:0:0:0:
239,279,177943,6,0,B|286:258|417:232|417:232|465:267|444:313,1,265.5,6|2,1:2|0:0,0:0:0:0:
174,363,179355,6,0,P|161:318|137:232,1,132.75,4|2,1:2|0:0,0:0:0:0:
225,162,180061,2,0,L|215:208,1,44.25,2|2,1:2|0:0,0:0:0:0:
341,19,180767,5,4,1:2:0:0:
392,193,180943,1,2,0:0:0:0:
483,102,181120,2,0,P|435:91|391:80,1,88.5,10|0,0:0|0:0,0:0:0:0:
396,81,181384,1,2,0:0:0:0:
396,81,181472,1,2,1:2:0:0:
258,20,181649,1,2,0:0:0:0:
225,16,181737,1,2,0:0:0:0:
195,28,181825,1,10,0:2:0:0:
174,54,181913,1,2,0:0:0:0:
170,86,182002,6,0,P|187:137|199:183,1,88.5,2|2,0:0|1:2,0:0:0:0:
87,15,182355,1,2,0:0:0:0:
254,104,182531,1,10,0:0:0:0:
108,157,182708,2,0,P|64:166|22:180,1,88.5,2|2,0:2|1:2,0:0:0:0:
136,311,183061,1,2,1:2:0:0:
282,225,183237,1,10,0:0:0:0:
201,175,183414,1,2,0:0:0:0:
201,175,183502,1,2,0:0:0:0:
201,175,183590,5,2,1:2:0:0:
276,362,183767,1,2,0:0:0:0:
386,228,183943,2,0,P|324:246|291:256,1,88.5,8|2,0:0|0:0,0:0:0:0:
301,252,184208,1,2,0:0:0:0:
301,252,184296,1,2,1:2:0:0:
455,353,184472,1,2,0:0:0:0:
455,353,184561,1,2,0:0:0:0:
455,353,184649,2,0,L|462:298,1,44.25,10|2,0:2|0:0,0:0:0:0:
428,160,184825,6,0,P|473:174|517:187,1,88.5,2|2,0:0|1:2,0:0:0:0:
300,49,185178,1,2,0:0:0:0:
386,228,185355,1,10,0:0:0:0:
402,39,185531,2,0,P|374:104|359:137,1,88.5,2|0,0:0|1:2,0:0:0:0:
259,217,185884,5,10,0:0:0:0:
201,46,186061,1,10,0:2:0:0:
286,116,186237,1,0,1:0:0:0:
286,116,186325,1,0,1:0:0:0:
286,116,186414,5,4,1:2:0:0:
139,210,186590,1,2,0:0:0:0:
72,71,186767,2,0,P|121:82|168:88,1,88.5,10|0,0:0|0:0,0:0:0:0:
158,87,187031,1,2,0:0:0:0:
158,87,187120,1,2,1:2:0:0:
326,185,187296,5,2,0:0:0:0:
295,196,187384,1,2,0:0:0:0:
272,220,187472,1,10,0:2:0:0:
260,250,187560,1,2,0:0:0:0:
262,283,187649,2,0,P|321:271|375:260,1,88.5,2|2,0:0|1:2,0:0:0:0:
136,161,188002,5,2,0:0:0:0:
211,359,188178,1,10,0:0:0:0:
92,255,188355,2,0,P|33:270|-4:282,1,88.5,2|0,0:0|1:2,0:0:0:0:
115,367,188708,5,2,0:0:0:0:
247,212,188884,1,10,0:2:0:0:
110,141,189061,1,2,0:0:0:0:
110,141,189149,1,2,0:0:0:0:
110,141,189237,5,2,1:2:0:0:
192,300,189414,1,2,0:0:0:0:
333,144,189590,2,0,P|275:128|230:114,1,88.5,8|2,0:0|0:0,0:0:0:0:
247,119,189855,1,2,0:0:0:0:
247,119,189943,1,2,1:2:0:0:
392,35,190120,1,10,0:0:0:0:
435,32,190208,1,6,0:0:0:0:
472,55,190296,1,10,0:2:0:0:
489,95,190384,1,10,0:0:0:0:
481,137,190472,6,0,P|464:185|434:283,1,132.75,6|0,1:2|0:0,0:0:0:0:
447,282,190825,1,10,1:2:0:0:
281,137,191002,1,2,1:2:0:0:
182,352,191178,6,0,B|294:341|226:288|341:288,1,159.29999513855,6|0,1:2|0:2,0:0:0:0:
348,298,191531,5,0,1:0:0:0:
188,143,191708,1,10,0:0:0:0:
309,379,191884,1,10,0:0:0:0:
