osu file format v14

[General]
AudioFilename: audio.mp3
AudioLeadIn: 0
PreviewTime: 135685
Countdown: 0
SampleSet: Soft
StackLeniency: 0.8
Mode: 0
LetterboxInBreaks: 0
WidescreenStoryboard: 0

[Editor]
DistanceSpacing: 1.2
BeatDivisor: 4
GridSize: 4
TimelineZoom: 2

[Metadata]
Title:Beginning
TitleUnicode:Beginning
Artist:Natsume Itsuki
ArtistUnicode:棗いつき
Creator:Garden
Version:Prologue
Source:
Tags:Elis' Dogma エリスドグマ Japanese J-Rock Kowari Kuse KuBsNia_ZhoYL_
BeatmapID:2446555
BeatmapSetID:1173059

[Difficulty]
HPDrainRate:7
CircleSize:4
OverallDifficulty:9
ApproachRate:9.5
SliderMultiplier:1.8
SliderTickRate:1

[Events]
//Background and Video events
0,0,"main.jpg",0,0
//Break Periods
2,193934,202810
2,208334,211210
//Storyboard Layer 0 (Background)
//Storyboard Layer 1 (Fail)
//Storyboard Layer 2 (Pass)
//Storyboard Layer 3 (Foreground)
//Storyboard Layer 4 (Overlay)
//Storyboard Sound Samples

[TimingPoints]
1735,300,4,2,1,30,1,0
10885,-100,4,2,1,30,0,0
11035,-125,4,2,1,30,0,0
11260,-125,4,2,1,5,0,0
11335,-250.000000000001,4,2,1,30,0,0
16135,-166.666666666667,4,2,1,50,0,0
20785,-166.666666666667,4,2,1,30,0,0
20935,-100,4,2,1,70,0,0
21535,-83.3333333333333,4,2,1,70,0,0
21760,-83.3333333333333,4,2,1,5,0,0
21835,-100,4,2,1,70,0,0
23935,-83.3333333333333,4,2,1,70,0,0
24160,-83.3333333333333,4,2,1,5,0,0
24235,-100,4,2,1,70,0,0
26335,-83.3333333333333,4,2,1,70,0,0
26560,-83.3333333333333,4,2,1,5,0,0
26635,-100,4,2,1,70,0,0
28735,-83.3333333333333,4,2,1,70,0,0
28960,-83.3333333333333,4,2,1,5,0,0
29035,-100,4,2,1,70,0,0
30535,-166.666666666667,4,2,1,60,0,0
30985,-125,4,2,1,60,0,0
32935,-166.666666666667,4,2,1,60,0,0
33385,-125,4,2,1,60,0,0
35335,-166.666666666667,4,2,1,60,0,0
35785,-125,4,2,1,60,0,0
37735,-166.666666666667,4,2,1,60,0,0
38185,-125,4,2,1,60,0,0
40135,-111.111111111111,4,2,1,60,0,0
48385,-83.3333333333333,4,2,1,60,0,0
48610,-83.3333333333333,4,2,1,5,0,0
48685,-83.3333333333333,4,2,1,60,0,0
49735,-166.666666666667,4,2,1,60,0,0
50335,-100,4,2,1,60,0,0
51010,-100,4,2,1,5,0,0
51085,-100,4,2,1,60,0,0
52135,-166.666666666667,4,2,1,60,0,0
52735,-100,4,2,1,60,0,0
53035,-166.666666666667,4,2,1,60,0,0
53635,-100,4,2,1,60,0,0
54535,-166.666666666667,4,2,1,60,0,0
55135,-100,4,2,1,60,0,0
55435,-166.666666666667,4,2,1,60,0,0
55885,-100,4,2,1,60,0,0
58135,-166.666666666667,4,2,1,60,0,0
58360,-166.666666666667,4,2,1,5,0,0
58435,-100,4,2,1,60,0,0
59335,-100,4,2,1,60,0,0
64135,-200,4,2,1,50,0,0
66535,-100,4,2,1,65,0,0
67585,-83.3333333333333,4,2,1,65,0,0
67810,-83.3333333333333,4,2,1,5,0,0
67885,-83.3333333333333,4,2,1,65,0,0
67960,-83.3333333333333,4,2,1,5,0,0
68035,-83.3333333333333,4,2,1,65,0,0
68635,-166.666666666667,4,2,1,65,0,0
68860,-83.3333333333333,4,2,1,5,0,0
68935,-90.9090909090909,4,2,1,75,0,1
70360,-90.9090909090909,4,2,1,5,0,1
70435,-90.9090909090909,4,2,1,75,0,1
73735,-76.9230769230769,4,2,1,75,0,1
73960,-76.9230769230769,4,2,1,5,0,1
74035,-90.9090909090909,4,2,1,75,0,1
75235,-66.6666666666667,4,2,1,75,0,1
75460,-66.6666666666667,4,2,1,5,0,1
75535,-66.6666666666667,4,2,1,75,0,1
75610,-66.6666666666667,4,2,1,5,0,1
75685,-90.9090909090909,4,2,1,75,0,1
77335,-66.6666666666667,4,2,1,75,0,1
77410,-66.6666666666667,4,2,1,5,0,1
77485,-66.6666666666667,4,2,1,75,0,1
77560,-66.6666666666667,4,2,1,5,0,1
77635,-66.6666666666667,4,2,1,75,0,1
77710,-66.6666666666667,4,2,1,5,0,1
77785,-66.6666666666667,4,2,1,75,0,1
78010,-66.6666666666667,4,2,1,5,0,1
78085,-66.6666666666667,4,2,1,75,0,1
78235,-90.9090909090909,4,2,1,75,0,1
79810,-90.9090909090909,4,2,1,5,0,1
79885,-90.9090909090909,4,2,1,75,0,1
79960,-90.9090909090909,4,2,1,5,0,1
80035,-90.9090909090909,4,2,1,75,0,1
84760,-90.9090909090909,4,2,1,5,0,1
84835,-90.9090909090909,4,2,1,75,0,1
85735,-125,4,2,1,60,0,0
87235,-66.6666666666667,4,2,1,60,0,0
88135,-100,4,2,1,70,0,0
97735,-166.666666666667,4,2,1,50,0,0
98185,-125,4,2,1,50,0,0
102535,-166.666666666667,4,2,1,50,0,0
102985,-125,4,2,1,50,0,0
107335,-100,4,2,1,60,0,0
116635,-83.3333333333333,4,2,1,60,0,0
116935,-166.666666666667,4,2,1,60,0,0
117535,-100,4,2,1,60,0,0
117985,-125,4,2,1,60,0,0
118210,-125,4,2,1,5,0,0
118285,-100,4,2,1,60,0,0
119335,-166.666666666667,4,2,1,60,0,0
119935,-100,4,2,1,60,0,0
120385,-125,4,2,1,60,0,0
120610,-125,4,2,1,5,0,0
120685,-100,4,2,1,60,0,0
121735,-166.666666666667,4,2,1,60,0,0
122335,-100,4,2,1,60,0,0
122785,-125,4,2,1,60,0,0
123010,-125,4,2,1,5,0,0
123085,-100,4,2,1,60,0,0
125335,-166.666666666667,4,2,1,60,0,0
125560,-166.666666666667,4,2,1,5,0,0
125635,-100,4,2,1,60,0,0
131335,-200,4,2,1,50,0,0
133735,-100,4,2,1,65,0,0
134785,-83.3333333333333,4,2,1,65,0,0
135010,-83.3333333333333,4,2,1,5,0,0
135085,-83.3333333333333,4,2,1,65,0,0
135160,-83.3333333333333,4,2,1,5,0,0
135235,-83.3333333333333,4,2,1,65,0,0
135835,-166.666666666667,4,2,1,65,0,0
136060,-83.3333333333333,4,2,1,5,0,0
136135,-90.9090909090909,4,2,1,75,0,1
137560,-90.9090909090909,4,2,1,5,0,1
137635,-90.9090909090909,4,2,1,75,0,1
140935,-76.9230769230769,4,2,1,75,0,1
141160,-76.9230769230769,4,2,1,5,0,1
141235,-90.9090909090909,4,2,1,75,0,1
142435,-66.6666666666667,4,2,1,75,0,1
142660,-66.6666666666667,4,2,1,5,0,1
142735,-66.6666666666667,4,2,1,75,0,1
142810,-66.6666666666667,4,2,1,5,0,1
142885,-90.9090909090909,4,2,1,75,0,1
144535,-66.6666666666667,4,2,1,75,0,1
144610,-66.6666666666667,4,2,1,5,0,1
144685,-66.6666666666667,4,2,1,75,0,1
144760,-66.6666666666667,4,2,1,5,0,1
144835,-66.6666666666667,4,2,1,75,0,1
144910,-66.6666666666667,4,2,1,5,0,1
144985,-66.6666666666667,4,2,1,75,0,1
145210,-66.6666666666667,4,2,1,5,0,1
145285,-90.9090909090909,4,2,1,75,0,1
147010,-90.9090909090909,4,2,1,5,0,1
147085,-90.9090909090909,4,2,1,75,0,1
147160,-90.9090909090909,4,2,1,5,0,1
147235,-90.9090909090909,4,2,1,75,0,1
151960,-90.9090909090909,4,2,1,5,0,1
152035,-90.9090909090909,4,2,1,75,0,1
152935,-166.666666666667,4,2,3,50,0,0
157585,-100,4,2,3,50,0,0
157735,-166.666666666667,4,2,3,50,0,0
160135,-166.666666666667,4,2,1,50,0,0
161635,-66.6666666666667,4,2,1,50,0,0
162535,-90.9090909090909,4,2,3,70,0,1
162610,-90.9090909090909,4,2,1,70,0,0
162985,-76.9230769230769,4,2,1,70,0,0
163210,-76.9230769230769,4,2,1,5,0,0
163285,-90.9090909090909,4,2,1,70,0,0
164935,-90.9090909090909,4,2,3,70,0,0
165010,-90.9090909090909,4,2,1,70,0,0
165385,-76.9230769230769,4,2,1,70,0,0
165610,-76.9230769230769,4,2,1,5,0,0
165685,-90.9090909090909,4,2,1,70,0,0
166435,-76.9230769230769,4,2,1,70,0,0
166810,-90.9090909090909,4,2,1,5,0,0
166885,-90.9090909090909,4,2,1,70,0,0
167935,-71.4285714285714,4,2,1,70,0,0
168085,-71.4285714285714,4,2,1,35,0,0
168160,-71.4285714285714,4,2,1,70,0,0
168310,-71.4285714285714,4,2,1,5,0,0
168385,-71.4285714285714,4,2,1,70,0,0
168460,-71.4285714285714,4,2,1,5,0,0
168535,-90.9090909090909,4,2,1,70,0,0
168985,-76.9230769230769,4,2,1,70,0,0
169210,-76.9230769230769,4,2,1,5,0,0
169285,-90.9090909090909,4,2,1,70,0,0
170635,-76.9230769230769,4,2,1,70,0,0
170860,-76.9230769230769,4,2,1,5,0,0
170935,-76.9230769230769,4,2,1,70,0,0
171010,-76.9230769230769,4,2,1,5,0,0
171085,-76.9230769230769,4,2,1,70,0,0
171160,-76.9230769230769,4,2,1,5,0,0
171235,-100,4,2,1,70,0,0
172135,-166.666666666667,4,2,1,70,0,0
172735,-100,4,2,1,70,0,0
173110,-100,4,2,1,5,0,0
173185,-100,4,2,1,70,0,0
173635,-166.666666666667,4,2,1,70,0,0
175135,-100,4,2,1,70,0,0
175510,-100,4,2,1,5,0,0
175585,-100,4,2,1,70,0,0
192535,-166.666666666667,4,2,1,70,0,0
193735,-100,4,2,1,50,0,0
203335,-125,4,2,1,50,0,0
203485,-125,4,2,1,25,0,0
203635,-125,4,2,1,50,0,0
203785,-125,4,2,1,25,0,0
203935,-125,4,2,1,50,0,0
204085,-125,4,2,1,25,0,0
204235,-125,4,2,1,50,0,0
204385,-125,4,2,1,25,0,0
204535,-250,4,2,1,50,0,0
204835,-125,4,2,1,50,0,0
205885,-125,4,2,1,25,0,0
206035,-125,4,2,1,50,0,0
206185,-125,4,2,1,25,0,0
206335,-125,4,2,1,50,0,0
206485,-125,4,2,1,25,0,0
206635,-125,4,2,1,50,0,0
206785,-125,4,2,1,25,0,0
206935,-125,4,2,1,50,0,0
207685,-125,4,2,1,25,0,0
207835,-250,4,2,1,50,0,0
211735,-83.3333333333333,4,2,1,60,0,0
211885,-83.3333333333333,4,2,1,60,0,0
211960,-83.3333333333333,4,2,1,10,0,0
212035,-83.3333333333333,4,2,1,60,0,0
212110,-83.3333333333333,4,2,1,10,0,0
212185,-83.3333333333333,4,2,1,60,0,0
212560,-83.3333333333333,4,2,1,30,0,0
212635,-83.3333333333333,4,2,1,60,0,0
212860,-83.3333333333333,4,2,1,5,0,0
212935,-90.9090909090909,4,2,1,75,0,1
214810,-90.9090909090909,4,2,1,5,0,1
214885,-90.9090909090909,4,2,1,75,0,1
217735,-76.9230769230769,4,2,1,75,0,1
217960,-90.9090909090909,4,2,1,5,0,1
218035,-90.9090909090909,4,2,1,75,0,1
219535,-66.6666666666667,4,2,1,75,0,1
219610,-66.6666666666667,4,2,1,5,0,1
219685,-66.6666666666667,4,2,1,75,0,1
219760,-66.6666666666667,4,2,1,5,0,1
219835,-66.6666666666667,4,2,1,75,0,1
220060,-66.6666666666667,4,2,1,5,0,1
220135,-90.9090909090909,4,2,1,75,0,1
221335,-66.6666666666667,4,2,1,75,0,1
221410,-66.6666666666667,4,2,1,5,0,1
221485,-66.6666666666667,4,2,1,75,0,1
221560,-66.6666666666667,4,2,1,5,0,1
221635,-66.6666666666667,4,2,1,75,0,1
221710,-66.6666666666667,4,2,1,5,0,1
221785,-66.6666666666667,4,2,1,75,0,1
222010,-66.6666666666667,4,2,1,5,0,1
222085,-66.6666666666667,4,2,1,75,0,1
222235,-90.9090909090909,4,2,1,75,0,1
223810,-90.9090909090909,4,2,1,5,0,1
223885,-90.9090909090909,4,2,1,75,0,1
223960,-90.9090909090909,4,2,1,5,0,1
224035,-90.9090909090909,4,2,1,75,0,1
229735,-125,4,2,1,60,0,0
231235,-66.6666666666667,4,2,1,60,0,0
232135,-100,4,2,1,70,0,1
232210,-100,4,2,1,70,0,0
245260,-100,4,2,1,5,0,0
245335,-100,4,2,1,70,0,0
246460,-100,4,2,1,5,0,0
246535,-100,4,2,1,70,0,0
247585,-66.6666666666667,4,2,1,70,0,0
247810,-66.6666666666667,4,2,1,5,0,0
247885,-66.6666666666667,4,2,1,70,0,0
247960,-66.6666666666667,4,2,1,5,0,0
248035,-83.3333333333333,4,2,1,70,0,0
249760,-83.3333333333333,4,2,1,5,0,0
249835,-83.3333333333333,4,2,1,70,0,0
252160,-83.3333333333333,4,2,1,5,0,0
252235,-83.3333333333333,4,2,1,70,0,0
254560,-83.3333333333333,4,2,1,5,0,0
254635,-83.3333333333333,4,2,1,70,0,0
257185,-71.4285714285714,4,2,1,70,0,0
257410,-83.3333333333333,4,2,1,5,0,0
257485,-83.3333333333333,4,2,1,70,0,0

[Colours]
Combo1 : 89,89,89
Combo2 : 205,205,205

[HitObjects]
479,310,10885,6,0,L|435:319,1,45,2|0,0:3|0:0,0:0:0:0:
371,384,11035,2,0,P|339:341|357:285,1,108,2|0,0:0|0:0,0:0:0:0:
364,273,11335,6,0,B|309:246|254:283|284:296|231:351|167:315,1,216,12|0,0:0|0:0,0:0:0:0:
81,348,12385,1,10,0:0:0:0:
81,348,12535,2,0,P|147:281|117:159,1,216,10|2,0:0|0:0,0:0:0:0:
0,0,13735,6,0,P|66:77|178:61,1,216,10|0,0:0|0:0,0:0:0:0:
126,169,14785,1,10,0:0:0:0:
126,169,14935,2,0,P|194:90|297:103,1,216,10|2,0:0|0:0,0:0:0:0:
486,46,16135,6,0,L|491:99,1,53.9999983520508,12|0,0:0|0:0,0:0:0:0:
403,189,16435,2,0,L|397:135,1,53.9999983520508,10|0,0:0|0:0,0:0:0:0:
502,204,16735,2,0,L|507:257,1,53.9999983520508,10|0,0:0|0:0,0:0:0:0:
417,342,17035,2,0,L|411:288,1,53.9999983520508,10|0,0:0|0:0,0:0:0:0:
262,242,17335,5,10,0:0:0:0:
262,242,17485,2,0,L|315:248,1,53.9999983520508,2|8,0:0|0:0,0:0:0:0:
132,315,17785,1,2,0:0:0:0:
132,315,17935,2,0,L|79:309,1,53.9999983520508,10|0,0:0|0:0,0:0:0:0:
233,384,18235,2,0,L|228:331,1,53.9999983520508,10|0,0:0|0:0,0:0:0:0:
262,242,18535,5,12,0:0:0:0:
163,196,18685,1,2,3:2:0:0:
163,196,18760,1,0,3:0:0:0:
163,196,18835,2,0,L|168:234,3,26.9999991760254,10|0|0|0,3:2|3:0|3:0|3:0,0:0:0:0:
83,144,19135,5,10,3:2:0:0:
93,129,19210,1,0,3:0:0:0:
104,117,19285,1,0,3:0:0:0:
118,108,19360,1,0,3:0:0:0:
134,102,19435,1,10,3:2:0:0:
151,99,19510,1,0,3:0:0:0:
168,100,19585,1,0,3:0:0:0:
184,104,19660,1,0,3:0:0:0:
200,110,19735,5,10,3:2:0:0:
226,128,19810,1,0,3:0:0:0:
257,136,19885,1,2,3:2:0:0:
289,132,19960,1,0,3:0:0:0:
318,118,20035,1,10,3:2:0:0:
337,92,20110,1,0,3:0:0:0:
344,60,20185,1,2,3:2:0:0:
337,28,20260,1,0,3:0:0:0:
313,2,20335,6,0,B|346:27|394:33|394:33|422:0|469:5,1,161.999995056153,2|0,1:0|0:0,0:0:0:0:
315,248,20935,5,12,0:0:0:0:
471,106,21085,1,8,0:0:0:0:
424,277,21235,2,0,P|417:229|402:169,1,90,2|0,1:2|0:0,0:0:0:0:
143,187,21535,2,0,B|191:197|214:162|214:162|251:127|288:142,1,161.999995056153,2|0,1:2|0:0,0:0:0:0:
309,152,21835,1,8,0:0:0:0:
512,260,21985,6,0,P|467:266|423:276,1,90,2|0,1:2|0:0,0:0:0:0:
259,328,22285,2,0,B|279:310|286:290|286:290|276:246,1,90,2|8,1:2|0:0,0:0:0:0:
125,98,22585,2,0,P|137:148|144:205,1,90,2|0,1:2|0:0,0:0:0:0:
142,186,22885,1,8,0:0:0:0:
196,26,23035,1,2,1:2:0:0:
35,164,23185,1,8,0:0:0:0:
276,248,23335,5,12,0:0:0:0:
125,98,23485,1,8,0:0:0:0:
306,0,23635,2,0,P|295:43|288:88,1,90,2|0,1:2|0:0,0:0:0:0:
512,171,23935,2,0,B|463:134|463:134|416:136|366:157,1,161.999995056153,2|0,1:2|0:0,0:0:0:0:
345,168,24235,1,8,0:0:0:0:
187,235,24385,6,0,P|232:239|276:248,1,90,4|0,1:2|0:0,0:0:0:0:
502,310,24685,1,2,1:2:0:0:
345,168,24835,1,8,0:0:0:0:
384,355,24985,2,0,B|403:318|403:318|396:286|385:272,1,90,2|0,1:2|0:0,0:0:0:0:
240,149,25285,1,8,0:0:0:0:
362,79,25435,2,0,P|352:122|344:167,1,90,2|8,1:2|0:0,0:0:0:0:
258,44,25735,5,12,0:0:0:0:
439,0,25885,1,8,0:0:0:0:
240,149,26035,2,0,P|196:154|143:165,1,90,2|0,1:2|0:0,0:0:0:0:
204,384,26335,2,0,B|268:364|267:296|267:296|244:288|229:268,1,161.999995056153,2|0,1:2|0:0,0:0:0:0:
216,253,26635,1,8,0:0:0:0:
33,191,26785,6,0,P|41:146|53:103,1,90,2|0,1:2|0:0,0:0:0:0:
85,297,27085,2,0,B|57:322|57:322|25:325|-16:309,1,90,2|0,1:2|0:0,0:0:0:0:
151,163,27385,2,0,P|194:154|239:147,1,90,2|0,1:2|0:0,0:0:0:0:
239,147,27685,1,8,0:0:0:0:
52,103,27835,1,2,1:2:0:0:
298,0,27985,1,8,0:0:0:0:
151,163,28135,5,12,0:0:0:0:
407,249,28285,1,8,0:0:0:0:
252,102,28435,2,0,P|264:145|272:189,1,90,2|0,1:2|0:0,0:0:0:0:
510,207,28735,2,0,B|503:188|491:157|491:157|447:131|368:143,1,161.999995056153,2|0,1:2|0:0,0:0:0:0:
363,144,29035,1,8,0:0:0:0:
221,297,29185,6,0,P|265:288|309:282,1,90,4|0,1:2|0:0,0:0:0:0:
510,207,29485,1,2,1:2:0:0:
441,347,29635,2,0,B|430:341|413:316|413:316|420:268,1,90,2|8,1:2|0:0,0:0:0:0:
413,49,29935,5,2,1:2:0:0:
368,37,30010,1,0,1:0:0:0:
324,46,30085,1,8,0:0:0:0:
289,73,30160,1,8,0:0:0:0:
276,116,30235,1,2,1:2:0:0:
243,146,30310,1,0,1:0:0:0:
198,156,30385,1,2,1:2:0:0:
154,146,30460,1,0,1:0:0:0:
125,111,30535,6,0,P|132:56|143:4,1,107.999996704102,12|0,0:0|0:0,0:0:0:0:
0,222,30985,2,0,B|50:177|110:211|110:211|136:267|190:254,1,216,10|2,0:0|0:0,0:0:0:0:
186,254,31585,6,0,P|146:264|102:281,1,72,8|2,0:0|0:0,0:0:0:0:
329,384,31885,2,0,P|278:337|290:269,1,144,8|0,0:0|0:0,0:0:0:0:
492,221,32335,1,10,0:0:0:0:
492,221,32485,1,8,0:0:0:0:
399,177,32635,2,0,P|390:219|388:255,1,72,0|0,1:0|0:0,0:0:0:0:
512,67,32935,6,0,P|459:78|406:87,1,107.999996704102,10|2,0:0|0:0,0:0:0:0:
272,201,33385,2,0,B|315:177|324:135|301:100|301:100|258:86|245:56|255:14,1,216,10|0,0:0|0:0,0:0:0:0:
252,27,33985,6,0,P|294:19|339:9,1,72,10|0,0:0|0:0,0:0:0:0:
185,142,34285,1,8,0:0:0:0:
185,142,34735,5,10,0:0:0:0:
185,142,34885,1,8,0:0:0:0:
108,15,35035,2,0,P|100:50|96:85,1,72,2|0,1:2|0:0,0:0:0:0:
171,249,35335,6,0,P|177:195|185:142,1,107.999996704102,10|2,0:0|0:0,0:0:0:0:
376,256,35785,2,0,B|329:224|277:270|277:270|276:311|248:349|195:347,1,216,10|0,0:0|0:0,0:0:0:0:
214,345,36385,6,0,P|179:339|128:336,1,72,10|0,0:0|0:0,0:0:0:0:
0,384,36685,2,0,P|44:325|20:257,1,144,8|0,0:0|0:0,0:0:0:0:
185,141,37135,1,10,0:0:0:0:
185,141,37285,1,8,0:0:0:0:
90,102,37435,2,0,P|81:138|77:185,1,72,2|0,1:2|0:0,0:0:0:0:
0,21,37735,6,0,P|43:16|114:2,1,107.999996704102,10|2,0:0|0:0,0:0:0:0:
185,141,38185,2,0,B|233:153|265:136|284:97|284:97|327:56|377:85,1,216,10|2,0:0|0:0,0:0:0:0:
372,82,38785,6,0,P|375:42|383:5,1,72,10|0,0:0|0:0,0:0:0:0:
512,149,39085,2,0,P|454:189|385:178,1,144,8|0,0:0|0:0,0:0:0:0:
224,281,39535,1,10,0:0:0:0:
224,281,39685,1,10,0:0:0:0:
317,330,39835,2,0,P|323:293|327:246,1,72,2|0,1:2|0:0,0:0:0:0:
85,322,40135,6,0,P|145:271|223:280,1,161.999995056153,12|0,0:0|1:0,0:0:0:0:
384,177,40585,1,2,3:2:0:0:
384,177,40660,1,2,3:2:0:0:
384,177,40735,1,10,3:2:0:0:
284,107,40885,2,0,P|275:150|268:198,1,80.9999975280763,8|2,0:0|0:0,0:0:0:0:
422,310,41185,6,0,P|435:233|383:176,1,161.999995056153,2|8,1:2|0:0,0:0:0:0:
204,120,41635,2,0,P|244:113|284:107,1,80.9999975280763,2|0,1:2|0:0,0:0:0:0:
502,63,41935,1,10,0:0:0:0:
502,63,42085,1,8,0:0:0:0:
406,0,42235,2,0,P|396:39|390:79,1,80.9999975280763,2|0,1:2|3:0,0:0:0:0:
363,94,42460,1,2,3:2:0:0:
363,94,42535,6,0,P|326:99|277:108,1,80.9999975280763,10|0,3:2|0:0,0:0:0:0:
65,77,42835,2,0,P|126:28|203:44,1,161.999995056153,2|8,1:2|0:0,0:0:0:0:
272,202,43285,1,10,0:0:0:0:
272,202,43585,6,0,P|263:254|260:305,1,80.9999975280763,2|0,1:2|0:0,0:0:0:0:
58,313,43885,1,8,0:0:0:0:
150,371,44035,2,0,P|156:331|161:290,1,80.9999975280763,2|0,1:2|0:0,0:0:0:0:
176,198,44335,1,10,0:0:0:0:
176,198,44485,1,8,0:0:0:0:
340,267,44635,2,0,P|299:272|260:281,1,80.9999975280763,2|0,1:2|0:0,0:0:0:0:
80,149,44935,6,0,P|158:158|220:105,1,161.999995056153,10|0,0:0|1:0,0:0:0:0:
342,0,45385,1,2,3:2:0:0:
342,0,45460,1,2,3:2:0:0:
342,0,45535,1,10,3:2:0:0:
218,108,45685,2,0,L|233:28,1,80.9999975280763,10|0,0:0|0:0,0:0:0:0:
462,94,45985,6,0,P|383:84|322:138,1,161.999995056153,2|8,1:2|0:0,0:0:0:0:
268,287,46435,2,0,P|308:276|359:269,1,80.9999975280763,2|0,1:2|0:0,0:0:0:0:
416,190,46735,1,10,0:0:0:0:
416,190,46885,1,8,0:0:0:0:
491,332,47035,2,0,P|451:337|402:350,1,80.9999975280763,2|0,1:2|3:0,0:0:0:0:
376,338,47260,1,2,3:2:0:0:
376,338,47335,6,0,P|348:306|350:259,1,80.9999975280763,10|0,3:2|0:0,0:0:0:0:
462,94,47635,1,2,1:2:0:0:
462,94,47935,1,8,0:0:0:0:
309,32,48085,2,0,P|355:20|393:16,1,80.9999975280763,8|2,0:0|0:0,0:0:0:0:
308,207,48385,6,0,B|272:176|213:193|213:193|194:232|131:227,1,161.999995056153,2|0,1:2|0:0,0:0:0:0:
137,225,48685,1,8,0:0:0:0:
254,291,48835,1,2,1:2:0:0:
366,128,48985,1,10,0:0:0:0:
150,328,49135,5,2,1:2:0:0:
150,328,49210,1,2,3:2:0:0:
150,328,49285,2,0,L|140:381,1,53.9999983520508,10|0,0:0|0:0,0:0:0:0:
41,281,49435,1,2,1:2:0:0:
17,245,49510,1,0,1:0:0:0:
17,201,49585,1,0,1:0:0:0:
41,165,49660,1,0,1:0:0:0:
78,146,49735,6,0,P|69:89|47:28,1,107.999996704102,12|8,0:0|0:0,0:0:0:0:
253,81,50185,1,10,0:0:0:0:
182,157,50335,2,0,P|186:201|198:244,1,90,0|0,1:0|0:0,0:0:0:0:
409,236,50635,5,12,0:0:0:0:
340,384,50785,2,0,P|293:338|305:274,1,135,8|0,0:0|0:0,0:0:0:0:
322,259,51085,2,0,P|369:244|427:234,1,90,2|2,1:2|0:0,0:0:0:0:
512,86,51385,5,8,0:0:0:0:
315,164,51535,1,2,1:2:0:0:
512,86,51685,1,8,0:0:0:0:
409,236,51835,2,0,P|410:197|423:148,1,90,2|0,3:2|3:0,0:0:0:0:
418,114,52060,1,2,3:2:0:0:
418,114,52135,6,0,P|391:70|324:58,1,107.999996704102,10|8,3:2|0:0,0:0:0:0:
230,29,52585,1,10,0:0:0:0:
118,153,52735,2,0,P|161:140|205:134,1,90,0|0,1:0|0:0,0:0:0:0:
301,261,53035,6,0,P|326:214|314:163,1,107.999996704102,12|0,0:0|0:0,0:0:0:0:
100,334,53485,1,0,1:0:0:0:
196,273,53635,2,0,P|201:317|206:362,1,90,2|8,3:2|0:0,0:0:0:0:
301,261,53935,5,2,1:2:0:0:
100,334,54085,1,8,0:0:0:0:
301,361,54235,2,0,P|345:353|390:350,1,90,2|0,3:2|3:0,0:0:0:0:
428,365,54460,1,2,3:2:0:0:
428,365,54535,6,0,P|468:323|455:255,1,107.999996704102,12|8,3:2|0:0,0:0:0:0:
385,207,54985,1,10,0:0:0:0:
512,128,55135,2,0,P|470:121|421:113,1,90,0|0,1:0|0:0,0:0:0:0:
223,49,55435,6,0,P|171:48|131:85,1,107.999996704102,12|0,0:0|0:0,0:0:0:0:
314,126,55885,2,0,P|319:81|330:38,1,90,0|2,1:0|0:0,0:0:0:0:
214,161,56185,1,8,0:0:0:0:
385,207,56335,2,0,P|417:238|410:324,1,120,2|10,1:2|0:0,0:0:0:0:
360,374,56635,5,10,0:0:0:0:
319,337,56735,5,10,0:0:0:0:
328,283,56835,5,10,0:0:0:0:
418,309,56935,6,0,P|330:298|238:294,1,180,12|0,0:0|0:0,0:0:0:0:
54,384,57385,2,0,P|33:344|38:300,1,90,2|0,1:2|0:0,0:0:0:0:
138,172,57685,1,2,3:2:0:0:
138,172,57760,1,2,3:2:0:0:
138,172,57835,2,0,P|142:222|144:286,1,90,10|0,3:2|0:0,0:0:0:0:
0,107,58135,6,0,P|52:95|92:81,1,80.9999975280763,0|0,1:0|0:0,0:0:0:0:
105,66,58435,2,0,P|176:63|219:108,1,120,10|0,0:0|0:0,0:0:0:0:
238,175,58735,5,4,1:2:0:0:
318,199,58835,1,2,1:2:0:0:
390,155,58935,1,2,1:2:0:0:
394,71,59035,5,10,0:0:0:0:
374,152,59135,1,10,0:0:0:0:
405,229,59235,1,10,0:0:0:0:
482,260,59335,5,12,0:0:0:0:
296,292,59635,5,2,1:2:0:0:
490,158,59785,1,8,0:0:0:0:
226,223,59935,5,2,1:2:0:0:
394,330,60085,1,8,0:0:0:0:
189,357,60235,5,2,1:2:0:0:
405,229,60385,1,8,0:0:0:0:
141,150,60535,5,4,1:2:0:0:
141,150,60835,5,2,1:2:0:0:
53,0,60985,1,8,0:0:0:0:
27,207,61135,5,2,1:2:0:0:
157,43,61285,1,8,0:0:0:0:
123,269,61435,5,2,1:2:0:0:
39,106,61585,1,8,0:0:0:0:
10,328,61735,5,4,1:2:0:0:
10,328,62035,5,2,1:2:0:0:
272,225,62185,1,8,0:0:0:0:
39,106,62335,5,2,1:2:0:0:
218,308,62485,1,8,0:0:0:0:
231,8,62635,5,2,1:2:0:0:
123,269,62785,1,2,3:2:0:0:
123,269,62860,1,2,3:2:0:0:
123,269,62935,2,0,P|182:212|285:236,1,180,12|0,3:2|1:0,0:0:0:0:
483,302,63385,1,8,0:0:0:0:
409,384,63535,5,2,1:2:0:0:
372,359,63610,1,0,1:0:0:0:
357,316,63685,1,8,0:0:0:0:
365,271,63760,1,8,0:0:0:0:
396,238,63835,1,2,1:2:0:0:
396,193,63910,1,0,1:0:0:0:
373,154,63985,1,0,1:0:0:0:
333,135,64060,1,0,1:0:0:0:
287,143,64135,6,0,P|218:93|231:8,1,180,10|0,0:0|0:0,0:0:0:0:
231,8,65035,2,0,L|141:19,1,90,2|2,0:0|0:0,0:0:0:0:
433,64,65635,5,2,3:2:0:0:
139,189,65935,5,2,3:2:0:0:
507,338,66235,5,2,3:2:0:0:
248,320,66535,5,4,1:2:0:0:
484,209,66685,1,10,0:0:0:0:
226,129,66835,1,2,1:2:0:0:
371,361,66985,6,0,L|355:272,1,90,10|0,0:0|0:0,0:0:0:0:
226,129,67285,2,0,L|242:217,1,90,10|0,0:0|0:0,0:0:0:0:
484,209,67585,6,0,B|415:200|415:200|394:175|394:175|335:169,1,161.999995056153,2|0,1:2|0:0,0:0:0:0:
242,217,67885,2,0,L|252:270,1,53.9999983520508,2|0,1:2|0:0,0:0:0:0:
313,75,68035,1,2,1:2:0:0:
252,270,68635,6,2,P|211:275|156:287,1,80.9999975280763,2|0,0:0|0:0,0:0:0:0:
115,351,68935,6,0,P|85:312|87:263,1,99.0000030212403,12|0,0:0|0:0,0:0:0:0:
162,74,69235,1,2,1:2:0:0:
23,179,69385,2,0,P|71:173|120:164,1,99.0000030212403,10|0,0:0|0:0,0:0:0:0:
327,222,69685,2,0,P|349:178|342:131,1,99.0000030212403,10|0,0:0|1:0,0:0:0:0:
217,0,69985,1,2,3:2:0:0:
217,0,70060,1,2,3:2:0:0:
217,0,70135,6,0,B|193:50|193:50|214:92|230:140,1,148.50000453186,10|0,3:2|0:0,0:0:0:0:
239,159,70435,1,0,1:0:0:0:
416,274,70585,2,0,P|464:279|506:255,1,99.0000030212403,8|2,0:0|0:0,0:0:0:0:
327,222,70885,1,8,0:0:0:0:
221,371,71035,2,0,P|226:324|241:266,1,99.0000030212403,2|0,1:2|0:0,0:0:0:0:
438,182,71335,5,10,0:0:0:0:
325,332,71485,1,8,0:0:0:0:
161,165,71635,1,0,1:0:0:0:
327,222,71785,2,0,B|218:212|262:290|143:277,1,198.000006042481,10|8,0:0|0:0,0:0:0:0:
27,305,72235,2,0,P|33:255|46:208,1,99.0000030212403,0|0,1:0|3:0,0:0:0:0:
46,207,72460,1,2,3:2:0:0:
46,207,72535,5,10,3:2:0:0:
287,132,72685,1,10,0:0:0:0:
97,8,72835,1,2,1:2:0:0:
160,164,72985,2,0,P|172:116|186:69,1,99.0000030212403,8|2,0:0|0:0,0:0:0:0:
55,215,73285,1,8,0:0:0:0:
286,131,73435,2,0,P|335:134|377:160,1,99.0000030212403,2|0,1:2|0:0,0:0:0:0:
381,376,73735,6,0,B|328:366|328:366|280:321|294:252,1,175.499991966248,12|0,0:0|0:0,0:0:0:0:
303,232,74035,1,2,1:2:0:0:
502,241,74185,2,0,P|459:249|384:272,1,99.0000030212403,10|0,0:0|0:0,0:0:0:0:
512,54,74485,1,10,0:0:0:0:
377,160,74635,2,0,P|385:111|398:64,1,99.0000030212403,0|0,1:0|3:0,0:0:0:0:
398,63,74860,1,2,3:2:0:0:
398,63,74935,5,10,3:2:0:0:
303,232,75085,1,8,0:0:0:0:
122,142,75235,2,0,B|141:84|207:79|207:79|241:123|307:106,1,202.500007724762,2|0,1:2|0:0,0:0:0:0:
297,92,75535,2,0,P|301:59|314:15,1,67.5000025749208,10|0,0:0|0:0,0:0:0:0:
502,145,75685,1,10,0:0:0:0:
303,232,75835,2,0,P|291:282|285:329,1,99.0000030212403,2|0,1:2|3:2,0:0:0:0:
285,329,76060,1,2,3:2:0:0:
285,329,76135,5,12,3:2:0:0:
204,191,76285,1,10,0:0:0:0:
397,287,76435,1,0,1:0:0:0:
185,365,76585,2,0,B|147:379|109:372|109:372|83:340|83:340|54:321|1:329,1,198.000006042481,10|8,0:0|0:0,0:0:0:0:
204,191,77035,1,2,1:2:0:0:
24,43,77185,1,2,3:2:0:0:
24,43,77260,1,2,3:2:0:0:
24,43,77335,6,0,L|34:110,1,67.5000025749208,10|0,3:2|0:0,0:0:0:0:
204,191,77485,2,0,L|193:125,1,67.5000025749208,10|0,0:0|0:0,0:0:0:0:
346,0,77635,2,0,L|356:67,1,67.5000025749208,2|0,1:2|0:0,0:0:0:0:
124,252,77785,2,0,B|231:270|203:171|305:189,1,202.500007724762,10|0,0:0|0:0,0:0:0:0:
331,198,78085,1,8,0:0:0:0:
476,373,78235,5,2,1:2:0:0:
435,353,78310,1,0,1:0:0:0:
418,311,78385,1,0,1:0:0:0:
425,267,78460,1,0,1:0:0:0:
454,233,78535,2,0,P|443:193|429:114,1,99.0000030212403,12|0,0:0|0:0,0:0:0:0:
57,150,78835,2,0,P|70:198|80:247,1,99.0000030212403,2|0,1:2|0:0,0:0:0:0:
296,53,79135,2,0,P|247:62|199:75,1,99.0000030212403,10|0,0:0|0:0,0:0:0:0:
216,330,79435,2,0,P|264:321|312:308,1,99.0000030212403,2|0,1:2|3:0,0:0:0:0:
312,308,79660,1,2,3:2:0:0:
312,308,79735,6,0,L|320:251,1,49.5000015106202,10|0,3:2|0:0,0:0:0:0:
199,74,79885,2,0,L|191:131,1,49.5000015106202,10|0,3:2|0:0,0:0:0:0:
431,136,80035,1,2,1:2:0:0:
431,136,80335,6,0,P|384:143|334:156,1,99.0000030212403,10|0,0:0|0:0,0:0:0:0:
81,248,80635,2,0,P|128:241|177:227,1,99.0000030212403,2|0,1:2|0:0,0:0:0:0:
454,233,80935,6,0,P|444:281|438:330,1,99.0000030212403,10|0,0:0|0:0,0:0:0:0:
58,151,81235,2,0,P|67:102|73:53,1,99.0000030212403,2|0,1:2|0:0,0:0:0:0:
201,355,81535,2,0,P|151:360|103:374,1,99.0000030212403,10|0,0:0|0:0,0:0:0:0:
311,29,81835,2,0,P|360:23|409:10,1,99.0000030212403,2|0,1:2|3:0,0:0:0:0:
443,0,82060,1,2,3:2:0:0:
443,0,82135,6,0,P|470:33|468:89,1,99.0000030212403,12|0,3:2|0:0,0:0:0:0:
69,384,82435,2,0,P|42:351|44:295,1,99.0000030212403,2|0,1:2|0:0,0:0:0:0:
420,187,82735,2,0,P|371:194|322:204,1,99.0000030212403,10|0,0:0|0:0,0:0:0:0:
92,197,83035,2,0,P|140:189|189:179,1,99.0000030212403,2|0,1:2|3:0,0:0:0:0:
221,159,83260,1,2,3:2:0:0:
221,159,83335,6,0,P|249:115|237:61,1,99.0000030212403,12|0,3:2|0:0,0:0:0:0:
142,320,83635,2,0,B|177:301|214:314|214:314|250:279|250:279|278:307|316:304,1,198.000006042481,2|2,1:2|0:0,0:0:0:0:
512,297,84085,1,8,0:0:0:0:
322,203,84235,1,2,1:2:0:0:
389,384,84385,1,2,3:2:0:0:
389,384,84460,1,2,3:2:0:0:
389,384,84535,6,0,P|429:324|412:254,1,148.50000453186,10|0,3:2|0:0,0:0:0:0:
412,254,84835,2,0,P|419:205|431:157,1,99.0000030212403,2|0,1:2|0:0,0:0:0:0:
261,35,85135,1,2,1:2:0:0:
471,58,85285,5,8,0:0:0:0:
423,47,85360,1,8,0:0:0:0:
377,62,85435,1,2,1:2:0:0:
343,98,85510,1,0,1:0:0:0:
309,135,85585,1,0,1:0:0:0:
263,148,85660,1,0,1:0:0:0:
216,134,85735,1,10,0:0:0:0:
190,19,85885,5,2,0:0:0:0:
190,19,86035,2,0,P|233:28|264:36,1,72,2|0,0:0|0:0,0:0:0:0:
430,157,86335,5,2,0:0:0:0:
430,157,86485,2,0,P|473:166|504:174,1,72,2|0,0:0|0:0,0:0:0:0:
224,260,86785,5,2,0:0:0:0:
224,260,86935,2,0,P|267:269|298:277,1,72,2|0,0:0|0:0,0:0:0:0:
484,364,87235,6,0,B|434:363|390:333|399:277|399:277|391:271|391:271|370:273|370:273|328:263|313:217|334:187,1,270.000010299683,6|8,1:2|0:0,0:0:0:0:
328,196,87610,1,8,0:0:0:0:
328,196,87685,2,0,B|356:161|347:128|317:110|317:110|316:84|316:84|302:68|302:68|251:79|217:39|228:-2,1,270.000010299683,14|0,0:0|0:0,0:0:0:0:
222,162,88135,6,0,P|185:154|134:146,1,90,12|0,0:0|0:0,0:0:0:0:
254,264,88435,1,0,1:0:0:0:
6,313,88585,2,0,P|67:245|153:259,1,180,10|8,0:0|0:0,0:0:0:0:
263,384,89035,2,0,P|253:344|247:294,1,90,2|0,1:2|3:0,0:0:0:0:
254,264,89260,1,2,3:2:0:0:
254,264,89335,5,10,3:2:0:0:
454,137,89485,1,8,0:0:0:0:
346,316,89635,1,0,1:0:0:0:
512,224,89785,2,0,B|485:234|460:246|460:246|408:227|334:206,1,180,10|8,0:0|0:0,0:0:0:0:
440,48,90235,2,0,P|448:100|456:154,1,90,2|0,1:2|0:0,0:0:0:0:
216,0,90535,5,10,0:0:0:0:
345,106,90685,1,10,0:0:0:0:
149,231,90835,1,0,1:0:0:0:
345,106,90985,2,0,P|338:56|328:-5,1,90,10|0,0:0|0:0,0:0:0:0:
182,117,91285,1,8,0:0:0:0:
342,208,91435,2,0,P|304:203|231:195,1,90,2|0,1:2|3:0,0:0:0:0:
252,197,91660,1,2,3:2:0:0:
252,197,91735,5,10,3:2:0:0:
32,259,91885,1,10,0:0:0:0:
234,311,92035,1,2,1:2:0:0:
64,148,92185,1,10,0:0:0:0:
116,345,92335,1,2,1:2:0:0:
182,117,92485,1,10,0:0:0:0:
149,231,92635,5,2,1:2:0:0:
149,231,92935,1,10,0:0:0:0:
308,94,93085,1,10,0:0:0:0:
96,26,93235,1,0,1:0:0:0:
182,117,93385,2,0,B|281:138|252:55|350:77,1,180,10|8,0:0|0:0,0:0:0:0:
458,48,93835,2,0,P|450:95|444:145,1,90,2|0,1:2|0:0,0:0:0:0:
493,352,94135,5,10,0:0:0:0:
336,182,94285,1,10,0:0:0:0:
493,352,94435,1,0,1:0:0:0:
313,286,94585,2,0,P|367:277|410:274,1,90,10|0,0:0|0:0,0:0:0:0:
336,182,94885,1,8,0:0:0:0:
201,319,95035,2,0,P|206:278|215:225,1,90,2|0,1:2|3:0,0:0:0:0:
214,229,95260,1,2,3:2:0:0:
214,229,95335,5,10,3:2:0:0:
62,113,95485,2,0,P|69:68|74:23,1,90,10|0,0:0|1:0,0:0:0:0:
0,216,95785,2,0,P|63:156|150:164,1,180,10|8,0:0|0:0,0:0:0:0:
273,53,96235,2,0,P|228:61|184:67,1,90,2|0,1:2|0:0,0:0:0:0:
375,0,96535,5,10,0:0:0:0:
375,0,96685,1,10,0:0:0:0:
288,153,96835,2,0,P|336:143|398:138,1,90,0|8,1:0|0:0,0:0:0:0:
510,325,97135,5,0,1:0:0:0:
458,340,97235,1,0,1:0:0:0:
406,323,97335,1,8,0:3:0:0:
382,274,97435,5,4,0:3:0:0:
336,244,97535,1,4,0:3:0:0:
282,245,97635,1,4,0:3:0:0:
242,278,97735,6,0,P|231:333|226:388,1,107.999996704102,12|0,0:0|0:0,0:0:0:0:
0,248,98185,2,0,B|75:258|97:205|97:205|129:176|167:178|197:201,1,216,10|2,0:0|0:0,0:0:0:0:
189,195,98785,6,0,P|193:147|200:108,1,72,10|2,0:0|0:0,0:0:0:0:
405,123,99085,2,0,P|360:172|284:167,1,144,8|2,0:0|0:0,0:0:0:0:
241,38,99535,1,10,0:0:0:0:
241,38,99685,1,8,0:0:0:0:
127,144,99835,2,0,P|161:131|196:123,1,72,2|0,1:2|0:0,0:0:0:0:
323,85,100135,5,10,0:0:0:0:
323,85,100585,1,10,0:0:0:0:
323,85,101185,6,0,P|328:54|340:7,1,72,10|0,0:0|0:0,0:0:0:0:
449,0,101485,1,8,0:0:0:0:
380,242,101935,5,10,0:0:0:0:
380,242,102085,1,8,0:0:0:0:
441,162,102235,2,0,P|480:155|513:152,1,72,2|0,1:2|0:0,0:0:0:0:
380,242,102535,6,0,P|332:249|271:254,1,107.999996704102,10|2,0:0|0:0,0:0:0:0:
138,357,102985,2,0,B|176:337|193:292|172:253|172:253|136:234|122:198|139:163,1,216,10|0,0:0|0:0,0:0:0:0:
134,175,103585,6,0,P|98:177|62:180,1,72,10|0,0:0|0:0,0:0:0:0:
239,164,103885,2,0,P|277:106|256:40,1,144,10|0,0:0|0:0,0:0:0:0:
61,36,104335,1,10,0:0:0:0:
61,36,104485,1,8,0:0:0:0:
165,3,104635,2,0,P|157:46|154:87,1,72,2|0,1:2|0:0,0:0:0:0:
239,164,104935,5,10,0:0:0:0:
239,164,105385,1,10,0:0:0:0:
239,163,105985,6,0,P|274:157|310:153,1,72,10|0,0:0|0:0,0:0:0:0:
385,78,106285,1,8,0:0:0:0:
385,78,106735,5,10,0:0:0:0:
385,78,106885,1,8,0:0:0:0:
320,224,107035,2,0,P|314:191|309:151,1,72,2|0,1:2|0:0,0:0:0:0:
498,291,107335,6,0,B|462:256|404:279|404:279|384:325|329:321,1,180,12|8,0:0|0:0,0:0:0:0:
138,384,107785,2,0,B|202:380|232:326|232:326|236:386|290:391,1,180,10|8,0:0|0:0,0:0:0:0:
193,112,108235,1,2,1:2:0:0:
135,284,108385,1,8,0:0:0:0:
135,284,108685,6,0,L|42:277,1,90,10|0,0:0|0:0,0:0:0:0:
320,224,108985,2,0,L|230:216,1,90,10|0,0:0|0:0,0:0:0:0:
45,277,109285,1,8,0:0:0:0:
193,112,109435,1,2,1:2:0:0:
193,112,109735,6,0,B|235:86|296:63|296:63|302:102|344:113,1,180,10|8,0:0|0:0,0:0:0:0:
512,0,110185,2,0,B|472:-4|438:26|432:66|432:66|458:101|431:148,1,180,10|8,0:0|0:0,0:0:0:0:
297,281,110635,1,2,1:2:0:0:
479,223,110785,1,8,0:0:0:0:
479,223,111085,6,0,L|382:212,1,90,10|0,0:0|0:0,0:0:0:0:
207,270,111385,2,0,L|296:280,1,90,10|0,0:0|0:0,0:0:0:0:
479,223,111685,1,8,0:0:0:0:
336,110,111835,1,2,1:2:0:0:
336,110,112135,6,0,P|235:111|305:14,1,270,12|8,0:0|0:0,0:0:0:0:
201,105,112735,2,0,B|97:115|134:41|27:61,1,180,2|8,1:2|0:0,0:0:0:0:
33,59,113185,6,0,P|44:104|54:161,1,90,10|0,0:0|0:0,0:0:0:0:
263,214,113485,1,0,1:0:0:0:
173,286,113635,2,0,P|162:242|154:198,1,90,10|0,0:0|0:0,0:0:0:0:
455,313,113935,1,0,1:0:0:0:
364,384,114085,2,0,P|354:341|346:297,1,90,10|0,0:0|0:0,0:0:0:0:
448,119,114385,1,2,3:2:0:0:
448,119,114460,1,2,3:2:0:0:
448,119,114535,5,12,3:2:0:0:
499,212,114685,2,0,P|406:216|344:153,1,180,10|8,0:0|0:0,0:0:0:0:
350,55,115135,1,0,1:0:0:0:
350,55,115435,1,10,0:0:0:0:
257,169,115585,6,0,L|350:158,1,90,12|0,0:0|0:0,0:0:0:0:
247,281,115885,1,8,0:0:0:0:
247,281,115960,1,8,0:0:0:0:
247,281,116035,1,10,0:0:0:0:
448,119,116185,2,0,P|455:75|469:12,1,90,10|0,0:0|1:0,0:0:0:0:
346,158,116485,5,2,3:2:0:0:
346,158,116560,1,2,3:2:0:0:
346,158,116635,2,0,L|331:235,1,53.9999983520508,2|0,1:2|3:0,0:0:0:0:
428,307,116785,2,0,L|438:253,1,53.9999983520508,2|0,1:2|3:0,0:0:0:0:
246,280,116935,6,0,P|194:284|152:251,1,107.999996704102,12|8,0:0|0:0,0:0:0:0:
139,90,117385,1,10,0:0:0:0:
0,200,117535,2,0,P|42:186|86:177,1,90,0|0,1:0|0:0,0:0:0:0:
237,116,117835,5,12,0:0:0:0:
162,0,117985,2,0,P|127:39|138:90,1,108,8|0,0:0|0:0,0:0:0:0:
137,89,118285,1,2,1:2:0:0:
222,204,118435,6,0,P|228:159|236:115,1,90,2|0,0:0|0:0,0:0:0:0:
420,51,118735,2,0,B|463:44|463:44|469:36|469:36|505:30,1,90,2|0,1:2|0:0,0:0:0:0:
328,168,119035,2,0,B|370:160|370:160|376:152|376:152|412:146,1,90,2|0,3:2|3:0,0:0:0:0:
450,167,119260,1,2,3:2:0:0:
450,167,119335,6,0,P|456:223|422:261,1,107.999996704102,10|8,3:2|0:0,0:0:0:0:
199,306,119785,1,10,0:0:0:0:
303,365,119935,2,0,P|309:320|319:276,1,90,0|0,1:0|0:0,0:0:0:0:
222,204,120235,5,12,0:0:0:0:
113,348,120385,2,0,P|146:307|199:306,1,108,10|0,0:0|0:0,0:0:0:0:
198,305,120685,1,0,1:0:0:0:
133,140,120835,2,0,P|87:133|30:124,1,90,10|0,3:2|0:0,0:0:0:0:
222,204,121135,5,2,1:2:0:0:
105,41,121285,1,8,0:0:0:0:
222,204,121435,2,0,P|229:154|239:112,1,90,2|0,3:2|3:0,0:0:0:0:
267,91,121660,1,2,3:2:0:0:
267,91,121735,6,0,P|233:51|248:-6,1,107.999996704102,12|8,3:2|0:0,0:0:0:0:
328,174,122185,1,10,0:0:0:0:
512,112,122335,2,0,P|467:118|423:127,1,90,0|0,1:0|0:0,0:0:0:0:
267,91,122635,5,12,0:0:0:0:
303,268,122785,2,0,P|334:225|327:173,1,108,10|0,0:0|0:0,0:0:0:0:
327,173,123085,1,0,1:0:0:0:
194,285,123235,2,0,P|201:329|207:373,1,90,2|8,0:0|0:0,0:0:0:0:
0,259,123535,5,2,1:2:0:0:
17,242,123635,2,0,P|46:248|76:252,1,60,10|10,0:2|0:0,0:0:0:0:
218,173,123835,5,10,0:0:0:0:
201,190,123934,2,0,P|171:185|141:179,1,60,10|10,0:0|0:0,0:0:0:0:
47,138,124135,6,0,P|137:142|195:77,1,180,12|0,0:0|0:0,0:0:0:0:
318,14,124585,2,0,P|307:57|298:101,1,90,2|0,1:2|0:0,0:0:0:0:
442,146,124885,1,2,3:2:0:0:
442,146,124960,1,2,3:2:0:0:
442,146,125035,2,0,P|442:94|410:66,1,90,10|0,3:2|0:0,0:0:0:0:
250,213,125335,6,0,P|293:204|340:200,1,80.9999975280763,0|0,1:0|0:0,0:0:0:0:
361,211,125635,2,0,P|395:251|379:319,1,120,10|0,0:0|0:0,0:0:0:0:
317,366,125935,5,4,1:2:0:0:
261,302,126035,1,2,1:2:0:0:
179,281,126135,1,2,1:2:0:0:
103,317,126235,5,10,0:0:0:0:
169,265,126335,1,10,0:0:0:0:
181,181,126435,1,10,0:0:0:0:
137,109,126535,5,12,0:0:0:0:
260,77,126835,5,2,1:2:0:0:
75,207,126985,1,8,0:0:0:0:
320,179,127135,5,2,1:2:0:0:
137,109,127285,1,8,0:0:0:0:
377,46,127435,5,2,1:2:0:0:
181,181,127585,1,8,0:0:0:0:
435,252,127735,5,4,1:2:0:0:
435,252,128035,5,2,1:2:0:0:
489,87,128185,1,8,0:0:0:0:
338,311,128335,5,2,1:2:0:0:
392,146,128485,1,8,0:0:0:0:
236,368,128635,5,2,1:2:0:0:
290,203,128785,1,8,0:0:0:0:
91,32,128935,5,4,1:2:0:0:
91,32,129235,5,2,1:2:0:0:
296,98,129385,1,8,0:0:0:0:
92,217,129535,5,2,1:2:0:0:
236,9,129685,1,8,0:0:0:0:
338,311,129835,5,2,1:2:0:0:
149,134,129985,1,2,3:2:0:0:
149,134,130060,1,2,3:2:0:0:
149,134,130135,2,0,P|46:125|0:176,1,180,12|0,3:2|1:0,0:0:0:0:
211,49,130585,1,8,0:0:0:0:
92,217,130735,5,2,1:2:0:0:
127,244,130810,1,0,1:0:0:0:
171,247,130885,1,8,0:0:0:0:
212,229,130960,1,8,0:0:0:0:
234,190,131035,1,2,1:2:0:0:
268,161,131110,1,0,1:0:0:0:
312,155,131185,1,0,1:0:0:0:
355,165,131260,1,0,1:0:0:0:
388,197,131335,6,0,P|474:183|511:105,2,180,10|0|2,0:0|0:0|0:0,0:0:0:0:
388,197,132835,5,2,3:2:0:0:
215,41,133135,5,2,3:2:0:0:
66,372,133435,5,2,3:2:0:0:
116,108,133735,5,4,1:2:0:0:
173,323,133885,1,10,0:0:0:0:
287,158,134035,1,2,1:2:0:0:
0,288,134185,6,0,L|91:278,1,90,10|0,0:0|0:0,0:0:0:0:
376,149,134485,2,0,L|286:158,1,90,10|0,0:0|0:0,0:0:0:0:
173,323,134785,6,0,B|188:259|188:259|174:236|174:236|189:168,1,161.999995056153,2|0,1:2|0:0,0:0:0:0:
286,157,135085,2,0,L|271:229,1,53.9999983520508,2|0,1:2|0:0,0:0:0:0:
89,278,135235,1,2,1:2:0:0:
270,46,135835,6,2,P|309:55|349:62,1,80.9999975280763,2|0,0:0|0:0,0:0:0:0:
428,30,136135,6,0,P|459:66|458:115,1,99.0000030212403,12|0,0:0|0:0,0:0:0:0:
337,301,136435,1,2,1:2:0:0:
491,228,136585,2,0,P|442:217|393:210,1,99.0000030212403,10|0,0:0|0:0,0:0:0:0:
184,244,136885,1,10,0:0:0:0:
434,334,137035,1,0,1:0:0:0:
308,155,137185,1,2,3:2:0:0:
308,155,137260,1,2,3:2:0:0:
308,155,137335,6,0,B|275:197|275:197|291:259|322:299,1,148.50000453186,10|0,3:2|0:0,0:0:0:0:
337,301,137635,1,0,1:0:0:0:
69,384,137785,2,0,P|67:335|93:294,1,99.0000030212403,8|2,0:0|0:0,0:0:0:0:
184,244,138085,1,8,0:0:0:0:
12,152,138235,2,0,P|60:161|109:169,1,99.0000030212403,2|0,1:2|0:0,0:0:0:0:
255,145,138535,5,10,0:0:0:0:
55,50,138685,1,8,0:0:0:0:
257,0,138835,1,0,1:0:0:0:
184,244,138985,2,0,P|133:171|170:69,1,198.000006042481,10|8,0:0|0:0,0:0:0:0:
368,36,139435,2,0,P|359:79|354:137,1,99.0000030212403,0|0,1:0|3:0,0:0:0:0:
470,19,139735,5,10,3:2:0:0:
255,145,139885,1,10,0:0:0:0:
255,145,139960,1,2,3:2:0:0:
255,145,140035,1,2,1:2:0:0:
413,319,140185,2,0,P|421:275|427:218,1,99.0000030212403,8|2,0:0|0:0,0:0:0:0:
512,381,140485,1,8,0:0:0:0:
313,240,140635,2,0,P|264:243|222:269,1,99.0000030212403,2|0,1:2|0:0,0:0:0:0:
21,384,140935,6,0,B|74:374|74:374|122:329|108:260,1,175.499991966248,12|0,0:0|0:0,0:0:0:0:
103,238,141235,1,2,1:2:0:0:
169,77,141385,2,0,P|178:125|192:173,1,99.0000030212403,10|0,0:0|0:0,0:0:0:0:
62,46,141685,1,10,0:0:0:0:
286,109,141835,2,0,P|343:95|403:86,1,99.0000030212403,0|0,1:0|3:0,0:0:0:0:
382,88,142060,1,2,3:2:0:0:
382,88,142135,5,10,3:2:0:0:
253,0,142285,1,8,0:0:0:0:
498,83,142435,2,0,B|503:125|490:166|452:184|452:184|441:238|498:277,1,202.500007724762,2|0,1:2|0:0,0:0:0:0:
492,280,142735,2,0,P|480:320|476:358,1,67.5000025749208,10|0,0:0|0:0,0:0:0:0:
288,220,142885,1,10,0:0:0:0:
340,384,143035,2,0,P|350:335|366:288,1,99.0000030212403,2|0,1:2|3:2,0:0:0:0:
365,288,143260,1,2,3:2:0:0:
365,288,143335,5,12,3:2:0:0:
235,384,143485,1,10,0:0:0:0:
476,345,143635,1,0,1:0:0:0:
288,220,143785,2,0,B|240:212|211:231|211:231|185:263|185:263|147:270|109:256,1,198.000006042481,10|8,0:0|0:0,0:0:0:0:
147,25,144235,1,2,1:2:0:0:
0,151,144385,1,2,3:2:0:0:
0,151,144460,1,2,3:2:0:0:
0,151,144535,6,0,L|74:135,1,67.5000025749208,10|0,3:2|0:0,0:0:0:0:
212,10,144685,2,0,L|146:24,1,67.5000025749208,10|0,0:0|0:0,0:0:0:0:
109,256,144835,2,0,L|174:241,1,67.5000025749208,2|0,1:2|0:0,0:0:0:0:
324,0,144985,2,0,B|327:107|249:67|267:194,1,202.500007724762,10|0,0:0|0:0,0:0:0:0:
275,210,145285,1,8,0:0:0:0:
477,383,145435,5,2,1:2:0:0:
509,350,145510,1,0,1:0:0:0:
512,305,145585,1,0,1:0:0:0:
493,264,145660,1,0,1:0:0:0:
455,239,145735,2,0,P|406:249|357:255,1,99.0000030212403,12|0,0:0|0:0,0:0:0:0:
57,145,146035,2,0,P|105:134|154:128,1,99.0000030212403,2|0,1:2|0:0,0:0:0:0:
139,353,146335,2,0,P|134:303|125:255,1,99.0000030212403,10|0,0:0|0:0,0:0:0:0:
373,31,146635,2,0,P|377:80|386:128,1,99.0000030212403,2|0,1:2|3:0,0:0:0:0:
386,128,146860,1,2,3:2:0:0:
386,128,146935,6,0,L|336:123,1,49.5000015106202,10|0,3:2|0:0,0:0:0:0:
125,255,147085,2,0,L|174:259,1,49.5000015106202,10|0,3:2|0:0,0:0:0:0:
256,192,147235,1,2,1:2:0:0:
285,281,147535,6,0,P|283:232|255:191,1,99.0000030212403,10|0,0:0|0:0,0:0:0:0:
226,102,147835,2,0,P|227:150|255:191,1,99.0000030212403,2|0,1:2|0:0,0:0:0:0:
174,259,148135,6,0,P|125:247|76:242,1,99.0000030212403,10|0,0:2|0:0,0:0:0:0:
336,122,148436,2,0,P|384:133|434:139,1,99.0000030212403,2|0,1:2|0:0,0:0:0:0:
117,13,148735,2,0,P|112:63|98:111,1,99.0000030212403,10|0,0:0|0:0,0:0:0:0:
395,371,149035,2,0,P|400:321|414:273,1,99.0000030212403,2|0,1:2|3:0,0:0:0:0:
423,245,149260,1,2,3:2:0:0:
423,245,149335,6,0,P|471:243|512:215,1,99.0000030212403,12|0,3:2|0:0,0:0:0:0:
89,139,149635,2,0,P|40:140|0:168,1,99.0000030212403,2|0,1:2|0:0,0:0:0:0:
336,122,149935,2,0,P|342:73|352:24,1,99.0000030212403,10|0,0:0|0:0,0:0:0:0:
176,262,150235,2,0,P|169:310|159:359,1,99.0000030212403,2|0,1:2|3:0,0:0:0:0:
196,377,150460,1,2,3:2:0:0:
196,377,150535,6,0,P|253:375|289:341,1,99.0000030212403,12|0,3:2|0:0,0:0:0:0:
457,282,150835,2,0,B|418:280|391:249|391:249|355:264|355:264|325:235|275:243,1,198.000006042481,2|2,1:2|0:0,0:0:0:0:
121,42,151285,1,8,0:0:0:0:
296,144,151435,1,2,1:2:0:0:
176,262,151585,1,2,3:2:0:0:
176,262,151660,1,2,3:2:0:0:
176,262,151735,6,0,P|182:199|201:102,1,148.50000453186,10|0,3:2|0:0,0:0:0:0:
197,115,152035,2,0,P|158:144|109:148,1,99.0000030212403,2|0,1:2|0:0,0:0:0:0:
277,242,152335,1,2,1:2:0:0:
54,281,152485,5,8,0:0:0:0:
52,297,152560,1,8,0:0:0:0:
50,313,152635,1,2,1:2:0:0:
48,330,152710,1,0,1:0:0:0:
46,346,152785,1,0,1:0:0:0:
44,362,152860,1,0,1:0:0:0:
42,379,152935,2,0,P|102:367|166:362,1,107.999996704102,2|2,3:2|0:0,0:0:0:0:
293,384,153535,5,0,3:0:0:0:
298,363,153685,1,0,0:0:0:0:
389,346,153985,5,0,3:0:0:0:
452,285,154285,5,0,3:0:0:0:
449,263,154435,1,0,0:0:0:0:
494,187,154735,5,0,3:0:0:0:
473,178,154885,1,0,0:0:0:0:
426,104,155185,5,0,3:0:0:0:
408,117,155335,1,0,3:0:0:0:
324,93,155635,5,0,0:0:0:0:
243,127,155935,5,0,3:0:0:0:
210,46,156085,1,0,0:0:0:0:
290,14,156235,1,0,0:0:0:0:
324,93,156385,1,0,3:0:0:0:
210,211,156685,5,0,3:0:0:0:
191,200,156835,1,0,0:0:0:0:
102,209,157135,5,0,3:0:0:0:
102,187,157285,1,0,0:0:0:0:
47,120,157435,5,2,0:0:0:0:
66,109,157585,2,0,L|21:99,1,45,2|0,3:2|0:0,0:0:0:0:
17,12,157735,6,0,L|122:33,1,107.999996704102,4|0,3:2|0:0,0:0:0:0:
259,0,158335,5,0,3:0:0:0:
269,19,158485,1,0,0:0:0:0:
364,61,158785,5,0,3:0:0:0:
352,79,158935,1,0,0:0:0:0:
368,181,159085,5,0,3:0:0:0:
346,180,159235,1,0,0:0:0:0:
264,244,159535,5,0,3:0:0:0:
253,224,159685,1,0,0:0:0:0:
155,207,159985,5,0,3:0:0:0:
352,79,160135,1,12,0:0:0:0:
56,2,160435,5,0,1:0:0:0:
258,142,160735,5,8,0:0:0:0:
56,271,160885,1,0,1:0:0:0:
130,105,161185,5,8,0:0:0:0:
190,324,161335,1,0,1:0:0:0:
190,324,161410,1,8,0:0:0:0:
190,324,161485,1,8,0:0:0:0:
29,189,161635,6,0,B|76:175|107:185|132:217|132:217|164:211|164:211|179:235|179:235|238:222|224:265|284:253,1,270.000010299683,2|8,1:0|0:0,0:0:0:0:
267,255,162010,1,8,0:0:0:0:
267,255,162085,2,0,B|284:227|319:218|354:235|354:235|380:222|380:222|403:241|403:241|445:254|487:235|504:207,1,270.000010299683,2|8,1:0|0:0,0:0:0:0:
364,32,162535,6,0,P|352:80|345:129,1,99.0000030212403,6|8,3:1|0:0,0:0:0:0:
472,1,162835,1,0,1:0:0:0:
239,146,162985,2,0,B|192:159|158:134|158:134|138:90|82:99,1,175.499991966248,8|0,0:0|0:0,0:0:0:0:
58,109,163285,1,8,0:0:0:0:
267,255,163435,2,0,P|315:244|364:240,1,99.0000030212403,2|0,1:0|0:0,0:0:0:0:
194,343,163735,5,10,0:0:0:0:
158,326,163810,1,0,3:0:0:0:
139,291,163885,1,2,3:1:0:0:
138,251,163960,1,0,3:0:0:0:
154,214,164035,1,2,1:0:0:0:
185,190,164110,1,0,3:0:0:0:
197,152,164185,1,2,3:1:0:0:
190,112,164260,1,0,3:0:0:0:
164,81,164335,5,10,0:0:0:0:
178,33,164410,1,0,3:0:0:0:
220,7,164485,1,2,3:1:0:0:
269,5,164560,1,0,3:0:0:0:
313,27,164635,1,2,1:0:0:0:
307,76,164710,1,0,3:0:0:0:
328,120,164785,1,2,3:1:0:0:
372,142,164860,1,0,3:0:0:0:
419,130,164935,6,0,P|469:135|516:145,1,99.0000030212403,6|8,3:1|0:0,0:0:0:0:
241,231,165235,1,0,1:0:0:0:
365,384,165385,2,0,B|326:352|329:309|329:309|368:273|355:215,1,175.499991966248,8|0,0:0|0:0,0:0:0:0:
348,206,165685,1,8,0:0:0:0:
230,384,165835,2,0,P|181:373|131:365,1,99.0000030212403,2|0,1:0|0:0,0:0:0:0:
76,121,166135,5,10,0:0:0:0:
240,230,166285,1,8,0:0:0:0:
23,384,166435,2,0,L|35:325,1,58.4999973220826,2|0,1:0|0:0,0:0:0:0:
240,230,166585,2,0,B|218:263|153:259|153:259|131:219|58:222,1,175.499991966248,10|0,0:0|0:0,0:0:0:0:
61,224,166885,1,8,0:0:0:0:
203,48,167035,2,0,P|190:107|184:156,1,99.0000030212403,2|0,1:2|0:0,0:0:0:0:
98,0,167335,5,12,0:0:0:0:
316,122,167485,1,8,0:0:0:0:
316,122,167560,1,8,0:0:0:0:
316,122,167635,1,2,1:0:0:0:
86,222,167785,1,8,0:0:0:0:
310,353,167935,2,0,P|317:290|327:228,1,125.999996154785,2|0,1:0|0:0,0:0:0:0:
420,162,168160,1,2,1:0:0:0:
420,162,168235,2,0,P|459:155|499:153,1,62.9999980773926,4|0,3:3|0:0,0:0:0:0:
326,60,168385,2,0,P|319:87|315:126,1,62.9999980773926,2|0,1:0|0:0,0:0:0:0:
326,228,168535,6,0,P|291:224|210:214,1,99.0000030212403,10|8,0:0|0:0,0:0:0:0:
194,236,168760,1,8,0:0:0:0:
194,236,168835,1,2,1:0:0:0:
0,158,168985,2,0,B|23:116|48:104|92:105|92:105|117:131|151:123,1,175.499991966248,10|0,0:0|0:0,0:0:0:0:
172,116,169285,1,8,0:0:0:0:
113,311,169435,2,0,P|86:271|85:222,1,99.0000030212403,2|0,1:0|0:0,0:0:0:0:
158,14,169735,5,2,1:0:0:0:
207,12,169810,1,0,3:0:0:0:
248,39,169885,1,0,3:0:0:0:
270,82,169960,1,0,3:0:0:0:
270,131,170035,1,2,1:0:0:0:
311,173,170110,1,0,3:0:0:0:
370,178,170185,1,2,3:1:0:0:
423,152,170260,1,0,3:0:0:0:
439,94,170335,6,0,P|423:47|417:-1,1,99.0000030212403,6|8,1:0|0:0,0:0:0:0:
512,236,170635,2,0,B|476:222|438:242|438:242|428:265|428:265|399:285|357:281,1,175.499991966248,2|0,1:0|0:0,0:0:0:0:
326,293,170935,6,0,P|316:337|314:377,1,58.4999973220826,10|0,0:0|0:0,0:0:0:0:
161,172,171085,2,0,P|167:143|171:114,1,58.4999973220826,10|0,0:0|0:0,0:0:0:0:
25,359,171235,1,2,1:0:0:0:
181,285,171385,5,8,0:0:0:0:
181,285,171460,1,8,0:0:0:0:
181,285,171535,2,0,P|146:275|109:277,2,60,2|8|8,1:2|0:0|0:0,0:0:0:0:
272,214,171835,5,2,1:2:0:0:
308,131,171935,1,8,0:0:0:0:
254,58,172035,1,8,0:0:0:0:
159,61,172135,6,0,P|165:87|169:113,1,53.9999983520508,12|0,0:0|0:0,0:0:0:0:
442,124,172435,2,0,P|435:98|430:72,1,53.9999983520508,2|0,3:2|0:0,0:0:0:0:
272,214,172735,1,0,1:0:0:0:
370,336,172885,2,0,P|404:280|384:218,1,135,10|0,0:0|0:0,0:0:0:0:
360,199,173185,2,0,P|324:208|256:214,1,90,10|0,0:0|0:0,0:0:0:0:
30,282,173485,5,0,1:0:0:0:
30,282,173560,1,8,0:0:0:0:
30,282,173635,2,0,P|58:284|88:293,1,53.9999983520508,10|0,0:0|0:0,0:0:0:0:
267,304,173935,1,2,1:2:0:0:
102,195,174085,1,8,0:0:0:0:
183,384,174235,2,0,P|178:357|171:331,1,53.9999983520508,2|8,0:0|0:0,0:0:0:0:
271,213,174535,5,10,0:0:0:0:
271,213,174835,5,10,0:0:0:0:
271,213,175135,5,2,1:2:0:0:
467,159,175285,2,0,P|402:167|351:125,1,135,10|0,0:0|0:0,0:0:0:0:
339,105,175585,2,0,P|346:70|355:10,1,90,10|0,0:0|0:0,0:0:0:0:
171,224,175885,1,0,1:0:0:0:
171,224,175960,1,8,0:0:0:0:
171,224,176035,2,0,P|159:275|156:320,1,90,10|0,0:0|0:0,0:0:0:0:
120,116,176335,5,0,1:0:0:0:
158,104,176410,1,0,1:0:0:0:
198,108,176485,1,12,0:3:0:0:
232,128,176560,1,12,0:3:0:0:
253,162,176635,1,8,0:0:0:0:
274,196,176710,1,8,0:0:0:0:
311,211,176785,1,8,0:0:0:0:
351,211,176860,1,8,0:0:0:0:
387,192,176935,6,0,P|429:181|480:175,1,90,4|0,1:2|0:0,0:0:0:0:
339,105,177235,1,10,0:0:0:0:
512,303,177385,2,0,B|484:290|460:275|460:275|399:277|355:326,1,180,4|0,1:2|0:0,0:0:0:0:
123,308,177835,1,8,0:0:0:0:
123,308,177910,1,8,0:0:0:0:
123,308,177985,6,0,P|227:300|270:238,1,180,4|8,1:2|0:0,0:0:0:0:
323,16,178435,2,0,P|328:60|338:104,1,90,4|0,1:2|0:0,0:0:0:0:
165,213,178735,1,10,0:0:0:0:
427,160,178885,2,0,P|343:145|238:136,1,180,4|0,1:2|0:0,0:0:0:0:
12,5,179335,6,0,B|51:29|51:75|51:75|32:130|65:165,1,180,4|0,1:2|0:0,0:0:0:0:
147,301,179785,2,0,P|153:256|164:212,1,90,4|0,1:2|0:0,0:0:0:0:
336,119,180085,1,8,0:0:0:0:
336,119,180160,1,8,0:0:0:0:
336,119,180235,2,0,P|289:125|244:137,1,90,2|0,1:2|0:0,0:0:0:0:
30,261,180535,5,4,1:2:0:0:
156,77,180685,1,10,0:0:0:0:
233,365,180835,1,10,0:0:0:0:
72,158,180985,1,2,1:2:0:0:
72,158,181285,5,12,0:3:0:0:
110,171,181360,1,12,0:3:0:0:
134,203,181435,1,10,0:0:0:0:
140,242,181510,1,8,0:0:0:0:
128,280,181585,2,0,P|119:309|116:330,1,45,8|0,0:0|0:0,0:0:0:0:
233,365,181735,6,0,B|293:372|324:324|324:324|380:313|412:353,1,180,12|0,0:0|1:0,0:0:0:0:
243,267,182185,1,2,3:2:0:0:
243,267,182260,1,2,3:2:0:0:
243,267,182335,1,10,3:2:0:0:
491,384,182485,1,8,0:0:0:0:
491,384,182785,6,0,P|432:342|435:232,1,180,0|8,1:0|0:0,0:0:0:0:
348,109,183235,2,0,P|336:152|328:196,1,90,2|0,1:2|0:0,0:0:0:0:
240,89,183535,1,10,0:0:0:0:
418,32,183685,1,8,0:0:0:0:
224,190,183835,2,0,P|190:193|128:203,1,90,2|0,1:2|3:0,0:0:0:0:
102,218,184060,1,2,3:2:0:0:
102,218,184135,6,0,B|144:176|121:130|121:130|66:113|70:54,1,180,10|0,3:2|1:0,0:0:0:0:
4,192,184585,1,2,3:2:0:0:
4,192,184660,1,2,3:2:0:0:
4,192,184735,1,10,3:2:0:0:
171,22,184885,1,8,0:0:0:0:
171,22,185185,6,0,P|271:20|323:73,1,180,2|8,1:2|0:0,0:0:0:0:
401,226,185635,2,0,P|406:185|416:137,1,90,2|0,1:2|0:0,0:0:0:0:
307,283,185935,1,10,0:0:0:0:
512,207,186085,1,8,0:0:0:0:
298,176,186235,2,0,P|258:183|209:196,1,90,2|0,1:2|3:0,0:0:0:0:
190,227,186460,1,2,3:2:0:0:
190,227,186535,6,0,P|179:270|171:319,1,90,14|0,3:2|0:0,0:0:0:0:
7,108,186835,2,0,P|61:99|98:89,1,90,2|0,1:2|0:0,0:0:0:0:
307,283,187135,1,10,0:0:0:0:
85,197,187285,1,8,0:0:0:0:
85,197,187585,6,0,P|168:202|230:129,1,180,2|8,1:2|0:0,0:0:0:0:
353,10,188035,2,0,P|344:54|338:98,1,90,2|0,1:2|0:0,0:0:0:0:
307,283,188335,1,10,0:0:0:0:
228,134,188485,1,8,0:0:0:0:
466,187,188635,2,0,P|421:193|377:201,1,90,2|0,1:2|3:0,0:0:0:0:
377,201,188860,1,2,3:2:0:0:
377,201,188935,5,10,3:2:0:0:
201,270,189085,1,8,0:0:0:0:
288,371,189235,2,0,P|295:326|306:282,1,90,0|0,1:0|3:0,0:0:0:0:
306,281,189460,1,2,3:2:0:0:
306,281,189535,1,10,3:2:0:0:
172,384,189685,1,8,0:0:0:0:
172,384,189985,6,0,B|114:337|60:340|60:340|39:366|1:372,1,180,2|8,1:2|0:0,0:0:0:0:
215,181,190435,2,0,P|206:225|200:269,1,90,2|0,1:2|0:0,0:0:0:0:
125,119,190735,1,8,0:0:0:0:
19,240,190885,1,8,0:0:0:0:
19,240,190960,1,8,0:0:0:0:
19,240,191035,2,0,P|67:229|130:224,1,90,2|0,1:2|0:0,0:0:0:0:
319,133,191335,6,0,P|338:90|328:43,1,90,12|0,0:0|0:0,0:0:0:0:
215,181,191635,2,0,P|205:243|200:312,1,120,0|0,1:0|0:0,0:0:0:0:
286,345,191935,5,0,1:0:0:0:
307,356,192035,2,0,P|348:348|389:345,1,60,0|8,1:0|0:0,0:0:0:0:
512,277,192235,5,0,1:0:0:0:
491,266,192335,2,0,P|449:273|408:276,1,60,0|8,1:0|0:0,0:0:0:0:
336,249,192535,5,0,1:0:0:0:
304,173,192635,1,12,0:3:0:0:
340,99,192735,1,12,0:3:0:0:
417,73,192835,5,8,0:0:0:0:
428,94,192935,1,8,0:0:0:0:
425,117,193035,1,8,0:0:0:0:
416,139,193135,6,0,B|363:171|303:133|326:118|271:72|206:116,1,215.999993408203,0|4,1:0|0:1,0:0:0:0:
26,355,203335,6,0,L|36:283,1,72,12|0,0:0|0:0,0:0:0:0:
147,198,203635,2,0,L|136:269,1,72,10|0,0:0|0:0,0:0:0:0:
229,343,203935,2,0,L|239:271,1,72,10|0,0:0|0:0,0:0:0:0:
350,186,204235,2,0,L|339:257,1,72,10|0,0:0|0:0,0:0:0:0:
430,346,204535,6,0,L|440:274,1,72,10|8,0:0|0:0,0:0:0:0:
511,205,205135,5,10,0:0:0:0:
496,105,205435,1,10,0:0:0:0:
399,74,205735,6,0,L|326:85,1,72,10|0,0:0|0:0,0:0:0:0:
212,184,206035,2,0,L|283:173,1,72,10|0,0:0|0:0,0:0:0:0:
258,21,206335,2,0,L|185:32,1,72,10|0,0:0|0:0,0:0:0:0:
71,131,206635,2,0,L|142:120,1,72,10|0,0:0|0:0,0:0:0:0:
283,173,206935,5,10,0:0:0:0:
156,279,207235,1,10,0:0:0:0:
297,332,207460,5,2,0:0:0:0:
297,332,207535,2,0,L|368:321,1,72,10|0,0:0|0:0,0:0:0:0:
456,363,207835,6,2,P|469:330|463:292,1,72,10|0,0:0|0:0,0:0:0:0:
464,294,211735,5,2,3:2:0:0:
464,294,211810,1,2,3:2:0:0:
464,294,211885,2,0,L|471:227,1,53.9999983520508,10|0,3:2|0:0,0:0:0:0:
367,188,212035,2,0,L|372:134,1,53.9999983520508,10|0,3:2|0:0,0:0:0:0:
484,47,212185,1,2,1:2:0:0:
484,47,212485,6,0,L|478:100,1,53.9999983520508,0|0,1:0|0:0,0:0:0:0:
367,188,212635,2,2,P|310:146|218:163,1,161.999995056153,10|0,0:0|0:1,0:1:0:0:
163,224,212935,6,0,P|135:183|137:134,1,99.0000030212403,12|0,0:0|0:0,0:0:0:0:
281,256,213235,1,2,1:2:0:0:
120,367,213385,2,0,P|168:358|217:352,1,99.0000030212403,10|0,0:0|0:0,0:0:0:0:
466,384,213685,1,10,0:0:0:0:
281,256,213835,1,0,1:0:0:0:
357,384,213985,1,2,3:2:0:0:
357,384,214060,1,2,3:2:0:0:
357,384,214135,6,0,P|373:335|381:282,1,99.0000030212403,10|0,3:2|0:0,0:0:0:0:
324,83,214435,1,0,1:0:0:0:
512,182,214585,2,0,B|473:155|473:155|432:162|365:181,1,148.50000453186,8|0,0:0|0:0,0:0:0:0:
351,186,214885,1,8,0:0:0:0:
134,44,215035,2,0,P|184:36|235:24,1,99.0000030212403,2|0,1:2|0:0,0:0:0:0:
324,83,215335,5,10,0:0:0:0:
136,201,215485,1,8,0:0:0:0:
380,288,215635,1,0,1:0:0:0:
228,134,215785,2,0,P|249:220|267:336,1,198.000006042481,10|8,0:0|0:0,0:0:0:0:
467,322,216235,2,0,P|425:291|362:293,1,99.0000030212403,0|0,1:0|3:0,0:0:0:0:
162,354,216535,5,10,3:2:0:0:
351,186,216685,1,10,0:0:0:0:
351,186,216760,1,2,3:2:0:0:
351,186,216835,1,2,1:2:0:0:
277,366,216985,2,0,P|264:317|260:269,1,99.0000030212403,8|2,0:0|0:0,0:0:0:0:
59,285,217285,1,8,0:0:0:0:
137,110,217435,2,0,P|149:158|153:206,1,99.0000030212403,2|0,1:2|0:0,0:0:0:0:
36,64,217735,5,12,0:0:0:0:
260,146,217885,1,8,0:0:0:0:
59,285,218035,1,2,1:2:0:0:
251,30,218185,5,2,3:2:0:0:
251,30,218260,1,2,3:2:0:0:
251,30,218335,1,10,3:2:0:0:
42,177,218485,1,10,0:0:0:0:
310,286,218635,1,0,1:0:0:0:
137,110,218785,5,2,3:2:0:0:
137,110,218860,1,2,3:2:0:0:
137,110,218935,2,0,P|127:63|121:0,1,99.0000030212403,10|8,3:2|0:0,0:0:0:0:
260,146,219235,1,2,1:2:0:0:
426,71,219385,5,2,3:2:0:0:
426,71,219460,1,2,3:2:0:0:
426,71,219535,2,0,L|341:58,1,67.5000025749208,10|0,0:0|0:0,0:0:0:0:
161,225,219685,2,0,L|94:214,1,67.5000025749208,10|0,0:0|0:0,0:0:0:0:
260,146,219835,2,0,B|299:155|315:158|315:158|361:206|351:256|288:306,1,202.500007724762,2|2,1:2|3:2,0:0:0:0:
292,305,220135,5,12,3:2:0:0:
137,110,220285,1,10,0:0:0:0:
446,200,220435,1,0,1:0:0:0:
206,381,220585,2,0,P|302:332|392:358,1,198.000006042481,10|8,0:0|0:0,0:0:0:0:
197,238,221035,1,2,1:2:0:0:
322,149,221185,1,2,3:2:0:0:
322,149,221260,1,2,3:2:0:0:
322,149,221335,6,0,L|310:225,1,67.5000025749208,10|0,3:2|0:0,0:0:0:0:
137,110,221485,2,0,L|147:43,1,67.5000025749208,10|0,0:0|0:0,0:0:0:0:
445,30,221635,2,0,L|433:106,1,67.5000025749208,2|0,1:2|0:0,0:0:0:0:
197,238,221785,2,0,B|169:213|121:213|121:213|108:232|92:244|92:244|39:244|17:224,1,202.500007724762,10|0,0:0|0:0,0:0:0:0:
0,204,222085,1,8,0:0:0:0:
264,347,222235,5,2,1:2:0:0:
306,334,222310,1,0,1:0:0:0:
333,298,222385,1,0,1:0:0:0:
335,253,222460,1,0,1:0:0:0:
311,215,222535,2,0,P|316:169|328:117,1,99.0000030212403,12|0,0:0|0:0,0:0:0:0:
201,169,222835,2,0,P|195:214|184:267,1,99.0000030212403,2|0,1:2|0:0,0:0:0:0:
108,63,223135,2,0,P|157:59|206:50,1,99.0000030212403,10|0,0:0|0:0,0:0:0:0:
403,320,223435,2,0,P|354:324|306:334,1,99.0000030212403,2|0,1:2|3:0,0:0:0:0:
306,334,223660,1,2,3:2:0:0:
306,334,223735,6,0,L|315:285,1,49.5000015106202,10|0,3:2|0:0,0:0:0:0:
206,50,223885,2,0,L|196:98,1,49.5000015106202,10|0,3:2|0:0,0:0:0:0:
449,121,224035,1,2,1:2:0:0:
449,121,224335,6,0,P|456:79|474:9,1,99.0000030212403,10|0,0:0|0:0,0:0:0:0:
63,263,224635,2,0,P|56:305|38:375,1,99.0000030212403,2|0,1:2|0:0,0:0:0:0:
333,199,224935,5,4,1:2:0:0:
179,185,225085,1,8,0:0:0:0:
350,99,225235,5,2,1:2:0:0:
162,285,225385,1,8,0:0:0:0:
429,219,225535,6,0,P|381:204|332:198,1,99.0000030212403,4|8,1:2|0:0,0:0:0:0:
83,165,225835,1,2,1:2:0:0:
246,22,225985,5,10,3:2:0:0:
246,22,226060,1,10,3:2:0:0:
246,22,226135,2,0,P|232:74|226:119,1,99.0000030212403,12|8,3:2|0:0,0:0:0:0:
429,219,226435,1,2,1:2:0:0:
266,362,226585,5,10,3:2:0:0:
266,362,226660,1,10,3:2:0:0:
266,362,226735,2,0,P|280:310|286:265,1,99.0000030212403,12|8,3:2|0:0,0:0:0:0:
350,99,227035,1,2,1:2:0:0:
162,285,227185,5,2,3:2:0:0:
162,285,227260,1,2,3:2:0:0:
162,285,227335,2,0,P|115:290|50:301,1,99.0000030212403,12|0,3:2|0:0,0:0:0:0:
89,169,227635,2,0,P|184:176|249:106,1,198.000006042481,2|2,1:2|0:0,0:0:0:0:
458,160,228085,1,8,0:0:0:0:
372,9,228235,2,0,P|362:62|356:122,1,99.0000030212403,2|2,1:2|3:2,0:0:0:0:
357,106,228460,1,2,3:2:0:0:
357,106,228535,5,10,3:2:0:0:
132,30,228685,1,8,0:0:0:0:
195,249,228835,2,0,P|200:199|210:151,1,99.0000030212403,2|0,1:2|0:0,0:0:0:0:
420,263,229135,5,2,1:2:0:0:
382,240,229210,1,0,1:0:0:0:
337,240,229285,1,8,0:0:0:0:
299,265,229360,1,8,0:0:0:0:
287,309,229435,1,2,1:2:0:0:
261,346,229510,1,0,1:0:0:0:
221,365,229585,1,0,1:0:0:0:
176,361,229660,1,0,1:0:0:0:
137,339,229735,1,10,0:0:0:0:
125,232,229885,5,2,0:0:0:0:
125,232,230035,2,0,P|165:241|199:250,1,72,2|0,0:0|0:0,0:0:0:0:
379,345,230335,5,2,0:0:0:0:
379,345,230485,2,0,P|419:354|453:363,1,72,2|0,0:0|0:0,0:0:0:0:
352,107,230785,5,2,0:0:0:0:
352,107,230935,2,0,P|392:116|426:125,1,72,2|0,0:0|0:0,0:0:0:0:
162,384,231235,6,0,B|152:347|171:315|206:307|206:307|204:288|204:288|224:285|224:285|261:266|276:211|253:170,1,270.000010299683,6|8,1:2|0:0,0:0:0:0:
253,170,231610,1,8,0:0:0:0:
253,170,231685,2,0,B|200:161|182:125|200:84|200:84|184:62|184:62|184:33|184:33|162:-2|128:-6|86:6,1,270.000010299683,14|0,0:0|0:0,0:0:0:0:
1,126,232135,6,0,P|45:132|89:142,1,90,12|0,0:0|0:0,0:0:0:0:
253,170,232435,1,0,1:0:0:0:
182,384,232585,2,0,P|131:323|168:223,1,180,10|8,0:0|0:0,0:0:0:0:
373,158,233035,2,0,P|362:201|355:246,1,90,2|0,1:2|3:0,0:0:0:0:
355,246,233260,1,2,3:2:0:0:
355,246,233335,5,10,3:2:0:0:
292,80,233485,1,8,0:0:0:0:
467,210,233635,1,0,1:0:0:0:
259,293,233785,2,0,B|232:303|207:315|207:315|155:296|81:276,1,180,10|8,0:0|0:0,0:0:0:0:
0,101,234235,2,0,P|54:89|105:74,1,90,2|0,1:2|0:0,0:0:0:0:
206,16,234535,5,10,0:0:0:0:
65,186,234685,1,10,0:0:0:0:
259,293,234835,1,2,1:2:0:0:
187,121,234985,2,0,P|179:165|173:210,1,90,10|0,0:0|0:0,0:0:0:0:
412,35,235285,1,10,0:0:0:0:
296,174,235435,2,0,P|302:129|309:84,1,90,0|0,1:0|3:0,0:0:0:0:
284,65,235660,1,2,3:2:0:0:
284,65,235735,6,0,P|187:77|122:10,1,180,10|0,3:2|1:0,0:0:0:0:
396,153,236185,2,0,P|440:142|498:134,1,90,10|0,0:0|0:0,0:0:0:0:
298,269,236485,1,8,0:0:0:0:
385,377,236635,6,0,P|429:312|408:261,1,135,0|0,1:0|0:0,0:0:0:0:
387,252,236935,2,0,P|343:263|285:271,1,90,10|0,0:0|0:0,0:0:0:0:
81,258,237235,1,2,1:2:0:0:
294,152,237385,1,10,0:0:0:0:
244,384,237535,1,2,0:0:0:0:
203,215,237685,2,0,P|190:258|179:301,1,90,10|0,0:0|1:0,0:0:0:0:
110,154,237985,1,2,3:2:0:0:
110,154,238060,1,2,3:2:0:0:
110,154,238135,5,10,3:2:0:0:
298,269,238285,1,8,0:0:0:0:
57,344,238435,2,0,P|67:300|80:257,1,90,2|0,1:2|3:0,0:0:0:0:
80,257,238660,1,2,3:2:0:0:
80,257,238735,1,10,3:2:0:0:
205,85,238885,1,8,0:0:0:0:
21,167,239035,2,0,P|66:159|115:153,1,90,2|0,1:2|3:0,0:0:0:0:
109,153,239260,1,2,3:2:0:0:
109,153,239335,5,10,3:2:0:0:
291,20,239485,1,10,0:0:0:0:
218,198,239635,1,0,1:0:0:0:
100,50,239785,1,10,0:0:0:0:
360,114,239935,2,0,B|333:98|319:69|319:69|262:54|205:85,1,180,2|0,0:0|1:0,0:0:0:0:
434,38,240385,1,2,3:2:0:0:
434,38,240460,1,2,3:2:0:0:
434,38,240535,5,10,3:2:0:0:
315,203,240685,1,10,0:0:0:0:
466,337,240835,2,0,P|457:292|441:249,1,90,2|0,1:2|0:0,0:0:0:0:
285,315,241135,5,2,1:2:0:0:
250,337,241210,1,0,1:0:0:0:
209,340,241285,1,0,1:0:0:0:
170,328,241360,1,0,1:0:0:0:
146,294,241435,1,0,1:0:0:0:
115,268,241510,1,0,1:0:0:0:
74,261,241585,1,0,1:0:0:0:
34,268,241660,1,0,1:0:0:0:
0,291,241735,5,12,1:2:0:0:
224,228,241885,1,8,0:0:0:0:
64,372,242035,1,0,1:0:0:0:
163,144,242185,2,0,B|224:99|280:125|280:125|290:160|334:163,1,180,10|0,0:0|0:0,0:0:0:0:
512,76,242635,1,0,1:0:0:0:
401,279,242785,1,2,3:2:0:0:
401,279,242860,1,2,3:2:0:0:
401,279,242935,6,0,P|411:227|425:175,1,90,12|0,3:2|0:0,0:0:0:0:
339,29,243235,1,2,1:2:0:0:
512,76,243385,1,2,3:2:0:0:
512,76,243460,1,2,3:2:0:0:
512,76,243535,2,0,P|466:81|424:92,1,90,10|0,3:2|0:0,0:0:0:0:
260,275,243835,1,2,1:2:0:0:
420,191,243985,1,2,3:2:0:0:
420,191,244060,1,2,3:2:0:0:
420,191,244135,5,12,3:2:0:0:
161,120,244285,1,8,0:0:0:0:
376,283,244435,1,0,1:0:0:0:
140,384,244585,1,2,3:2:0:0:
140,384,244660,1,2,3:2:0:0:
140,384,244735,2,0,P|148:339|164:273,1,90,10|0,3:2|0:0,0:0:0:0:
41,83,245035,2,0,P|29:147|72:196,1,135,0|0,1:0|0:0,0:0:0:0:
95,206,245335,5,12,0:0:0:0:
191,6,245485,1,8,0:0:0:0:
325,216,245635,1,0,1:0:0:0:
161,120,245785,1,2,3:2:0:0:
161,120,245860,1,2,3:2:0:0:
161,120,245935,2,0,P|209:108|259:103,1,90,10|0,3:2|0:0,0:0:0:0:
453,170,246235,2,0,P|388:156|335:193,1,135,0|0,1:2|0:0,0:0:0:0:
325,216,246535,6,0,P|313:272|309:321,1,90,12|0,0:0|0:0,0:0:0:0:
175,384,246835,2,0,P|185:338|197:282,1,90,2|0,1:2|0:0,0:0:0:0:
394,384,247135,1,10,0:0:0:0:
122,215,247285,2,0,P|158:190|203:191,1,90,0|0,1:0|3:0,0:0:0:0:
238,208,247510,1,2,3:2:0:0:
238,208,247585,6,0,B|281:247|281:247|380:249|400:174,1,202.500007724762,12|0,3:2|0:0,0:0:0:0:
415,153,247885,2,0,P|409:119|400:87,1,67.5000025749208,8|0,0:0|0:0,0:0:0:0:
125,92,248035,2,0,P|72:91|29:59,1,107.999996704102,0|0,1:0|0:0,0:0:0:0:
260,75,248335,5,2,1:2:0:0:
254,108,248410,1,2,1:2:0:0:
249,141,248485,1,2,1:2:0:0:
243,174,248560,1,2,1:2:0:0:
238,208,248635,1,8,0:0:0:0:
232,241,248710,1,8,0:0:0:0:
227,274,248785,1,8,0:0:0:0:
222,308,248860,1,8,0:0:0:0:
216,341,248935,6,0,P|171:369|118:364,1,107.999996704102,12|0,0:0|0:0,0:0:0:0:
334,380,249235,2,0,P|342:326|352:273,1,107.999996704102,2|0,1:2|0:0,0:0:0:0:
254,108,249535,2,0,P|307:167|387:166,1,161.999995056153,2|0,1:2|0:0,0:0:0:0:
412,160,249835,1,8,0:0:0:0:
254,0,249985,6,0,P|200:9|147:16,1,107.999996704102,4|0,1:2|0:0,0:0:0:0:
357,65,250285,1,2,1:2:0:0:
357,65,250360,1,8,0:0:0:0:
357,65,250435,1,8,0:0:0:0:
276,213,250585,2,0,P|269:163|252:104,1,107.999996704102,2|0,1:2|0:0,0:0:0:0:
420,236,250885,1,10,0:0:0:0:
305,330,251035,2,0,P|368:342|417:353,1,107.999996704102,2|0,1:2|0:0,0:0:0:0:
188,384,251335,5,12,0:0:0:0:
420,236,251485,1,8,0:0:0:0:
188,384,251635,2,0,P|133:371|75:368,1,107.999996704102,2|0,1:2|0:0,0:0:0:0:
169,114,251935,2,0,P|218:177|212:256,1,161.999995056153,2|0,1:2|0:0,0:0:0:0:
198,278,252235,1,8,0:0:0:0:
0,309,252385,6,0,P|42:268|94:269,1,107.999996704102,4|0,1:2|0:0,0:0:0:0:
324,182,252685,1,2,1:2:0:0:
324,182,252760,1,8,0:0:0:0:
324,182,252835,1,8,0:0:0:0:
208,22,252985,2,0,P|172:61|169:114,1,107.999996704102,2|0,1:2|0:0,0:0:0:0:
436,36,253285,1,10,0:0:0:0:
363,273,253435,2,0,P|327:234|323:181,1,107.999996704102,2|0,1:2|0:0,0:0:0:0:
208,22,253735,5,12,0:0:0:0:
436,36,253885,1,8,0:0:0:0:
436,36,253960,1,8,0:0:0:0:
436,36,254035,2,0,L|312:69,1,107.999996704102,2|0,1:2|0:0,0:0:0:0:
155,177,254335,2,0,B|207:139|207:139|253:147|298:171,1,161.999995056153,2|0,1:2|0:0,0:0:0:0:
323,181,254635,1,8,0:0:0:0:
468,384,254785,6,0,P|461:330|450:277,1,107.999996704102,4|0,1:2|0:0,0:0:0:0:
234,331,255085,1,2,1:2:0:0:
234,331,255160,1,8,0:0:0:0:
234,331,255235,1,8,0:0:0:0:
323,181,255385,2,0,P|334:233|340:287,1,107.999996704102,2|0,1:2|0:0,0:0:0:0:
443,158,255685,1,10,0:0:0:0:
216,129,255835,2,0,P|162:135|109:146,1,107.999996704102,2|0,1:2|0:0,0:0:0:0:
315,62,256135,5,12,0:0:0:0:
99,0,256285,1,8,0:0:0:0:
315,62,256435,2,0,P|367:51|424:45,1,107.999996704102,2|0,1:2|0:0,0:0:0:0:
352,274,256735,2,0,P|318:232|322:180,1,107.999996704102,2|0,1:2|0:0,0:0:0:0:
470,296,257035,1,8,0:0:0:0:
185,359,257185,6,0,B|213:330|265:339|265:339|293:384|362:379,1,188.999994232178,4|0,1:2|0:0,0:0:0:0:
382,377,257485,1,2,1:2:0:0:
207,236,257635,1,2,1:2:0:0:
489,117,257785,1,2,1:2:0:0:
98,0,257935,5,2,1:2:0:0:
389,160,258085,1,2,1:2:0:0:
41,305,258235,1,2,1:2:0:0:
247,81,258385,1,2,1:2:0:0:
