osu file format v14

[General]
AudioFilename: audio 1.3x.mp3
AudioLeadIn: 0
PreviewTime: 57555
Countdown: 0
SampleSet: None
StackLeniency: 0.7
Mode: 0
LetterboxInBreaks: 0
WidescreenStoryboard: 0

[Editor]
DistanceSpacing: 0.1
BeatDivisor: 4
GridSize: 8
TimelineZoom: 1.1

[Metadata]
Title:Hanairo Biyori speed up version
TitleUnicode:Hanairo Biyori speed up version
Artist:Natsume Chiaki
ArtistUnicode:Natsume Chiaki
Creator:Flapster
Version:Awaken's Challenge 1.3x
Source:
Tags:
BeatmapID:2050385
BeatmapSetID:979711

[Difficulty]
HPDrainRate:5
CircleSize:4
OverallDifficulty:8.3
ApproachRate:9.8
SliderMultiplier:1.9
SliderTickRate:1

[Events]
//Background and Video events
0,0,"Hanairo Biyori.jpg",0,0
//Break Periods
2,65144,66621
//Storyboard Layer 0 (Background)
//Storyboard Layer 1 (Fail)
//Storyboard Layer 2 (Pass)
//Storyboard Layer 3 (Foreground)
//Storyboard Sound Samples

[TimingPoints]
11183,253.5926,4,2,3,70,1,0
19424,-133.3333,4,2,4,55,0,0
27412,-133.3333,4,2,3,65,0,0
43135,-133.3333,4,2,1,60,0,0
44656,-100,4,2,1,80,0,1
51757,-100,4,2,1,80,0,0
52771,-100,4,2,1,80,0,1
60886,-133.3333,4,1,1,80,0,0
61013,-133.3333,4,2,0,40,0,0
61140,-133.3333,4,1,1,80,0,0
61266,-133.3333,4,2,0,40,0,0
61393,-133.3333,4,1,1,80,0,0
61520,-133.3333,4,2,0,40,0,0
61647,-133.3333,4,1,1,80,0,0
61774,-133.3333,4,2,0,40,0,0
61901,-133.3333,4,1,1,80,0,0
62027,-133.3333,4,2,0,40,0,0
62154,-133.3333,4,1,1,80,0,0
62281,-133.3333,4,2,0,40,0,0
62408,-133.3333,4,1,1,80,0,0
62535,-133.3333,4,2,0,40,0,0
62662,-133.3333,4,2,1,40,0,0
62915,-200,4,2,1,40,0,0
67036,-200,4,2,1,50,0,0
71030,-200,4,1,0,40,0,0
72044,-200,4,2,1,60,0,0
75087,-133.3333,4,2,1,60,0,0
84217,-100,4,2,1,80,0,1
91317,-100,4,2,1,80,0,0
92332,-100,4,2,1,80,0,1
100446,-133.3333,4,1,1,80,0,0
100573,-133.3333,4,2,0,40,0,0
100700,-133.3333,4,1,1,80,0,0
100827,-133.3333,4,2,0,40,0,0
100954,-133.3333,4,1,1,80,0,0
101081,-133.3333,4,2,0,40,0,0
101207,-133.3333,4,1,1,80,0,0
101334,-133.3333,4,2,0,40,0,0
101461,-133.3333,4,1,1,80,0,0
101588,-133.3333,4,2,0,40,0,0
101715,-133.3333,4,1,1,80,0,0
101842,-133.3333,4,2,0,40,0,0
101968,-133.3333,4,1,1,80,0,0
102095,-133.3333,4,2,0,40,0,0
102222,-200,4,2,1,60,0,0
102412,-200,4,2,0,30,0,0
102476,-200,4,2,1,100,0,0
104504,-200,4,1,1,20,0,0
109703,-200,4,1,1,10,0,0
110337,-200,4,1,1,40,0,0
110590,-200,4,1,1,30,0,0
114648,-100,4,1,1,80,0,0
116867,-100,4,1,1,40,0,0
116930,-100,4,1,1,80,0,0
117120,-100,4,1,1,40,0,0
117184,-100,4,1,1,80,0,0
117374,-100,4,1,1,40,0,0
117437,-100,4,1,1,80,0,0
118706,-100,4,1,2,20,0,0
119720,-100,4,2,1,90,0,1
127819,-100,4,2,1,90,0,0
127835,-100,4,2,1,90,0,1
135950,-133.3333,4,1,1,90,0,1
136076,-133.3333,4,2,0,50,0,1
136203,-133.3333,4,1,1,90,0,1
136330,-133.3333,4,2,0,50,0,1
136457,-133.3333,4,1,1,90,0,1
136583,-133.3333,4,2,0,50,0,1
136710,-133.3333,4,1,1,90,0,1
136837,-133.3333,4,2,0,50,0,1
136964,-133.3333,4,1,1,90,0,1
137091,-133.3333,4,2,0,50,0,1
137218,-133.3333,4,1,1,90,0,1
137344,-133.3333,4,2,0,50,0,1
137471,-133.3333,4,1,1,90,0,1
137598,-133.3333,4,2,0,50,0,1
137725,-200,4,2,1,30,0,1
137979,-50,4,2,1,90,0,0
138169,-100,4,2,1,90,0,0

[HitObjects]
170,88,11182,5,6,0:0:0:0:
128,313,11309,1,0,0:0:0:0:
128,313,11373,1,0,0:0:0:0:
128,313,11436,1,8,0:0:0:0:
77,163,11563,1,0,0:0:0:0:
213,217,11690,5,2,0:0:0:0:
74,63,11816,1,0,0:0:0:0:
74,63,11880,1,0,0:0:0:0:
74,63,11943,1,8,0:0:0:0:
43,254,12070,1,0,0:0:0:0:
230,310,12196,6,0,L|331:307,1,95
491,245,12450,1,8,0:0:0:0:
377,216,12577,1,0,0:0:0:0:
409,355,12704,1,2,0:0:0:0:
457,135,12830,1,0,0:0:0:0:
457,135,12894,1,0,0:0:0:0:
457,135,12957,1,8,0:0:0:0:
497,331,13084,1,0,0:0:0:0:
289,267,13211,6,0,P|281:224|299:156,1,95
424,278,13465,1,8,0:0:0:0:
266,350,13591,1,0,0:0:0:0:
290,174,13718,1,2,0:0:0:0:
352,333,13845,1,0,0:0:0:0:
352,333,13908,1,0,0:0:0:0:
352,333,13972,1,8,0:0:0:0:
209,285,14099,1,0,0:0:0:0:
377,216,14226,5,2,0:0:0:0:
142,55,14352,1,0,0:0:0:0:
256,236,14479,1,10,0:0:0:0:
272,15,14606,1,0,0:0:0:0:
136,179,14733,1,2,0:0:0:0:
338,125,14860,1,0,0:0:0:0:
473,283,14986,1,8,0:0:0:0:
383,337,15113,1,0,0:0:0:0:
383,337,15176,1,0,0:0:0:0:
383,337,15240,6,0,L|281:331,1,95
81,296,15493,2,0,L|182:288,1,95
381,222,15747,1,2,0:0:0:0:
133,121,15873,1,0,0:0:0:0:
145,141,15937,1,0,0:0:0:0:
155,162,16000,1,8,0:0:0:0:
381,222,16127,1,0,0:0:0:0:
261,357,16254,5,2,0:0:0:0:
228,253,16381,1,0,0:0:0:0:
484,185,16508,1,8,0:0:0:0:
451,289,16635,1,0,0:0:0:0:
318,283,16761,1,2,0:0:0:0:
303,141,16888,1,0,0:0:0:0:
303,141,16951,1,0,0:0:0:0:
303,141,17015,1,8,0:0:0:0:
128,67,17142,1,0,0:0:0:0:
111,179,17269,6,0,P|166:169|205:146,1,95
396,96,17522,1,8,0:0:0:0:
291,49,17649,1,0,0:0:0:0:
318,283,17776,1,2,0:0:0:0:
418,210,17903,1,0,0:0:0:0:
418,210,17966,1,0,0:0:0:0:
418,210,18030,1,8,0:0:0:0:
219,235,18156,1,0,0:0:0:0:
331,378,18283,5,6,0:0:0:0:
418,210,18410,1,0,0:0:0:0:
219,235,18536,1,10,0:0:0:0:
355,372,18663,5,0,0:0:0:0:
395,187,18790,1,6,0:0:0:0:
209,262,18917,1,0,0:0:0:0:
209,262,18980,1,0,0:0:0:0:
209,262,19043,2,0,L|273:258,1,47.5
491,331,19170,1,4,0:0:0:0:
492,343,19424,6,0,L|507:266,2,71.25
322,276,19804,1,0,0:0:0:0:
258,343,19931,1,2,0:0:0:0:
165,342,20058,1,10,0:0:0:0:
209,262,20185,1,0,0:0:0:0:
186,171,20312,5,2,0:0:0:0:
274,196,20438,1,0,0:0:0:0:
167,78,20565,1,10,0:0:0:0:
274,196,20692,1,0,0:0:0:0:
249,19,20819,1,2,0:0:0:0:
186,171,20946,1,0,0:0:0:0:
186,171,21009,1,0,0:0:0:0:
186,171,21073,1,10,0:0:0:0:
311,94,21199,1,0,0:0:0:0:
355,252,21326,6,0,P|285:255|237:305,1,142.5
179,138,21706,2,0,P|196:170|203:206,1,71.25
315,335,21960,1,0,0:0:0:0:
151,284,22086,1,10,0:0:0:0:
315,335,22213,1,0,0:0:0:0:
187,358,22340,6,0,P|146:364|106:352,1,71.25
106,196,22594,2,0,P|96:153|98:119,1,71.25
348,180,22847,1,2,0:0:0:0:
315,335,22974,1,0,0:0:0:0:
238,233,23101,1,10,0:0:0:0:
386,259,23228,1,0,0:0:0:0:
296,349,23355,5,2,0:0:0:0:
258,139,23482,1,0,0:0:0:0:
258,139,23545,1,0,0:0:0:0:
258,139,23608,1,10,0:0:0:0:
386,259,23735,1,0,0:0:0:0:
196,318,23862,2,0,L|116:316,1,71.25
0,183,24116,2,0,L|80:181,1,71.25
238,233,24369,5,2,0:0:0:0:
143,89,24496,1,0,0:0:0:0:
124,269,24623,1,10,0:0:0:0:
166,178,24750,1,0,0:0:0:0:
38,96,24876,1,2,0:0:0:0:
166,178,25003,1,0,0:0:0:0:
166,178,25066,1,0,0:0:0:0:
166,178,25130,1,10,0:0:0:0:
221,20,25256,5,0,0:0:0:0:
390,168,25383,2,0,P|334:165|289:133,1,106.875
292,137,25637,1,10,0:0:0:0:
429,56,25764,1,0,0:0:0:0:
439,265,25890,5,2,0:0:0:0:
274,288,26017,1,0,0:0:0:0:
390,168,26144,1,10,0:0:0:0:
365,346,26271,1,0,0:0:0:0:
289,183,26398,6,0,P|247:193|202:192,1,71.25
184,185,26588,1,0,0:0:0:0:
184,185,26651,1,8,0:0:0:0:
111,356,26778,1,0,0:0:0:0:
62,241,26905,5,10,0:0:0:0:
74,207,26968,1,0,0:0:0:0:
74,171,27032,1,8,0:0:0:0:
62,137,27095,1,0,0:0:0:0:
38,109,27159,6,0,L|3:92,1,35.625
147,1,27286,2,0,L|152:44,1,35.625
251,279,27412,5,6,0:0:0:0:
74,171,27539,1,0,0:0:0:0:
257,83,27666,1,10,0:0:0:0:
251,279,27793,1,0,0:0:0:0:
195,175,27920,1,2,0:0:0:0:
212,375,28046,1,0,0:0:0:0:
336,234,28173,1,10,0:0:0:0:
153,278,28300,1,0,0:0:0:0:
153,278,28363,1,0,0:0:0:0:
153,278,28426,5,2,0:0:0:0:
326,359,28553,1,0,0:0:0:0:
153,278,28680,1,10,0:0:0:0:
45,353,28807,1,0,0:0:0:0:
80,178,28933,2,0,L|70:103,1,71.25
70,107,29124,1,0,0:0:0:0:
70,107,29187,1,8,0:0:0:0:
164,18,29314,1,0,0:0:0:0:
193,168,29441,6,0,L|187:280,1,106.875
189,310,29694,1,10,0:0:0:0:
285,221,29821,1,0,0:0:0:0:
407,356,29948,2,0,P|371:353|337:347,1,71.25
285,221,30202,2,0,L|277:140,1,71.25
428,161,30455,5,2,0:0:0:0:
410,266,30582,1,0,0:0:0:0:
321,326,30709,1,10,0:0:0:0:
214,334,30836,1,2,0:0:0:0:
122,283,30963,1,2,0:0:0:0:
307,72,31090,5,2,0:0:0:0:
322,80,31153,1,0,0:0:0:0:
337,88,31216,5,2,0:0:0:0:
354,127,31280,1,0,0:0:0:0:
350,169,31343,1,2,0:0:0:0:
325,204,31406,1,0,0:0:0:0:
285,220,31470,6,0,L|193:213,1,71.25
58,215,31723,1,10,0:0:0:0:
214,334,31850,1,0,0:0:0:0:
215,120,31976,2,0,P|206:86|188:56,1,71.25
143,222,32230,2,0,P|172:241|206:251,1,71.25
374,361,32484,6,0,P|339:370|304:370,1,71.25
133,353,32737,1,10,0:0:0:0:
325,290,32864,1,0,0:0:0:0:
79,282,32991,1,2,0:0:0:0:
222,305,33118,1,0,0:0:0:0:
222,305,33181,1,0,0:0:0:0:
222,305,33245,1,10,0:0:0:0:
3,336,33372,1,0,0:0:0:0:
12,215,33498,6,0,P|2:178|-1:142,1,71.25
263,133,33752,2,0,P|259:168|250:202,1,71.25
129,155,34006,1,2,0:0:0:0:
291,19,34133,1,0,0:0:0:0:
289,223,34260,1,10,0:0:0:0:
179,63,34386,1,0,0:0:0:0:
179,63,34450,1,0,0:0:0:0:
179,63,34513,6,0,L|99:57,1,71.25
34,187,34766,1,10,0:0:0:0:
203,255,34893,1,0,0:0:0:0:
34,187,35020,5,2,0:0:0:0:
26,221,35083,1,0,0:0:0:0:
29,256,35146,1,0,0:0:0:0:
41,289,35210,1,0,0:0:0:0:
65,314,35273,5,10,0:0:0:0:
113,302,35337,1,0,0:0:0:0:
162,309,35400,1,2,0:0:0:0:
206,330,35463,1,0,0:0:0:0:
242,364,35527,5,6,0:0:0:0:
255,347,35781,1,8,0:0:0:0:
29,256,35907,1,0,0:0:0:0:
267,336,36034,1,6,0:0:0:0:
280,325,36288,1,8,0:0:0:0:
22,238,36415,1,0,0:0:0:0:
244,220,36542,5,2,0:0:0:0:
155,191,36669,1,0,0:0:0:0:
155,97,36795,1,10,0:0:0:0:
244,69,36922,1,0,0:0:0:0:
298,144,37049,1,6,0:0:0:0:
155,191,37176,1,0,0:0:0:0:
155,191,37239,1,0,0:0:0:0:
155,191,37303,1,10,0:0:0:0:
244,69,37429,1,0,0:0:0:0:
311,286,37556,5,6,0:0:0:0:
318,302,37810,1,8,0:0:0:0:
298,144,37936,1,0,0:0:0:0:
326,317,38063,1,6,0:0:0:0:
334,332,38316,1,8,0:0:0:0:
305,159,38443,1,0,0:0:0:0:
423,263,38570,5,2,0:0:0:0:
240,235,38697,1,0,0:0:0:0:
399,163,38824,1,10,0:0:0:0:
415,356,38950,1,0,0:0:0:0:
238,325,39077,1,6,0:0:0:0:
423,263,39204,1,0,0:0:0:0:
439,269,39267,1,0,0:0:0:0:
455,276,39331,1,10,0:0:0:0:
399,163,39458,1,0,0:0:0:0:
320,377,39585,5,6,0:0:0:0:
320,377,39838,1,0,0:0:0:0:
244,225,39965,1,0,0:0:0:0:
324,361,40092,1,2,0:0:0:0:
330,344,40346,1,8,0:0:0:0:
292,140,40472,1,0,0:0:0:0:
229,315,40599,5,2,0:0:0:0:
424,244,40726,1,0,0:0:0:0:
332,232,40853,1,10,0:0:0:0:
432,339,40980,1,0,0:0:0:0:
428,143,41106,5,2,0:0:0:0:
330,344,41233,1,0,0:0:0:0:
330,344,41296,1,0,0:0:0:0:
330,344,41360,1,10,0:0:0:0:
424,244,41486,1,0,0:0:0:0:
331,139,41613,6,0,P|293:148|254:182,1,71.25
118,232,41867,2,0,P|154:232|190:228,1,71.25
183,105,42120,2,0,L|185:20,1,71.25
30,185,42374,2,0,P|19:230|19:269,1,71.25
167,372,42628,5,2,0:0:0:0:
267,301,42754,1,0,0:0:0:0:
182,187,42881,1,10,0:0:0:0:
167,372,43008,1,0,0:0:0:0:
330,112,43135,5,0,0:0:0:0:
334,135,43198,1,0,0:0:0:0:
338,158,43262,1,0,0:0:0:0:
342,181,43325,1,0,0:0:0:0:
346,204,43389,1,0,0:0:0:0:
349,227,43452,1,0,0:0:0:0:
352,250,43515,1,0,0:0:0:0:
355,273,43579,1,0,0:0:0:0:
359,295,43642,5,2,0:0:0:0:
256,338,43769,1,0,0:0:0:0:
152,295,43896,1,2,0:0:0:0:
109,192,44023,1,2,0:0:0:0:
152,88,44150,1,2,0:0:0:0:
256,45,44276,1,0,0:0:0:0:
359,88,44403,1,2,0:0:0:0:
402,192,44530,1,2,0:0:0:0:
152,295,44656,5,4,0:0:0:0:
248,158,44783,1,0,0:0:0:0:
248,158,44846,1,0,0:0:0:0:
248,158,44910,1,8,0:0:0:0:
256,338,45036,1,0,0:0:0:0:
256,338,45100,1,0,0:0:0:0:
256,338,45163,1,2,0:0:0:0:
153,199,45290,5,0,0:0:0:0:
306,236,45417,1,8,0:0:0:0:
152,295,45544,1,0,0:0:0:0:
256,338,45671,2,0,L|361:330,1,95
512,246,45924,1,8,0:0:0:0:
306,236,46051,1,0,0:0:0:0:
461,362,46178,5,2,0:0:0:0:
408,157,46304,1,0,0:0:0:0:
404,133,46368,1,0,0:0:0:0:
401,110,46431,1,10,0:0:0:0:
306,236,46559,1,2,0:0:0:0:
239,33,46685,5,0,0:0:0:0:
172,100,46812,1,0,0:0:0:0:
240,165,46939,1,10,0:0:0:0:
307,101,47066,1,2,0:0:0:0:
74,100,47193,1,0,0:0:0:0:
124,278,47320,1,0,0:0:0:0:
306,236,47446,1,10,0:0:0:0:
273,55,47573,1,2,0:0:0:0:
244,362,47700,6,0,L|345:355,1,95
512,292,47953,1,8,0:0:0:0:
381,195,48080,1,0,0:0:0:0:
381,195,48143,1,0,0:0:0:0:
381,195,48206,1,2,0:0:0:0:
446,384,48333,1,0,0:0:0:0:
495,183,48460,1,10,0:0:0:0:
339,310,48587,1,0,0:0:0:0:
495,183,48714,5,4,0:0:0:0:
276,163,48841,1,0,0:0:0:0:
254,153,48904,1,0,0:0:0:0:
233,141,48967,1,8,0:0:0:0:
140,307,49094,5,0,0:0:0:0:
183,287,49157,1,0,0:0:0:0:
227,268,49221,1,2,0:0:0:0:
79,189,49348,5,0,0:0:0:0:
74,365,49475,1,8,0:0:0:0:
227,268,49602,1,0,0:0:0:0:
7,150,49728,6,0,P|-4:204|26:254,1,95
215,188,49982,1,8,0:0:0:0:
85,80,50109,1,0,0:0:0:0:
82,272,50236,1,2,0:0:0:0:
176,105,50363,1,0,0:0:0:0:
178,82,50426,1,0,0:0:0:0:
181,59,50489,1,8,0:0:0:0:
79,189,50616,1,0,0:0:0:0:
266,89,50743,5,2,0:0:0:0:
424,224,50870,1,0,0:0:0:0:
436,52,50996,1,2,0:0:0:0:
273,176,51123,1,0,0:0:0:0:
512,144,51250,1,2,0:0:0:0:
349,127,51376,1,2,0:0:0:0:
345,262,51503,1,2,0:0:0:0:
265,40,51630,1,2,0:0:0:0:
188,332,51757,5,2,0:0:0:0:
143,347,51820,1,2,0:0:0:0:
96,344,51883,1,2,0:0:0:0:
52,325,51947,1,2,0:0:0:0:
19,291,52010,1,2,0:0:0:0:
1,248,52074,1,2,0:0:0:0:
0,201,52137,1,2,0:0:0:0:
15,156,52200,1,2,0:0:0:0:
120,220,52264,5,2,0:0:0:0:
157,227,52327,1,0,0:0:0:0:
194,220,52390,1,0,0:0:0:0:
228,204,52454,1,0,0:0:0:0:
257,180,52517,1,10,0:0:0:0:
278,148,52581,1,2,0:0:0:0:
289,112,52644,1,8,0:0:0:0:
286,73,52708,1,0,0:0:0:0:
271,37,52771,6,0,B|162:19,1,95
177,21,52962,1,0,0:0:0:0:
177,21,53025,1,10,0:0:0:0:
395,210,53152,5,0,0:0:0:0:
401,164,53215,1,0,0:0:0:0:
409,117,53279,1,2,0:0:0:0:
188,130,53406,5,2,0:0:0:0:
199,330,53532,1,8,0:0:0:0:
308,258,53659,1,2,0:0:0:0:
91,258,53786,6,0,P|76:213|77:165,1,95
276,100,54040,2,0,P|276:147|254:193,1,95
119,46,54293,1,2,0:0:0:0:
380,88,54420,1,0,0:0:0:0:
380,88,54483,1,0,0:0:0:0:
380,88,54546,1,10,0:0:0:0:
274,265,54673,1,0,0:0:0:0:
356,187,54800,5,2,0:0:0:0:
434,268,54927,1,0,0:0:0:0:
353,346,55053,1,10,0:0:0:0:
274,265,55180,1,0,0:0:0:0:
434,268,55307,1,2,0:0:0:0:
260,348,55433,1,0,0:0:0:0:
184,176,55561,1,10,0:0:0:0:
352,95,55687,1,0,0:0:0:0:
187,303,55814,5,2,0:0:0:0:
163,302,55877,1,0,0:0:0:0:
140,296,55940,1,0,0:0:0:0:
119,285,56004,1,0,0:0:0:0:
100,270,56067,1,10,0:0:0:0:
86,251,56131,1,0,0:0:0:0:
76,230,56194,1,0,0:0:0:0:
71,207,56257,1,0,0:0:0:0:
69,182,56322,6,0,L|73:124,1,47.5
185,176,56449,2,0,L|196:227,1,47.5
271,128,56575,1,2,0:0:0:0:
264,102,56639,1,0,0:0:0:0:
253,80,56702,1,2,0:0:0:0:
235,63,56766,1,0,0:0:0:0:
214,49,56829,6,0,L|315:78,1,95
328,82,57019,1,0,0:0:0:0:
350,88,57083,1,10,0:0:0:0:
474,182,57210,5,0,0:0:0:0:
428,195,57273,1,0,0:0:0:0:
381,206,57336,1,2,0:0:0:0:
461,68,57463,5,2,0:0:0:0:
281,213,57590,1,8,0:0:0:0:
445,313,57716,1,2,0:0:0:0:
214,367,57843,6,0,P|166:365|116:339,1,95
31,173,58097,1,10,0:0:0:0:
129,259,58223,1,0,0:0:0:0:
0,348,58350,1,2,0:0:0:0:
31,173,58477,1,0,0:0:0:0:
31,173,58540,1,0,0:0:0:0:
31,173,58604,1,10,0:0:0:0:
129,259,58731,1,0,0:0:0:0:
136,116,58858,6,0,P|99:11|196:65,1,285
310,271,59365,2,0,P|390:346|384:225,1,285
221,158,59872,5,2,0:0:0:0:
175,146,59935,1,2,0:0:0:0:
128,152,59998,1,2,0:0:0:0:
85,173,60062,1,2,0:0:0:0:
53,208,60125,1,2,0:0:0:0:
35,251,60189,1,2,0:0:0:0:
33,298,60252,1,2,0:0:0:0:
48,343,60315,1,2,0:0:0:0:
162,352,60380,5,10,0:0:0:0:
197,363,60443,1,0,0:0:0:0:
233,352,60506,1,10,0:0:0:0:
268,363,60569,1,0,0:0:0:0:
304,352,60633,1,10,0:0:0:0:
339,363,60696,1,0,0:0:0:0:
375,351,60760,1,10,0:0:0:0:
410,362,60823,1,0,0:0:0:0:
446,349,60886,6,0,L|454:272,1,71.25
346,160,61140,2,0,P|385:159|430:150,1,71.25
267,256,61393,2,0,P|230:248|172:253,1,71.25
43,341,61647,2,0,P|85:339|121:334,1,71.25
191,44,61901,6,0,P|155:49|116:64,1,71.25
161,180,62154,2,0,P|148:217|147:257,1,71.25
296,273,62408,2,0,P|326:293|361:306,1,71.25
470,171,62662,1,8,0:0:0:0:
483,164,62915,5,12,0:0:0:0:
256,192,62979,12,0,64944,0:0:0:0:
42,92,67100,6,0,L|8:84,2,23.75
95,15,67353,1,0,0:0:0:0:
140,151,67480,2,0,L|141:198,1,47.5
73,267,67733,2,0,L|85:327,1,47.5
214,251,67987,6,0,L|212:310,1,47.5
212,298,68177,1,0,0:0:0:0:
212,298,68240,1,0,0:0:0:0:
277,378,68367,1,0,0:0:0:0:
302,261,68494,2,0,L|296:154,1,95
360,87,68875,1,0,0:0:0:0:
512,160,69001,6,0,P|462:174|411:166,1,95
214,256,69382,1,0,0:0:0:0:
329,237,69509,1,0,0:0:0:0:
215,268,69636,1,0,0:0:0:0:
286,170,69762,1,0,0:0:0:0:
215,277,69889,1,0,0:0:0:0:
203,171,70016,6,0,L|196:118,1,47.5
116,304,70270,1,0,0:0:0:0:
234,361,70396,1,0,0:0:0:0:
234,361,70523,2,0,B|277:365|310:339|310:339|343:316|394:319,1,166.25
466,350,71030,5,4,0:0:0:0:
383,203,71157,2,2,P|342:214|295:247,1,95
466,350,71537,1,4,0:0:0:0:
501,141,71664,2,2,P|465:121|407:107,1,95
442,17,72044,5,2,0:0:0:0:
413,107,72171,1,0,0:0:0:0:
327,148,72298,1,2,0:0:0:0:
231,149,72425,1,2,0:0:0:0:
146,105,72552,2,0,L|143:69,3,23.75
76,177,72805,2,0,L|75:211,3,23.75
115,282,73059,5,2,0:0:0:0:
194,249,73186,1,2,0:0:0:0:
276,271,73313,1,0,0:0:0:0:
322,342,73440,1,0,0:0:0:0:
322,342,73503,1,0,0:0:0:0:
322,342,73566,1,2,0:0:0:0:
512,322,73693,1,2,0:0:0:0:
426,322,73820,1,2,0:0:0:0:
359,267,73946,1,0,0:0:0:0:
320,190,74073,6,0,L|325:126,1,47.5
181,82,74326,2,0,L|184:139,1,47.5
305,319,74580,5,2,0:0:0:0:
340,320,74643,1,0,0:0:0:0:
374,311,74706,1,0,0:0:0:0:
405,294,74770,1,0,0:0:0:0:
430,269,74833,1,2,0:0:0:0:
447,238,74897,1,0,0:0:0:0:
455,203,74960,1,2,0:0:0:0:
453,168,75023,1,0,0:0:0:0:
440,134,75087,6,0,L|412:64,1,71.25
192,94,75341,1,8,0:0:0:0:
207,175,75468,1,0,0:0:0:0:
269,230,75595,2,0,L|356:215,1,71.25
108,343,75848,1,8,0:0:0:0:
80,260,75975,1,0,0:0:0:0:
104,180,76102,6,0,P|105:146|99:105,1,71.25
228,125,76356,2,0,P|237:93|242:43,1,71.25
330,199,76609,2,0,P|371:192|408:179,1,71.25
399,182,76800,1,0,0:0:0:0:
399,182,76863,1,8,0:0:0:0:
473,285,76990,1,0,0:0:0:0:
375,358,77116,6,0,L|226:356,1,142.5
157,196,77496,1,0,0:0:0:0:
117,282,77623,2,0,P|186:285|250:229,1,142.5
31,301,78004,1,0,0:0:0:0:
83,371,78130,6,0,L|166:368,1,71.25
231,283,78384,2,0,L|305:321,1,71.25
336,185,78638,1,2,0:0:0:0:
440,323,78765,1,0,0:0:0:0:
435,340,78828,1,0,0:0:0:0:
431,357,78891,1,10,0:0:0:0:
348,286,79018,1,0,0:0:0:0:
444,202,79145,6,0,B|473:227|473:227|468:161|503:122,1,142.5
332,21,79526,1,0,0:0:0:0:
274,118,79652,2,0,L|194:116,1,71.25
195,227,79906,2,0,L|118:239,1,71.25
218,366,80160,5,2,0:0:0:0:
270,289,80286,1,2,0:0:0:0:
360,269,80413,1,8,0:0:0:0:
448,294,80540,1,2,0:0:0:0:
453,165,80666,2,0,P|421:176|372:184,1,71.25
258,173,80920,2,0,L|178:159,1,71.25
8,275,81174,5,2,0:0:0:0:
3,377,81300,1,0,0:0:0:0:
121,227,81427,1,10,0:0:0:0:
115,341,81554,1,0,0:0:0:0:
163,117,81681,1,2,0:0:0:0:
242,68,81808,1,0,0:0:0:0:
331,92,81935,1,10,0:0:0:0:
363,178,82061,1,0,0:0:0:0:
350,269,82188,6,0,L|341:351,1,71.25
469,194,82442,1,10,0:0:0:0:
407,42,82569,1,0,0:0:0:0:
240,169,82696,1,6,0:0:0:0:
233,185,82759,1,0,0:0:0:0:
226,201,82822,1,2,0:0:0:0:
220,218,82886,1,0,0:0:0:0:
213,237,82949,5,10,0:0:0:0:
234,265,83013,1,0,0:0:0:0:
254,293,83076,1,2,0:0:0:0:
261,327,83139,1,0,0:0:0:0:
260,364,83203,5,0,0:0:0:0:
120,327,83330,1,0,0:0:0:0:
65,194,83456,1,0,0:0:0:0:
120,56,83583,1,0,0:0:0:0:
257,2,83710,1,2,0:0:0:0:
391,56,83836,1,0,0:0:0:0:
450,201,83963,1,0,0:0:0:0:
391,327,84090,1,0,0:0:0:0:
65,194,84217,5,4,0:0:0:0:
288,179,84343,5,0,0:0:0:0:
296,202,84406,1,0,0:0:0:0:
304,225,84470,1,8,0:0:0:0:
171,174,84597,5,0,0:0:0:0:
184,128,84661,1,0,0:0:0:0:
197,83,84724,1,2,0:0:0:0:
377,141,84851,5,0,0:0:0:0:
391,327,84978,1,8,0:0:0:0:
226,246,85104,1,0,0:0:0:0:
472,283,85231,6,0,P|481:325|467:384,1,95
395,231,85485,1,8,0:0:0:0:
508,153,85612,1,0,0:0:0:0:
310,69,85739,1,2,0:0:0:0:
476,9,85865,1,0,0:0:0:0:
472,32,85929,1,0,0:0:0:0:
469,55,85992,1,8,0:0:0:0:
282,143,86119,1,0,0:0:0:0:
412,295,86246,5,2,0:0:0:0:
425,152,86373,1,0,0:0:0:0:
282,143,86500,1,8,0:0:0:0:
269,284,86626,1,0,0:0:0:0:
344,215,86753,5,2,0:0:0:0:
327,63,86880,1,0,0:0:0:0:
176,85,87006,1,8,0:0:0:0:
197,235,87133,1,0,0:0:0:0:
435,356,87260,5,2,0:0:0:0:
439,332,87323,1,0,0:0:0:0:
439,309,87386,1,0,0:0:0:0:
433,286,87450,1,0,0:0:0:0:
422,264,87513,1,10,0:0:0:0:
407,246,87577,1,0,0:0:0:0:
389,232,87640,1,0,0:0:0:0:
367,222,87703,1,0,0:0:0:0:
344,215,87767,5,2,0:0:0:0:
388,230,87830,1,0,0:0:0:0:
435,225,87893,1,0,0:0:0:0:
474,199,87957,1,0,0:0:0:0:
498,159,88020,1,10,0:0:0:0:
501,112,88084,1,0,0:0:0:0:
483,68,88147,1,0,0:0:0:0:
447,37,88210,1,0,0:0:0:0:
401,26,88274,6,0,L|284:41,1,95
306,38,88465,1,0,0:0:0:0:
306,38,88528,1,10,0:0:0:0:
96,122,88655,5,0,0:0:0:0:
138,141,88718,1,0,0:0:0:0:
181,161,88782,1,2,0:0:0:0:
186,39,88908,5,2,0:0:0:0:
209,253,89035,1,8,0:0:0:0:
393,152,89162,1,2,0:0:0:0:
245,102,89289,5,2,0:0:0:0:
398,259,89416,1,2,0:0:0:0:
384,57,89543,1,8,0:0:0:0:
288,211,89669,1,2,0:0:0:0:
499,205,89796,1,2,0:0:0:0:
316,132,89923,1,0,0:0:0:0:
316,132,89986,1,0,0:0:0:0:
316,132,90050,1,8,0:0:0:0:
485,295,90176,1,0,0:0:0:0:
443,108,90303,5,2,0:0:0:0:
345,259,90430,1,0,0:0:0:0:
192,161,90556,1,10,0:0:0:0:
294,1,90683,1,0,0:0:0:0:
316,132,90810,5,2,0:0:0:0:
227,300,90937,1,0,0:0:0:0:
63,203,91064,1,10,0:0:0:0:
164,43,91190,1,0,0:0:0:0:
227,300,91317,5,2,0:0:0:0:
171,313,91380,1,2,0:0:0:0:
115,306,91443,1,2,0:0:0:0:
66,276,91507,1,2,0:0:0:0:
30,233,91570,1,2,0:0:0:0:
14,179,91634,1,2,0:0:0:0:
19,123,91697,1,2,0:0:0:0:
48,71,91761,1,2,0:0:0:0:
153,103,91825,5,2,0:0:0:0:
149,138,91888,1,0,0:0:0:0:
142,175,91952,1,2,0:0:0:0:
136,210,92015,1,0,0:0:0:0:
130,245,92078,1,10,0:0:0:0:
124,282,92142,1,0,0:0:0:0:
116,316,92205,1,8,0:0:0:0:
105,351,92269,1,0,0:0:0:0:
94,384,92332,6,0,L|77:290,1,95
77,290,92522,1,0,0:0:0:0:
77,290,92586,1,10,0:0:0:0:
368,175,92713,5,0,0:0:0:0:
347,218,92776,1,0,0:0:0:0:
327,261,92839,1,10,0:0:0:0:
53,60,92966,5,0,0:0:0:0:
195,285,93093,1,10,0:0:0:0:
61,71,93220,1,0,0:0:0:0:
276,130,93346,5,2,0:0:0:0:
22,189,93473,1,0,0:0:0:0:
145,23,93600,1,10,0:0:0:0:
256,224,93726,1,0,0:0:0:0:
139,108,93853,5,2,0:0:0:0:
110,307,93980,1,0,0:0:0:0:
109,311,94043,1,0,0:0:0:0:
108,315,94107,1,10,0:0:0:0:
330,264,94234,1,0,0:0:0:0:
162,216,94360,5,2,0:0:0:0:
257,371,94487,1,0,0:0:0:0:
415,190,94614,1,10,0:0:0:0:
215,135,94741,1,0,0:0:0:0:
368,384,94868,5,2,0:0:0:0:
332,134,94995,1,0,0:0:0:0:
134,292,95121,1,10,0:0:0:0:
368,384,95248,1,0,0:0:0:0:
262,59,95375,5,2,0:0:0:0:
243,44,95438,1,0,0:0:0:0:
219,38,95502,1,2,0:0:0:0:
195,34,95565,1,0,0:0:0:0:
156,66,95629,5,10,0:0:0:0:
141,84,95692,1,0,0:0:0:0:
123,99,95755,1,2,0:0:0:0:
101,108,95819,1,0,0:0:0:0:
77,109,95882,5,2,0:0:0:0:
55,151,95945,1,0,0:0:0:0:
47,198,96008,1,2,0:0:0:0:
55,245,96072,1,0,0:0:0:0:
77,286,96135,1,10,0:0:0:0:
111,319,96199,1,0,0:0:0:0:
153,340,96262,1,2,0:0:0:0:
200,345,96325,1,0,0:0:0:0:
248,338,96390,6,0,L|350:319,1,95
364,315,96580,1,0,0:0:0:0:
387,310,96643,1,8,0:0:0:0:
239,150,96770,5,0,0:0:0:0:
199,176,96833,1,0,0:0:0:0:
158,200,96896,1,2,0:0:0:0:
348,212,97023,5,0,0:0:0:0:
224,67,97150,1,10,0:0:0:0:
227,264,97277,1,0,0:0:0:0:
361,128,97403,5,2,0:0:0:0:
145,84,97530,1,0,0:0:0:0:
348,212,97657,1,10,0:0:0:0:
401,39,97784,1,0,0:0:0:0:
401,39,97847,1,0,0:0:0:0:
401,39,97911,1,2,0:0:0:0:
262,176,98038,5,0,0:0:0:0:
444,205,98164,1,10,0:0:0:0:
248,0,98291,1,0,0:0:0:0:
154,363,98418,6,0,B|106:376|106:376|36:350|36:246,1,190
262,176,98799,1,0,0:0:0:0:
493,268,98925,2,0,B|493:354|423:380|423:380|375:367,1,190
262,176,99306,1,0,0:0:0:0:
226,27,99433,5,2,0:0:0:0:
170,19,99496,1,2,0:0:0:0:
117,38,99559,1,2,0:0:0:0:
79,79,99623,1,2,0:0:0:0:
62,133,99686,1,2,0:0:0:0:
63,190,99750,1,2,0:0:0:0:
75,245,99813,1,2,0:0:0:0:
115,285,99876,1,2,0:0:0:0:
236,326,99940,5,2,0:0:0:0:
267,290,100003,1,0,0:0:0:0:
278,244,100066,1,2,0:0:0:0:
271,197,100130,1,0,0:0:0:0:
246,157,100193,1,10,0:0:0:0:
207,130,100256,1,0,0:0:0:0:
161,121,100320,1,10,0:0:0:0:
115,134,100383,1,0,0:0:0:0:
76,152,100446,6,0,L|-21:151,1,71.25
98,372,100700,2,0,L|169:368,1,71.25
297,97,100954,6,0,L|200:96,1,71.25
267,286,101208,2,0,L|338:282,1,71.25
153,53,101461,6,0,P|144:88|147:124,1,71.25
413,224,101715,2,0,P|387:198|354:183,1,71.25
103,358,101968,2,0,P|138:350|169:331,1,71.25
249,203,102222,1,2,0:0:0:0:
256,192,102476,5,12,0:0:0:0:
256,192,102539,12,0,104504,0:0:0:0:
82,68,106280,6,0,L|81:128,1,47.5
69,200,106533,1,0,0:0:0:0:
426,107,107420,2,0,L|426:72,2,23.75
83,341,108435,1,0,0:0:0:0:
83,341,108562,5,2,0:0:0:0:
182,259,108942,1,0,0:0:0:0:
112,207,109069,1,2,0:0:0:0:
309,320,109450,1,0,0:0:0:0:
303,213,109576,5,0,0:0:0:0:
303,213,109703,1,2,0:0:0:0:
392,183,110337,2,0,L|392:108,1,71.25
393,94,110590,6,0,L|404:154,1,47.5
373,307,110844,6,0,L|365:261,1,47.5
441,211,111098,6,0,L|449:257,1,47.5
382,354,111351,6,0,L|373:307,1,47.5
240,246,111605,6,0,L|242:293,1,47.5
224,217,111859,6,0,L|221:169,1,47.5
250,317,112112,6,0,L|253:365,1,47.5
209,153,112366,6,0,L|206:90,1,47.5
163,22,112620,5,2,0:0:0:0:
310,0,112746,5,0,0:0:0:0:
310,0,112810,1,0,0:0:0:0:
310,0,112873,1,10,0:0:0:0:
423,89,113000,5,0,0:0:0:0:
423,89,113063,1,0,0:0:0:0:
423,89,113126,1,2,0:0:0:0:
437,231,113253,5,0,0:0:0:0:
437,231,113316,1,0,0:0:0:0:
437,231,113380,1,10,0:0:0:0:
316,154,113506,5,0,0:0:0:0:
316,154,113570,1,0,0:0:0:0:
316,154,113633,1,2,0:0:0:0:
282,374,113760,5,0,0:0:0:0:
282,374,113823,1,0,0:0:0:0:
282,374,113887,1,10,0:0:0:0:
348,273,114014,5,0,0:0:0:0:
348,273,114077,1,0,0:0:0:0:
348,273,114141,2,0,P|307:267|262:268,1,71.25
174,288,114394,2,0,P|138:290|91:283,1,71.25
46,206,114648,6,0,B|111:192|111:192|144:216|194:198|194:198|234:218,2,190
261,117,115282,1,0,0:0:0:0:
375,120,115409,1,8,0:0:0:0:
501,83,115536,1,2,0:0:0:0:
457,230,115663,6,0,B|416:203|363:210|363:210|325:247|264:234,2,190
312,356,116296,1,0,0:0:0:0:
184,321,116423,1,8,0:0:0:0:
127,185,116550,1,2,0:0:0:0:
99,23,116676,6,0,P|162:52|182:119,1,142.5
52,225,116930,2,0,P|46:156|94:105,1,142.5
252,162,117184,2,0,P|195:201|127:185,1,142.5
95,332,117437,2,0,P|152:293|220:309,1,142.5
332,367,117691,6,0,L|379:362,1,47.5
503,322,117818,2,0,L|456:327,1,47.5
295,289,117945,2,0,L|342:284,1,47.5
512,240,118072,2,0,L|465:245,1,47.5
230,240,118198,1,2,0:0:0:0:
206,239,118262,1,0,0:0:0:0:
182,234,118325,1,0,0:0:0:0:
158,231,118389,1,0,0:0:0:0:
113,215,118452,6,0,L|71:222,7,23.75
256,192,119720,5,4,0:0:0:0:
78,35,119846,5,0,0:0:0:0:
66,81,119910,1,0,0:0:0:0:
54,126,119973,1,8,0:0:0:0:
176,384,120100,5,0,0:0:0:0:
163,338,120163,1,0,0:0:0:0:
150,291,120227,1,2,0:0:0:0:
380,98,120354,5,2,0:0:0:0:
282,293,120480,1,8,0:0:0:0:
160,50,120607,1,2,0:0:0:0:
431,163,120734,5,2,0:0:0:0:
161,169,120861,1,2,0:0:0:0:
383,11,120988,1,8,0:0:0:0:
397,248,121115,1,2,0:0:0:0:
221,358,121241,5,2,0:0:0:0:
179,379,121304,1,2,0:0:0:0:
132,384,121367,1,2,0:0:0:0:
85,373,121431,1,2,0:0:0:0:
45,348,121494,1,10,0:0:0:0:
16,311,121558,1,2,0:0:0:0:
0,267,121621,1,2,0:0:0:0:
0,220,121684,1,0,0:0:0:0:
15,175,121748,5,2,0:0:0:0:
286,260,121876,1,2,0:0:0:0:
264,11,122002,1,8,0:0:0:0:
179,153,122129,1,2,0:0:0:0:
384,112,122256,5,2,0:0:0:0:
173,10,122383,1,2,0:0:0:0:
111,238,122510,1,8,0:0:0:0:
173,10,122636,1,2,0:0:0:0:
380,236,122763,5,2,0:0:0:0:
394,281,122826,1,2,0:0:0:0:
380,326,122890,1,2,0:0:0:0:
349,362,122953,1,2,0:0:0:0:
303,375,123016,5,10,0:0:0:0:
261,350,123080,1,2,0:0:0:0:
214,344,123143,1,2,0:0:0:0:
166,347,123206,1,0,0:0:0:0:
122,365,123270,6,0,L|54:367,1,47.5
32,277,123397,2,0,L|80:276,1,47.5
117,183,123523,2,0,L|49:185,1,47.5
15,91,123650,2,0,L|62:89,1,47.5
215,167,123777,5,6,0:0:0:0:
464,54,123904,5,0,0:0:0:0:
418,42,123967,1,0,0:0:0:0:
371,30,124031,1,10,0:0:0:0:
422,348,124158,5,0,0:0:0:0:
422,300,124221,1,0,0:0:0:0:
422,252,124284,1,2,0:0:0:0:
180,315,124411,5,2,0:0:0:0:
451,174,124538,1,8,0:0:0:0:
117,183,124665,1,2,0:0:0:0:
492,88,124792,5,2,0:0:0:0:
501,383,124919,1,2,0:0:0:0:
247,228,125045,1,8,0:0:0:0:
451,174,125172,1,2,0:0:0:0:
269,345,125299,5,2,0:0:0:0:
225,330,125362,1,2,0:0:0:0:
180,315,125426,1,0,0:0:0:0:
211,64,125553,1,8,0:0:0:0:
367,200,125680,1,2,0:0:0:0:
117,183,125806,5,2,0:0:0:0:
346,82,125933,1,2,0:0:0:0:
126,89,126060,1,10,0:0:0:0:
367,200,126186,1,2,0:0:0:0:
136,0,126313,1,2,0:0:0:0:
402,282,126440,1,2,0:0:0:0:
136,0,126567,1,10,0:0:0:0:
31,317,126693,1,2,0:0:0:0:
238,17,126820,5,2,0:0:0:0:
303,2,126883,1,2,0:0:0:0:
368,16,126946,1,2,0:0:0:0:
422,54,127010,1,2,0:0:0:0:
456,111,127073,1,2,0:0:0:0:
464,176,127137,1,2,0:0:0:0:
447,241,127201,1,2,0:0:0:0:
401,288,127264,1,2,0:0:0:0:
252,211,127328,5,10,0:0:0:0:
230,160,127391,1,0,0:0:0:0:
249,107,127454,1,10,0:0:0:0:
298,81,127518,1,0,0:0:0:0:
351,94,127581,1,10,0:0:0:0:
383,139,127645,1,0,0:0:0:0:
378,194,127708,1,10,0:0:0:0:
334,232,127771,1,0,0:0:0:0:
309,286,127835,6,0,L|319:383,1,95
318,380,128025,1,8,0:0:0:0:
318,380,128089,1,8,0:0:0:0:
81,188,128215,5,2,0:0:0:0:
94,142,128279,1,8,0:0:0:0:
109,94,128342,1,8,0:0:0:0:
175,320,128469,5,2,0:0:0:0:
4,135,128596,1,8,0:0:0:0:
251,31,128723,1,2,0:0:0:0:
164,232,128850,5,10,0:0:0:0:
131,0,128976,1,2,0:0:0:0:
366,67,129103,1,8,0:0:0:0:
163,232,129230,1,2,0:0:0:0:
144,238,129293,1,0,0:0:0:0:
125,242,129356,5,10,0:0:0:0:
164,267,129420,1,2,0:0:0:0:
211,272,129483,1,2,0:0:0:0:
254,254,129546,1,2,0:0:0:0:
284,217,129610,1,10,0:0:0:0:
293,171,129673,1,2,0:0:0:0:
280,126,129736,1,2,0:0:0:0:
247,93,129800,1,0,0:0:0:0:
202,79,129863,5,10,0:0:0:0:
319,306,129990,1,2,0:0:0:0:
473,106,130117,1,8,0:0:0:0:
198,177,130244,1,2,0:0:0:0:
493,184,130371,5,10,0:0:0:0:
243,5,130497,1,2,0:0:0:0:
249,352,130624,1,8,0:0:0:0:
495,266,130751,1,2,0:0:0:0:
119,122,130878,5,12,0:0:0:0:
401,324,131005,1,2,0:0:0:0:
406,277,131068,1,2,0:0:0:0:
412,229,131132,1,10,0:0:0:0:
417,182,131195,1,2,0:0:0:0:
423,135,131258,1,2,0:0:0:0:
429,87,131322,1,0,0:0:0:0:
436,40,131385,5,10,0:0:0:0:
312,208,131512,1,2,0:0:0:0:
491,356,131639,1,8,0:0:0:0:
417,182,131766,1,2,0:0:0:0:
232,376,131893,5,4,0:0:0:0:
186,72,132019,5,2,0:0:0:0:
204,115,132083,1,8,0:0:0:0:
225,157,132146,1,8,0:0:0:0:
64,365,132273,5,2,0:0:0:0:
73,318,132336,1,8,0:0:0:0:
82,271,132400,1,10,0:0:0:0:
328,317,132526,5,2,0:0:0:0:
0,250,132653,1,8,0:0:0:0:
240,2,132780,1,2,0:0:0:0:
416,336,132906,5,10,0:0:0:0:
207,240,133033,1,2,0:0:0:0:
445,76,133160,1,8,0:0:0:0:
196,323,133287,1,2,0:0:0:0:
176,279,133350,1,2,0:0:0:0:
161,233,133414,1,10,0:0:0:0:
262,0,133540,1,2,0:0:0:0:
308,368,133667,1,8,0:0:0:0:
0,217,133794,1,2,0:0:0:0:
365,64,133921,6,2,B|431:92|471:159|471:159|490:230|471:296,1,285
168,136,134428,2,2,B|235:109|311:128|311:128|375:165|408:225,1,285
438,343,134936,5,2,0:0:0:0:
373,327,134999,1,2,0:0:0:0:
322,284,135062,1,2,0:0:0:0:
298,223,135126,1,2,0:0:0:0:
305,157,135189,1,2,0:0:0:0:
342,103,135253,1,2,0:0:0:0:
399,72,135316,1,2,0:0:0:0:
466,73,135380,1,2,0:0:0:0:
512,234,135443,5,10,0:0:0:0:
451,256,135506,1,0,0:0:0:0:
385,253,135570,1,10,0:0:0:0:
327,221,135633,1,0,0:0:0:0:
306,156,135696,5,10,0:0:0:0:
263,106,135760,1,0,0:0:0:0:
204,74,135823,1,10,0:0:0:0:
137,70,135886,1,0,0:0:0:0:
74,88,135950,6,0,L|3:83,1,71.25
118,190,136203,2,0,L|47:185,1,71.25
175,287,136457,2,0,L|104:282,1,71.25
226,379,136711,2,0,L|155:374,1,71.25
446,335,136964,6,0,P|481:348|515:373,1,71.25
365,239,137218,2,0,P|404:224|446:218,1,71.25
241,228,137471,2,0,P|254:193|279:159,1,71.25
367,379,137725,6,0,L|295:382,1,71.25
217,358,137979,5,12,0:0:0:0:
384,71,138106,1,0,0:0:0:0:
384,71,138170,1,0,0:0:0:0:
384,71,138233,1,10,0:0:0:0:
435,221,138360,1,0,0:0:0:0:
299,167,138486,5,2,0:0:0:0:
438,321,138613,1,0,0:0:0:0:
438,321,138676,1,0,0:0:0:0:
438,321,138740,1,10,0:0:0:0:
469,130,138866,1,0,0:0:0:0:
322,283,138993,6,0,L|221:286,1,95
60,152,139247,1,10,0:0:0:0:
206,182,139374,1,0,0:0:0:0:
3,281,139501,1,2,0:0:0:0:
0,28,139627,1,0,0:0:0:0:
0,28,139691,1,0,0:0:0:0:
0,28,139753,1,10,0:0:0:0:
282,131,139881,1,0,0:0:0:0:
127,336,140007,6,0,P|116:300|125:238,1,95
248,55,140262,1,10,0:0:0:0:
212,282,140388,1,0,0:0:0:0:
60,152,140514,1,2,0:0:0:0:
293,228,140641,1,0,0:0:0:0:
293,228,140705,1,0,0:0:0:0:
293,228,140769,1,10,0:0:0:0:
217,367,140895,1,0,0:0:0:0:
131,254,141023,5,2,0:0:0:0:
336,360,141149,1,0,0:0:0:0:
371,186,141276,1,10,0:0:0:0:
266,306,141402,1,0,0:0:0:0:
437,239,141530,1,2,0:0:0:0:
215,156,141656,1,0,0:0:0:0:
215,156,141719,1,0,0:0:0:0:
215,156,141783,1,10,0:0:0:0:
487,170,141910,5,0,0:0:0:0:
487,170,141973,1,0,0:0:0:0:
487,170,142036,2,0,P|513:220|509:271,1,95
289,202,142290,1,8,0:0:0:0:
417,84,142416,1,2,0:0:0:0:
310,287,142543,1,2,0:0:0:0:
135,150,142670,1,2,0:0:0:0:
135,150,142733,1,0,0:0:0:0:
135,150,142796,5,8,0:0:0:0:
366,167,142923,1,2,0:0:0:0:
241,340,143050,1,2,0:0:0:0:
257,105,143177,5,2,0:0:0:0:
258,153,143240,1,2,0:0:0:0:
242,197,143303,1,10,0:0:0:0:
213,235,143367,1,2,0:0:0:0:
174,261,143430,1,2,0:0:0:0:
128,272,143494,1,2,0:0:0:0:
81,269,143557,1,0,0:0:0:0:
3,55,143684,5,2,0:0:0:0:
49,65,143748,1,2,0:0:0:0:
95,75,143811,1,10,0:0:0:0:
296,0,143938,1,2,0:0:0:0:
147,165,144065,6,0,L|245:158,1,95
310,287,144318,1,10,0:0:0:0:
147,165,144445,1,0,0:0:0:0:
125,351,144572,5,2,0:0:0:0:
210,248,144699,1,0,0:0:0:0:
210,248,144762,1,0,0:0:0:0:
210,248,144826,1,10,0:0:0:0:
21,204,144953,1,0,0:0:0:0:
168,64,145079,5,14,0:0:0:0:
265,362,145206,1,0,0:0:0:0:
364,58,145333,1,10,0:0:0:0:
110,232,145460,1,0,0:0:0:0:
440,227,145586,1,10,0:0:0:0:
271,10,145713,5,4,0:0:0:0:
271,10,145776,1,0,0:0:0:0:
271,10,145840,1,14,0:0:0:0:
110,232,145966,1,0,0:0:0:0:
440,227,146093,1,10,0:0:0:0:
190,0,146220,1,0,0:0:0:0:
158,306,146347,1,10,0:0:0:0:
431,138,146474,5,0,0:0:0:0:
431,138,146537,1,0,0:0:0:0:
431,138,146600,1,14,0:0:0:0:
53,127,146727,1,8,0:0:0:0:
330,384,146854,1,10,0:0:0:0:
263,0,146981,1,8,0:0:0:0:
86,364,147108,1,14,0:0:0:0:
418,290,147235,5,8,0:0:0:0:
413,266,147298,1,0,0:0:0:0:
408,242,147361,1,10,0:0:0:0:
121,207,147488,5,14,0:0:0:0:
