osu file format v14

[General]
AudioFilename: audio 1.2x.mp3
AudioLeadIn: 0
PreviewTime: 57555
Countdown: 0
SampleSet: None
StackLeniency: 0.7
Mode: 0
LetterboxInBreaks: 0
WidescreenStoryboard: 0

[Editor]
DistanceSpacing: 0.1
BeatDivisor: 4
GridSize: 8
TimelineZoom: 1.1

[Metadata]
Title:Hanairo Biyori speed up version
TitleUnicode:Hanairo Biyori speed up version
Artist:Natsume Chiaki
ArtistUnicode:Natsume Chiaki
Creator:Flapster
Version:Awaken's Challenge 1.2x
Source:
Tags:
BeatmapID:2050384
BeatmapSetID:979711

[Difficulty]
HPDrainRate:5
CircleSize:4
OverallDifficulty:8.3
ApproachRate:9.8
SliderMultiplier:1.9
SliderTickRate:1

[Events]
//Background and Video events
0,0,"Hanairo Biyori.jpg",0,0
//Break Periods
2,70556,72212
//Storyboard Layer 0 (Background)
//Storyboard Layer 1 (Fail)
//Storyboard Layer 2 (Pass)
//Storyboard Layer 3 (Foreground)
//Storyboard Sound Samples

[TimingPoints]
12114,274.7253,4,2,3,70,1,0
21043,-133.3333,4,2,4,55,0,0
29696,-133.3333,4,2,3,65,0,0
46729,-133.3333,4,2,1,60,0,0
48378,-100,4,2,1,80,0,1
56070,-100,4,2,1,80,0,0
57169,-100,4,2,1,80,0,1
65960,-133.3333,4,1,1,80,0,0
66098,-133.3333,4,2,0,40,0,0
66235,-133.3333,4,1,1,80,0,0
66372,-133.3333,4,2,0,40,0,0
66510,-133.3333,4,1,1,80,0,0
66647,-133.3333,4,2,0,40,0,0
66785,-133.3333,4,1,1,80,0,0
66922,-133.3333,4,2,0,40,0,0
67060,-133.3333,4,1,1,80,0,0
67196,-133.3333,4,2,0,40,0,0
67334,-133.3333,4,1,1,80,0,0
67471,-133.3333,4,2,0,40,0,0
67609,-133.3333,4,1,1,80,0,0
67746,-133.3333,4,2,0,40,0,0
67884,-133.3333,4,2,1,40,0,0
68158,-200,4,2,1,40,0,0
72622,-200,4,2,1,50,0,0
76950,-200,4,1,0,40,0,0
78048,-200,4,2,1,60,0,0
81345,-133.3333,4,2,1,60,0,0
91235,-100,4,2,1,80,0,1
98927,-100,4,2,1,80,0,0
100026,-100,4,2,1,80,0,1
108817,-133.3333,4,1,1,80,0,0
108954,-133.3333,4,2,0,40,0,0
109092,-133.3333,4,1,1,80,0,0
109229,-133.3333,4,2,0,40,0,0
109367,-133.3333,4,1,1,80,0,0
109504,-133.3333,4,2,0,40,0,0
109641,-133.3333,4,1,1,80,0,0
109779,-133.3333,4,2,0,40,0,0
109916,-133.3333,4,1,1,80,0,0
110054,-133.3333,4,2,0,40,0,0
110191,-133.3333,4,1,1,80,0,0
110329,-133.3333,4,2,0,40,0,0
110465,-133.3333,4,1,1,80,0,0
110603,-133.3333,4,2,0,40,0,0
110740,-200,4,2,1,60,0,0
110946,-200,4,2,0,30,0,0
111015,-200,4,2,1,100,0,0
113213,-200,4,1,1,20,0,0
118844,-200,4,1,1,10,0,0
119532,-200,4,1,1,40,0,0
119806,-200,4,1,1,30,0,0
124202,-100,4,1,1,80,0,0
126606,-100,4,1,1,40,0,0
126674,-100,4,1,1,80,0,0
126880,-100,4,1,1,40,0,0
126949,-100,4,1,1,80,0,0
127155,-100,4,1,1,40,0,0
127224,-100,4,1,1,80,0,0
128598,-100,4,1,2,20,0,0
129696,-100,4,2,1,90,0,1
138470,-100,4,2,1,90,0,0
138488,-100,4,2,1,90,0,1
147279,-133.3333,4,1,1,90,0,1
147416,-133.3333,4,2,0,50,0,1
147554,-133.3333,4,1,1,90,0,1
147691,-133.3333,4,2,0,50,0,1
147829,-133.3333,4,1,1,90,0,1
147965,-133.3333,4,2,0,50,0,1
148103,-133.3333,4,1,1,90,0,1
148240,-133.3333,4,2,0,50,0,1
148378,-133.3333,4,1,1,90,0,1
148515,-133.3333,4,2,0,50,0,1
148653,-133.3333,4,1,1,90,0,1
148790,-133.3333,4,2,0,50,0,1
148927,-133.3333,4,1,1,90,0,1
149065,-133.3333,4,2,0,50,0,1
149202,-200,4,2,1,30,0,1
149477,-50,4,2,1,90,0,0
149683,-100,4,2,1,90,0,0

[HitObjects]
170,88,12114,5,6,0:0:0:0:
128,313,12251,1,0,0:0:0:0:
128,313,12320,1,0,0:0:0:0:
128,313,12389,1,8,0:0:0:0:
77,163,12526,1,0,0:0:0:0:
213,217,12664,5,2,0:0:0:0:
74,63,12801,1,0,0:0:0:0:
74,63,12869,1,0,0:0:0:0:
74,63,12939,1,8,0:0:0:0:
43,254,13075,1,0,0:0:0:0:
230,310,13213,6,0,L|331:307,1,95
491,245,13488,1,8,0:0:0:0:
377,216,13625,1,0,0:0:0:0:
409,355,13763,1,2,0:0:0:0:
457,135,13899,1,0,0:0:0:0:
457,135,13969,1,0,0:0:0:0:
457,135,14037,1,8,0:0:0:0:
497,331,14174,1,0,0:0:0:0:
289,267,14312,6,0,P|281:224|299:156,1,95
424,278,14587,1,8,0:0:0:0:
266,350,14724,1,0,0:0:0:0:
290,174,14861,1,2,0:0:0:0:
352,333,14999,1,0,0:0:0:0:
352,333,15067,1,0,0:0:0:0:
352,333,15136,1,8,0:0:0:0:
209,285,15274,1,0,0:0:0:0:
377,216,15411,5,2,0:0:0:0:
142,55,15548,1,0,0:0:0:0:
256,236,15685,1,10,0:0:0:0:
272,15,15823,1,0,0:0:0:0:
136,179,15960,1,2,0:0:0:0:
338,125,16098,1,0,0:0:0:0:
473,283,16235,1,8,0:0:0:0:
383,337,16372,1,0,0:0:0:0:
383,337,16441,1,0,0:0:0:0:
383,337,16510,6,0,L|281:331,1,95
81,296,16785,2,0,L|182:288,1,95
381,222,17060,1,2,0:0:0:0:
133,121,17196,1,0,0:0:0:0:
145,141,17265,1,0,0:0:0:0:
155,162,17334,1,8,0:0:0:0:
381,222,17471,1,0,0:0:0:0:
261,357,17609,5,2,0:0:0:0:
228,253,17746,1,0,0:0:0:0:
484,185,17884,1,8,0:0:0:0:
451,289,18021,1,0,0:0:0:0:
318,283,18158,1,2,0:0:0:0:
303,141,18295,1,0,0:0:0:0:
303,141,18364,1,0,0:0:0:0:
303,141,18433,1,8,0:0:0:0:
128,67,18570,1,0,0:0:0:0:
111,179,18708,6,0,P|166:169|205:146,1,95
396,96,18982,1,8,0:0:0:0:
291,49,19120,1,0,0:0:0:0:
318,283,19257,1,2,0:0:0:0:
418,210,19395,1,0,0:0:0:0:
418,210,19463,1,0,0:0:0:0:
418,210,19532,1,8,0:0:0:0:
219,235,19669,1,0,0:0:0:0:
331,378,19806,5,6,0:0:0:0:
418,210,19944,1,0,0:0:0:0:
219,235,20081,1,10,0:0:0:0:
355,372,20219,5,0,0:0:0:0:
395,187,20356,1,6,0:0:0:0:
209,262,20494,1,0,0:0:0:0:
209,262,20562,1,0,0:0:0:0:
209,262,20630,2,0,L|273:258,1,47.5
491,331,20768,1,4,0:0:0:0:
492,343,21043,6,0,L|507:266,2,71.25
322,276,21454,1,0,0:0:0:0:
258,343,21592,1,2,0:0:0:0:
165,342,21729,1,10,0:0:0:0:
209,262,21867,1,0,0:0:0:0:
186,171,22004,5,2,0:0:0:0:
274,196,22141,1,0,0:0:0:0:
167,78,22279,1,10,0:0:0:0:
274,196,22416,1,0,0:0:0:0:
249,19,22554,1,2,0:0:0:0:
186,171,22691,1,0,0:0:0:0:
186,171,22759,1,0,0:0:0:0:
186,171,22829,1,10,0:0:0:0:
311,94,22965,1,0,0:0:0:0:
355,252,23103,6,0,P|285:255|237:305,1,142.5
179,138,23515,2,0,P|196:170|203:206,1,71.25
315,335,23789,1,0,0:0:0:0:
151,284,23927,1,10,0:0:0:0:
315,335,24064,1,0,0:0:0:0:
187,358,24202,6,0,P|146:364|106:352,1,71.25
106,196,24477,2,0,P|96:153|98:119,1,71.25
348,180,24751,1,2,0:0:0:0:
315,335,24889,1,0,0:0:0:0:
238,233,25026,1,10,0:0:0:0:
386,259,25164,1,0,0:0:0:0:
296,349,25301,5,2,0:0:0:0:
258,139,25439,1,0,0:0:0:0:
258,139,25507,1,0,0:0:0:0:
258,139,25575,1,10,0:0:0:0:
386,259,25713,1,0,0:0:0:0:
196,318,25850,2,0,L|116:316,1,71.25
0,183,26125,2,0,L|80:181,1,71.25
238,233,26399,5,2,0:0:0:0:
143,89,26537,1,0,0:0:0:0:
124,269,26674,1,10,0:0:0:0:
166,178,26812,1,0,0:0:0:0:
38,96,26949,1,2,0:0:0:0:
166,178,27087,1,0,0:0:0:0:
166,178,27155,1,0,0:0:0:0:
166,178,27224,1,10,0:0:0:0:
221,20,27361,5,0,0:0:0:0:
390,168,27499,2,0,P|334:165|289:133,1,106.875
292,137,27774,1,10,0:0:0:0:
429,56,27911,1,0,0:0:0:0:
439,265,28048,5,2,0:0:0:0:
274,288,28185,1,0,0:0:0:0:
390,168,28323,1,10,0:0:0:0:
365,346,28460,1,0,0:0:0:0:
289,183,28598,6,0,P|247:193|202:192,1,71.25
184,185,28804,1,0,0:0:0:0:
184,185,28872,1,8,0:0:0:0:
111,356,29009,1,0,0:0:0:0:
62,241,29147,5,10,0:0:0:0:
74,207,29215,1,0,0:0:0:0:
74,171,29284,1,8,0:0:0:0:
62,137,29353,1,0,0:0:0:0:
38,109,29422,6,0,L|3:92,1,35.625
147,1,29559,2,0,L|152:44,1,35.625
251,279,29696,5,6,0:0:0:0:
74,171,29834,1,0,0:0:0:0:
257,83,29971,1,10,0:0:0:0:
251,279,30109,1,0,0:0:0:0:
195,175,30246,1,2,0:0:0:0:
212,375,30384,1,0,0:0:0:0:
336,234,30520,1,10,0:0:0:0:
153,278,30658,1,0,0:0:0:0:
153,278,30727,1,0,0:0:0:0:
153,278,30795,5,2,0:0:0:0:
326,359,30933,1,0,0:0:0:0:
153,278,31070,1,10,0:0:0:0:
45,353,31208,1,0,0:0:0:0:
80,178,31344,2,0,L|70:103,1,71.25
70,107,31551,1,0,0:0:0:0:
70,107,31619,1,8,0:0:0:0:
164,18,31757,1,0,0:0:0:0:
193,168,31894,6,0,L|187:280,1,106.875
189,310,32169,1,10,0:0:0:0:
285,221,32306,1,0,0:0:0:0:
407,356,32444,2,0,P|371:353|337:347,1,71.25
285,221,32719,2,0,L|277:140,1,71.25
428,161,32993,5,2,0:0:0:0:
410,266,33130,1,0,0:0:0:0:
321,326,33268,1,10,0:0:0:0:
214,334,33405,1,2,0:0:0:0:
122,283,33543,1,2,0:0:0:0:
307,72,33680,5,2,0:0:0:0:
322,80,33749,1,0,0:0:0:0:
337,88,33817,5,2,0:0:0:0:
354,127,33886,1,0,0:0:0:0:
350,169,33955,1,2,0:0:0:0:
325,204,34024,1,0,0:0:0:0:
285,220,34092,6,0,L|193:213,1,71.25
58,215,34367,1,10,0:0:0:0:
214,334,34505,1,0,0:0:0:0:
215,120,34641,2,0,P|206:86|188:56,1,71.25
143,222,34916,2,0,P|172:241|206:251,1,71.25
374,361,35191,6,0,P|339:370|304:370,1,71.25
133,353,35465,1,10,0:0:0:0:
325,290,35603,1,0,0:0:0:0:
79,282,35740,1,2,0:0:0:0:
222,305,35878,1,0,0:0:0:0:
222,305,35946,1,0,0:0:0:0:
222,305,36015,1,10,0:0:0:0:
3,336,36153,1,0,0:0:0:0:
12,215,36290,6,0,P|2:178|-1:142,1,71.25
263,133,36565,2,0,P|259:168|250:202,1,71.25
129,155,36840,1,2,0:0:0:0:
291,19,36977,1,0,0:0:0:0:
289,223,37115,1,10,0:0:0:0:
179,63,37251,1,0,0:0:0:0:
179,63,37320,1,0,0:0:0:0:
179,63,37389,6,0,L|99:57,1,71.25
34,187,37664,1,10,0:0:0:0:
203,255,37801,1,0,0:0:0:0:
34,187,37939,5,2,0:0:0:0:
26,221,38007,1,0,0:0:0:0:
29,256,38075,1,0,0:0:0:0:
41,289,38145,1,0,0:0:0:0:
65,314,38213,5,10,0:0:0:0:
113,302,38282,1,0,0:0:0:0:
162,309,38350,1,2,0:0:0:0:
206,330,38419,1,0,0:0:0:0:
242,364,38488,5,6,0:0:0:0:
255,347,38763,1,8,0:0:0:0:
29,256,38900,1,0,0:0:0:0:
267,336,39037,1,6,0:0:0:0:
280,325,39312,1,8,0:0:0:0:
22,238,39450,1,0,0:0:0:0:
244,220,39587,5,2,0:0:0:0:
155,191,39725,1,0,0:0:0:0:
155,97,39861,1,10,0:0:0:0:
244,69,39999,1,0,0:0:0:0:
298,144,40136,1,6,0:0:0:0:
155,191,40274,1,0,0:0:0:0:
155,191,40342,1,0,0:0:0:0:
155,191,40411,1,10,0:0:0:0:
244,69,40548,1,0,0:0:0:0:
311,286,40685,5,6,0:0:0:0:
318,302,40960,1,8,0:0:0:0:
298,144,41098,1,0,0:0:0:0:
326,317,41235,1,6,0:0:0:0:
334,332,41509,1,8,0:0:0:0:
305,159,41647,1,0,0:0:0:0:
423,263,41784,5,2,0:0:0:0:
240,235,41922,1,0,0:0:0:0:
399,163,42059,1,10,0:0:0:0:
415,356,42196,1,0,0:0:0:0:
238,325,42334,1,6,0:0:0:0:
423,263,42471,1,0,0:0:0:0:
439,269,42539,1,0,0:0:0:0:
455,276,42609,1,10,0:0:0:0:
399,163,42746,1,0,0:0:0:0:
320,377,42884,5,6,0:0:0:0:
320,377,43158,1,0,0:0:0:0:
244,225,43295,1,0,0:0:0:0:
324,361,43433,1,2,0:0:0:0:
330,344,43708,1,8,0:0:0:0:
292,140,43844,1,0,0:0:0:0:
229,315,43982,5,2,0:0:0:0:
424,244,44119,1,0,0:0:0:0:
332,232,44257,1,10,0:0:0:0:
432,339,44394,1,0,0:0:0:0:
428,143,44532,5,2,0:0:0:0:
330,344,44669,1,0,0:0:0:0:
330,344,44738,1,0,0:0:0:0:
330,344,44806,1,10,0:0:0:0:
424,244,44944,1,0,0:0:0:0:
331,139,45081,6,0,P|293:148|254:182,1,71.25
118,232,45356,2,0,P|154:232|190:228,1,71.25
183,105,45630,2,0,L|185:20,1,71.25
30,185,45905,2,0,P|19:230|19:269,1,71.25
167,372,46180,5,2,0:0:0:0:
267,301,46317,1,0,0:0:0:0:
182,187,46454,1,10,0:0:0:0:
167,372,46592,1,0,0:0:0:0:
330,112,46729,5,0,0:0:0:0:
334,135,46798,1,0,0:0:0:0:
338,158,46867,1,0,0:0:0:0:
342,181,46935,1,0,0:0:0:0:
346,204,47004,1,0,0:0:0:0:
349,227,47073,1,0,0:0:0:0:
352,250,47141,1,0,0:0:0:0:
355,273,47210,1,0,0:0:0:0:
359,295,47279,5,2,0:0:0:0:
256,338,47416,1,0,0:0:0:0:
152,295,47554,1,2,0:0:0:0:
109,192,47691,1,2,0:0:0:0:
152,88,47829,1,2,0:0:0:0:
256,45,47965,1,0,0:0:0:0:
359,88,48103,1,2,0:0:0:0:
402,192,48240,1,2,0:0:0:0:
152,295,48378,5,4,0:0:0:0:
248,158,48515,1,0,0:0:0:0:
248,158,48584,1,0,0:0:0:0:
248,158,48653,1,8,0:0:0:0:
256,338,48789,1,0,0:0:0:0:
256,338,48859,1,0,0:0:0:0:
256,338,48927,1,2,0:0:0:0:
153,199,49064,5,0,0:0:0:0:
306,236,49202,1,8,0:0:0:0:
152,295,49339,1,0,0:0:0:0:
256,338,49477,2,0,L|361:330,1,95
512,246,49751,1,8,0:0:0:0:
306,236,49889,1,0,0:0:0:0:
461,362,50026,5,2,0:0:0:0:
408,157,50163,1,0,0:0:0:0:
404,133,50232,1,0,0:0:0:0:
401,110,50300,1,10,0:0:0:0:
306,236,50439,1,2,0:0:0:0:
239,33,50575,5,0,0:0:0:0:
172,100,50713,1,0,0:0:0:0:
240,165,50850,1,10,0:0:0:0:
307,101,50988,1,2,0:0:0:0:
74,100,51125,1,0,0:0:0:0:
124,278,51263,1,0,0:0:0:0:
306,236,51400,1,10,0:0:0:0:
273,55,51538,1,2,0:0:0:0:
244,362,51674,6,0,L|345:355,1,95
512,292,51949,1,8,0:0:0:0:
381,195,52087,1,0,0:0:0:0:
381,195,52155,1,0,0:0:0:0:
381,195,52224,1,2,0:0:0:0:
446,384,52361,1,0,0:0:0:0:
495,183,52499,1,10,0:0:0:0:
339,310,52636,1,0,0:0:0:0:
495,183,52774,5,4,0:0:0:0:
276,163,52911,1,0,0:0:0:0:
254,153,52979,1,0,0:0:0:0:
233,141,53048,1,8,0:0:0:0:
140,307,53185,5,0,0:0:0:0:
183,287,53254,1,0,0:0:0:0:
227,268,53323,1,2,0:0:0:0:
79,189,53460,5,0,0:0:0:0:
74,365,53598,1,8,0:0:0:0:
227,268,53735,1,0,0:0:0:0:
7,150,53872,6,0,P|-4:204|26:254,1,95
215,188,54147,1,8,0:0:0:0:
85,80,54284,1,0,0:0:0:0:
82,272,54422,1,2,0:0:0:0:
176,105,54559,1,0,0:0:0:0:
178,82,54628,1,0,0:0:0:0:
181,59,54696,1,8,0:0:0:0:
79,189,54834,1,0,0:0:0:0:
266,89,54971,5,2,0:0:0:0:
424,224,55109,1,0,0:0:0:0:
436,52,55246,1,2,0:0:0:0:
273,176,55384,1,0,0:0:0:0:
512,144,55520,1,2,0:0:0:0:
349,127,55658,1,2,0:0:0:0:
345,262,55795,1,2,0:0:0:0:
265,40,55933,1,2,0:0:0:0:
188,332,56070,5,2,0:0:0:0:
143,347,56139,1,2,0:0:0:0:
96,344,56207,1,2,0:0:0:0:
52,325,56276,1,2,0:0:0:0:
19,291,56344,1,2,0:0:0:0:
1,248,56414,1,2,0:0:0:0:
0,201,56482,1,2,0:0:0:0:
15,156,56550,1,2,0:0:0:0:
120,220,56619,5,2,0:0:0:0:
157,227,56688,1,0,0:0:0:0:
194,220,56756,1,0,0:0:0:0:
228,204,56825,1,0,0:0:0:0:
257,180,56894,1,10,0:0:0:0:
278,148,56963,1,2,0:0:0:0:
289,112,57031,1,8,0:0:0:0:
286,73,57100,1,0,0:0:0:0:
271,37,57169,6,0,B|162:19,1,95
177,21,57375,1,0,0:0:0:0:
177,21,57444,1,10,0:0:0:0:
395,210,57581,5,0,0:0:0:0:
401,164,57649,1,0,0:0:0:0:
409,117,57719,1,2,0:0:0:0:
188,130,57856,5,2,0:0:0:0:
199,330,57993,1,8,0:0:0:0:
308,258,58130,1,2,0:0:0:0:
91,258,58268,6,0,P|76:213|77:165,1,95
276,100,58543,2,0,P|276:147|254:193,1,95
119,46,58817,1,2,0:0:0:0:
380,88,58954,1,0,0:0:0:0:
380,88,59024,1,0,0:0:0:0:
380,88,59092,1,10,0:0:0:0:
274,265,59229,1,0,0:0:0:0:
356,187,59367,5,2,0:0:0:0:
434,268,59504,1,0,0:0:0:0:
353,346,59641,1,10,0:0:0:0:
274,265,59779,1,0,0:0:0:0:
434,268,59916,1,2,0:0:0:0:
260,348,60053,1,0,0:0:0:0:
184,176,60191,1,10,0:0:0:0:
352,95,60328,1,0,0:0:0:0:
187,303,60465,5,2,0:0:0:0:
163,302,60534,1,0,0:0:0:0:
140,296,60602,1,0,0:0:0:0:
119,285,60671,1,0,0:0:0:0:
100,270,60739,1,10,0:0:0:0:
86,251,60809,1,0,0:0:0:0:
76,230,60877,1,0,0:0:0:0:
71,207,60945,1,0,0:0:0:0:
69,182,61015,6,0,L|73:124,1,47.5
185,176,61153,2,0,L|196:227,1,47.5
271,128,61289,1,2,0:0:0:0:
264,102,61359,1,0,0:0:0:0:
253,80,61427,1,2,0:0:0:0:
235,63,61496,1,0,0:0:0:0:
214,49,61564,6,0,L|315:78,1,95
328,82,61770,1,0,0:0:0:0:
350,88,61839,1,10,0:0:0:0:
474,182,61977,5,0,0:0:0:0:
428,195,62045,1,0,0:0:0:0:
381,206,62114,1,2,0:0:0:0:
461,68,62251,5,2,0:0:0:0:
281,213,62389,1,8,0:0:0:0:
445,313,62526,1,2,0:0:0:0:
214,367,62664,6,0,P|166:365|116:339,1,95
31,173,62939,1,10,0:0:0:0:
129,259,63075,1,0,0:0:0:0:
0,348,63213,1,2,0:0:0:0:
31,173,63350,1,0,0:0:0:0:
31,173,63419,1,0,0:0:0:0:
31,173,63488,1,10,0:0:0:0:
129,259,63625,1,0,0:0:0:0:
136,116,63763,6,0,P|99:11|196:65,1,285
310,271,64312,2,0,P|390:346|384:225,1,285
221,158,64861,5,2,0:0:0:0:
175,146,64929,1,2,0:0:0:0:
128,152,64998,1,2,0:0:0:0:
85,173,65067,1,2,0:0:0:0:
53,208,65135,1,2,0:0:0:0:
35,251,65204,1,2,0:0:0:0:
33,298,65273,1,2,0:0:0:0:
48,343,65341,1,2,0:0:0:0:
162,352,65411,5,10,0:0:0:0:
197,363,65479,1,0,0:0:0:0:
233,352,65548,1,10,0:0:0:0:
268,363,65616,1,0,0:0:0:0:
304,352,65685,1,10,0:0:0:0:
339,363,65754,1,0,0:0:0:0:
375,351,65823,1,10,0:0:0:0:
410,362,65891,1,0,0:0:0:0:
446,349,65960,6,0,L|454:272,1,71.25
346,160,66235,2,0,P|385:159|430:150,1,71.25
267,256,66510,2,0,P|230:248|172:253,1,71.25
43,341,66785,2,0,P|85:339|121:334,1,71.25
191,44,67060,6,0,P|155:49|116:64,1,71.25
161,180,67334,2,0,P|148:217|147:257,1,71.25
296,273,67609,2,0,P|326:293|361:306,1,71.25
470,171,67884,1,8,0:0:0:0:
483,164,68158,5,12,0:0:0:0:
256,192,68227,12,0,70356,0:0:0:0:
42,92,72691,6,0,L|8:84,2,23.75
95,15,72965,1,0,0:0:0:0:
140,151,73103,2,0,L|141:198,1,47.5
73,267,73378,2,0,L|85:327,1,47.5
214,251,73653,6,0,L|212:310,1,47.5
212,298,73859,1,0,0:0:0:0:
212,298,73927,1,0,0:0:0:0:
277,378,74065,1,0,0:0:0:0:
302,261,74202,2,0,L|296:154,1,95
360,87,74615,1,0,0:0:0:0:
512,160,74751,6,0,P|462:174|411:166,1,95
214,256,75164,1,0,0:0:0:0:
329,237,75301,1,0,0:0:0:0:
215,268,75439,1,0,0:0:0:0:
286,170,75575,1,0,0:0:0:0:
215,277,75713,1,0,0:0:0:0:
203,171,75850,6,0,L|196:118,1,47.5
116,304,76125,1,0,0:0:0:0:
234,361,76263,1,0,0:0:0:0:
234,361,76400,2,0,B|277:365|310:339|310:339|343:316|394:319,1,166.25
466,350,76950,5,4,0:0:0:0:
383,203,77087,2,2,P|342:214|295:247,1,95
466,350,77499,1,4,0:0:0:0:
501,141,77636,2,2,P|465:121|407:107,1,95
442,17,78048,5,2,0:0:0:0:
413,107,78185,1,0,0:0:0:0:
327,148,78323,1,2,0:0:0:0:
231,149,78460,1,2,0:0:0:0:
146,105,78598,2,0,L|143:69,3,23.75
76,177,78872,2,0,L|75:211,3,23.75
115,282,79147,5,2,0:0:0:0:
194,249,79285,1,2,0:0:0:0:
276,271,79422,1,0,0:0:0:0:
322,342,79560,1,0,0:0:0:0:
322,342,79628,1,0,0:0:0:0:
322,342,79696,1,2,0:0:0:0:
512,322,79834,1,2,0:0:0:0:
426,322,79971,1,2,0:0:0:0:
359,267,80109,1,0,0:0:0:0:
320,190,80246,6,0,L|325:126,1,47.5
181,82,80520,2,0,L|184:139,1,47.5
305,319,80795,5,2,0:0:0:0:
340,320,80864,1,0,0:0:0:0:
374,311,80932,1,0,0:0:0:0:
405,294,81001,1,0,0:0:0:0:
430,269,81070,1,2,0:0:0:0:
447,238,81139,1,0,0:0:0:0:
455,203,81207,1,2,0:0:0:0:
453,168,81275,1,0,0:0:0:0:
440,134,81345,6,0,L|412:64,1,71.25
192,94,81620,1,8,0:0:0:0:
207,175,81757,1,0,0:0:0:0:
269,230,81895,2,0,L|356:215,1,71.25
108,343,82169,1,8,0:0:0:0:
80,260,82306,1,0,0:0:0:0:
104,180,82444,6,0,P|105:146|99:105,1,71.25
228,125,82719,2,0,P|237:93|242:43,1,71.25
330,199,82993,2,0,P|371:192|408:179,1,71.25
399,182,83199,1,0,0:0:0:0:
399,182,83268,1,8,0:0:0:0:
473,285,83405,1,0,0:0:0:0:
375,358,83543,6,0,L|226:356,1,142.5
157,196,83954,1,0,0:0:0:0:
117,282,84092,2,0,P|186:285|250:229,1,142.5
31,301,84504,1,0,0:0:0:0:
83,371,84641,6,0,L|166:368,1,71.25
231,283,84916,2,0,L|305:321,1,71.25
336,185,85191,1,2,0:0:0:0:
440,323,85329,1,0,0:0:0:0:
435,340,85397,1,0,0:0:0:0:
431,357,85465,1,10,0:0:0:0:
348,286,85603,1,0,0:0:0:0:
444,202,85740,6,0,B|473:227|473:227|468:161|503:122,1,142.5
332,21,86153,1,0,0:0:0:0:
274,118,86289,2,0,L|194:116,1,71.25
195,227,86564,2,0,L|118:239,1,71.25
218,366,86839,5,2,0:0:0:0:
270,289,86977,1,2,0:0:0:0:
360,269,87114,1,8,0:0:0:0:
448,294,87251,1,2,0:0:0:0:
453,165,87389,2,0,P|421:176|372:184,1,71.25
258,173,87664,2,0,L|178:159,1,71.25
8,275,87939,5,2,0:0:0:0:
3,377,88075,1,0,0:0:0:0:
121,227,88213,1,10,0:0:0:0:
115,341,88350,1,0,0:0:0:0:
163,117,88488,1,2,0:0:0:0:
242,68,88625,1,0,0:0:0:0:
331,92,88763,1,10,0:0:0:0:
363,178,88899,1,0,0:0:0:0:
350,269,89037,6,0,L|341:351,1,71.25
469,194,89312,1,10,0:0:0:0:
407,42,89449,1,0,0:0:0:0:
240,169,89587,1,6,0:0:0:0:
233,185,89655,1,0,0:0:0:0:
226,201,89724,1,2,0:0:0:0:
220,218,89793,1,0,0:0:0:0:
213,237,89861,5,10,0:0:0:0:
234,265,89930,1,0,0:0:0:0:
254,293,89999,1,2,0:0:0:0:
261,327,90067,1,0,0:0:0:0:
260,364,90136,5,0,0:0:0:0:
120,327,90274,1,0,0:0:0:0:
65,194,90411,1,0,0:0:0:0:
120,56,90549,1,0,0:0:0:0:
257,2,90686,1,2,0:0:0:0:
391,56,90823,1,0,0:0:0:0:
450,201,90960,1,0,0:0:0:0:
391,327,91098,1,0,0:0:0:0:
65,194,91235,5,4,0:0:0:0:
288,179,91372,5,0,0:0:0:0:
296,202,91440,1,0,0:0:0:0:
304,225,91509,1,8,0:0:0:0:
171,174,91647,5,0,0:0:0:0:
184,128,91716,1,0,0:0:0:0:
197,83,91784,1,2,0:0:0:0:
377,141,91922,5,0,0:0:0:0:
391,327,92059,1,8,0:0:0:0:
226,246,92196,1,0,0:0:0:0:
472,283,92334,6,0,P|481:325|467:384,1,95
395,231,92609,1,8,0:0:0:0:
508,153,92746,1,0,0:0:0:0:
310,69,92884,1,2,0:0:0:0:
476,9,93020,1,0,0:0:0:0:
472,32,93089,1,0,0:0:0:0:
469,55,93158,1,8,0:0:0:0:
282,143,93295,1,0,0:0:0:0:
412,295,93433,5,2,0:0:0:0:
425,152,93570,1,0,0:0:0:0:
282,143,93708,1,8,0:0:0:0:
269,284,93844,1,0,0:0:0:0:
344,215,93982,5,2,0:0:0:0:
327,63,94119,1,0,0:0:0:0:
176,85,94257,1,8,0:0:0:0:
197,235,94394,1,0,0:0:0:0:
435,356,94532,5,2,0:0:0:0:
439,332,94600,1,0,0:0:0:0:
439,309,94669,1,0,0:0:0:0:
433,286,94738,1,0,0:0:0:0:
422,264,94806,1,10,0:0:0:0:
407,246,94875,1,0,0:0:0:0:
389,232,94944,1,0,0:0:0:0:
367,222,95012,1,0,0:0:0:0:
344,215,95081,5,2,0:0:0:0:
388,230,95149,1,0,0:0:0:0:
435,225,95218,1,0,0:0:0:0:
474,199,95287,1,0,0:0:0:0:
498,159,95355,1,10,0:0:0:0:
501,112,95424,1,0,0:0:0:0:
483,68,95493,1,0,0:0:0:0:
447,37,95561,1,0,0:0:0:0:
401,26,95630,6,0,L|284:41,1,95
306,38,95837,1,0,0:0:0:0:
306,38,95905,1,10,0:0:0:0:
96,122,96043,5,0,0:0:0:0:
138,141,96111,1,0,0:0:0:0:
181,161,96180,1,2,0:0:0:0:
186,39,96317,5,2,0:0:0:0:
209,253,96454,1,8,0:0:0:0:
393,152,96592,1,2,0:0:0:0:
245,102,96729,5,2,0:0:0:0:
398,259,96867,1,2,0:0:0:0:
384,57,97004,1,8,0:0:0:0:
288,211,97141,1,2,0:0:0:0:
499,205,97279,1,2,0:0:0:0:
316,132,97416,1,0,0:0:0:0:
316,132,97485,1,0,0:0:0:0:
316,132,97554,1,8,0:0:0:0:
485,295,97691,1,0,0:0:0:0:
443,108,97829,5,2,0:0:0:0:
345,259,97965,1,0,0:0:0:0:
192,161,98103,1,10,0:0:0:0:
294,1,98240,1,0,0:0:0:0:
316,132,98378,5,2,0:0:0:0:
227,300,98515,1,0,0:0:0:0:
63,203,98653,1,10,0:0:0:0:
164,43,98789,1,0,0:0:0:0:
227,300,98927,5,2,0:0:0:0:
171,313,98995,1,2,0:0:0:0:
115,306,99064,1,2,0:0:0:0:
66,276,99133,1,2,0:0:0:0:
30,233,99201,1,2,0:0:0:0:
14,179,99270,1,2,0:0:0:0:
19,123,99339,1,2,0:0:0:0:
48,71,99408,1,2,0:0:0:0:
153,103,99477,5,2,0:0:0:0:
149,138,99545,1,0,0:0:0:0:
142,175,99614,1,2,0:0:0:0:
136,210,99683,1,0,0:0:0:0:
130,245,99751,1,10,0:0:0:0:
124,282,99820,1,0,0:0:0:0:
116,316,99889,1,8,0:0:0:0:
105,351,99958,1,0,0:0:0:0:
94,384,100026,6,0,L|77:290,1,95
77,290,100232,1,0,0:0:0:0:
77,290,100301,1,10,0:0:0:0:
368,175,100439,5,0,0:0:0:0:
347,218,100507,1,0,0:0:0:0:
327,261,100575,1,10,0:0:0:0:
53,60,100713,5,0,0:0:0:0:
195,285,100850,1,10,0:0:0:0:
61,71,100988,1,0,0:0:0:0:
276,130,101125,5,2,0:0:0:0:
22,189,101263,1,0,0:0:0:0:
145,23,101399,1,10,0:0:0:0:
256,224,101537,1,0,0:0:0:0:
139,108,101674,5,2,0:0:0:0:
110,307,101812,1,0,0:0:0:0:
109,311,101880,1,0,0:0:0:0:
108,315,101949,1,10,0:0:0:0:
330,264,102087,1,0,0:0:0:0:
162,216,102224,5,2,0:0:0:0:
257,371,102361,1,0,0:0:0:0:
415,190,102499,1,10,0:0:0:0:
215,135,102636,1,0,0:0:0:0:
368,384,102774,5,2,0:0:0:0:
332,134,102911,1,0,0:0:0:0:
134,292,103048,1,10,0:0:0:0:
368,384,103185,1,0,0:0:0:0:
262,59,103323,5,2,0:0:0:0:
243,44,103391,1,0,0:0:0:0:
219,38,103460,1,2,0:0:0:0:
195,34,103529,1,0,0:0:0:0:
156,66,103598,5,10,0:0:0:0:
141,84,103666,1,0,0:0:0:0:
123,99,103734,1,2,0:0:0:0:
101,108,103804,1,0,0:0:0:0:
77,109,103872,5,2,0:0:0:0:
55,151,103940,1,0,0:0:0:0:
47,198,104009,1,2,0:0:0:0:
55,245,104078,1,0,0:0:0:0:
77,286,104146,1,10,0:0:0:0:
111,319,104215,1,0,0:0:0:0:
153,340,104284,1,2,0:0:0:0:
200,345,104352,1,0,0:0:0:0:
248,338,104422,6,0,L|350:319,1,95
364,315,104628,1,0,0:0:0:0:
387,310,104696,1,8,0:0:0:0:
239,150,104834,5,0,0:0:0:0:
199,176,104903,1,0,0:0:0:0:
158,200,104971,1,2,0:0:0:0:
348,212,105109,5,0,0:0:0:0:
224,67,105246,1,10,0:0:0:0:
227,264,105384,1,0,0:0:0:0:
361,128,105520,5,2,0:0:0:0:
145,84,105658,1,0,0:0:0:0:
348,212,105795,1,10,0:0:0:0:
401,39,105933,1,0,0:0:0:0:
401,39,106001,1,0,0:0:0:0:
401,39,106070,1,2,0:0:0:0:
262,176,106208,5,0,0:0:0:0:
444,205,106344,1,10,0:0:0:0:
248,0,106482,1,0,0:0:0:0:
154,363,106619,6,0,B|106:376|106:376|36:350|36:246,1,190
262,176,107032,1,0,0:0:0:0:
493,268,107169,2,0,B|493:354|423:380|423:380|375:367,1,190
262,176,107581,1,0,0:0:0:0:
226,27,107719,5,2,0:0:0:0:
170,19,107787,1,2,0:0:0:0:
117,38,107855,1,2,0:0:0:0:
79,79,107924,1,2,0:0:0:0:
62,133,107993,1,2,0:0:0:0:
63,190,108062,1,2,0:0:0:0:
75,245,108130,1,2,0:0:0:0:
115,285,108199,1,2,0:0:0:0:
236,326,108268,5,2,0:0:0:0:
267,290,108336,1,0,0:0:0:0:
278,244,108404,1,2,0:0:0:0:
271,197,108474,1,0,0:0:0:0:
246,157,108542,1,10,0:0:0:0:
207,130,108611,1,0,0:0:0:0:
161,121,108679,1,10,0:0:0:0:
115,134,108749,1,0,0:0:0:0:
76,152,108817,6,0,L|-21:151,1,71.25
98,372,109092,2,0,L|169:368,1,71.25
297,97,109367,6,0,L|200:96,1,71.25
267,286,109642,2,0,L|338:282,1,71.25
153,53,109916,6,0,P|144:88|147:124,1,71.25
413,224,110191,2,0,P|387:198|354:183,1,71.25
103,358,110465,2,0,P|138:350|169:331,1,71.25
249,203,110740,1,2,0:0:0:0:
256,192,111015,5,12,0:0:0:0:
256,192,111084,12,0,113213,0:0:0:0:
82,68,115136,6,0,L|81:128,1,47.5
69,200,115411,1,0,0:0:0:0:
426,107,116372,2,0,L|426:72,2,23.75
83,341,117471,1,0,0:0:0:0:
83,341,117609,5,2,0:0:0:0:
182,259,118020,1,0,0:0:0:0:
112,207,118158,1,2,0:0:0:0:
309,320,118570,1,0,0:0:0:0:
303,213,118708,5,0,0:0:0:0:
303,213,118844,1,2,0:0:0:0:
392,183,119532,2,0,L|392:108,1,71.25
393,94,119806,6,0,L|404:154,1,47.5
373,307,120081,6,0,L|365:261,1,47.5
441,211,120356,6,0,L|449:257,1,47.5
382,354,120630,6,0,L|373:307,1,47.5
240,246,120905,6,0,L|242:293,1,47.5
224,217,121180,6,0,L|221:169,1,47.5
250,317,121454,6,0,L|253:365,1,47.5
209,153,121729,6,0,L|206:90,1,47.5
163,22,122004,5,2,0:0:0:0:
310,0,122141,5,0,0:0:0:0:
310,0,122210,1,0,0:0:0:0:
310,0,122279,1,10,0:0:0:0:
423,89,122416,5,0,0:0:0:0:
423,89,122485,1,0,0:0:0:0:
423,89,122554,1,2,0:0:0:0:
437,231,122691,5,0,0:0:0:0:
437,231,122759,1,0,0:0:0:0:
437,231,122829,1,10,0:0:0:0:
316,154,122965,5,0,0:0:0:0:
316,154,123034,1,0,0:0:0:0:
316,154,123103,1,2,0:0:0:0:
282,374,123240,5,0,0:0:0:0:
282,374,123309,1,0,0:0:0:0:
282,374,123378,1,10,0:0:0:0:
348,273,123515,5,0,0:0:0:0:
348,273,123584,1,0,0:0:0:0:
348,273,123653,2,0,P|307:267|262:268,1,71.25
174,288,123927,2,0,P|138:290|91:283,1,71.25
46,206,124202,6,0,B|111:192|111:192|144:216|194:198|194:198|234:218,2,190
261,117,124889,1,0,0:0:0:0:
375,120,125026,1,8,0:0:0:0:
501,83,125164,1,2,0:0:0:0:
457,230,125301,6,0,B|416:203|363:210|363:210|325:247|264:234,2,190
312,356,125988,1,0,0:0:0:0:
184,321,126125,1,8,0:0:0:0:
127,185,126263,1,2,0:0:0:0:
99,23,126399,6,0,P|162:52|182:119,1,142.5
52,225,126674,2,0,P|46:156|94:105,1,142.5
252,162,126949,2,0,P|195:201|127:185,1,142.5
95,332,127224,2,0,P|152:293|220:309,1,142.5
332,367,127499,6,0,L|379:362,1,47.5
503,322,127636,2,0,L|456:327,1,47.5
295,289,127774,2,0,L|342:284,1,47.5
512,240,127911,2,0,L|465:245,1,47.5
230,240,128048,1,2,0:0:0:0:
206,239,128117,1,0,0:0:0:0:
182,234,128185,1,0,0:0:0:0:
158,231,128254,1,0,0:0:0:0:
113,215,128323,6,0,L|71:222,7,23.75
256,192,129696,5,4,0:0:0:0:
78,35,129834,5,0,0:0:0:0:
66,81,129903,1,0,0:0:0:0:
54,126,129971,1,8,0:0:0:0:
176,384,130109,5,0,0:0:0:0:
163,338,130177,1,0,0:0:0:0:
150,291,130246,1,2,0:0:0:0:
380,98,130384,5,2,0:0:0:0:
282,293,130520,1,8,0:0:0:0:
160,50,130658,1,2,0:0:0:0:
431,163,130795,5,2,0:0:0:0:
161,169,130933,1,2,0:0:0:0:
383,11,131070,1,8,0:0:0:0:
397,248,131208,1,2,0:0:0:0:
221,358,131345,5,2,0:0:0:0:
179,379,131413,1,2,0:0:0:0:
132,384,131481,1,2,0:0:0:0:
85,373,131550,1,2,0:0:0:0:
45,348,131619,1,10,0:0:0:0:
16,311,131688,1,2,0:0:0:0:
0,267,131756,1,2,0:0:0:0:
0,220,131825,1,0,0:0:0:0:
15,175,131894,5,2,0:0:0:0:
286,260,132032,1,2,0:0:0:0:
264,11,132169,1,8,0:0:0:0:
179,153,132306,1,2,0:0:0:0:
384,112,132444,5,2,0:0:0:0:
173,10,132581,1,2,0:0:0:0:
111,238,132719,1,8,0:0:0:0:
173,10,132856,1,2,0:0:0:0:
380,236,132993,5,2,0:0:0:0:
394,281,133062,1,2,0:0:0:0:
380,326,133130,1,2,0:0:0:0:
349,362,133200,1,2,0:0:0:0:
303,375,133268,5,10,0:0:0:0:
261,350,133337,1,2,0:0:0:0:
214,344,133405,1,2,0:0:0:0:
166,347,133474,1,0,0:0:0:0:
122,365,133543,6,0,L|54:367,1,47.5
32,277,133680,2,0,L|80:276,1,47.5
117,183,133817,2,0,L|49:185,1,47.5
15,91,133955,2,0,L|62:89,1,47.5
215,167,134092,5,6,0:0:0:0:
464,54,134230,5,0,0:0:0:0:
418,42,134298,1,0,0:0:0:0:
371,30,134367,1,10,0:0:0:0:
422,348,134505,5,0,0:0:0:0:
422,300,134573,1,0,0:0:0:0:
422,252,134641,1,2,0:0:0:0:
180,315,134779,5,2,0:0:0:0:
451,174,134916,1,8,0:0:0:0:
117,183,135054,1,2,0:0:0:0:
492,88,135191,5,2,0:0:0:0:
501,383,135329,1,2,0:0:0:0:
247,228,135465,1,8,0:0:0:0:
451,174,135603,1,2,0:0:0:0:
269,345,135740,5,2,0:0:0:0:
225,330,135809,1,2,0:0:0:0:
180,315,135878,1,0,0:0:0:0:
211,64,136015,1,8,0:0:0:0:
367,200,136153,1,2,0:0:0:0:
117,183,136290,5,2,0:0:0:0:
346,82,136427,1,2,0:0:0:0:
126,89,136565,1,10,0:0:0:0:
367,200,136702,1,2,0:0:0:0:
136,0,136840,1,2,0:0:0:0:
402,282,136977,1,2,0:0:0:0:
136,0,137115,1,10,0:0:0:0:
31,317,137251,1,2,0:0:0:0:
238,17,137389,5,2,0:0:0:0:
303,2,137457,1,2,0:0:0:0:
368,16,137525,1,2,0:0:0:0:
422,54,137595,1,2,0:0:0:0:
456,111,137663,1,2,0:0:0:0:
464,176,137732,1,2,0:0:0:0:
447,241,137801,1,2,0:0:0:0:
401,288,137870,1,2,0:0:0:0:
252,211,137939,5,10,0:0:0:0:
230,160,138007,1,0,0:0:0:0:
249,107,138075,1,10,0:0:0:0:
298,81,138145,1,0,0:0:0:0:
351,94,138213,1,10,0:0:0:0:
383,139,138282,1,0,0:0:0:0:
378,194,138350,1,10,0:0:0:0:
334,232,138419,1,0,0:0:0:0:
309,286,138488,6,0,L|319:383,1,95
318,380,138694,1,8,0:0:0:0:
318,380,138763,1,8,0:0:0:0:
81,188,138900,5,2,0:0:0:0:
94,142,138969,1,8,0:0:0:0:
109,94,139037,1,8,0:0:0:0:
175,320,139175,5,2,0:0:0:0:
4,135,139312,1,8,0:0:0:0:
251,31,139450,1,2,0:0:0:0:
164,232,139587,5,10,0:0:0:0:
131,0,139724,1,2,0:0:0:0:
366,67,139861,1,8,0:0:0:0:
163,232,139999,1,2,0:0:0:0:
144,238,140067,1,0,0:0:0:0:
125,242,140136,5,10,0:0:0:0:
164,267,140205,1,2,0:0:0:0:
211,272,140273,1,2,0:0:0:0:
254,254,140342,1,2,0:0:0:0:
284,217,140410,1,10,0:0:0:0:
293,171,140480,1,2,0:0:0:0:
280,126,140548,1,2,0:0:0:0:
247,93,140616,1,0,0:0:0:0:
202,79,140685,5,10,0:0:0:0:
319,306,140823,1,2,0:0:0:0:
473,106,140960,1,8,0:0:0:0:
198,177,141098,1,2,0:0:0:0:
493,184,141235,5,10,0:0:0:0:
243,5,141372,1,2,0:0:0:0:
249,352,141510,1,8,0:0:0:0:
495,266,141647,1,2,0:0:0:0:
119,122,141785,5,12,0:0:0:0:
401,324,141922,1,2,0:0:0:0:
406,277,141990,1,2,0:0:0:0:
412,229,142060,1,10,0:0:0:0:
417,182,142128,1,2,0:0:0:0:
423,135,142196,1,2,0:0:0:0:
429,87,142265,1,0,0:0:0:0:
436,40,142334,5,10,0:0:0:0:
312,208,142471,1,2,0:0:0:0:
491,356,142609,1,8,0:0:0:0:
417,182,142746,1,2,0:0:0:0:
232,376,142884,5,4,0:0:0:0:
186,72,143020,5,2,0:0:0:0:
204,115,143090,1,8,0:0:0:0:
225,157,143158,1,8,0:0:0:0:
64,365,143295,5,2,0:0:0:0:
73,318,143365,1,8,0:0:0:0:
82,271,143433,1,10,0:0:0:0:
328,317,143570,5,2,0:0:0:0:
0,250,143708,1,8,0:0:0:0:
240,2,143845,1,2,0:0:0:0:
416,336,143982,5,10,0:0:0:0:
207,240,144120,1,2,0:0:0:0:
445,76,144257,1,8,0:0:0:0:
196,323,144395,1,2,0:0:0:0:
176,279,144463,1,2,0:0:0:0:
161,233,144532,1,10,0:0:0:0:
262,0,144669,1,2,0:0:0:0:
308,368,144806,1,8,0:0:0:0:
0,217,144944,1,2,0:0:0:0:
365,64,145081,6,2,B|431:92|471:159|471:159|490:230|471:296,1,285
168,136,145630,2,2,B|235:109|311:128|311:128|375:165|408:225,1,285
438,343,146180,5,2,0:0:0:0:
373,327,146249,1,2,0:0:0:0:
322,284,146317,1,2,0:0:0:0:
298,223,146386,1,2,0:0:0:0:
305,157,146455,1,2,0:0:0:0:
342,103,146524,1,2,0:0:0:0:
399,72,146592,1,2,0:0:0:0:
466,73,146661,1,2,0:0:0:0:
512,234,146730,5,10,0:0:0:0:
451,256,146799,1,0,0:0:0:0:
385,253,146867,1,10,0:0:0:0:
327,221,146935,1,0,0:0:0:0:
306,156,147005,5,10,0:0:0:0:
263,106,147073,1,0,0:0:0:0:
204,74,147141,1,10,0:0:0:0:
137,70,147210,1,0,0:0:0:0:
74,88,147279,6,0,L|3:83,1,71.25
118,190,147554,2,0,L|47:185,1,71.25
175,287,147829,2,0,L|104:282,1,71.25
226,379,148104,2,0,L|155:374,1,71.25
446,335,148378,6,0,P|481:348|515:373,1,71.25
365,239,148653,2,0,P|404:224|446:218,1,71.25
241,228,148927,2,0,P|254:193|279:159,1,71.25
367,379,149202,6,0,L|295:382,1,71.25
217,358,149477,5,12,0:0:0:0:
384,71,149615,1,0,0:0:0:0:
384,71,149684,1,0,0:0:0:0:
384,71,149752,1,10,0:0:0:0:
435,221,149890,1,0,0:0:0:0:
299,167,150027,5,2,0:0:0:0:
438,321,150165,1,0,0:0:0:0:
438,321,150233,1,0,0:0:0:0:
438,321,150302,1,10,0:0:0:0:
469,130,150439,1,0,0:0:0:0:
322,283,150576,6,0,L|221:286,1,95
60,152,150851,1,10,0:0:0:0:
206,182,150989,1,0,0:0:0:0:
3,281,151126,1,2,0:0:0:0:
0,28,151263,1,0,0:0:0:0:
0,28,151332,1,0,0:0:0:0:
0,28,151400,1,10,0:0:0:0:
282,131,151538,1,0,0:0:0:0:
127,336,151675,6,0,P|116:300|125:238,1,95
248,55,151950,1,10,0:0:0:0:
212,282,152087,1,0,0:0:0:0:
60,152,152224,1,2,0:0:0:0:
293,228,152361,1,0,0:0:0:0:
293,228,152430,1,0,0:0:0:0:
293,228,152500,1,10,0:0:0:0:
217,367,152636,1,0,0:0:0:0:
131,254,152775,5,2,0:0:0:0:
336,360,152911,1,0,0:0:0:0:
371,186,153049,1,10,0:0:0:0:
266,306,153185,1,0,0:0:0:0:
437,239,153324,1,2,0:0:0:0:
215,156,153460,1,0,0:0:0:0:
215,156,153529,1,0,0:0:0:0:
215,156,153598,1,10,0:0:0:0:
487,170,153735,5,0,0:0:0:0:
487,170,153804,1,0,0:0:0:0:
487,170,153872,2,0,P|513:220|509:271,1,95
289,202,154147,1,8,0:0:0:0:
417,84,154285,1,2,0:0:0:0:
310,287,154422,1,2,0:0:0:0:
135,150,154560,1,2,0:0:0:0:
135,150,154628,1,0,0:0:0:0:
135,150,154696,5,8,0:0:0:0:
366,167,154834,1,2,0:0:0:0:
241,340,154971,1,2,0:0:0:0:
257,105,155109,5,2,0:0:0:0:
258,153,155177,1,2,0:0:0:0:
242,197,155245,1,10,0:0:0:0:
213,235,155315,1,2,0:0:0:0:
174,261,155383,1,2,0:0:0:0:
128,272,155452,1,2,0:0:0:0:
81,269,155520,1,0,0:0:0:0:
3,55,155658,5,2,0:0:0:0:
49,65,155727,1,2,0:0:0:0:
95,75,155795,1,10,0:0:0:0:
296,0,155933,1,2,0:0:0:0:
147,165,156070,6,0,L|245:158,1,95
310,287,156345,1,10,0:0:0:0:
147,165,156482,1,0,0:0:0:0:
125,351,156620,5,2,0:0:0:0:
210,248,156757,1,0,0:0:0:0:
210,248,156825,1,0,0:0:0:0:
210,248,156895,1,10,0:0:0:0:
21,204,157032,1,0,0:0:0:0:
168,64,157169,5,14,0:0:0:0:
265,362,157306,1,0,0:0:0:0:
364,58,157444,1,10,0:0:0:0:
110,232,157581,1,0,0:0:0:0:
440,227,157719,1,10,0:0:0:0:
271,10,157856,5,4,0:0:0:0:
271,10,157925,1,0,0:0:0:0:
271,10,157993,1,14,0:0:0:0:
110,232,158130,1,0,0:0:0:0:
440,227,158268,1,10,0:0:0:0:
190,0,158405,1,0,0:0:0:0:
158,306,158543,1,10,0:0:0:0:
431,138,158680,5,0,0:0:0:0:
431,138,158749,1,0,0:0:0:0:
431,138,158817,1,14,0:0:0:0:
53,127,158955,1,8,0:0:0:0:
330,384,159092,1,10,0:0:0:0:
263,0,159230,1,8,0:0:0:0:
86,364,159367,1,14,0:0:0:0:
418,290,159505,5,8,0:0:0:0:
413,266,159573,1,0,0:0:0:0:
408,242,159641,1,10,0:0:0:0:
121,207,159779,5,14,0:0:0:0:
