osu file format v14

[General]
AudioFilename: audio 1.1x.mp3
AudioLeadIn: 0
PreviewTime: 57555
Countdown: 0
SampleSet: Soft
StackLeniency: 0.7
Mode: 0
LetterboxInBreaks: 0
WidescreenStoryboard: 0

[Editor]
DistanceSpacing: 0.1
BeatDivisor: 4
GridSize: 8
TimelineZoom: 1.1

[Metadata]
Title:Hanairo Biyori speed up version
TitleUnicode:Hanairo Biyori speed up version
Artist:Natsume Chiaki
ArtistUnicode:Natsume Chiaki
Creator:Flapster
Version:Awaken's Challenge 1.1x
Source:
Tags:
BeatmapID:2050387
BeatmapSetID:979711

[Difficulty]
HPDrainRate:5
CircleSize:4
OverallDifficulty:8.3
ApproachRate:9.8
SliderMultiplier:1.9
SliderTickRate:1

[Events]
//Background and Video events
0,0,"Hanairo Biyori.jpg",0,0
//Break Periods
2,76952,78781
//Storyboard Layer 0 (Background)
//Storyboard Layer 1 (Fail)
//Storyboard Layer 2 (Pass)
//Storyboard Layer 3 (Foreground)
//Storyboard Sound Samples

[TimingPoints]
13216,299.7003,4,2,3,70,1,0
22956,-133.3333,4,2,4,55,0,0
32396,-133.3333,4,2,3,65,0,0
50978,-133.3333,4,2,1,60,0,0
52776,-100,4,2,1,80,0,1
61168,-100,4,2,1,80,0,0
62366,-100,4,2,1,80,0,1
71957,-133.3333,4,1,1,80,0,0
72107,-133.3333,4,2,0,40,0,0
72257,-133.3333,4,1,1,80,0,0
72406,-133.3333,4,2,0,40,0,0
72556,-133.3333,4,1,1,80,0,0
72706,-133.3333,4,2,0,40,0,0
72856,-133.3333,4,1,1,80,0,0
73006,-133.3333,4,2,0,40,0,0
73156,-133.3333,4,1,1,80,0,0
73305,-133.3333,4,2,0,40,0,0
73455,-133.3333,4,1,1,80,0,0
73605,-133.3333,4,2,0,40,0,0
73755,-133.3333,4,1,1,80,0,0
73905,-133.3333,4,2,0,40,0,0
74055,-133.3333,4,2,1,40,0,0
74354,-200,4,2,1,40,0,0
79224,-200,4,2,1,50,0,0
83945,-200,4,1,0,40,0,0
85143,-200,4,2,1,60,0,0
88740,-133.3333,4,2,1,60,0,0
99530,-100,4,2,1,80,0,1
107920,-100,4,2,1,80,0,0
109120,-100,4,2,1,80,0,1
118710,-133.3333,4,1,1,80,0,0
118860,-133.3333,4,2,0,40,0,0
119010,-133.3333,4,1,1,80,0,0
119160,-133.3333,4,2,0,40,0,0
119310,-133.3333,4,1,1,80,0,0
119460,-133.3333,4,2,0,40,0,0
119609,-133.3333,4,1,1,80,0,0
119759,-133.3333,4,2,0,40,0,0
119909,-133.3333,4,1,1,80,0,0
120059,-133.3333,4,2,0,40,0,0
120209,-133.3333,4,1,1,80,0,0
120359,-133.3333,4,2,0,40,0,0
120508,-133.3333,4,1,1,80,0,0
120658,-133.3333,4,2,0,40,0,0
120808,-200,4,2,1,60,0,0
121032,-200,4,2,0,30,0,0
121108,-200,4,2,1,100,0,0
123505,-200,4,1,1,20,0,0
129649,-200,4,1,1,10,0,0
130399,-200,4,1,1,40,0,0
130698,-200,4,1,1,30,0,0
135493,-100,4,1,1,80,0,0
138116,-100,4,1,1,40,0,0
138190,-100,4,1,1,80,0,0
138415,-100,4,1,1,40,0,0
138490,-100,4,1,1,80,0,0
138715,-100,4,1,1,40,0,0
138790,-100,4,1,1,80,0,0
140289,-100,4,1,2,20,0,0
141487,-100,4,2,1,90,0,1
151059,-100,4,2,1,90,0,0
151078,-100,4,2,1,90,0,1
160668,-133.3333,4,1,1,90,0,1
160818,-133.3333,4,2,0,50,0,1
160968,-133.3333,4,1,1,90,0,1
161118,-133.3333,4,2,0,50,0,1
161268,-133.3333,4,1,1,90,0,1
161417,-133.3333,4,2,0,50,0,1
161567,-133.3333,4,1,1,90,0,1
161717,-133.3333,4,2,0,50,0,1
161867,-133.3333,4,1,1,90,0,1
162017,-133.3333,4,2,0,50,0,1
162167,-133.3333,4,1,1,90,0,1
162316,-133.3333,4,2,0,50,0,1
162466,-133.3333,4,1,1,90,0,1
162616,-133.3333,4,2,0,50,0,1
162766,-200,4,2,1,30,0,1
163066,-50,4,2,1,90,0,0
163290,-100,4,2,1,90,0,0

[HitObjects]
170,88,13215,5,6,0:0:0:0:
128,313,13365,1,0,0:0:0:0:
128,313,13440,1,0,0:0:0:0:
128,313,13515,1,8,0:0:0:0:
77,163,13665,1,0,0:0:0:0:
213,217,13815,5,2,0:0:0:0:
74,63,13965,1,0,0:0:0:0:
74,63,14040,1,0,0:0:0:0:
74,63,14115,1,8,0:0:0:0:
43,254,14264,1,0,0:0:0:0:
230,310,14414,6,0,L|331:307,1,95
491,245,14714,1,8,0:0:0:0:
377,216,14864,1,0,0:0:0:0:
409,355,15014,1,2,0:0:0:0:
457,135,15163,1,0,0:0:0:0:
457,135,15239,1,0,0:0:0:0:
457,135,15313,1,8,0:0:0:0:
497,331,15463,1,0,0:0:0:0:
289,267,15613,6,0,P|281:224|299:156,1,95
424,278,15913,1,8,0:0:0:0:
266,350,16062,1,0,0:0:0:0:
290,174,16212,1,2,0:0:0:0:
352,333,16362,1,0,0:0:0:0:
352,333,16437,1,0,0:0:0:0:
352,333,16512,1,8,0:0:0:0:
209,285,16662,1,0,0:0:0:0:
377,216,16812,5,2,0:0:0:0:
142,55,16961,1,0,0:0:0:0:
256,236,17111,1,10,0:0:0:0:
272,15,17261,1,0,0:0:0:0:
136,179,17411,1,2,0:0:0:0:
338,125,17561,1,0,0:0:0:0:
473,283,17711,1,8,0:0:0:0:
383,337,17860,1,0,0:0:0:0:
383,337,17936,1,0,0:0:0:0:
383,337,18010,6,0,L|281:331,1,95
81,296,18310,2,0,L|182:288,1,95
381,222,18610,1,2,0:0:0:0:
133,121,18760,1,0,0:0:0:0:
145,141,18835,1,0,0:0:0:0:
155,162,18910,1,8,0:0:0:0:
381,222,19060,1,0,0:0:0:0:
261,357,19210,5,2,0:0:0:0:
228,253,19360,1,0,0:0:0:0:
484,185,19510,1,8,0:0:0:0:
451,289,19660,1,0,0:0:0:0:
318,283,19809,1,2,0:0:0:0:
303,141,19959,1,0,0:0:0:0:
303,141,20033,1,0,0:0:0:0:
303,141,20109,1,8,0:0:0:0:
128,67,20259,1,0,0:0:0:0:
111,179,20409,6,0,P|166:169|205:146,1,95
396,96,20708,1,8,0:0:0:0:
291,49,20858,1,0,0:0:0:0:
318,283,21008,1,2,0:0:0:0:
418,210,21158,1,0,0:0:0:0:
418,210,21232,1,0,0:0:0:0:
418,210,21308,1,8,0:0:0:0:
219,235,21457,1,0,0:0:0:0:
331,378,21607,5,6,0:0:0:0:
418,210,21757,1,0,0:0:0:0:
219,235,21907,1,10,0:0:0:0:
355,372,22057,5,0,0:0:0:0:
395,187,22207,1,6,0:0:0:0:
209,262,22357,1,0,0:0:0:0:
209,262,22431,1,0,0:0:0:0:
209,262,22506,2,0,L|273:258,1,47.5
491,331,22656,1,4,0:0:0:0:
492,343,22956,6,0,L|507:266,2,71.25
322,276,23405,1,0,0:0:0:0:
258,343,23555,1,2,0:0:0:0:
165,342,23705,1,10,0:0:0:0:
209,262,23855,1,0,0:0:0:0:
186,171,24005,5,2,0:0:0:0:
274,196,24154,1,0,0:0:0:0:
167,78,24304,1,10,0:0:0:0:
274,196,24454,1,0,0:0:0:0:
249,19,24604,1,2,0:0:0:0:
186,171,24754,1,0,0:0:0:0:
186,171,24829,1,0,0:0:0:0:
186,171,24904,1,10,0:0:0:0:
311,94,25053,1,0,0:0:0:0:
355,252,25203,6,0,P|285:255|237:305,1,142.5
179,138,25653,2,0,P|196:170|203:206,1,71.25
315,335,25952,1,0,0:0:0:0:
151,284,26102,1,10,0:0:0:0:
315,335,26252,1,0,0:0:0:0:
187,358,26402,6,0,P|146:364|106:352,1,71.25
106,196,26702,2,0,P|96:153|98:119,1,71.25
348,180,27001,1,2,0:0:0:0:
315,335,27151,1,0,0:0:0:0:
238,233,27301,1,10,0:0:0:0:
386,259,27451,1,0,0:0:0:0:
296,349,27601,5,2,0:0:0:0:
258,139,27751,1,0,0:0:0:0:
258,139,27826,1,0,0:0:0:0:
258,139,27900,1,10,0:0:0:0:
386,259,28050,1,0,0:0:0:0:
196,318,28200,2,0,L|116:316,1,71.25
0,183,28500,2,0,L|80:181,1,71.25
238,233,28800,5,2,0:0:0:0:
143,89,28950,1,0,0:0:0:0:
124,269,29100,1,10,0:0:0:0:
166,178,29250,1,0,0:0:0:0:
38,96,29400,1,2,0:0:0:0:
166,178,29550,1,0,0:0:0:0:
166,178,29624,1,0,0:0:0:0:
166,178,29699,1,10,0:0:0:0:
221,20,29849,5,0,0:0:0:0:
390,168,29999,2,0,P|334:165|289:133,1,106.875
292,137,30299,1,10,0:0:0:0:
429,56,30449,1,0,0:0:0:0:
439,265,30598,5,2,0:0:0:0:
274,288,30748,1,0,0:0:0:0:
390,168,30898,1,10,0:0:0:0:
365,346,31048,1,0,0:0:0:0:
289,183,31198,6,0,P|247:193|202:192,1,71.25
184,185,31422,1,0,0:0:0:0:
184,185,31497,1,8,0:0:0:0:
111,356,31647,1,0,0:0:0:0:
62,241,31797,5,10,0:0:0:0:
74,207,31871,1,0,0:0:0:0:
74,171,31947,1,8,0:0:0:0:
62,137,32021,1,0,0:0:0:0:
38,109,32097,6,0,L|3:92,1,35.625
147,1,32247,2,0,L|152:44,1,35.625
251,279,32396,5,6,0:0:0:0:
74,171,32546,1,0,0:0:0:0:
257,83,32696,1,10,0:0:0:0:
251,279,32846,1,0,0:0:0:0:
195,175,32996,1,2,0:0:0:0:
212,375,33146,1,0,0:0:0:0:
336,234,33295,1,10,0:0:0:0:
153,278,33445,1,0,0:0:0:0:
153,278,33520,1,0,0:0:0:0:
153,278,33595,5,2,0:0:0:0:
326,359,33745,1,0,0:0:0:0:
153,278,33895,1,10,0:0:0:0:
45,353,34045,1,0,0:0:0:0:
80,178,34194,2,0,L|70:103,1,71.25
70,107,34420,1,0,0:0:0:0:
70,107,34494,1,8,0:0:0:0:
164,18,34644,1,0,0:0:0:0:
193,168,34794,6,0,L|187:280,1,106.875
189,310,35093,1,10,0:0:0:0:
285,221,35243,1,0,0:0:0:0:
407,356,35393,2,0,P|371:353|337:347,1,71.25
285,221,35693,2,0,L|277:140,1,71.25
428,161,35992,5,2,0:0:0:0:
410,266,36142,1,0,0:0:0:0:
321,326,36292,1,10,0:0:0:0:
214,334,36442,1,2,0:0:0:0:
122,283,36592,1,2,0:0:0:0:
307,72,36742,5,2,0:0:0:0:
322,80,36817,1,0,0:0:0:0:
337,88,36891,5,2,0:0:0:0:
354,127,36967,1,0,0:0:0:0:
350,169,37041,1,2,0:0:0:0:
325,204,37117,1,0,0:0:0:0:
285,220,37191,6,0,L|193:213,1,71.25
58,215,37491,1,10,0:0:0:0:
214,334,37641,1,0,0:0:0:0:
215,120,37790,2,0,P|206:86|188:56,1,71.25
143,222,38090,2,0,P|172:241|206:251,1,71.25
374,361,38390,6,0,P|339:370|304:370,1,71.25
133,353,38690,1,10,0:0:0:0:
325,290,38840,1,0,0:0:0:0:
79,282,38990,1,2,0:0:0:0:
222,305,39140,1,0,0:0:0:0:
222,305,39214,1,0,0:0:0:0:
222,305,39290,1,10,0:0:0:0:
3,336,39440,1,0,0:0:0:0:
12,215,39589,6,0,P|2:178|-1:142,1,71.25
263,133,39889,2,0,P|259:168|250:202,1,71.25
129,155,40189,1,2,0:0:0:0:
291,19,40339,1,0,0:0:0:0:
289,223,40489,1,10,0:0:0:0:
179,63,40638,1,0,0:0:0:0:
179,63,40713,1,0,0:0:0:0:
179,63,40788,6,0,L|99:57,1,71.25
34,187,41088,1,10,0:0:0:0:
203,255,41238,1,0,0:0:0:0:
34,187,41388,5,2,0:0:0:0:
26,221,41462,1,0,0:0:0:0:
29,256,41537,1,0,0:0:0:0:
41,289,41612,1,0,0:0:0:0:
65,314,41687,5,10,0:0:0:0:
113,302,41762,1,0,0:0:0:0:
162,309,41837,1,2,0:0:0:0:
206,330,41911,1,0,0:0:0:0:
242,364,41987,5,6,0:0:0:0:
255,347,42287,1,8,0:0:0:0:
29,256,42436,1,0,0:0:0:0:
267,336,42586,1,6,0:0:0:0:
280,325,42886,1,8,0:0:0:0:
22,238,43036,1,0,0:0:0:0:
244,220,43186,5,2,0:0:0:0:
155,191,43336,1,0,0:0:0:0:
155,97,43485,1,10,0:0:0:0:
244,69,43635,1,0,0:0:0:0:
298,144,43785,1,6,0:0:0:0:
155,191,43935,1,0,0:0:0:0:
155,191,44010,1,0,0:0:0:0:
155,191,44085,1,10,0:0:0:0:
244,69,44234,1,0,0:0:0:0:
311,286,44384,5,6,0:0:0:0:
318,302,44684,1,8,0:0:0:0:
298,144,44834,1,0,0:0:0:0:
326,317,44984,1,6,0:0:0:0:
334,332,45283,1,8,0:0:0:0:
305,159,45433,1,0,0:0:0:0:
423,263,45583,5,2,0:0:0:0:
240,235,45733,1,0,0:0:0:0:
399,163,45883,1,10,0:0:0:0:
415,356,46032,1,0,0:0:0:0:
238,325,46182,1,6,0:0:0:0:
423,263,46332,1,0,0:0:0:0:
439,269,46407,1,0,0:0:0:0:
455,276,46482,1,10,0:0:0:0:
399,163,46632,1,0,0:0:0:0:
320,377,46782,5,6,0:0:0:0:
320,377,47081,1,0,0:0:0:0:
244,225,47231,1,0,0:0:0:0:
324,361,47381,1,2,0:0:0:0:
330,344,47681,1,8,0:0:0:0:
292,140,47830,1,0,0:0:0:0:
229,315,47980,5,2,0:0:0:0:
424,244,48130,1,0,0:0:0:0:
332,232,48280,1,10,0:0:0:0:
432,339,48430,1,0,0:0:0:0:
428,143,48580,5,2,0:0:0:0:
330,344,48730,1,0,0:0:0:0:
330,344,48805,1,0,0:0:0:0:
330,344,48880,1,10,0:0:0:0:
424,244,49030,1,0,0:0:0:0:
331,139,49180,6,0,P|293:148|254:182,1,71.25
118,232,49480,2,0,P|154:232|190:228,1,71.25
183,105,49779,2,0,L|185:20,1,71.25
30,185,50079,2,0,P|19:230|19:269,1,71.25
167,372,50379,5,2,0:0:0:0:
267,301,50528,1,0,0:0:0:0:
182,187,50678,1,10,0:0:0:0:
167,372,50828,1,0,0:0:0:0:
330,112,50978,5,0,0:0:0:0:
334,135,51052,1,0,0:0:0:0:
338,158,51128,1,0,0:0:0:0:
342,181,51202,1,0,0:0:0:0:
346,204,51278,1,0,0:0:0:0:
349,227,51352,1,0,0:0:0:0:
352,250,51427,1,0,0:0:0:0:
355,273,51502,1,0,0:0:0:0:
359,295,51577,5,2,0:0:0:0:
256,338,51727,1,0,0:0:0:0:
152,295,51877,1,2,0:0:0:0:
109,192,52027,1,2,0:0:0:0:
152,88,52177,1,2,0:0:0:0:
256,45,52326,1,0,0:0:0:0:
359,88,52476,1,2,0:0:0:0:
402,192,52626,1,2,0:0:0:0:
152,295,52776,5,4,0:0:0:0:
248,158,52926,1,0,0:0:0:0:
248,158,53000,1,0,0:0:0:0:
248,158,53076,1,8,0:0:0:0:
256,338,53225,1,0,0:0:0:0:
256,338,53300,1,0,0:0:0:0:
256,338,53375,1,2,0:0:0:0:
153,199,53525,5,0,0:0:0:0:
306,236,53675,1,8,0:0:0:0:
152,295,53825,1,0,0:0:0:0:
256,338,53975,2,0,L|361:330,1,95
512,246,54274,1,8,0:0:0:0:
306,236,54424,1,0,0:0:0:0:
461,362,54574,5,2,0:0:0:0:
408,157,54723,1,0,0:0:0:0:
404,133,54799,1,0,0:0:0:0:
401,110,54873,1,10,0:0:0:0:
306,236,55024,1,2,0:0:0:0:
239,33,55173,5,0,0:0:0:0:
172,100,55323,1,0,0:0:0:0:
240,165,55473,1,10,0:0:0:0:
307,101,55623,1,2,0:0:0:0:
74,100,55773,1,0,0:0:0:0:
124,278,55923,1,0,0:0:0:0:
306,236,56073,1,10,0:0:0:0:
273,55,56223,1,2,0:0:0:0:
244,362,56372,6,0,L|345:355,1,95
512,292,56672,1,8,0:0:0:0:
381,195,56822,1,0,0:0:0:0:
381,195,56897,1,0,0:0:0:0:
381,195,56971,1,2,0:0:0:0:
446,384,57121,1,0,0:0:0:0:
495,183,57271,1,10,0:0:0:0:
339,310,57421,1,0,0:0:0:0:
495,183,57571,5,4,0:0:0:0:
276,163,57721,1,0,0:0:0:0:
254,153,57796,1,0,0:0:0:0:
233,141,57870,1,8,0:0:0:0:
140,307,58020,5,0,0:0:0:0:
183,287,58095,1,0,0:0:0:0:
227,268,58170,1,2,0:0:0:0:
79,189,58320,5,0,0:0:0:0:
74,365,58470,1,8,0:0:0:0:
227,268,58620,1,0,0:0:0:0:
7,150,58770,6,0,P|-4:204|26:254,1,95
215,188,59070,1,8,0:0:0:0:
85,80,59220,1,0,0:0:0:0:
82,272,59370,1,2,0:0:0:0:
176,105,59520,1,0,0:0:0:0:
178,82,59594,1,0,0:0:0:0:
181,59,59669,1,8,0:0:0:0:
79,189,59819,1,0,0:0:0:0:
266,89,59969,5,2,0:0:0:0:
424,224,60119,1,0,0:0:0:0:
436,52,60269,1,2,0:0:0:0:
273,176,60419,1,0,0:0:0:0:
512,144,60568,1,2,0:0:0:0:
349,127,60718,1,2,0:0:0:0:
345,262,60868,1,2,0:0:0:0:
265,40,61018,1,2,0:0:0:0:
188,332,61168,5,2,0:0:0:0:
143,347,61242,1,2,0:0:0:0:
96,344,61317,1,2,0:0:0:0:
52,325,61392,1,2,0:0:0:0:
19,291,61467,1,2,0:0:0:0:
1,248,61542,1,2,0:0:0:0:
0,201,61617,1,2,0:0:0:0:
15,156,61691,1,2,0:0:0:0:
120,220,61767,5,2,0:0:0:0:
157,227,61841,1,0,0:0:0:0:
194,220,61916,1,0,0:0:0:0:
228,204,61991,1,0,0:0:0:0:
257,180,62066,1,10,0:0:0:0:
278,148,62141,1,2,0:0:0:0:
289,112,62216,1,8,0:0:0:0:
286,73,62291,1,0,0:0:0:0:
271,37,62366,6,0,B|162:19,1,95
177,21,62591,1,0,0:0:0:0:
177,21,62666,1,10,0:0:0:0:
395,210,62816,5,0,0:0:0:0:
401,164,62890,1,0,0:0:0:0:
409,117,62966,1,2,0:0:0:0:
188,130,63116,5,2,0:0:0:0:
199,330,63265,1,8,0:0:0:0:
308,258,63415,1,2,0:0:0:0:
91,258,63565,6,0,P|76:213|77:165,1,95
276,100,63865,2,0,P|276:147|254:193,1,95
119,46,64164,1,2,0:0:0:0:
380,88,64314,1,0,0:0:0:0:
380,88,64390,1,0,0:0:0:0:
380,88,64464,1,10,0:0:0:0:
274,265,64614,1,0,0:0:0:0:
356,187,64764,5,2,0:0:0:0:
434,268,64914,1,0,0:0:0:0:
353,346,65063,1,10,0:0:0:0:
274,265,65213,1,0,0:0:0:0:
434,268,65363,1,2,0:0:0:0:
260,348,65512,1,0,0:0:0:0:
184,176,65663,1,10,0:0:0:0:
352,95,65812,1,0,0:0:0:0:
187,303,65962,5,2,0:0:0:0:
163,302,66037,1,0,0:0:0:0:
140,296,66111,1,0,0:0:0:0:
119,285,66187,1,0,0:0:0:0:
100,270,66261,1,10,0:0:0:0:
86,251,66337,1,0,0:0:0:0:
76,230,66411,1,0,0:0:0:0:
71,207,66486,1,0,0:0:0:0:
69,182,66562,6,0,L|73:124,1,47.5
185,176,66712,2,0,L|196:227,1,47.5
271,128,66861,1,2,0:0:0:0:
264,102,66937,1,0,0:0:0:0:
253,80,67011,1,2,0:0:0:0:
235,63,67087,1,0,0:0:0:0:
214,49,67161,6,0,L|315:78,1,95
328,82,67386,1,0,0:0:0:0:
350,88,67461,1,10,0:0:0:0:
474,182,67611,5,0,0:0:0:0:
428,195,67686,1,0,0:0:0:0:
381,206,67761,1,2,0:0:0:0:
461,68,67910,5,2,0:0:0:0:
281,213,68060,1,8,0:0:0:0:
445,313,68210,1,2,0:0:0:0:
214,367,68360,6,0,P|166:365|116:339,1,95
31,173,68660,1,10,0:0:0:0:
129,259,68810,1,0,0:0:0:0:
0,348,68960,1,2,0:0:0:0:
31,173,69110,1,0,0:0:0:0:
31,173,69184,1,0,0:0:0:0:
31,173,69260,1,10,0:0:0:0:
129,259,69410,1,0,0:0:0:0:
136,116,69560,6,0,P|99:11|196:65,1,285
310,271,70159,2,0,P|390:346|384:225,1,285
221,158,70758,5,2,0:0:0:0:
175,146,70832,1,2,0:0:0:0:
128,152,70907,1,2,0:0:0:0:
85,173,70982,1,2,0:0:0:0:
53,208,71057,1,2,0:0:0:0:
35,251,71132,1,2,0:0:0:0:
33,298,71207,1,2,0:0:0:0:
48,343,71281,1,2,0:0:0:0:
162,352,71358,5,10,0:0:0:0:
197,363,71432,1,0,0:0:0:0:
233,352,71507,1,10,0:0:0:0:
268,363,71581,1,0,0:0:0:0:
304,352,71657,1,10,0:0:0:0:
339,363,71731,1,0,0:0:0:0:
375,351,71807,1,10,0:0:0:0:
410,362,71881,1,0,0:0:0:0:
446,349,71957,6,0,L|454:272,1,71.25
346,160,72257,2,0,P|385:159|430:150,1,71.25
267,256,72556,2,0,P|230:248|172:253,1,71.25
43,341,72856,2,0,P|85:339|121:334,1,71.25
191,44,73156,6,0,P|155:49|116:64,1,71.25
161,180,73455,2,0,P|148:217|147:257,1,71.25
296,273,73755,2,0,P|326:293|361:306,1,71.25
470,171,74055,1,8,0:0:0:0:
483,164,74354,5,12,0:0:0:0:
256,192,74430,12,0,76752,0:0:0:0:
42,92,79300,6,0,L|8:84,2,23.75
95,15,79599,1,0,0:0:0:0:
140,151,79749,2,0,L|141:198,1,47.5
73,267,80049,2,0,L|85:327,1,47.5
214,251,80349,6,0,L|212:310,1,47.5
212,298,80573,1,0,0:0:0:0:
212,298,80648,1,0,0:0:0:0:
277,378,80798,1,0,0:0:0:0:
302,261,80948,2,0,L|296:154,1,95
360,87,81398,1,0,0:0:0:0:
512,160,81547,6,0,P|462:174|411:166,1,95
214,256,81997,1,0,0:0:0:0:
329,237,82147,1,0,0:0:0:0:
215,268,82297,1,0,0:0:0:0:
286,170,82446,1,0,0:0:0:0:
215,277,82596,1,0,0:0:0:0:
203,171,82746,6,0,L|196:118,1,47.5
116,304,83046,1,0,0:0:0:0:
234,361,83196,1,0,0:0:0:0:
234,361,83345,2,0,B|277:365|310:339|310:339|343:316|394:319,1,166.25
466,350,83945,5,4,0:0:0:0:
383,203,84095,2,2,P|342:214|295:247,1,95
466,350,84544,1,4,0:0:0:0:
501,141,84694,2,2,P|465:121|407:107,1,95
442,17,85143,5,2,0:0:0:0:
413,107,85293,1,0,0:0:0:0:
327,148,85443,1,2,0:0:0:0:
231,149,85593,1,2,0:0:0:0:
146,105,85743,2,0,L|143:69,3,23.75
76,177,86042,2,0,L|75:211,3,23.75
115,282,86342,5,2,0:0:0:0:
194,249,86492,1,2,0:0:0:0:
276,271,86642,1,0,0:0:0:0:
322,342,86792,1,0,0:0:0:0:
322,342,86867,1,0,0:0:0:0:
322,342,86941,1,2,0:0:0:0:
512,322,87091,1,2,0:0:0:0:
426,322,87241,1,2,0:0:0:0:
359,267,87391,1,0,0:0:0:0:
320,190,87541,6,0,L|325:126,1,47.5
181,82,87840,2,0,L|184:139,1,47.5
305,319,88140,5,2,0:0:0:0:
340,320,88215,1,0,0:0:0:0:
374,311,88290,1,0,0:0:0:0:
405,294,88365,1,0,0:0:0:0:
430,269,88440,1,2,0:0:0:0:
447,238,88515,1,0,0:0:0:0:
455,203,88590,1,2,0:0:0:0:
453,168,88664,1,0,0:0:0:0:
440,134,88740,6,0,L|412:64,1,71.25
192,94,89040,1,8,0:0:0:0:
207,175,89190,1,0,0:0:0:0:
269,230,89340,2,0,L|356:215,1,71.25
108,343,89639,1,8,0:0:0:0:
80,260,89789,1,0,0:0:0:0:
104,180,89939,6,0,P|105:146|99:105,1,71.25
228,125,90239,2,0,P|237:93|242:43,1,71.25
330,199,90538,2,0,P|371:192|408:179,1,71.25
399,182,90763,1,0,0:0:0:0:
399,182,90838,1,8,0:0:0:0:
473,285,90988,1,0,0:0:0:0:
375,358,91138,6,0,L|226:356,1,142.5
157,196,91587,1,0,0:0:0:0:
117,282,91737,2,0,P|186:285|250:229,1,142.5
31,301,92187,1,0,0:0:0:0:
83,371,92336,6,0,L|166:368,1,71.25
231,283,92636,2,0,L|305:321,1,71.25
336,185,92936,1,2,0:0:0:0:
440,323,93086,1,0,0:0:0:0:
435,340,93160,1,0,0:0:0:0:
431,357,93235,1,10,0:0:0:0:
348,286,93385,1,0,0:0:0:0:
444,202,93535,6,0,B|473:227|473:227|468:161|503:122,1,142.5
332,21,93985,1,0,0:0:0:0:
274,118,94134,2,0,L|194:116,1,71.25
195,227,94434,2,0,L|118:239,1,71.25
218,366,94734,5,2,0:0:0:0:
270,289,94884,1,2,0:0:0:0:
360,269,95034,1,8,0:0:0:0:
448,294,95183,1,2,0:0:0:0:
453,165,95333,2,0,P|421:176|372:184,1,71.25
258,173,95633,2,0,L|178:159,1,71.25
8,275,95933,5,2,0:0:0:0:
3,377,96082,1,0,0:0:0:0:
121,227,96232,1,10,0:0:0:0:
115,341,96382,1,0,0:0:0:0:
163,117,96532,1,2,0:0:0:0:
242,68,96682,1,0,0:0:0:0:
331,92,96832,1,10,0:0:0:0:
363,178,96981,1,0,0:0:0:0:
350,269,97131,6,0,L|341:351,1,71.25
469,194,97431,1,10,0:0:0:0:
407,42,97581,1,0,0:0:0:0:
240,169,97731,1,6,0:0:0:0:
233,185,97806,1,0,0:0:0:0:
226,201,97880,1,2,0:0:0:0:
220,218,97956,1,0,0:0:0:0:
213,237,98030,5,10,0:0:0:0:
234,265,98106,1,0,0:0:0:0:
254,293,98180,1,2,0:0:0:0:
261,327,98255,1,0,0:0:0:0:
260,364,98330,5,0,0:0:0:0:
120,327,98480,1,0,0:0:0:0:
65,194,98630,1,0,0:0:0:0:
120,56,98780,1,0,0:0:0:0:
257,2,98930,1,2,0:0:0:0:
391,56,99080,1,0,0:0:0:0:
450,201,99230,1,0,0:0:0:0:
391,327,99380,1,0,0:0:0:0:
65,194,99530,5,4,0:0:0:0:
288,179,99679,5,0,0:0:0:0:
296,202,99753,1,0,0:0:0:0:
304,225,99829,1,8,0:0:0:0:
171,174,99979,5,0,0:0:0:0:
184,128,100054,1,0,0:0:0:0:
197,83,100129,1,2,0:0:0:0:
377,141,100279,5,0,0:0:0:0:
391,327,100429,1,8,0:0:0:0:
226,246,100578,1,0,0:0:0:0:
472,283,100728,6,0,P|481:325|467:384,1,95
395,231,101028,1,8,0:0:0:0:
508,153,101178,1,0,0:0:0:0:
310,69,101328,1,2,0:0:0:0:
476,9,101477,1,0,0:0:0:0:
472,32,101552,1,0,0:0:0:0:
469,55,101627,1,8,0:0:0:0:
282,143,101777,1,0,0:0:0:0:
412,295,101927,5,2,0:0:0:0:
425,152,102077,1,0,0:0:0:0:
282,143,102227,1,8,0:0:0:0:
269,284,102376,1,0,0:0:0:0:
344,215,102526,5,2,0:0:0:0:
327,63,102676,1,0,0:0:0:0:
176,85,102826,1,8,0:0:0:0:
197,235,102976,1,0,0:0:0:0:
435,356,103126,5,2,0:0:0:0:
439,332,103200,1,0,0:0:0:0:
439,309,103275,1,0,0:0:0:0:
433,286,103350,1,0,0:0:0:0:
422,264,103425,1,10,0:0:0:0:
407,246,103500,1,0,0:0:0:0:
389,232,103575,1,0,0:0:0:0:
367,222,103650,1,0,0:0:0:0:
344,215,103725,5,2,0:0:0:0:
388,230,103800,1,0,0:0:0:0:
435,225,103874,1,0,0:0:0:0:
474,199,103950,1,0,0:0:0:0:
498,159,104024,1,10,0:0:0:0:
501,112,104100,1,0,0:0:0:0:
483,68,104174,1,0,0:0:0:0:
447,37,104249,1,0,0:0:0:0:
401,26,104324,6,0,L|284:41,1,95
306,38,104550,1,0,0:0:0:0:
306,38,104624,1,10,0:0:0:0:
96,122,104774,5,0,0:0:0:0:
138,141,104849,1,0,0:0:0:0:
181,161,104924,1,2,0:0:0:0:
186,39,105073,5,2,0:0:0:0:
209,253,105223,1,8,0:0:0:0:
393,152,105373,1,2,0:0:0:0:
245,102,105523,5,2,0:0:0:0:
398,259,105673,1,2,0:0:0:0:
384,57,105823,1,8,0:0:0:0:
288,211,105972,1,2,0:0:0:0:
499,205,106122,1,2,0:0:0:0:
316,132,106272,1,0,0:0:0:0:
316,132,106348,1,0,0:0:0:0:
316,132,106422,1,8,0:0:0:0:
485,295,106572,1,0,0:0:0:0:
443,108,106722,5,2,0:0:0:0:
345,259,106871,1,0,0:0:0:0:
192,161,107021,1,10,0:0:0:0:
294,1,107171,1,0,0:0:0:0:
316,132,107321,5,2,0:0:0:0:
227,300,107471,1,0,0:0:0:0:
63,203,107621,1,10,0:0:0:0:
164,43,107770,1,0,0:0:0:0:
227,300,107920,5,2,0:0:0:0:
171,313,107995,1,2,0:0:0:0:
115,306,108070,1,2,0:0:0:0:
66,276,108145,1,2,0:0:0:0:
30,233,108220,1,2,0:0:0:0:
14,179,108295,1,2,0:0:0:0:
19,123,108370,1,2,0:0:0:0:
48,71,108445,1,2,0:0:0:0:
153,103,108520,5,2,0:0:0:0:
149,138,108595,1,0,0:0:0:0:
142,175,108670,1,2,0:0:0:0:
136,210,108745,1,0,0:0:0:0:
130,245,108820,1,10,0:0:0:0:
124,282,108895,1,0,0:0:0:0:
116,316,108970,1,8,0:0:0:0:
105,351,109045,1,0,0:0:0:0:
94,384,109120,6,0,L|77:290,1,95
77,290,109344,1,0,0:0:0:0:
77,290,109420,1,10,0:0:0:0:
368,175,109570,5,0,0:0:0:0:
347,218,109644,1,0,0:0:0:0:
327,261,109719,1,10,0:0:0:0:
53,60,109869,5,0,0:0:0:0:
195,285,110019,1,10,0:0:0:0:
61,71,110169,1,0,0:0:0:0:
276,130,110319,5,2,0:0:0:0:
22,189,110469,1,0,0:0:0:0:
145,23,110618,1,10,0:0:0:0:
256,224,110768,1,0,0:0:0:0:
139,108,110918,5,2,0:0:0:0:
110,307,111068,1,0,0:0:0:0:
109,311,111142,1,0,0:0:0:0:
108,315,111218,1,10,0:0:0:0:
330,264,111368,1,0,0:0:0:0:
162,216,111517,5,2,0:0:0:0:
257,371,111667,1,0,0:0:0:0:
415,190,111817,1,10,0:0:0:0:
215,135,111967,1,0,0:0:0:0:
368,384,112117,5,2,0:0:0:0:
332,134,112267,1,0,0:0:0:0:
134,292,112416,1,10,0:0:0:0:
368,384,112566,1,0,0:0:0:0:
262,59,112716,5,2,0:0:0:0:
243,44,112790,1,0,0:0:0:0:
219,38,112866,1,2,0:0:0:0:
195,34,112940,1,0,0:0:0:0:
156,66,113016,5,10,0:0:0:0:
141,84,113090,1,0,0:0:0:0:
123,99,113165,1,2,0:0:0:0:
101,108,113240,1,0,0:0:0:0:
77,109,113315,5,2,0:0:0:0:
55,151,113390,1,0,0:0:0:0:
47,198,113464,1,2,0:0:0:0:
55,245,113540,1,0,0:0:0:0:
77,286,113614,1,10,0:0:0:0:
111,319,113690,1,0,0:0:0:0:
153,340,113764,1,2,0:0:0:0:
200,345,113839,1,0,0:0:0:0:
248,338,113915,6,0,L|350:319,1,95
364,315,114140,1,0,0:0:0:0:
387,310,114214,1,8,0:0:0:0:
239,150,114364,5,0,0:0:0:0:
199,176,114440,1,0,0:0:0:0:
158,200,114514,1,2,0:0:0:0:
348,212,114664,5,0,0:0:0:0:
224,67,114814,1,10,0:0:0:0:
227,264,114964,1,0,0:0:0:0:
361,128,115113,5,2,0:0:0:0:
145,84,115263,1,0,0:0:0:0:
348,212,115413,1,10,0:0:0:0:
401,39,115563,1,0,0:0:0:0:
401,39,115638,1,0,0:0:0:0:
401,39,115713,1,2,0:0:0:0:
262,176,115863,5,0,0:0:0:0:
444,205,116012,1,10,0:0:0:0:
248,0,116162,1,0,0:0:0:0:
154,363,116312,6,0,B|106:376|106:376|36:350|36:246,1,190
262,176,116762,1,0,0:0:0:0:
493,268,116911,2,0,B|493:354|423:380|423:380|375:367,1,190
262,176,117361,1,0,0:0:0:0:
226,27,117511,5,2,0:0:0:0:
170,19,117586,1,2,0:0:0:0:
117,38,117660,1,2,0:0:0:0:
79,79,117736,1,2,0:0:0:0:
62,133,117810,1,2,0:0:0:0:
63,190,117886,1,2,0:0:0:0:
75,245,117960,1,2,0:0:0:0:
115,285,118036,1,2,0:0:0:0:
236,326,118110,5,2,0:0:0:0:
267,290,118185,1,0,0:0:0:0:
278,244,118260,1,2,0:0:0:0:
271,197,118335,1,0,0:0:0:0:
246,157,118410,1,10,0:0:0:0:
207,130,118485,1,0,0:0:0:0:
161,121,118560,1,10,0:0:0:0:
115,134,118635,1,0,0:0:0:0:
76,152,118710,6,0,L|-21:151,1,71.25
98,372,119010,2,0,L|169:368,1,71.25
297,97,119310,6,0,L|200:96,1,71.25
267,286,119610,2,0,L|338:282,1,71.25
153,53,119909,6,0,P|144:88|147:124,1,71.25
413,224,120209,2,0,P|387:198|354:183,1,71.25
103,358,120508,2,0,P|138:350|169:331,1,71.25
249,203,120808,1,2,0:0:0:0:
256,192,121108,5,12,0:0:0:0:
256,192,121182,12,0,123505,0:0:0:0:
82,68,125603,6,0,L|81:128,1,47.5
69,200,125903,1,0,0:0:0:0:
426,107,126951,2,0,L|426:72,2,23.75
83,341,128150,1,0,0:0:0:0:
83,341,128300,5,2,0:0:0:0:
182,259,128750,1,0,0:0:0:0:
112,207,128900,1,2,0:0:0:0:
309,320,129350,1,0,0:0:0:0:
303,213,129500,5,0,0:0:0:0:
303,213,129649,1,2,0:0:0:0:
392,183,130399,2,0,L|392:108,1,71.25
393,94,130698,6,0,L|404:154,1,47.5
373,307,130998,6,0,L|365:261,1,47.5
441,211,131298,6,0,L|449:257,1,47.5
382,354,131597,6,0,L|373:307,1,47.5
240,246,131897,6,0,L|242:293,1,47.5
224,217,132197,6,0,L|221:169,1,47.5
250,317,132496,6,0,L|253:365,1,47.5
209,153,132796,6,0,L|206:90,1,47.5
163,22,133096,5,2,0:0:0:0:
310,0,133245,5,0,0:0:0:0:
310,0,133320,1,0,0:0:0:0:
310,0,133395,1,10,0:0:0:0:
423,89,133545,5,0,0:0:0:0:
423,89,133620,1,0,0:0:0:0:
423,89,133695,1,2,0:0:0:0:
437,231,133845,5,0,0:0:0:0:
437,231,133920,1,0,0:0:0:0:
437,231,133995,1,10,0:0:0:0:
316,154,134144,5,0,0:0:0:0:
316,154,134220,1,0,0:0:0:0:
316,154,134294,1,2,0:0:0:0:
282,374,134444,5,0,0:0:0:0:
282,374,134519,1,0,0:0:0:0:
282,374,134594,1,10,0:0:0:0:
348,273,134744,5,0,0:0:0:0:
348,273,134819,1,0,0:0:0:0:
348,273,134894,2,0,P|307:267|262:268,1,71.25
174,288,135193,2,0,P|138:290|91:283,1,71.25
46,206,135493,6,0,B|111:192|111:192|144:216|194:198|194:198|234:218,2,190
261,117,136242,1,0,0:0:0:0:
375,120,136392,1,8,0:0:0:0:
501,83,136542,1,2,0:0:0:0:
457,230,136692,6,0,B|416:203|363:210|363:210|325:247|264:234,2,190
312,356,137441,1,0,0:0:0:0:
184,321,137591,1,8,0:0:0:0:
127,185,137741,1,2,0:0:0:0:
99,23,137890,6,0,P|162:52|182:119,1,142.5
52,225,138190,2,0,P|46:156|94:105,1,142.5
252,162,138490,2,0,P|195:201|127:185,1,142.5
95,332,138790,2,0,P|152:293|220:309,1,142.5
332,367,139090,6,0,L|379:362,1,47.5
503,322,139240,2,0,L|456:327,1,47.5
295,289,139390,2,0,L|342:284,1,47.5
512,240,139540,2,0,L|465:245,1,47.5
230,240,139689,1,2,0:0:0:0:
206,239,139764,1,0,0:0:0:0:
182,234,139839,1,0,0:0:0:0:
158,231,139914,1,0,0:0:0:0:
113,215,139989,6,0,L|71:222,7,23.75
256,192,141487,5,4,0:0:0:0:
78,35,141637,5,0,0:0:0:0:
66,81,141712,1,0,0:0:0:0:
54,126,141787,1,8,0:0:0:0:
176,384,141937,5,0,0:0:0:0:
163,338,142011,1,0,0:0:0:0:
150,291,142087,1,2,0:0:0:0:
380,98,142237,5,2,0:0:0:0:
282,293,142386,1,8,0:0:0:0:
160,50,142536,1,2,0:0:0:0:
431,163,142686,5,2,0:0:0:0:
161,169,142836,1,2,0:0:0:0:
383,11,142986,1,8,0:0:0:0:
397,248,143136,1,2,0:0:0:0:
221,358,143285,5,2,0:0:0:0:
179,379,143360,1,2,0:0:0:0:
132,384,143434,1,2,0:0:0:0:
85,373,143510,1,2,0:0:0:0:
45,348,143584,1,10,0:0:0:0:
16,311,143660,1,2,0:0:0:0:
0,267,143734,1,2,0:0:0:0:
0,220,143809,1,0,0:0:0:0:
15,175,143884,5,2,0:0:0:0:
286,260,144035,1,2,0:0:0:0:
264,11,144184,1,8,0:0:0:0:
179,153,144334,1,2,0:0:0:0:
384,112,144484,5,2,0:0:0:0:
173,10,144634,1,2,0:0:0:0:
111,238,144784,1,8,0:0:0:0:
173,10,144934,1,2,0:0:0:0:
380,236,145083,5,2,0:0:0:0:
394,281,145159,1,2,0:0:0:0:
380,326,145233,1,2,0:0:0:0:
349,362,145309,1,2,0:0:0:0:
303,375,145383,5,10,0:0:0:0:
261,350,145459,1,2,0:0:0:0:
214,344,145533,1,2,0:0:0:0:
166,347,145608,1,0,0:0:0:0:
122,365,145683,6,0,L|54:367,1,47.5
32,277,145833,2,0,L|80:276,1,47.5
117,183,145982,2,0,L|49:185,1,47.5
15,91,146132,2,0,L|62:89,1,47.5
215,167,146282,5,6,0:0:0:0:
464,54,146432,5,0,0:0:0:0:
418,42,146507,1,0,0:0:0:0:
371,30,146582,1,10,0:0:0:0:
422,348,146732,5,0,0:0:0:0:
422,300,146807,1,0,0:0:0:0:
422,252,146881,1,2,0:0:0:0:
180,315,147031,5,2,0:0:0:0:
451,174,147181,1,8,0:0:0:0:
117,183,147331,1,2,0:0:0:0:
492,88,147481,5,2,0:0:0:0:
501,383,147631,1,2,0:0:0:0:
247,228,147780,1,8,0:0:0:0:
451,174,147930,1,2,0:0:0:0:
269,345,148080,5,2,0:0:0:0:
225,330,148155,1,2,0:0:0:0:
180,315,148230,1,0,0:0:0:0:
211,64,148380,1,8,0:0:0:0:
367,200,148530,1,2,0:0:0:0:
117,183,148680,5,2,0:0:0:0:
346,82,148830,1,2,0:0:0:0:
126,89,148980,1,10,0:0:0:0:
367,200,149130,1,2,0:0:0:0:
136,0,149280,1,2,0:0:0:0:
402,282,149430,1,2,0:0:0:0:
136,0,149580,1,10,0:0:0:0:
31,317,149729,1,2,0:0:0:0:
238,17,149879,5,2,0:0:0:0:
303,2,149953,1,2,0:0:0:0:
368,16,150028,1,2,0:0:0:0:
422,54,150103,1,2,0:0:0:0:
456,111,150178,1,2,0:0:0:0:
464,176,150253,1,2,0:0:0:0:
447,241,150329,1,2,0:0:0:0:
401,288,150403,1,2,0:0:0:0:
252,211,150479,5,10,0:0:0:0:
230,160,150553,1,0,0:0:0:0:
249,107,150628,1,10,0:0:0:0:
298,81,150703,1,0,0:0:0:0:
351,94,150778,1,10,0:0:0:0:
383,139,150853,1,0,0:0:0:0:
378,194,150928,1,10,0:0:0:0:
334,232,151002,1,0,0:0:0:0:
309,286,151078,6,0,L|319:383,1,95
318,380,151302,1,8,0:0:0:0:
318,380,151378,1,8,0:0:0:0:
81,188,151527,5,2,0:0:0:0:
94,142,151602,1,8,0:0:0:0:
109,94,151677,1,8,0:0:0:0:
175,320,151827,5,2,0:0:0:0:
4,135,151977,1,8,0:0:0:0:
251,31,152127,1,2,0:0:0:0:
164,232,152277,5,10,0:0:0:0:
131,0,152426,1,2,0:0:0:0:
366,67,152576,1,8,0:0:0:0:
163,232,152726,1,2,0:0:0:0:
144,238,152800,1,0,0:0:0:0:
125,242,152876,5,10,0:0:0:0:
164,267,152950,1,2,0:0:0:0:
211,272,153025,1,2,0:0:0:0:
254,254,153100,1,2,0:0:0:0:
284,217,153175,1,10,0:0:0:0:
293,171,153250,1,2,0:0:0:0:
280,126,153325,1,2,0:0:0:0:
247,93,153400,1,0,0:0:0:0:
202,79,153475,5,10,0:0:0:0:
319,306,153625,1,2,0:0:0:0:
473,106,153775,1,8,0:0:0:0:
198,177,153925,1,2,0:0:0:0:
493,184,154075,5,10,0:0:0:0:
243,5,154224,1,2,0:0:0:0:
249,352,154374,1,8,0:0:0:0:
495,266,154524,1,2,0:0:0:0:
119,122,154674,5,12,0:0:0:0:
401,324,154824,1,2,0:0:0:0:
406,277,154899,1,2,0:0:0:0:
412,229,154974,1,10,0:0:0:0:
417,182,155049,1,2,0:0:0:0:
423,135,155123,1,2,0:0:0:0:
429,87,155199,1,0,0:0:0:0:
436,40,155273,5,10,0:0:0:0:
312,208,155423,1,2,0:0:0:0:
491,356,155573,1,8,0:0:0:0:
417,182,155723,1,2,0:0:0:0:
232,376,155873,5,4,0:0:0:0:
186,72,156022,5,2,0:0:0:0:
204,115,156098,1,8,0:0:0:0:
225,157,156172,1,8,0:0:0:0:
64,365,156322,5,2,0:0:0:0:
73,318,156398,1,8,0:0:0:0:
82,271,156472,1,10,0:0:0:0:
328,317,156622,5,2,0:0:0:0:
0,250,156772,1,8,0:0:0:0:
240,2,156921,1,2,0:0:0:0:
416,336,157071,5,10,0:0:0:0:
207,240,157221,1,2,0:0:0:0:
445,76,157371,1,8,0:0:0:0:
196,323,157521,1,2,0:0:0:0:
176,279,157596,1,2,0:0:0:0:
161,233,157671,1,10,0:0:0:0:
262,0,157820,1,2,0:0:0:0:
308,368,157970,1,8,0:0:0:0:
0,217,158120,1,2,0:0:0:0:
365,64,158270,6,2,B|431:92|471:159|471:159|490:230|471:296,1,285
168,136,158870,2,2,B|235:109|311:128|311:128|375:165|408:225,1,285
438,343,159470,5,2,0:0:0:0:
373,327,159544,1,2,0:0:0:0:
322,284,159619,1,2,0:0:0:0:
298,223,159694,1,2,0:0:0:0:
305,157,159769,1,2,0:0:0:0:
342,103,159844,1,2,0:0:0:0:
399,72,159919,1,2,0:0:0:0:
466,73,159994,1,2,0:0:0:0:
512,234,160069,5,10,0:0:0:0:
451,256,160144,1,0,0:0:0:0:
385,253,160219,1,10,0:0:0:0:
327,221,160293,1,0,0:0:0:0:
306,156,160369,5,10,0:0:0:0:
263,106,160443,1,0,0:0:0:0:
204,74,160518,1,10,0:0:0:0:
137,70,160593,1,0,0:0:0:0:
74,88,160668,6,0,L|3:83,1,71.25
118,190,160968,2,0,L|47:185,1,71.25
175,287,161268,2,0,L|104:282,1,71.25
226,379,161568,2,0,L|155:374,1,71.25
446,335,161867,6,0,P|481:348|515:373,1,71.25
365,239,162167,2,0,P|404:224|446:218,1,71.25
241,228,162466,2,0,P|254:193|279:159,1,71.25
367,379,162766,6,0,L|295:382,1,71.25
217,358,163066,5,12,0:0:0:0:
384,71,163216,1,0,0:0:0:0:
384,71,163291,1,0,0:0:0:0:
384,71,163366,1,10,0:0:0:0:
435,221,163516,1,0,0:0:0:0:
299,167,163666,5,2,0:0:0:0:
438,321,163816,1,0,0:0:0:0:
438,321,163890,1,0,0:0:0:0:
438,321,163966,1,10,0:0:0:0:
469,130,164115,1,0,0:0:0:0:
322,283,164265,6,0,L|221:286,1,95
60,152,164565,1,10,0:0:0:0:
206,182,164715,1,0,0:0:0:0:
3,281,164865,1,2,0:0:0:0:
0,28,165014,1,0,0:0:0:0:
0,28,165090,1,0,0:0:0:0:
0,28,165163,1,10,0:0:0:0:
282,131,165314,1,0,0:0:0:0:
127,336,165463,6,0,P|116:300|125:238,1,95
248,55,165764,1,10,0:0:0:0:
212,282,165913,1,0,0:0:0:0:
60,152,166062,1,2,0:0:0:0:
293,228,166212,1,0,0:0:0:0:
293,228,166288,1,0,0:0:0:0:
293,228,166363,1,10,0:0:0:0:
217,367,166512,1,0,0:0:0:0:
131,254,166663,5,2,0:0:0:0:
336,360,166812,1,0,0:0:0:0:
371,186,166962,1,10,0:0:0:0:
266,306,167111,1,0,0:0:0:0:
437,239,167262,1,2,0:0:0:0:
215,156,167411,1,0,0:0:0:0:
215,156,167486,1,0,0:0:0:0:
215,156,167561,1,10,0:0:0:0:
487,170,167711,5,0,0:0:0:0:
487,170,167786,1,0,0:0:0:0:
487,170,167860,2,0,P|513:220|509:271,1,95
289,202,168160,1,8,0:0:0:0:
417,84,168310,1,2,0:0:0:0:
310,287,168460,1,2,0:0:0:0:
135,150,168610,1,2,0:0:0:0:
135,150,168685,1,0,0:0:0:0:
135,150,168760,5,8,0:0:0:0:
366,167,168910,1,2,0:0:0:0:
241,340,169060,1,2,0:0:0:0:
257,105,169210,5,2,0:0:0:0:
258,153,169284,1,2,0:0:0:0:
242,197,169359,1,10,0:0:0:0:
213,235,169434,1,2,0:0:0:0:
174,261,169509,1,2,0:0:0:0:
128,272,169584,1,2,0:0:0:0:
81,269,169659,1,0,0:0:0:0:
3,55,169809,5,2,0:0:0:0:
49,65,169884,1,2,0:0:0:0:
95,75,169959,1,10,0:0:0:0:
296,0,170109,1,2,0:0:0:0:
147,165,170259,6,0,L|245:158,1,95
310,287,170558,1,10,0:0:0:0:
147,165,170708,1,0,0:0:0:0:
125,351,170858,5,2,0:0:0:0:
210,248,171008,1,0,0:0:0:0:
210,248,171082,1,0,0:0:0:0:
210,248,171158,1,10,0:0:0:0:
21,204,171308,1,0,0:0:0:0:
168,64,171457,5,14,0:0:0:0:
265,362,171607,1,0,0:0:0:0:
364,58,171757,1,10,0:0:0:0:
110,232,171907,1,0,0:0:0:0:
440,227,172057,1,10,0:0:0:0:
271,10,172207,5,4,0:0:0:0:
271,10,172281,1,0,0:0:0:0:
271,10,172356,1,14,0:0:0:0:
110,232,172506,1,0,0:0:0:0:
440,227,172656,1,10,0:0:0:0:
190,0,172806,1,0,0:0:0:0:
158,306,172956,1,10,0:0:0:0:
431,138,173106,5,0,0:0:0:0:
431,138,173180,1,0,0:0:0:0:
431,138,173255,1,14,0:0:0:0:
53,127,173405,1,8,0:0:0:0:
330,384,173555,1,10,0:0:0:0:
263,0,173705,1,8,0:0:0:0:
86,364,173855,1,14,0:0:0:0:
418,290,174005,5,8,0:0:0:0:
413,266,174080,1,0,0:0:0:0:
408,242,174154,1,10,0:0:0:0:
121,207,174304,5,14,0:0:0:0:
