osu file format v14

[General]
AudioFilename: audio 1.4x.mp3
AudioLeadIn: 0
PreviewTime: 57555
Countdown: 0
SampleSet: Soft
StackLeniency: 0.7
Mode: 0
LetterboxInBreaks: 0
WidescreenStoryboard: 0

[Editor]
DistanceSpacing: 0.1
BeatDivisor: 4
GridSize: 8
TimelineZoom: 1.1

[Metadata]
Title:Hanairo Biyori speed up version
TitleUnicode:Hanairo Biyori speed up version
Artist:Natsume Chiaki
ArtistUnicode:Natsume Chiaki
Creator:Flapster
Version:Awaken's Challenge 1.4x
Source:
Tags:
BeatmapID:2050386
BeatmapSetID:979711

[Difficulty]
HPDrainRate:5
CircleSize:4
OverallDifficulty:8.3
ApproachRate:9.8
SliderMultiplier:1.9
SliderTickRate:1

[Events]
//Background and Video events
0,0,"Hanairo Biyori.jpg",0,0
//Break Periods
2,60505,61828
//Storyboard Layer 0 (Background)
//Storyboard Layer 1 (Fail)
//Storyboard Layer 2 (Pass)
//Storyboard Layer 3 (Foreground)
//Storyboard Sound Samples

[TimingPoints]
10384,235.4788,4,2,3,70,1,0
18037,-133.3333,4,2,4,55,0,0
25454,-133.3333,4,2,3,65,0,0
40054,-133.3333,4,2,1,60,0,0
41467,-100,4,2,1,80,0,1
48060,-100,4,2,1,80,0,0
49002,-100,4,2,1,80,0,1
56537,-133.3333,4,1,1,80,0,0
56655,-133.3333,4,2,0,40,0,0
56773,-133.3333,4,1,1,80,0,0
56890,-133.3333,4,2,0,40,0,0
57008,-133.3333,4,1,1,80,0,0
57126,-133.3333,4,2,0,40,0,0
57244,-133.3333,4,1,1,80,0,0
57362,-133.3333,4,2,0,40,0,0
57480,-133.3333,4,1,1,80,0,0
57597,-133.3333,4,2,0,40,0,0
57715,-133.3333,4,1,1,80,0,0
57832,-133.3333,4,2,0,40,0,0
57950,-133.3333,4,1,1,80,0,0
58068,-133.3333,4,2,0,40,0,0
58186,-133.3333,4,2,1,40,0,0
58421,-200,4,2,1,40,0,0
62247,-200,4,2,1,50,0,0
65957,-200,4,1,0,40,0,0
66898,-200,4,2,1,60,0,0
69724,-133.3333,4,2,1,60,0,0
78202,-100,4,2,1,80,0,1
84795,-100,4,2,1,80,0,0
85737,-100,4,2,1,80,0,1
93272,-133.3333,4,1,1,80,0,0
93390,-133.3333,4,2,0,40,0,0
93507,-133.3333,4,1,1,80,0,0
93625,-133.3333,4,2,0,40,0,0
93743,-133.3333,4,1,1,80,0,0
93861,-133.3333,4,2,0,40,0,0
93978,-133.3333,4,1,1,80,0,0
94096,-133.3333,4,2,0,40,0,0
94214,-133.3333,4,1,1,80,0,0
94332,-133.3333,4,2,0,40,0,0
94450,-133.3333,4,1,1,80,0,0
94567,-133.3333,4,2,0,40,0,0
94685,-133.3333,4,1,1,80,0,0
94802,-133.3333,4,2,0,40,0,0
94920,-200,4,2,1,60,0,0
95097,-200,4,2,0,30,0,0
95156,-200,4,2,1,100,0,0
97040,-200,4,1,1,20,0,0
101867,-200,4,1,1,10,0,0
102456,-200,4,1,1,40,0,0
102691,-200,4,1,1,30,0,0
106459,-100,4,1,1,80,0,0
108520,-100,4,1,1,40,0,0
108578,-100,4,1,1,80,0,0
108755,-100,4,1,1,40,0,0
108814,-100,4,1,1,80,0,0
108990,-100,4,1,1,40,0,0
109049,-100,4,1,1,80,0,0
110227,-100,4,1,2,20,0,0
111168,-100,4,2,1,90,0,1
118689,-100,4,2,1,90,0,0
118704,-100,4,2,1,90,0,1
126239,-133.3333,4,1,1,90,0,1
126357,-133.3333,4,2,0,50,0,1
126475,-133.3333,4,1,1,90,0,1
126592,-133.3333,4,2,0,50,0,1
126710,-133.3333,4,1,1,90,0,1
126827,-133.3333,4,2,0,50,0,1
126945,-133.3333,4,1,1,90,0,1
127063,-133.3333,4,2,0,50,0,1
127181,-133.3333,4,1,1,90,0,1
127299,-133.3333,4,2,0,50,0,1
127417,-133.3333,4,1,1,90,0,1
127534,-133.3333,4,2,0,50,0,1
127652,-133.3333,4,1,1,90,0,1
127770,-133.3333,4,2,0,50,0,1
127887,-200,4,2,1,30,0,1
128123,-50,4,2,1,90,0,0
128300,-100,4,2,1,90,0,0

[HitObjects]
170,88,10383,5,6,0:0:0:0:
128,313,10501,1,0,0:0:0:0:
128,313,10560,1,0,0:0:0:0:
128,313,10619,1,8,0:0:0:0:
77,163,10737,1,0,0:0:0:0:
213,217,10855,5,2,0:0:0:0:
74,63,10972,1,0,0:0:0:0:
74,63,11031,1,0,0:0:0:0:
74,63,11090,1,8,0:0:0:0:
43,254,11207,1,0,0:0:0:0:
230,310,11325,6,0,L|331:307,1,95
491,245,11561,1,8,0:0:0:0:
377,216,11679,1,0,0:0:0:0:
409,355,11797,1,2,0:0:0:0:
457,135,11914,1,0,0:0:0:0:
457,135,11973,1,0,0:0:0:0:
457,135,12032,1,8,0:0:0:0:
497,331,12150,1,0,0:0:0:0:
289,267,12267,6,0,P|281:224|299:156,1,95
424,278,12503,1,8,0:0:0:0:
266,350,12620,1,0,0:0:0:0:
290,174,12738,1,2,0:0:0:0:
352,333,12856,1,0,0:0:0:0:
352,333,12915,1,0,0:0:0:0:
352,333,12974,1,8,0:0:0:0:
209,285,13092,1,0,0:0:0:0:
377,216,13210,5,2,0:0:0:0:
142,55,13327,1,0,0:0:0:0:
256,236,13445,1,10,0:0:0:0:
272,15,13562,1,0,0:0:0:0:
136,179,13680,1,2,0:0:0:0:
338,125,13798,1,0,0:0:0:0:
473,283,13916,1,8,0:0:0:0:
383,337,14033,1,0,0:0:0:0:
383,337,14092,1,0,0:0:0:0:
383,337,14151,6,0,L|281:331,1,95
81,296,14387,2,0,L|182:288,1,95
381,222,14622,1,2,0:0:0:0:
133,121,14740,1,0,0:0:0:0:
145,141,14799,1,0,0:0:0:0:
155,162,14857,1,8,0:0:0:0:
381,222,14975,1,0,0:0:0:0:
261,357,15093,5,2,0:0:0:0:
228,253,15211,1,0,0:0:0:0:
484,185,15329,1,8,0:0:0:0:
451,289,15447,1,0,0:0:0:0:
318,283,15564,1,2,0:0:0:0:
303,141,15682,1,0,0:0:0:0:
303,141,15740,1,0,0:0:0:0:
303,141,15800,1,8,0:0:0:0:
128,67,15917,1,0,0:0:0:0:
111,179,16035,6,0,P|166:169|205:146,1,95
396,96,16270,1,8,0:0:0:0:
291,49,16388,1,0,0:0:0:0:
318,283,16506,1,2,0:0:0:0:
418,210,16624,1,0,0:0:0:0:
418,210,16682,1,0,0:0:0:0:
418,210,16742,1,8,0:0:0:0:
219,235,16859,1,0,0:0:0:0:
331,378,16977,5,6,0:0:0:0:
418,210,17095,1,0,0:0:0:0:
219,235,17212,1,10,0:0:0:0:
355,372,17330,5,0,0:0:0:0:
395,187,17448,1,6,0:0:0:0:
209,262,17566,1,0,0:0:0:0:
209,262,17625,1,0,0:0:0:0:
209,262,17683,2,0,L|273:258,1,47.5
491,331,17801,1,4,0:0:0:0:
492,343,18037,6,0,L|507:266,2,71.25
322,276,18390,1,0,0:0:0:0:
258,343,18507,1,2,0:0:0:0:
165,342,18625,1,10,0:0:0:0:
209,262,18743,1,0,0:0:0:0:
186,171,18861,5,2,0:0:0:0:
274,196,18978,1,0,0:0:0:0:
167,78,19096,1,10,0:0:0:0:
274,196,19214,1,0,0:0:0:0:
249,19,19332,1,2,0:0:0:0:
186,171,19450,1,0,0:0:0:0:
186,171,19508,1,0,0:0:0:0:
186,171,19567,1,10,0:0:0:0:
311,94,19685,1,0,0:0:0:0:
355,252,19802,6,0,P|285:255|237:305,1,142.5
179,138,20156,2,0,P|196:170|203:206,1,71.25
315,335,20391,1,0,0:0:0:0:
151,284,20509,1,10,0:0:0:0:
315,335,20627,1,0,0:0:0:0:
187,358,20745,6,0,P|146:364|106:352,1,71.25
106,196,20980,2,0,P|96:153|98:119,1,71.25
348,180,21215,1,2,0:0:0:0:
315,335,21333,1,0,0:0:0:0:
238,233,21451,1,10,0:0:0:0:
386,259,21569,1,0,0:0:0:0:
296,349,21687,5,2,0:0:0:0:
258,139,21805,1,0,0:0:0:0:
258,139,21863,1,0,0:0:0:0:
258,139,21922,1,10,0:0:0:0:
386,259,22040,1,0,0:0:0:0:
196,318,22157,2,0,L|116:316,1,71.25
0,183,22393,2,0,L|80:181,1,71.25
238,233,22628,5,2,0:0:0:0:
143,89,22746,1,0,0:0:0:0:
124,269,22864,1,10,0:0:0:0:
166,178,22982,1,0,0:0:0:0:
38,96,23100,1,2,0:0:0:0:
166,178,23217,1,0,0:0:0:0:
166,178,23276,1,0,0:0:0:0:
166,178,23335,1,10,0:0:0:0:
221,20,23452,5,0,0:0:0:0:
390,168,23570,2,0,P|334:165|289:133,1,106.875
292,137,23806,1,10,0:0:0:0:
429,56,23924,1,0,0:0:0:0:
439,265,24041,5,2,0:0:0:0:
274,288,24159,1,0,0:0:0:0:
390,168,24277,1,10,0:0:0:0:
365,346,24395,1,0,0:0:0:0:
289,183,24512,6,0,P|247:193|202:192,1,71.25
184,185,24689,1,0,0:0:0:0:
184,185,24747,1,8,0:0:0:0:
111,356,24865,1,0,0:0:0:0:
62,241,24983,5,10,0:0:0:0:
74,207,25042,1,0,0:0:0:0:
74,171,25101,1,8,0:0:0:0:
62,137,25160,1,0,0:0:0:0:
38,109,25219,6,0,L|3:92,1,35.625
147,1,25337,2,0,L|152:44,1,35.625
251,279,25454,5,6,0:0:0:0:
74,171,25572,1,0,0:0:0:0:
257,83,25690,1,10,0:0:0:0:
251,279,25807,1,0,0:0:0:0:
195,175,25925,1,2,0:0:0:0:
212,375,26043,1,0,0:0:0:0:
336,234,26160,1,10,0:0:0:0:
153,278,26278,1,0,0:0:0:0:
153,278,26337,1,0,0:0:0:0:
153,278,26396,5,2,0:0:0:0:
326,359,26514,1,0,0:0:0:0:
153,278,26632,1,10,0:0:0:0:
45,353,26750,1,0,0:0:0:0:
80,178,26867,2,0,L|70:103,1,71.25
70,107,27044,1,0,0:0:0:0:
70,107,27102,1,8,0:0:0:0:
164,18,27220,1,0,0:0:0:0:
193,168,27338,6,0,L|187:280,1,106.875
189,310,27573,1,10,0:0:0:0:
285,221,27691,1,0,0:0:0:0:
407,356,27809,2,0,P|371:353|337:347,1,71.25
285,221,28045,2,0,L|277:140,1,71.25
428,161,28280,5,2,0:0:0:0:
410,266,28397,1,0,0:0:0:0:
321,326,28515,1,10,0:0:0:0:
214,334,28633,1,2,0:0:0:0:
122,283,28751,1,2,0:0:0:0:
307,72,28869,5,2,0:0:0:0:
322,80,28927,1,0,0:0:0:0:
337,88,28986,5,2,0:0:0:0:
354,127,29045,1,0,0:0:0:0:
350,169,29104,1,2,0:0:0:0:
325,204,29163,1,0,0:0:0:0:
285,220,29222,6,0,L|193:213,1,71.25
58,215,29457,1,10,0:0:0:0:
214,334,29575,1,0,0:0:0:0:
215,120,29692,2,0,P|206:86|188:56,1,71.25
143,222,29928,2,0,P|172:241|206:251,1,71.25
374,361,30164,6,0,P|339:370|304:370,1,71.25
133,353,30399,1,10,0:0:0:0:
325,290,30517,1,0,0:0:0:0:
79,282,30635,1,2,0:0:0:0:
222,305,30752,1,0,0:0:0:0:
222,305,30811,1,0,0:0:0:0:
222,305,30870,1,10,0:0:0:0:
3,336,30988,1,0,0:0:0:0:
12,215,31105,6,0,P|2:178|-1:142,1,71.25
263,133,31341,2,0,P|259:168|250:202,1,71.25
129,155,31577,1,2,0:0:0:0:
291,19,31695,1,0,0:0:0:0:
289,223,31812,1,10,0:0:0:0:
179,63,31930,1,0,0:0:0:0:
179,63,31989,1,0,0:0:0:0:
179,63,32047,6,0,L|99:57,1,71.25
34,187,32283,1,10,0:0:0:0:
203,255,32401,1,0,0:0:0:0:
34,187,32519,5,2,0:0:0:0:
26,221,32577,1,0,0:0:0:0:
29,256,32636,1,0,0:0:0:0:
41,289,32695,1,0,0:0:0:0:
65,314,32754,5,10,0:0:0:0:
113,302,32813,1,0,0:0:0:0:
162,309,32872,1,2,0:0:0:0:
206,330,32930,1,0,0:0:0:0:
242,364,32990,5,6,0:0:0:0:
255,347,33225,1,8,0:0:0:0:
29,256,33342,1,0,0:0:0:0:
267,336,33460,1,6,0:0:0:0:
280,325,33696,1,8,0:0:0:0:
22,238,33814,1,0,0:0:0:0:
244,220,33932,5,2,0:0:0:0:
155,191,34050,1,0,0:0:0:0:
155,97,34167,1,10,0:0:0:0:
244,69,34285,1,0,0:0:0:0:
298,144,34402,1,6,0:0:0:0:
155,191,34520,1,0,0:0:0:0:
155,191,34579,1,0,0:0:0:0:
155,191,34638,1,10,0:0:0:0:
244,69,34755,1,0,0:0:0:0:
311,286,34873,5,6,0:0:0:0:
318,302,35109,1,8,0:0:0:0:
298,144,35227,1,0,0:0:0:0:
326,317,35345,1,6,0:0:0:0:
334,332,35580,1,8,0:0:0:0:
305,159,35697,1,0,0:0:0:0:
423,263,35815,5,2,0:0:0:0:
240,235,35933,1,0,0:0:0:0:
399,163,36051,1,10,0:0:0:0:
415,356,36168,1,0,0:0:0:0:
238,325,36286,1,6,0:0:0:0:
423,263,36404,1,0,0:0:0:0:
439,269,36462,1,0,0:0:0:0:
455,276,36522,1,10,0:0:0:0:
399,163,36640,1,0,0:0:0:0:
320,377,36757,5,6,0:0:0:0:
320,377,36992,1,0,0:0:0:0:
244,225,37110,1,0,0:0:0:0:
324,361,37228,1,2,0:0:0:0:
330,344,37464,1,8,0:0:0:0:
292,140,37581,1,0,0:0:0:0:
229,315,37699,5,2,0:0:0:0:
424,244,37817,1,0,0:0:0:0:
332,232,37935,1,10,0:0:0:0:
432,339,38052,1,0,0:0:0:0:
428,143,38170,5,2,0:0:0:0:
330,344,38287,1,0,0:0:0:0:
330,344,38347,1,0,0:0:0:0:
330,344,38405,1,10,0:0:0:0:
424,244,38523,1,0,0:0:0:0:
331,139,38641,6,0,P|293:148|254:182,1,71.25
118,232,38877,2,0,P|154:232|190:228,1,71.25
183,105,39112,2,0,L|185:20,1,71.25
30,185,39347,2,0,P|19:230|19:269,1,71.25
167,372,39583,5,2,0:0:0:0:
267,301,39700,1,0,0:0:0:0:
182,187,39818,1,10,0:0:0:0:
167,372,39936,1,0,0:0:0:0:
330,112,40054,5,0,0:0:0:0:
334,135,40112,1,0,0:0:0:0:
338,158,40172,1,0,0:0:0:0:
342,181,40230,1,0,0:0:0:0:
346,204,40290,1,0,0:0:0:0:
349,227,40348,1,0,0:0:0:0:
352,250,40407,1,0,0:0:0:0:
355,273,40466,1,0,0:0:0:0:
359,295,40525,5,2,0:0:0:0:
256,338,40642,1,0,0:0:0:0:
152,295,40760,1,2,0:0:0:0:
109,192,40878,1,2,0:0:0:0:
152,88,40996,1,2,0:0:0:0:
256,45,41113,1,0,0:0:0:0:
359,88,41231,1,2,0:0:0:0:
402,192,41349,1,2,0:0:0:0:
152,295,41467,5,4,0:0:0:0:
248,158,41585,1,0,0:0:0:0:
248,158,41643,1,0,0:0:0:0:
248,158,41702,1,8,0:0:0:0:
256,338,41820,1,0,0:0:0:0:
256,338,41879,1,0,0:0:0:0:
256,338,41937,1,2,0:0:0:0:
153,199,42055,5,0,0:0:0:0:
306,236,42173,1,8,0:0:0:0:
152,295,42291,1,0,0:0:0:0:
256,338,42409,2,0,L|361:330,1,95
512,246,42644,1,8,0:0:0:0:
306,236,42762,1,0,0:0:0:0:
461,362,42880,5,2,0:0:0:0:
408,157,42997,1,0,0:0:0:0:
404,133,43056,1,0,0:0:0:0:
401,110,43115,1,10,0:0:0:0:
306,236,43233,1,2,0:0:0:0:
239,33,43350,5,0,0:0:0:0:
172,100,43468,1,0,0:0:0:0:
240,165,43586,1,10,0:0:0:0:
307,101,43704,1,2,0:0:0:0:
74,100,43822,1,0,0:0:0:0:
124,278,43940,1,0,0:0:0:0:
306,236,44057,1,10,0:0:0:0:
273,55,44175,1,2,0:0:0:0:
244,362,44292,6,0,L|345:355,1,95
512,292,44528,1,8,0:0:0:0:
381,195,44646,1,0,0:0:0:0:
381,195,44705,1,0,0:0:0:0:
381,195,44763,1,2,0:0:0:0:
446,384,44881,1,0,0:0:0:0:
495,183,44999,1,10,0:0:0:0:
339,310,45117,1,0,0:0:0:0:
495,183,45235,5,4,0:0:0:0:
276,163,45352,1,0,0:0:0:0:
254,153,45411,1,0,0:0:0:0:
233,141,45470,1,8,0:0:0:0:
140,307,45587,5,0,0:0:0:0:
183,287,45646,1,0,0:0:0:0:
227,268,45705,1,2,0:0:0:0:
79,189,45823,5,0,0:0:0:0:
74,365,45941,1,8,0:0:0:0:
227,268,46059,1,0,0:0:0:0:
7,150,46176,6,0,P|-4:204|26:254,1,95
215,188,46412,1,8,0:0:0:0:
85,80,46530,1,0,0:0:0:0:
82,272,46647,1,2,0:0:0:0:
176,105,46765,1,0,0:0:0:0:
178,82,46824,1,0,0:0:0:0:
181,59,46882,1,8,0:0:0:0:
79,189,47000,1,0,0:0:0:0:
266,89,47118,5,2,0:0:0:0:
424,224,47236,1,0,0:0:0:0:
436,52,47354,1,2,0:0:0:0:
273,176,47472,1,0,0:0:0:0:
512,144,47589,1,2,0:0:0:0:
349,127,47707,1,2,0:0:0:0:
345,262,47825,1,2,0:0:0:0:
265,40,47942,1,2,0:0:0:0:
188,332,48060,5,2,0:0:0:0:
143,347,48119,1,2,0:0:0:0:
96,344,48177,1,2,0:0:0:0:
52,325,48237,1,2,0:0:0:0:
19,291,48295,1,2,0:0:0:0:
1,248,48355,1,2,0:0:0:0:
0,201,48413,1,2,0:0:0:0:
15,156,48472,1,2,0:0:0:0:
120,220,48531,5,2,0:0:0:0:
157,227,48590,1,0,0:0:0:0:
194,220,48648,1,0,0:0:0:0:
228,204,48707,1,0,0:0:0:0:
257,180,48766,1,10,0:0:0:0:
278,148,48825,1,2,0:0:0:0:
289,112,48884,1,8,0:0:0:0:
286,73,48943,1,0,0:0:0:0:
271,37,49002,6,0,B|162:19,1,95
177,21,49179,1,0,0:0:0:0:
177,21,49237,1,10,0:0:0:0:
395,210,49355,5,0,0:0:0:0:
401,164,49414,1,0,0:0:0:0:
409,117,49473,1,2,0:0:0:0:
188,130,49591,5,2,0:0:0:0:
199,330,49708,1,8,0:0:0:0:
308,258,49826,1,2,0:0:0:0:
91,258,49944,6,0,P|76:213|77:165,1,95
276,100,50180,2,0,P|276:147|254:193,1,95
119,46,50415,1,2,0:0:0:0:
380,88,50532,1,0,0:0:0:0:
380,88,50592,1,0,0:0:0:0:
380,88,50650,1,10,0:0:0:0:
274,265,50768,1,0,0:0:0:0:
356,187,50886,5,2,0:0:0:0:
434,268,51004,1,0,0:0:0:0:
353,346,51121,1,10,0:0:0:0:
274,265,51239,1,0,0:0:0:0:
434,268,51357,1,2,0:0:0:0:
260,348,51474,1,0,0:0:0:0:
184,176,51592,1,10,0:0:0:0:
352,95,51710,1,0,0:0:0:0:
187,303,51827,5,2,0:0:0:0:
163,302,51886,1,0,0:0:0:0:
140,296,51945,1,0,0:0:0:0:
119,285,52004,1,0,0:0:0:0:
100,270,52062,1,10,0:0:0:0:
86,251,52122,1,0,0:0:0:0:
76,230,52180,1,0,0:0:0:0:
71,207,52239,1,0,0:0:0:0:
69,182,52299,6,0,L|73:124,1,47.5
185,176,52417,2,0,L|196:227,1,47.5
271,128,52534,1,2,0:0:0:0:
264,102,52593,1,0,0:0:0:0:
253,80,52652,1,2,0:0:0:0:
235,63,52711,1,0,0:0:0:0:
214,49,52770,6,0,L|315:78,1,95
328,82,52946,1,0,0:0:0:0:
350,88,53005,1,10,0:0:0:0:
474,182,53123,5,0,0:0:0:0:
428,195,53182,1,0,0:0:0:0:
381,206,53241,1,2,0:0:0:0:
461,68,53358,5,2,0:0:0:0:
281,213,53476,1,8,0:0:0:0:
445,313,53594,1,2,0:0:0:0:
214,367,53712,6,0,P|166:365|116:339,1,95
31,173,53947,1,10,0:0:0:0:
129,259,54065,1,0,0:0:0:0:
0,348,54182,1,2,0:0:0:0:
31,173,54300,1,0,0:0:0:0:
31,173,54359,1,0,0:0:0:0:
31,173,54418,1,10,0:0:0:0:
129,259,54536,1,0,0:0:0:0:
136,116,54654,6,0,P|99:11|196:65,1,285
310,271,55125,2,0,P|390:346|384:225,1,285
221,158,55595,5,2,0:0:0:0:
175,146,55654,1,2,0:0:0:0:
128,152,55712,1,2,0:0:0:0:
85,173,55772,1,2,0:0:0:0:
53,208,55830,1,2,0:0:0:0:
35,251,55890,1,2,0:0:0:0:
33,298,55948,1,2,0:0:0:0:
48,343,56007,1,2,0:0:0:0:
162,352,56067,5,10,0:0:0:0:
197,363,56125,1,0,0:0:0:0:
233,352,56184,1,10,0:0:0:0:
268,363,56242,1,0,0:0:0:0:
304,352,56302,1,10,0:0:0:0:
339,363,56360,1,0,0:0:0:0:
375,351,56420,1,10,0:0:0:0:
410,362,56478,1,0,0:0:0:0:
446,349,56537,6,0,L|454:272,1,71.25
346,160,56773,2,0,P|385:159|430:150,1,71.25
267,256,57008,2,0,P|230:248|172:253,1,71.25
43,341,57244,2,0,P|85:339|121:334,1,71.25
191,44,57480,6,0,P|155:49|116:64,1,71.25
161,180,57715,2,0,P|148:217|147:257,1,71.25
296,273,57950,2,0,P|326:293|361:306,1,71.25
470,171,58186,1,8,0:0:0:0:
483,164,58421,5,12,0:0:0:0:
256,192,58480,12,0,60305,0:0:0:0:
42,92,62307,6,0,L|8:84,2,23.75
95,15,62542,1,0,0:0:0:0:
140,151,62660,2,0,L|141:198,1,47.5
73,267,62895,2,0,L|85:327,1,47.5
214,251,63131,6,0,L|212:310,1,47.5
212,298,63307,1,0,0:0:0:0:
212,298,63366,1,0,0:0:0:0:
277,378,63484,1,0,0:0:0:0:
302,261,63602,2,0,L|296:154,1,95
360,87,63955,1,0,0:0:0:0:
512,160,64072,6,0,P|462:174|411:166,1,95
214,256,64426,1,0,0:0:0:0:
329,237,64544,1,0,0:0:0:0:
215,268,64662,1,0,0:0:0:0:
286,170,64779,1,0,0:0:0:0:
215,277,64897,1,0,0:0:0:0:
203,171,65015,6,0,L|196:118,1,47.5
116,304,65250,1,0,0:0:0:0:
234,361,65368,1,0,0:0:0:0:
234,361,65485,2,0,B|277:365|310:339|310:339|343:316|394:319,1,166.25
466,350,65957,5,4,0:0:0:0:
383,203,66075,2,2,P|342:214|295:247,1,95
466,350,66427,1,4,0:0:0:0:
501,141,66545,2,2,P|465:121|407:107,1,95
442,17,66898,5,2,0:0:0:0:
413,107,67016,1,0,0:0:0:0:
327,148,67134,1,2,0:0:0:0:
231,149,67252,1,2,0:0:0:0:
146,105,67370,2,0,L|143:69,3,23.75
76,177,67605,2,0,L|75:211,3,23.75
115,282,67840,5,2,0:0:0:0:
194,249,67958,1,2,0:0:0:0:
276,271,68076,1,0,0:0:0:0:
322,342,68194,1,0,0:0:0:0:
322,342,68252,1,0,0:0:0:0:
322,342,68311,1,2,0:0:0:0:
512,322,68429,1,2,0:0:0:0:
426,322,68547,1,2,0:0:0:0:
359,267,68665,1,0,0:0:0:0:
320,190,68782,6,0,L|325:126,1,47.5
181,82,69017,2,0,L|184:139,1,47.5
305,319,69253,5,2,0:0:0:0:
340,320,69312,1,0,0:0:0:0:
374,311,69370,1,0,0:0:0:0:
405,294,69430,1,0,0:0:0:0:
430,269,69488,1,2,0:0:0:0:
447,238,69547,1,0,0:0:0:0:
455,203,69606,1,2,0:0:0:0:
453,168,69665,1,0,0:0:0:0:
440,134,69724,6,0,L|412:64,1,71.25
192,94,69960,1,8,0:0:0:0:
207,175,70077,1,0,0:0:0:0:
269,230,70195,2,0,L|356:215,1,71.25
108,343,70430,1,8,0:0:0:0:
80,260,70548,1,0,0:0:0:0:
104,180,70666,6,0,P|105:146|99:105,1,71.25
228,125,70902,2,0,P|237:93|242:43,1,71.25
330,199,71137,2,0,P|371:192|408:179,1,71.25
399,182,71314,1,0,0:0:0:0:
399,182,71372,1,8,0:0:0:0:
473,285,71490,1,0,0:0:0:0:
375,358,71608,6,0,L|226:356,1,142.5
157,196,71961,1,0,0:0:0:0:
117,282,72079,2,0,P|186:285|250:229,1,142.5
31,301,72432,1,0,0:0:0:0:
83,371,72550,6,0,L|166:368,1,71.25
231,283,72785,2,0,L|305:321,1,71.25
336,185,73021,1,2,0:0:0:0:
440,323,73139,1,0,0:0:0:0:
435,340,73197,1,0,0:0:0:0:
431,357,73256,1,10,0:0:0:0:
348,286,73374,1,0,0:0:0:0:
444,202,73492,6,0,B|473:227|473:227|468:161|503:122,1,142.5
332,21,73845,1,0,0:0:0:0:
274,118,73962,2,0,L|194:116,1,71.25
195,227,74198,2,0,L|118:239,1,71.25
218,366,74434,5,2,0:0:0:0:
270,289,74552,1,2,0:0:0:0:
360,269,74670,1,8,0:0:0:0:
448,294,74787,1,2,0:0:0:0:
453,165,74905,2,0,P|421:176|372:184,1,71.25
258,173,75140,2,0,L|178:159,1,71.25
8,275,75376,5,2,0:0:0:0:
3,377,75493,1,0,0:0:0:0:
121,227,75611,1,10,0:0:0:0:
115,341,75729,1,0,0:0:0:0:
163,117,75847,1,2,0:0:0:0:
242,68,75965,1,0,0:0:0:0:
331,92,76082,1,10,0:0:0:0:
363,178,76200,1,0,0:0:0:0:
350,269,76317,6,0,L|341:351,1,71.25
469,194,76553,1,10,0:0:0:0:
407,42,76671,1,0,0:0:0:0:
240,169,76789,1,6,0:0:0:0:
233,185,76847,1,0,0:0:0:0:
226,201,76906,1,2,0:0:0:0:
220,218,76965,1,0,0:0:0:0:
213,237,77024,5,10,0:0:0:0:
234,265,77083,1,0,0:0:0:0:
254,293,77142,1,2,0:0:0:0:
261,327,77200,1,0,0:0:0:0:
260,364,77260,5,0,0:0:0:0:
120,327,77377,1,0,0:0:0:0:
65,194,77495,1,0,0:0:0:0:
120,56,77613,1,0,0:0:0:0:
257,2,77731,1,2,0:0:0:0:
391,56,77848,1,0,0:0:0:0:
450,201,77966,1,0,0:0:0:0:
391,327,78084,1,0,0:0:0:0:
65,194,78202,5,4,0:0:0:0:
288,179,78319,5,0,0:0:0:0:
296,202,78377,1,0,0:0:0:0:
304,225,78437,1,8,0:0:0:0:
171,174,78555,5,0,0:0:0:0:
184,128,78614,1,0,0:0:0:0:
197,83,78672,1,2,0:0:0:0:
377,141,78790,5,0,0:0:0:0:
391,327,78908,1,8,0:0:0:0:
226,246,79025,1,0,0:0:0:0:
472,283,79143,6,0,P|481:325|467:384,1,95
395,231,79379,1,8,0:0:0:0:
508,153,79497,1,0,0:0:0:0:
310,69,79615,1,2,0:0:0:0:
476,9,79732,1,0,0:0:0:0:
472,32,79791,1,0,0:0:0:0:
469,55,79850,1,8,0:0:0:0:
282,143,79967,1,0,0:0:0:0:
412,295,80085,5,2,0:0:0:0:
425,152,80203,1,0,0:0:0:0:
282,143,80321,1,8,0:0:0:0:
269,284,80438,1,0,0:0:0:0:
344,215,80556,5,2,0:0:0:0:
327,63,80674,1,0,0:0:0:0:
176,85,80792,1,8,0:0:0:0:
197,235,80910,1,0,0:0:0:0:
435,356,81027,5,2,0:0:0:0:
439,332,81086,1,0,0:0:0:0:
439,309,81145,1,0,0:0:0:0:
433,286,81204,1,0,0:0:0:0:
422,264,81262,1,10,0:0:0:0:
407,246,81322,1,0,0:0:0:0:
389,232,81380,1,0,0:0:0:0:
367,222,81439,1,0,0:0:0:0:
344,215,81498,5,2,0:0:0:0:
388,230,81557,1,0,0:0:0:0:
435,225,81615,1,0,0:0:0:0:
474,199,81675,1,0,0:0:0:0:
498,159,81733,1,10,0:0:0:0:
501,112,81792,1,0,0:0:0:0:
483,68,81851,1,0,0:0:0:0:
447,37,81910,1,0,0:0:0:0:
401,26,81969,6,0,L|284:41,1,95
306,38,82146,1,0,0:0:0:0:
306,38,82205,1,10,0:0:0:0:
96,122,82322,5,0,0:0:0:0:
138,141,82381,1,0,0:0:0:0:
181,161,82440,1,2,0:0:0:0:
186,39,82557,5,2,0:0:0:0:
209,253,82675,1,8,0:0:0:0:
393,152,82793,1,2,0:0:0:0:
245,102,82911,5,2,0:0:0:0:
398,259,83029,1,2,0:0:0:0:
384,57,83147,1,8,0:0:0:0:
288,211,83264,1,2,0:0:0:0:
499,205,83382,1,2,0:0:0:0:
316,132,83500,1,0,0:0:0:0:
316,132,83559,1,0,0:0:0:0:
316,132,83617,1,8,0:0:0:0:
485,295,83735,1,0,0:0:0:0:
443,108,83853,5,2,0:0:0:0:
345,259,83970,1,0,0:0:0:0:
192,161,84088,1,10,0:0:0:0:
294,1,84206,1,0,0:0:0:0:
316,132,84324,5,2,0:0:0:0:
227,300,84442,1,0,0:0:0:0:
63,203,84560,1,10,0:0:0:0:
164,43,84677,1,0,0:0:0:0:
227,300,84795,5,2,0:0:0:0:
171,313,84853,1,2,0:0:0:0:
115,306,84912,1,2,0:0:0:0:
66,276,84971,1,2,0:0:0:0:
30,233,85030,1,2,0:0:0:0:
14,179,85089,1,2,0:0:0:0:
19,123,85147,1,2,0:0:0:0:
48,71,85207,1,2,0:0:0:0:
153,103,85266,5,2,0:0:0:0:
149,138,85325,1,0,0:0:0:0:
142,175,85384,1,2,0:0:0:0:
136,210,85442,1,0,0:0:0:0:
130,245,85501,1,10,0:0:0:0:
124,282,85560,1,0,0:0:0:0:
116,316,85619,1,8,0:0:0:0:
105,351,85678,1,0,0:0:0:0:
94,384,85737,6,0,L|77:290,1,95
77,290,85913,1,0,0:0:0:0:
77,290,85972,1,10,0:0:0:0:
368,175,86090,5,0,0:0:0:0:
347,218,86149,1,0,0:0:0:0:
327,261,86207,1,10,0:0:0:0:
53,60,86325,5,0,0:0:0:0:
195,285,86443,1,10,0:0:0:0:
61,71,86561,1,0,0:0:0:0:
276,130,86679,5,2,0:0:0:0:
22,189,86797,1,0,0:0:0:0:
145,23,86914,1,10,0:0:0:0:
256,224,87032,1,0,0:0:0:0:
139,108,87150,5,2,0:0:0:0:
110,307,87267,1,0,0:0:0:0:
109,311,87326,1,0,0:0:0:0:
108,315,87385,1,10,0:0:0:0:
330,264,87503,1,0,0:0:0:0:
162,216,87620,5,2,0:0:0:0:
257,371,87738,1,0,0:0:0:0:
415,190,87856,1,10,0:0:0:0:
215,135,87974,1,0,0:0:0:0:
368,384,88092,5,2,0:0:0:0:
332,134,88210,1,0,0:0:0:0:
134,292,88327,1,10,0:0:0:0:
368,384,88445,1,0,0:0:0:0:
262,59,88562,5,2,0:0:0:0:
243,44,88621,1,0,0:0:0:0:
219,38,88680,1,2,0:0:0:0:
195,34,88739,1,0,0:0:0:0:
156,66,88798,5,10,0:0:0:0:
141,84,88857,1,0,0:0:0:0:
123,99,88915,1,2,0:0:0:0:
101,108,88975,1,0,0:0:0:0:
77,109,89033,5,2,0:0:0:0:
55,151,89092,1,0,0:0:0:0:
47,198,89150,1,2,0:0:0:0:
55,245,89210,1,0,0:0:0:0:
77,286,89268,1,10,0:0:0:0:
111,319,89327,1,0,0:0:0:0:
153,340,89386,1,2,0:0:0:0:
200,345,89445,1,0,0:0:0:0:
248,338,89505,6,0,L|350:319,1,95
364,315,89681,1,0,0:0:0:0:
387,310,89740,1,8,0:0:0:0:
239,150,89857,5,0,0:0:0:0:
199,176,89917,1,0,0:0:0:0:
158,200,89975,1,2,0:0:0:0:
348,212,90093,5,0,0:0:0:0:
224,67,90211,1,10,0:0:0:0:
227,264,90329,1,0,0:0:0:0:
361,128,90446,5,2,0:0:0:0:
145,84,90564,1,0,0:0:0:0:
348,212,90682,1,10,0:0:0:0:
401,39,90800,1,0,0:0:0:0:
401,39,90858,1,0,0:0:0:0:
401,39,90917,1,2,0:0:0:0:
262,176,91035,5,0,0:0:0:0:
444,205,91152,1,10,0:0:0:0:
248,0,91270,1,0,0:0:0:0:
154,363,91388,6,0,B|106:376|106:376|36:350|36:246,1,190
262,176,91742,1,0,0:0:0:0:
493,268,91859,2,0,B|493:354|423:380|423:380|375:367,1,190
262,176,92212,1,0,0:0:0:0:
226,27,92330,5,2,0:0:0:0:
170,19,92389,1,2,0:0:0:0:
117,38,92447,1,2,0:0:0:0:
79,79,92507,1,2,0:0:0:0:
62,133,92565,1,2,0:0:0:0:
63,190,92625,1,2,0:0:0:0:
75,245,92683,1,2,0:0:0:0:
115,285,92742,1,2,0:0:0:0:
236,326,92801,5,2,0:0:0:0:
267,290,92860,1,0,0:0:0:0:
278,244,92918,1,2,0:0:0:0:
271,197,92977,1,0,0:0:0:0:
246,157,93036,1,10,0:0:0:0:
207,130,93095,1,0,0:0:0:0:
161,121,93154,1,10,0:0:0:0:
115,134,93213,1,0,0:0:0:0:
76,152,93272,6,0,L|-21:151,1,71.25
98,372,93507,2,0,L|169:368,1,71.25
297,97,93743,6,0,L|200:96,1,71.25
267,286,93979,2,0,L|338:282,1,71.25
153,53,94214,6,0,P|144:88|147:124,1,71.25
413,224,94450,2,0,P|387:198|354:183,1,71.25
103,358,94685,2,0,P|138:350|169:331,1,71.25
249,203,94920,1,2,0:0:0:0:
256,192,95156,5,12,0:0:0:0:
256,192,95215,12,0,97040,0:0:0:0:
82,68,98688,6,0,L|81:128,1,47.5
69,200,98924,1,0,0:0:0:0:
426,107,99747,2,0,L|426:72,2,23.75
83,341,100690,1,0,0:0:0:0:
83,341,100807,5,2,0:0:0:0:
182,259,101160,1,0,0:0:0:0:
112,207,101278,1,2,0:0:0:0:
309,320,101632,1,0,0:0:0:0:
303,213,101750,5,0,0:0:0:0:
303,213,101867,1,2,0:0:0:0:
392,183,102456,2,0,L|392:108,1,71.25
393,94,102691,6,0,L|404:154,1,47.5
373,307,102927,6,0,L|365:261,1,47.5
441,211,103162,6,0,L|449:257,1,47.5
382,354,103397,6,0,L|373:307,1,47.5
240,246,103633,6,0,L|242:293,1,47.5
224,217,103869,6,0,L|221:169,1,47.5
250,317,104104,6,0,L|253:365,1,47.5
209,153,104340,6,0,L|206:90,1,47.5
163,22,104575,5,2,0:0:0:0:
310,0,104692,5,0,0:0:0:0:
310,0,104752,1,0,0:0:0:0:
310,0,104810,1,10,0:0:0:0:
423,89,104928,5,0,0:0:0:0:
423,89,104987,1,0,0:0:0:0:
423,89,105046,1,2,0:0:0:0:
437,231,105164,5,0,0:0:0:0:
437,231,105222,1,0,0:0:0:0:
437,231,105282,1,10,0:0:0:0:
316,154,105399,5,0,0:0:0:0:
316,154,105458,1,0,0:0:0:0:
316,154,105517,1,2,0:0:0:0:
282,374,105635,5,0,0:0:0:0:
282,374,105693,1,0,0:0:0:0:
282,374,105752,1,10,0:0:0:0:
348,273,105870,5,0,0:0:0:0:
348,273,105929,1,0,0:0:0:0:
348,273,105988,2,0,P|307:267|262:268,1,71.25
174,288,106223,2,0,P|138:290|91:283,1,71.25
46,206,106459,6,0,B|111:192|111:192|144:216|194:198|194:198|234:218,2,190
261,117,107047,1,0,0:0:0:0:
375,120,107165,1,8,0:0:0:0:
501,83,107283,1,2,0:0:0:0:
457,230,107401,6,0,B|416:203|363:210|363:210|325:247|264:234,2,190
312,356,107990,1,0,0:0:0:0:
184,321,108107,1,8,0:0:0:0:
127,185,108225,1,2,0:0:0:0:
99,23,108342,6,0,P|162:52|182:119,1,142.5
52,225,108578,2,0,P|46:156|94:105,1,142.5
252,162,108814,2,0,P|195:201|127:185,1,142.5
95,332,109049,2,0,P|152:293|220:309,1,142.5
332,367,109285,6,0,L|379:362,1,47.5
503,322,109402,2,0,L|456:327,1,47.5
295,289,109520,2,0,L|342:284,1,47.5
512,240,109638,2,0,L|465:245,1,47.5
230,240,109755,1,2,0:0:0:0:
206,239,109815,1,0,0:0:0:0:
182,234,109873,1,0,0:0:0:0:
158,231,109932,1,0,0:0:0:0:
113,215,109991,6,0,L|71:222,7,23.75
256,192,111168,5,4,0:0:0:0:
78,35,111286,5,0,0:0:0:0:
66,81,111345,1,0,0:0:0:0:
54,126,111404,1,8,0:0:0:0:
176,384,111522,5,0,0:0:0:0:
163,338,111580,1,0,0:0:0:0:
150,291,111640,1,2,0:0:0:0:
380,98,111757,5,2,0:0:0:0:
282,293,111875,1,8,0:0:0:0:
160,50,111992,1,2,0:0:0:0:
431,163,112110,5,2,0:0:0:0:
161,169,112228,1,2,0:0:0:0:
383,11,112346,1,8,0:0:0:0:
397,248,112464,1,2,0:0:0:0:
221,358,112581,5,2,0:0:0:0:
179,379,112640,1,2,0:0:0:0:
132,384,112698,1,2,0:0:0:0:
85,373,112757,1,2,0:0:0:0:
45,348,112816,1,10,0:0:0:0:
16,311,112875,1,2,0:0:0:0:
0,267,112934,1,2,0:0:0:0:
0,220,112992,1,0,0:0:0:0:
15,175,113052,5,2,0:0:0:0:
286,260,113170,1,2,0:0:0:0:
264,11,113287,1,8,0:0:0:0:
179,153,113405,1,2,0:0:0:0:
384,112,113523,5,2,0:0:0:0:
173,10,113641,1,2,0:0:0:0:
111,238,113759,1,8,0:0:0:0:
173,10,113877,1,2,0:0:0:0:
380,236,113994,5,2,0:0:0:0:
394,281,114053,1,2,0:0:0:0:
380,326,114112,1,2,0:0:0:0:
349,362,114171,1,2,0:0:0:0:
303,375,114230,5,10,0:0:0:0:
261,350,114289,1,2,0:0:0:0:
214,344,114347,1,2,0:0:0:0:
166,347,114406,1,0,0:0:0:0:
122,365,114465,6,0,L|54:367,1,47.5
32,277,114583,2,0,L|80:276,1,47.5
117,183,114700,2,0,L|49:185,1,47.5
15,91,114818,2,0,L|62:89,1,47.5
215,167,114936,5,6,0:0:0:0:
464,54,115054,5,0,0:0:0:0:
418,42,115112,1,0,0:0:0:0:
371,30,115172,1,10,0:0:0:0:
422,348,115290,5,0,0:0:0:0:
422,300,115348,1,0,0:0:0:0:
422,252,115407,1,2,0:0:0:0:
180,315,115525,5,2,0:0:0:0:
451,174,115642,1,8,0:0:0:0:
117,183,115760,1,2,0:0:0:0:
492,88,115878,5,2,0:0:0:0:
501,383,115996,1,2,0:0:0:0:
247,228,116113,1,8,0:0:0:0:
451,174,116231,1,2,0:0:0:0:
269,345,116349,5,2,0:0:0:0:
225,330,116407,1,2,0:0:0:0:
180,315,116467,1,0,0:0:0:0:
211,64,116585,1,8,0:0:0:0:
367,200,116702,1,2,0:0:0:0:
117,183,116820,5,2,0:0:0:0:
346,82,116937,1,2,0:0:0:0:
126,89,117055,1,10,0:0:0:0:
367,200,117173,1,2,0:0:0:0:
136,0,117291,1,2,0:0:0:0:
402,282,117409,1,2,0:0:0:0:
136,0,117527,1,10,0:0:0:0:
31,317,117644,1,2,0:0:0:0:
238,17,117762,5,2,0:0:0:0:
303,2,117820,1,2,0:0:0:0:
368,16,117879,1,2,0:0:0:0:
422,54,117938,1,2,0:0:0:0:
456,111,117997,1,2,0:0:0:0:
464,176,118056,1,2,0:0:0:0:
447,241,118115,1,2,0:0:0:0:
401,288,118174,1,2,0:0:0:0:
252,211,118233,5,10,0:0:0:0:
230,160,118292,1,0,0:0:0:0:
249,107,118350,1,10,0:0:0:0:
298,81,118410,1,0,0:0:0:0:
351,94,118468,1,10,0:0:0:0:
383,139,118527,1,0,0:0:0:0:
378,194,118586,1,10,0:0:0:0:
334,232,118645,1,0,0:0:0:0:
309,286,118704,6,0,L|319:383,1,95
318,380,118880,1,8,0:0:0:0:
318,380,118940,1,8,0:0:0:0:
81,188,119057,5,2,0:0:0:0:
94,142,119116,1,8,0:0:0:0:
109,94,119175,1,8,0:0:0:0:
175,320,119292,5,2,0:0:0:0:
4,135,119410,1,8,0:0:0:0:
251,31,119528,1,2,0:0:0:0:
164,232,119646,5,10,0:0:0:0:
131,0,119763,1,2,0:0:0:0:
366,67,119881,1,8,0:0:0:0:
163,232,119999,1,2,0:0:0:0:
144,238,120057,1,0,0:0:0:0:
125,242,120117,5,10,0:0:0:0:
164,267,120175,1,2,0:0:0:0:
211,272,120234,1,2,0:0:0:0:
254,254,120293,1,2,0:0:0:0:
284,217,120352,1,10,0:0:0:0:
293,171,120411,1,2,0:0:0:0:
280,126,120470,1,2,0:0:0:0:
247,93,120528,1,0,0:0:0:0:
202,79,120587,5,10,0:0:0:0:
319,306,120705,1,2,0:0:0:0:
473,106,120823,1,8,0:0:0:0:
198,177,120941,1,2,0:0:0:0:
493,184,121059,5,10,0:0:0:0:
243,5,121176,1,2,0:0:0:0:
249,352,121294,1,8,0:0:0:0:
495,266,121412,1,2,0:0:0:0:
119,122,121530,5,12,0:0:0:0:
401,324,121647,1,2,0:0:0:0:
406,277,121706,1,2,0:0:0:0:
412,229,121765,1,10,0:0:0:0:
417,182,121824,1,2,0:0:0:0:
423,135,121882,1,2,0:0:0:0:
429,87,121942,1,0,0:0:0:0:
436,40,122000,5,10,0:0:0:0:
312,208,122118,1,2,0:0:0:0:
491,356,122236,1,8,0:0:0:0:
417,182,122354,1,2,0:0:0:0:
232,376,122472,5,4,0:0:0:0:
186,72,122589,5,2,0:0:0:0:
204,115,122648,1,8,0:0:0:0:
225,157,122707,1,8,0:0:0:0:
64,365,122825,5,2,0:0:0:0:
73,318,122884,1,8,0:0:0:0:
82,271,122942,1,10,0:0:0:0:
328,317,123060,5,2,0:0:0:0:
0,250,123178,1,8,0:0:0:0:
240,2,123295,1,2,0:0:0:0:
416,336,123413,5,10,0:0:0:0:
207,240,123531,1,2,0:0:0:0:
445,76,123649,1,8,0:0:0:0:
196,323,123767,1,2,0:0:0:0:
176,279,123825,1,2,0:0:0:0:
161,233,123885,1,10,0:0:0:0:
262,0,124002,1,2,0:0:0:0:
308,368,124120,1,8,0:0:0:0:
0,217,124237,1,2,0:0:0:0:
365,64,124355,6,2,B|431:92|471:159|471:159|490:230|471:296,1,285
168,136,124826,2,2,B|235:109|311:128|311:128|375:165|408:225,1,285
438,343,125297,5,2,0:0:0:0:
373,327,125356,1,2,0:0:0:0:
322,284,125415,1,2,0:0:0:0:
298,223,125474,1,2,0:0:0:0:
305,157,125532,1,2,0:0:0:0:
342,103,125592,1,2,0:0:0:0:
399,72,125650,1,2,0:0:0:0:
466,73,125710,1,2,0:0:0:0:
512,234,125768,5,10,0:0:0:0:
451,256,125827,1,0,0:0:0:0:
385,253,125886,1,10,0:0:0:0:
327,221,125945,1,0,0:0:0:0:
306,156,126004,5,10,0:0:0:0:
263,106,126062,1,0,0:0:0:0:
204,74,126121,1,10,0:0:0:0:
137,70,126180,1,0,0:0:0:0:
74,88,126239,6,0,L|3:83,1,71.25
118,190,126475,2,0,L|47:185,1,71.25
175,287,126710,2,0,L|104:282,1,71.25
226,379,126946,2,0,L|155:374,1,71.25
446,335,127181,6,0,P|481:348|515:373,1,71.25
365,239,127417,2,0,P|404:224|446:218,1,71.25
241,228,127652,2,0,P|254:193|279:159,1,71.25
367,379,127887,6,0,L|295:382,1,71.25
217,358,128123,5,12,0:0:0:0:
384,71,128241,1,0,0:0:0:0:
384,71,128300,1,0,0:0:0:0:
384,71,128359,1,10,0:0:0:0:
435,221,128477,1,0,0:0:0:0:
299,167,128595,5,2,0:0:0:0:
438,321,128712,1,0,0:0:0:0:
438,321,128771,1,0,0:0:0:0:
438,321,128830,1,10,0:0:0:0:
469,130,128947,1,0,0:0:0:0:
322,283,129065,6,0,L|221:286,1,95
60,152,129301,1,10,0:0:0:0:
206,182,129419,1,0,0:0:0:0:
3,281,129537,1,2,0:0:0:0:
0,28,129654,1,0,0:0:0:0:
0,28,129713,1,0,0:0:0:0:
0,28,129771,1,10,0:0:0:0:
282,131,129890,1,0,0:0:0:0:
127,336,130007,6,0,P|116:300|125:238,1,95
248,55,130243,1,10,0:0:0:0:
212,282,130360,1,0,0:0:0:0:
60,152,130477,1,2,0:0:0:0:
293,228,130595,1,0,0:0:0:0:
293,228,130655,1,0,0:0:0:0:
293,228,130714,1,10,0:0:0:0:
217,367,130831,1,0,0:0:0:0:
131,254,130950,5,2,0:0:0:0:
336,360,131067,1,0,0:0:0:0:
371,186,131185,1,10,0:0:0:0:
266,306,131302,1,0,0:0:0:0:
437,239,131420,1,2,0:0:0:0:
215,156,131537,1,0,0:0:0:0:
215,156,131596,1,0,0:0:0:0:
215,156,131655,1,10,0:0:0:0:
487,170,131773,5,0,0:0:0:0:
487,170,131832,1,0,0:0:0:0:
487,170,131890,2,0,P|513:220|509:271,1,95
289,202,132126,1,8,0:0:0:0:
417,84,132244,1,2,0:0:0:0:
310,287,132362,1,2,0:0:0:0:
135,150,132480,1,2,0:0:0:0:
135,150,132538,1,0,0:0:0:0:
135,150,132597,5,8,0:0:0:0:
366,167,132715,1,2,0:0:0:0:
241,340,132832,1,2,0:0:0:0:
257,105,132950,5,2,0:0:0:0:
258,153,133009,1,2,0:0:0:0:
242,197,133067,1,10,0:0:0:0:
213,235,133127,1,2,0:0:0:0:
174,261,133185,1,2,0:0:0:0:
128,272,133245,1,2,0:0:0:0:
81,269,133303,1,0,0:0:0:0:
3,55,133421,5,2,0:0:0:0:
49,65,133480,1,2,0:0:0:0:
95,75,133539,1,10,0:0:0:0:
296,0,133657,1,2,0:0:0:0:
147,165,133775,6,0,L|245:158,1,95
310,287,134010,1,10,0:0:0:0:
147,165,134127,1,0,0:0:0:0:
125,351,134245,5,2,0:0:0:0:
210,248,134363,1,0,0:0:0:0:
210,248,134422,1,0,0:0:0:0:
210,248,134481,1,10,0:0:0:0:
21,204,134599,1,0,0:0:0:0:
168,64,134716,5,14,0:0:0:0:
265,362,134834,1,0,0:0:0:0:
364,58,134952,1,10,0:0:0:0:
110,232,135070,1,0,0:0:0:0:
440,227,135187,1,10,0:0:0:0:
271,10,135305,5,4,0:0:0:0:
271,10,135364,1,0,0:0:0:0:
271,10,135422,1,14,0:0:0:0:
110,232,135540,1,0,0:0:0:0:
440,227,135658,1,10,0:0:0:0:
190,0,135776,1,0,0:0:0:0:
158,306,135894,1,10,0:0:0:0:
431,138,136012,5,0,0:0:0:0:
431,138,136070,1,0,0:0:0:0:
431,138,136129,1,14,0:0:0:0:
53,127,136247,1,8,0:0:0:0:
330,384,136365,1,10,0:0:0:0:
263,0,136482,1,8,0:0:0:0:
86,364,136600,1,14,0:0:0:0:
418,290,136718,5,8,0:0:0:0:
413,266,136777,1,0,0:0:0:0:
408,242,136835,1,10,0:0:0:0:
121,207,136953,5,14,0:0:0:0:
