osu file format v14

[General]
AudioFilename: audio.mp3
AudioLeadIn: 0
PreviewTime: 56354
Countdown: 0
SampleSet: Soft
StackLeniency: 0.7
Mode: 0
LetterboxInBreaks: 0
WidescreenStoryboard: 0

[Editor]
Bookmarks: 45063,170585
DistanceSpacing: 0.4
BeatDivisor: 4
GridSize: 8
TimelineZoom: 3.099999

[Metadata]
Title:Hanairo Biyori
TitleUnicode:花色日和
Artist:Natsume Chiaki
ArtistUnicode:なつめ千秋
Creator:Nevo
Version:Fried Rice
Source:
Tags:Athanasia- Len lit120 wanpachi cycopton shmiklak daycore marvollo m_a_r_v_o_l_l_o vocaloid japanese rock jrock j-rock thousands of gifts vocaloid2 hatsune miku Hatsune Miku fast Gorou Flower Colored Weather -Hakurei-
BeatmapID:3455240
BeatmapSetID:1690826

[Difficulty]
HPDrainRate:6
CircleSize:4
OverallDifficulty:8.4
ApproachRate:9.3
SliderMultiplier:1.7
SliderTickRate:1

[Events]
//Background and Video events
0,0,"hiyorii-art-scale-6_00x.jpg",0,0
//Break Periods
2,83505,85553
//Storyboard Layer 0 (Background)
//Storyboard Layer 1 (Fail)
//Storyboard Layer 2 (Pass)
//Storyboard Layer 3 (Foreground)
//Storyboard Layer 4 (Overlay)
//Storyboard Sound Samples

[TimingPoints]
13415,329.67032967033,4,2,1,80,1,0
23964,-100,4,2,1,60,0,0
26849,-100,4,2,1,5,0,0
26931,-100,4,2,1,60,0,0
33195,-83.3333333333333,4,2,1,70,0,0
55612,-83.3333333333333,4,2,1,45,0,0
56931,-71.4285714285714,4,2,1,80,0,1
80338,-71.4285714285714,4,2,1,45,0,1
80667,-100,4,2,1,60,0,0
86107,-125,4,2,1,60,0,0
88167,-125,4,2,1,5,0,0
88250,-125,4,2,1,60,0,0
91217,-90.9090909090909,4,2,1,60,0,0
96491,-90.9090909090909,4,2,1,70,0,0
107041,-90.9090909090909,4,2,1,45,0,0
108360,-71.4285714285714,4,2,1,80,0,1
131766,-250,4,2,1,45,0,0
132013,-250,4,2,1,5,0,0
132096,-250,4,2,1,45,0,0
142645,-250,4,2,1,60,0,0
151876,-250,4,2,1,70,0,0
152865,-100,4,2,1,70,0,0
154019,-100,4,2,1,45,0,0
154513,-71.4285714285714,4,2,1,80,0,1
177920,-71.4285714285714,4,2,1,45,0,1
178250,-83.3333333333333,4,2,1,80,0,0

[Colours]
Combo1 : 180,219,125
Combo2 : 255,150,100
Combo3 : 255,91,91
Combo4 : 113,208,255

[HitObjects]
157,244,13414,6,0,L|139:366,1,85,6|0,3:2|0:0,0:0:0:0:
353,211,13744,2,0,L|335:333,1,85,10|2,0:0|0:2,0:0:0:0:
95,167,14074,1,2,3:2:0:0:
253,208,14239,1,0,0:0:0:0:
294,50,14404,1,10,0:0:0:0:
136,9,14568,1,0,0:0:0:0:
308,137,14733,6,0,L|411:119,1,85,2|0,3:2|0:0,0:0:0:0:
194,286,15063,2,0,L|91:268,1,85,10|0,0:0|0:0,0:0:0:0:
322,274,15393,2,0,L|301:378,1,85,2|2,3:2|0:2,0:0:0:0:
305,357,15640,1,2,0:2:0:0:
305,357,15722,1,10,0:0:0:0:
253,209,15887,1,2,0:2:0:0:
450,166,16052,5,2,3:2:0:0:
230,81,16217,1,0,0:0:0:0:
450,166,16382,1,10,0:0:0:0:
355,200,16546,1,0,0:0:0:0:
489,72,16711,5,2,3:2:0:0:
436,281,16876,1,2,0:2:0:0:
436,281,16958,1,2,0:0:0:0:
436,281,17041,1,10,0:0:0:0:
329,299,17206,1,0,0:0:0:0:
494,363,17371,5,2,3:2:0:0:
355,200,17535,1,2,0:2:0:0:
205,341,17700,1,10,0:0:0:0:
228,228,17865,1,2,0:2:0:0:
77,384,18030,5,2,3:2:0:0:
329,299,18195,1,10,0:0:0:0:
329,299,18277,1,10,0:0:0:0:
329,299,18360,1,10,0:0:0:0:
89,267,18524,1,10,0:0:0:0:
328,91,18689,6,0,L|415:65,1,85,2|0,3:2|0:0,0:0:0:0:
171,292,19019,2,0,L|84:266,1,85,10|2,0:0|0:2,0:0:0:0:
0,199,19349,1,2,3:2:0:0:
161,167,19513,1,2,0:0:0:0:
161,167,19596,1,2,0:0:0:0:
161,167,19678,1,10,0:0:0:0:
72,129,19843,1,0,0:0:0:0:
255,69,20008,5,2,3:2:0:0:
171,292,20173,1,0,0:0:0:0:
367,193,20338,1,10,0:0:0:0:
258,175,20502,1,0,0:0:0:0:
456,263,20667,1,2,3:2:0:0:
403,94,20832,1,2,0:2:0:0:
403,94,20914,1,2,0:2:0:0:
403,94,20997,1,10,0:0:0:0:
290,262,21162,1,2,0:2:0:0:
366,376,21327,6,0,L|382:276,1,85,2|0,3:2|0:0,0:0:0:0:
168,335,21656,2,0,L|152:235,1,85,10|0,0:0|0:0,0:0:0:0:
80,174,21986,1,2,3:2:0:0:
279,150,22151,1,2,0:2:0:0:
279,150,22233,1,2,0:2:0:0:
279,150,22316,1,10,0:0:0:0:
331,229,22480,1,0,0:0:0:0:
167,101,22645,5,10,0:0:0:0:
363,20,22810,1,10,0:0:0:0:
414,216,22975,1,10,0:0:0:0:
150,109,23140,5,10,0:0:0:0:
367,4,23305,1,10,0:0:0:0:
427,239,23469,1,10,0:0:0:0:
427,239,23552,1,10,0:0:0:0:
427,239,23634,1,10,0:0:0:0:
320,110,23799,1,10,0:0:0:0:
194,304,24129,5,2,0:2:0:0:
194,304,24294,1,2,3:2:0:0:
146,375,24458,1,2,0:2:0:0:
361,358,24623,5,2,3:2:0:0:
361,358,24788,1,2,0:2:0:0:
306,241,24953,1,2,3:2:0:0:
379,191,25118,1,2,0:2:0:0:
217,226,25283,5,2,3:2:0:0:
379,191,25447,1,2,0:2:0:0:
297,155,25612,1,2,3:2:0:0:
129,247,25777,1,2,0:2:0:0:
129,247,25942,2,0,P|110:208|113:158,1,85,2|2,3:2|0:0,0:0:0:0:
110,167,26189,1,2,0:0:0:0:
110,167,26272,1,2,3:2:0:0:
132,80,26436,1,2,0:2:0:0:
217,226,26601,6,0,P|299:203|362:195,1,127.5,2|0,3:2|0:0,0:0:0:0:
370,208,26931,1,2,3:2:0:0:
332,279,27096,1,2,0:2:0:0:
333,115,27261,1,2,3:2:0:0:
493,177,27425,1,2,0:2:0:0:
434,85,27590,1,2,3:2:0:0:
493,177,27755,1,2,0:2:0:0:
435,319,27920,6,0,L|416:224,1,85,2|2,3:2|0:2,0:0:0:0:
241,261,28250,2,0,L|222:356,1,85,2|2,3:2|0:2,0:0:0:0:
221,367,28497,1,2,0:2:0:0:
221,367,28579,2,0,P|160:353|105:365,1,85,2|2,3:2|0:2,0:0:0:0:
124,334,28827,1,2,0:0:0:0:
124,334,28909,2,0,P|71:367|41:414,1,85,2|2,3:2|0:2,0:0:0:0:
147,252,29239,6,0,L|119:148,1,85,2|2,3:2|0:2,0:0:0:0:
52,235,29568,1,2,3:2:0:0:
190,127,29733,1,2,0:2:0:0:
33,62,29898,1,2,3:2:0:0:
270,102,30063,1,2,0:2:0:0:
97,121,30228,1,2,3:2:0:0:
256,16,30393,1,2,0:2:0:0:
350,128,30557,6,0,P|291:106|264:100,1,85,2|2,3:2|0:2,0:0:0:0:
397,205,30887,2,0,P|456:183|483:177,1,85,2|2,3:2|0:2,0:0:0:0:
327,373,31217,2,0,P|315:327|312:197,1,170,2|2,3:2|3:2,0:0:0:0:
167,368,31876,6,0,P|80:355|59:332,1,85,2|0,3:2|0:0,0:0:0:0:
247,280,32206,1,0,3:2:0:0:
247,280,32371,1,2,0:2:0:0:
138,284,32535,2,0,P|85:213|87:182,1,85,2|2,3:2|0:2,0:0:0:0:
310,205,32865,1,2,3:2:0:0:
310,205,33030,1,2,0:2:0:0:
153,97,33195,6,0,L|179:215,1,101.999996887207,2|10,3:2|0:2,0:0:0:0:
174,196,33442,1,10,0:2:0:0:
174,196,33524,1,2,3:2:0:0:
238,25,33689,1,10,0:2:0:0:
238,25,33772,1,8,0:2:0:0:
238,25,33854,2,0,L|264:143,1,101.999996887207,2|10,3:2|0:2,0:0:0:0:
259,124,34101,1,10,0:2:0:0:
259,124,34184,1,10,0:2:0:0:
304,149,34266,1,8,0:3:0:0:
354,157,34348,1,8,0:3:0:0:
404,146,34431,1,4,0:3:0:0:
447,120,34513,5,6,3:2:0:0:
459,32,34678,1,2,0:2:0:0:
443,224,34843,2,0,L|461:333,1,101.999996887207,10|2,0:2|0:2,0:0:0:0:
265,293,35173,1,2,3:2:0:0:
354,282,35338,1,2,0:2:0:0:
184,329,35502,2,0,L|75:311,1,101.999996887207,10|2,0:2|0:2,0:0:0:0:
210,132,35832,5,2,3:2:0:0:
252,205,35997,1,2,0:2:0:0:
102,124,36162,1,10,0:2:0:0:
346,194,36327,1,2,0:2:0:0:
403,120,36491,2,0,P|353:97|301:109,1,101.999996887207,2|2,3:2|0:0,0:0:0:0:
308,105,36739,1,2,0:0:0:0:
308,105,36821,1,10,0:2:0:0:
195,306,36986,1,10,0:2:0:0:
195,306,37068,1,8,0:2:0:0:
195,306,37151,6,0,P|266:299|296:281,1,101.999996887207,2|0,3:2|0:0,0:0:0:0:
470,280,37480,1,10,0:2:0:0:
393,225,37645,1,2,0:2:0:0:
349,358,37810,1,2,3:2:0:0:
393,225,37975,1,2,0:2:0:0:
291,284,38140,1,10,0:2:0:0:
470,280,38305,1,2,0:2:0:0:
501,171,38469,6,0,L|513:51,1,101.999996887207,2|2,3:2|0:2,0:0:0:0:
258,12,38799,2,0,L|270:132,1,101.999996887207,10|2,0:2|0:2,0:0:0:0:
37,296,39129,2,0,L|58:158,1,101.999996887207,2|8,3:2|0:0,0:0:0:0:
73,173,39376,5,8,0:2:0:0:
73,173,39458,2,0,L|143:144,1,50.9999984436036,8|8,0:2|0:2,0:0:0:0:
241,297,39623,2,0,L|158:273,1,50.9999984436036,8|8,0:2|0:2,0:0:0:0:
390,152,39788,5,2,3:2:0:0:
420,238,39953,1,2,0:2:0:0:
390,152,40118,1,10,0:2:0:0:
341,313,40283,1,2,0:2:0:0:
491,284,40447,1,2,3:2:0:0:
329,213,40612,1,2,0:2:0:0:
482,166,40777,1,10,0:2:0:0:
335,85,40942,1,2,0:2:0:0:
487,52,41107,5,2,3:2:0:0:
335,85,41272,1,2,0:2:0:0:
420,238,41436,1,10,0:2:0:0:
234,165,41601,1,2,0:2:0:0:
390,152,41766,2,0,L|499:144,1,101.999996887207,2|0,3:2|0:0,0:0:0:0:
230,74,42096,2,0,L|121:66,1,101.999996887207,10|10,0:2|0:2,0:0:0:0:
93,85,42343,1,8,0:2:0:0:
93,85,42425,5,2,3:2:0:0:
181,202,42590,1,0,0:0:0:0:
98,266,42755,1,10,0:2:0:0:
15,210,42920,1,2,0:2:0:0:
99,181,43085,5,2,3:2:0:0:
183,294,43250,1,2,0:2:0:0:
343,220,43415,1,10,0:2:0:0:
285,372,43579,5,10,0:2:0:0:
285,372,43662,1,8,0:2:0:0:
285,372,43744,1,2,3:2:0:0:
285,372,43827,1,8,0:2:0:0:
252,194,44074,1,10,0:2:0:0:
363,311,44239,1,10,0:2:0:0:
388,308,44321,1,8,0:2:0:0:
413,305,44403,1,10,0:2:0:0:
435,304,44486,1,8,0:2:0:0:
464,300,44568,2,0,L|474:245,1,50.9999984436036,8|8,0:3|0:3,0:0:0:0:
504,176,44733,1,8,0:3:0:0:
499,150,44815,1,8,0:3:0:0:
495,125,44897,1,4,0:3:0:0:
491,100,44980,1,4,0:3:0:0:
487,75,45063,5,6,3:2:0:0:
487,75,45557,5,10,0:2:0:0:
171,58,45722,1,8,0:3:0:0:
171,58,46217,5,8,0:3:0:0:
146,154,46382,1,4,0:3:0:0:
242,133,46546,1,2,3:2:0:0:
72,88,46711,5,10,0:2:0:0:
53,188,46876,1,10,0:2:0:0:
127,255,47041,1,8,0:3:0:0:
127,255,47371,5,10,0:2:0:0:
351,201,47535,1,4,0:3:0:0:
121,269,47700,1,8,0:3:0:0:
115,284,48195,5,10,0:2:0:0:
393,274,48360,1,2,3:2:0:0:
393,274,48854,5,8,0:3:0:0:
340,191,49019,1,8,0:3:0:0:
293,281,49184,1,4,0:3:0:0:
439,185,49349,5,10,0:2:0:0:
381,103,49513,1,10,0:2:0:0:
283,108,49678,1,8,0:3:0:0:
283,108,50008,5,10,0:2:0:0:
145,208,50173,1,8,0:3:0:0:
17,110,50338,1,8,0:3:0:0:
17,110,50832,5,10,0:2:0:0:
333,28,50997,1,8,0:3:0:0:
331,43,51491,5,4,0:3:0:0:
125,12,51656,1,8,0:3:0:0:
298,121,51821,1,4,0:3:0:0:
134,97,51986,1,10,0:2:0:0:
205,167,52151,1,10,0:2:0:0:
205,167,52316,1,4,0:3:0:0:
205,167,52645,5,10,0:2:0:0:
448,109,52810,1,4,0:3:0:0:
227,267,52975,5,2,3:2:0:0:
301,67,53140,1,2,3:2:0:0:
473,201,53305,1,10,0:2:0:0:
307,219,53469,1,2,3:2:0:0:
315,144,53634,1,2,3:2:0:0:
383,187,53799,1,2,3:2:0:0:
331,181,53964,1,10,0:2:0:0:
331,181,54129,1,2,3:2:0:0:
283,359,54294,5,10,0:2:0:0:
221,184,54458,1,10,0:2:0:0:
78,323,54623,1,10,0:2:0:0:
279,261,54788,1,10,0:2:0:0:
126,245,54953,1,10,0:2:0:0:
126,245,55035,1,8,0:2:0:0:
126,245,55117,1,8,0:2:0:0:
126,245,55200,1,8,0:2:0:0:
126,245,55283,2,8,L|87:235,6,25.4999992218018,10|8|8|8|8|8|8,0:2|0:0|0:0|0:0|0:2|0:0|0:0,0:0:0:0:
202,275,55612,5,2,0:2:0:0:
279,261,55777,1,2,0:2:0:0:
357,250,55942,1,2,0:2:0:0:
433,235,56107,1,2,0:2:0:0:
305,178,56272,1,2,0:2:0:0:
251,347,56436,5,2,0:2:0:0:
65,328,56601,1,2,0:2:0:0:
18,153,56766,1,2,0:2:0:0:
318,71,56931,6,0,L|191:47,1,118.999996368408,6|2,3:2|0:2,0:0:0:0:
201,48,57178,1,2,0:2:0:0:
201,48,57261,1,10,0:2:0:0:
113,187,57425,1,2,0:2:0:0:
120,221,57507,1,2,0:2:0:0:
127,252,57590,1,2,3:2:0:0:
360,304,57755,1,2,0:2:0:0:
243,203,57920,1,10,0:2:0:0:
465,194,58085,1,2,0:2:0:0:
246,334,58250,5,2,3:2:0:0:
351,150,58415,1,2,0:2:0:0:
479,329,58579,1,10,0:2:0:0:
230,344,58744,2,0,L|97:318,1,118.999996368408,2|0,0:2|3:2,0:0:0:0:
18,196,59074,1,2,0:2:0:0:
224,120,59239,1,10,0:2:0:0:
224,120,59404,1,2,0:2:0:0:
70,8,59568,6,0,P|80:70|116:127,1,118.999996368408,0|2,3:2|0:2,0:0:0:0:
338,57,59898,1,10,0:2:0:0:
240,228,60063,1,2,0:2:0:0:
212,21,60228,1,2,3:2:0:0:
347,174,60393,1,2,0:2:0:0:
122,206,60557,1,10,0:2:0:0:
224,120,60722,1,2,0:2:0:0:
268,353,60887,5,2,3:2:0:0:
304,373,60969,1,2,0:0:0:0:
345,378,61051,1,2,0:0:0:0:
385,369,61134,1,2,0:0:0:0:
419,345,61217,2,0,L|493:335,1,59.4999981842042,10|2,0:2|0:0,0:0:0:0:
326,229,61382,2,0,L|336:302,1,59.4999981842042,2|2,0:0|0:0,0:0:0:0:
416,141,61546,5,2,3:2:0:0:
374,136,61628,1,2,0:0:0:0:
333,132,61710,1,10,0:2:0:0:
291,127,61793,1,10,0:2:0:0:
250,123,61875,1,10,0:2:0:0:
64,83,62041,5,10,0:2:0:0:
83,38,62124,1,8,0:0:0:0:
117,1,62206,1,2,3:2:0:0:
103,196,62371,5,2,0:2:0:0:
58,206,62453,1,2,0:2:0:0:
13,199,62535,1,10,0:2:0:0:
185,277,62700,5,2,0:2:0:0:
230,287,62782,1,2,0:2:0:0:
275,280,62864,1,2,3:2:0:0:
356,201,63030,1,2,0:2:0:0:
422,352,63195,1,10,0:2:0:0:
463,131,63360,1,2,0:2:0:0:
347,291,63524,5,2,3:2:0:0:
285,84,63689,1,2,0:2:0:0:
453,229,63854,1,10,0:2:0:0:
218,341,64019,2,0,L|100:320,1,118.999996368408,2|0,0:2|3:2,0:0:0:0:
189,158,64349,5,2,0:2:0:0:
233,245,64513,1,10,0:2:0:0:
122,228,64678,1,2,0:2:0:0:
316,309,64843,5,2,3:2:0:0:
213,57,65008,1,2,0:2:0:0:
25,274,65173,1,10,0:2:0:0:
283,169,65338,1,2,0:2:0:0:
97,138,65502,1,2,3:2:0:0:
162,311,65667,1,2,0:2:0:0:
189,158,65832,1,10,0:2:0:0:
189,158,65997,1,2,0:2:0:0:
336,275,66162,5,2,3:2:0:0:
374,258,66243,1,2,0:2:0:0:
402,228,66326,1,2,0:2:0:0:
417,190,66408,1,2,0:2:0:0:
417,149,66491,1,8,0:2:0:0:
400,111,66573,1,2,0:2:0:0:
370,82,66655,1,2,0:2:0:0:
331,68,66738,1,10,0:2:0:0:
328,35,66821,5,10,0:2:0:0:
378,55,66904,1,10,0:2:0:0:
418,92,66986,1,8,0:3:0:0:
439,142,67068,1,8,0:3:0:0:
440,195,67151,1,8,0:3:0:0:
420,245,67233,1,8,0:3:0:0:
383,284,67316,1,4,0:3:0:0:
334,306,67398,1,4,0:3:0:0:
281,306,67480,6,0,L|160:279,1,118.999996368408,6|2,3:2|0:2,0:0:0:0:
164,280,67728,1,2,0:2:0:0:
164,280,67810,1,10,0:2:0:0:
62,139,67975,1,2,0:2:0:0:
59,122,68057,1,2,0:2:0:0:
56,107,68140,1,2,3:2:0:0:
240,161,68305,1,2,0:2:0:0:
55,238,68469,1,10,0:2:0:0:
327,190,68634,1,2,0:2:0:0:
135,127,68799,5,2,3:2:0:0:
410,221,68964,1,2,0:2:0:0:
308,45,69129,1,10,0:2:0:0:
128,279,69294,2,0,P|209:197|339:194,1,237.999992736817,2|2,0:2|0:2,0:0:0:0:
387,353,69788,1,10,0:2:0:0:
256,295,69953,1,2,0:2:0:0:
433,146,70118,6,0,L|405:273,1,118.999996368408,2|2,3:2|0:2,0:0:0:0:
407,262,70365,1,2,0:0:0:0:
407,262,70447,1,10,0:2:0:0:
179,148,70612,1,2,0:2:0:0:
184,117,70694,1,0,0:0:0:0:
191,89,70777,1,2,3:2:0:0:
271,233,70942,1,2,0:2:0:0:
142,292,71107,1,10,0:2:0:0:
62,179,71272,1,2,0:2:0:0:
356,199,71436,5,2,3:2:0:0:
393,192,71518,1,2,0:0:0:0:
430,186,71600,1,2,0:0:0:0:
468,180,71683,1,2,0:0:0:0:
453,217,71766,5,10,0:2:0:0:
406,224,71849,1,2,0:0:0:0:
360,232,71931,1,2,0:0:0:0:
315,240,72013,1,2,0:0:0:0:
337,281,72096,5,2,3:2:0:0:
386,272,72178,1,2,0:0:0:0:
435,264,72260,1,10,0:2:0:0:
485,256,72343,1,10,0:2:0:0:
468,306,72425,5,10,0:2:0:0:
413,315,72508,1,10,0:2:0:0:
359,324,72590,1,10,0:2:0:0:
305,333,72672,1,10,0:2:0:0:
247,344,72755,6,0,P|179:318|135:259,1,118.999996368408,2|2,3:2|0:2,0:0:0:0:
131,245,73002,1,2,0:2:0:0:
128,200,73085,1,10,0:2:0:0:
299,73,73250,1,2,0:2:0:0:
291,122,73333,1,2,0:2:0:0:
285,168,73415,1,2,3:2:0:0:
448,279,73579,1,2,0:2:0:0:
512,69,73744,1,10,0:2:0:0:
378,155,73909,1,2,0:2:0:0:
378,155,73991,1,2,0:0:0:0:
378,155,74074,5,2,3:2:0:0:
199,58,74239,1,2,0:2:0:0:
395,25,74404,1,10,0:2:0:0:
186,175,74568,2,0,P|121:169|56:146,1,118.999996368408,2|0,0:2|3:2,0:0:0:0:
285,119,74898,1,2,0:2:0:0:
149,271,75063,1,10,0:2:0:0:
90,59,75228,1,2,0:2:0:0:
340,200,75393,6,0,L|463:172,1,118.999996368408,2|0,3:2|0:0,0:0:0:0:
336,330,75722,1,8,0:2:0:0:
285,119,75887,1,2,0:2:0:0:
149,271,76052,2,0,L|26:243,1,118.999996368408,2|0,3:2|0:0,0:0:0:0:
199,50,76382,1,8,0:2:0:0:
262,256,76546,1,2,0:2:0:0:
512,52,76711,5,8,0:3:0:0:
475,47,76793,1,2,0:2:0:0:
441,54,76875,1,2,0:2:0:0:
410,72,76958,1,2,0:2:0:0:
387,99,77040,1,8,0:3:0:0:
374,132,77123,1,2,0:2:0:0:
372,168,77205,1,2,0:2:0:0:
381,201,77287,1,2,0:2:0:0:
394,253,77370,5,4,0:3:0:0:
352,218,77452,1,2,0:2:0:0:
304,190,77534,1,2,0:2:0:0:
252,169,77617,1,2,0:2:0:0:
199,158,77699,1,10,0:2:0:0:
143,154,77782,1,10,0:2:0:0:
89,159,77864,1,10,0:2:0:0:
37,179,77946,1,10,0:2:0:0:
0,220,78030,6,0,P|57:236|110:263,1,118.999996368408,6|0,3:2|0:0,0:0:0:0:
132,360,78360,2,0,P|196:329|257:314,1,118.999996368408,10|0,0:2|0:0,0:0:0:0:
489,69,78689,6,0,P|431:85|378:112,1,118.999996368408,6|0,3:2|0:0,0:0:0:0:
357,256,79019,2,0,P|293:225|232:210,1,118.999996368408,10|0,0:2|0:0,0:0:0:0:
114,57,79349,5,6,3:2:0:0:
431,162,79678,1,10,0:2:0:0:
256,360,80008,1,6,3:2:0:0:
258,73,80338,1,0,0:0:0:0:
258,73,80667,5,2,3:2:0:0:
256,192,80750,12,2,83305,3:2:0:0:
188,325,86107,5,2,0:2:0:0:
263,272,86272,1,2,0:2:0:0:
354,260,86437,1,2,0:2:0:0:
174,334,86601,2,0,L|95:321,1,68,2|2,0:2|0:2,0:0:0:0:
172,206,86931,2,0,L|87:193,1,68,2|2,0:2|0:2,0:0:0:0:
263,272,87261,5,2,0:2:0:0:
291,179,87425,1,2,0:2:0:0:
288,167,87508,1,2,0:0:0:0:
284,154,87590,1,2,0:2:0:0:
207,101,87755,1,2,0:2:0:0:
366,77,87920,6,0,P|436:55|494:43,1,102,2|0,0:2|0:0,0:0:0:0:
463,48,88250,1,2,0:2:0:0:
451,143,88415,1,2,0:2:0:0:
401,210,88579,6,0,P|360:201|325:196,1,68,2|2,0:2|0:0,0:0:0:0:
322,209,88827,1,2,0:0:0:0:
313,226,88909,1,2,0:2:0:0:
237,264,89074,1,2,0:2:0:0:
232,284,89156,1,2,0:0:0:0:
226,305,89239,1,2,0:2:0:0:
158,348,89404,1,2,0:2:0:0:
79,320,89568,2,0,L|66:236,1,68,2|2,0:2|0:2,0:0:0:0:
47,224,89816,1,2,0:0:0:0:
47,224,89898,6,0,L|56:134,1,68,2|2,0:2|0:2,0:0:0:0:
147,196,90228,2,0,L|154:121,1,68,2|2,0:2|0:2,0:0:0:0:
162,116,90475,1,2,0:0:0:0:
175,102,90557,2,0,P|225:85|325:105,1,136,2|0,0:2|0:0,0:0:0:0:
351,189,91052,1,2,0:0:0:0:
345,202,91134,1,2,0:0:0:0:
339,214,91217,6,0,L|357:313,1,93.5000028533936,6|2,3:2|0:2,0:0:0:0:
240,183,91546,1,2,0:2:0:0:
248,280,91711,1,2,3:2:0:0:
204,100,91876,5,10,0:2:0:0:
229,197,92041,1,2,0:2:0:0:
133,230,92206,1,2,0:2:0:0:
100,131,92371,1,2,3:2:0:0:
78,331,92535,6,0,L|184:316,1,93.5000028533936,2|2,3:2|0:2,0:0:0:0:
245,359,92783,1,0,3:2:0:0:
245,359,92865,2,0,L|337:345,1,93.5000028533936,2|2,0:2|3:2,0:0:0:0:
412,303,93112,1,0,3:2:0:0:
412,303,93195,1,10,0:2:0:0:
446,176,93360,1,2,0:0:0:0:
461,187,93442,1,2,0:0:0:0:
475,199,93524,1,2,0:2:0:0:
442,202,93606,1,2,0:0:0:0:
409,206,93688,1,2,3:2:0:0:
377,209,93771,1,2,3:2:0:0:
344,213,93854,6,0,P|329:161|333:120,1,93.5000028533936,2|2,3:2|0:0,0:0:0:0:
261,232,94101,1,2,0:0:0:0:
261,232,94184,2,0,P|245:179|244:139,1,93.5000028533936,2|2,0:0|0:2,0:0:0:0:
175,251,94431,1,2,0:0:0:0:
175,251,94514,2,0,P|159:198|158:158,1,93.5000028533936,10|2,0:2|0:2,0:0:0:0:
96,285,94761,1,2,3:2:0:0:
96,285,94843,1,2,0:2:0:0:
68,182,95008,1,2,3:2:0:0:
162,351,95173,5,10,0:2:0:0:
206,334,95255,1,8,0:2:0:0:
252,323,95337,1,10,0:2:0:0:
298,315,95420,1,8,0:2:0:0:
344,313,95502,1,2,3:2:0:0:
388,326,95585,1,0,3:2:0:0:
433,315,95666,1,10,0:2:0:0:
466,284,95749,1,8,0:2:0:0:
479,239,95832,2,0,L|473:173,1,46.7500014266968,8|8,0:3|0:3,0:0:0:0:
299,168,95997,2,0,L|292:234,1,46.7500014266968,8|8,0:3|0:3,0:0:0:0:
387,114,96162,1,4,0:3:0:0:
384,97,96244,1,4,0:3:0:0:
380,82,96327,1,8,0:2:0:0:
378,65,96409,1,8,0:2:0:0:
375,45,96491,5,6,3:2:0:0:
83,227,96986,5,10,0:2:0:0:
171,292,97151,1,8,0:3:0:0:
168,306,97645,5,8,0:3:0:0:
294,222,97810,1,8,0:3:0:0:
377,260,97975,1,0,3:2:0:0:
214,183,98140,1,10,0:2:0:0:
303,307,98305,1,10,0:2:0:0:
370,88,98469,1,8,0:3:0:0:
373,100,98799,5,10,0:2:0:0:
258,29,98964,1,4,0:3:0:0:
139,100,99129,1,8,0:3:0:0:
132,114,99623,5,10,0:2:0:0:
168,294,99788,1,0,3:2:0:0:
165,309,100283,5,2,3:2:0:0:
347,309,100447,1,4,0:3:0:0:
204,219,100612,1,8,0:3:0:0:
308,219,100777,1,10,0:2:0:0:
256,351,100942,1,10,0:2:0:0:
255,130,101107,1,8,0:3:0:0:
255,118,101436,5,8,0:2:0:0:
256,351,101601,1,8,0:3:0:0:
42,322,101766,1,6,3:2:0:0:
36,336,102261,5,10,0:2:0:0:
158,289,102425,1,8,0:3:0:0:
151,306,102920,5,4,0:3:0:0:
280,255,103085,1,8,0:3:0:0:
420,203,103250,1,8,0:3:0:0:
377,299,103415,1,10,0:2:0:0:
185,209,103579,1,10,0:2:0:0:
108,384,103744,1,4,0:3:0:0:
108,384,104074,5,8,0:2:0:0:
240,351,104239,1,4,0:3:0:0:
38,177,104404,5,2,3:2:0:0:
185,209,104568,1,2,0:2:0:0:
217,62,104733,1,10,0:2:0:0:
70,30,104898,1,2,0:2:0:0:
96,274,105063,5,2,3:2:0:0:
128,127,105228,1,2,0:2:0:0:
275,159,105392,1,10,0:2:0:0:
243,306,105557,1,2,0:2:0:0:
185,209,105722,5,8,0:2:0:0:
364,94,105886,1,10,0:2:0:0:
332,241,106051,1,8,0:2:0:0:
217,62,106216,1,8,0:2:0:0:
42,174,106382,5,8,0:2:0:0:
32,138,106465,1,8,0:2:0:0:
24,107,106547,1,8,0:2:0:0:
18,77,106629,1,8,0:2:0:0:
9,47,106711,6,8,L|-7:11,6,23.3750007133484,8|8|8|8|8|8|8,0:2|0:0|0:0|0:0|0:2|0:0|0:0,0:0:0:0:
136,39,107041,6,0,P|132:85|119:130,1,93.5000028533936,2|2,0:2|0:2,0:0:0:0:
388,123,107371,2,0,P|391:169|405:214,1,93.5000028533936,2|10,0:2|0:2,0:0:0:0:
155,310,107700,1,10,0:2:0:0:
173,268,107783,1,8,0:2:0:0:
421,377,108030,1,10,0:2:0:0:
337,337,108195,1,10,0:2:0:0:
319,295,108278,1,8,0:2:0:0:
311,254,108360,6,0,P|300:148|300:116,1,118.999996368408,6|2,3:2|0:2,0:0:0:0:
260,23,108607,1,2,0:2:0:0:
260,23,108689,2,0,P|192:105|170:128,1,118.999996368408,10|2,0:2|0:2,0:0:0:0:
98,214,108936,1,2,0:2:0:0:
98,214,109018,2,0,P|203:202|235:202,1,118.999996368408,2|2,3:2|0:2,0:0:0:0:
399,316,109349,1,10,0:2:0:0:
127,361,109513,1,2,0:2:0:0:
219,150,109678,5,2,3:2:0:0:
269,375,109843,1,2,0:2:0:0:
512,339,110008,1,10,0:2:0:0:
462,114,110173,1,2,0:2:0:0:
470,125,110502,5,2,0:2:0:0:
262,258,110667,1,10,0:2:0:0:
176,54,110832,1,2,0:2:0:0:
291,154,110997,5,0,3:2:0:0:
398,257,111162,1,2,0:2:0:0:
447,236,111244,1,2,0:0:0:0:
498,218,111327,1,10,0:2:0:0:
382,356,111491,1,2,0:2:0:0:
431,335,111573,1,2,0:0:0:0:
482,317,111656,1,2,3:2:0:0:
311,286,111821,1,2,0:2:0:0:
262,265,111903,1,2,0:0:0:0:
211,247,111986,1,10,0:2:0:0:
281,376,112151,1,2,0:2:0:0:
64,199,112316,5,2,3:2:0:0:
53,164,112398,1,2,0:0:0:0:
48,129,112480,1,2,0:0:0:0:
49,94,112563,1,2,0:0:0:0:
81,75,112645,5,10,0:2:0:0:
79,117,112728,1,2,0:0:0:0:
85,159,112810,1,2,0:0:0:0:
99,201,112892,1,2,0:0:0:0:
144,212,112975,5,2,3:2:0:0:
127,161,113057,1,2,0:0:0:0:
120,111,113139,1,10,0:2:0:0:
122,60,113222,1,10,0:2:0:0:
169,40,113305,5,10,0:2:0:0:
166,101,113388,1,2,0:0:0:0:
175,161,113470,1,10,0:2:0:0:
195,222,113552,1,2,0:0:0:0:
256,273,113634,5,2,3:2:0:0:
371,183,113799,1,2,0:2:0:0:
397,139,113882,1,2,0:2:0:0:
405,91,113964,1,10,0:2:0:0:
286,4,114129,1,2,0:2:0:0:
297,56,114211,1,2,0:2:0:0:
309,108,114293,1,2,3:2:0:0:
354,298,114458,1,2,0:2:0:0:
512,220,114623,1,10,0:2:0:0:
416,364,114788,1,2,0:2:0:0:
214,303,114953,5,2,3:2:0:0:
376,207,115118,1,2,0:2:0:0:
297,56,115283,1,10,0:2:0:0:
117,138,115447,1,2,0:2:0:0:
113,153,115777,5,2,0:2:0:0:
291,243,115942,1,10,0:2:0:0:
86,360,116107,1,2,0:2:0:0:
220,167,116272,5,2,3:2:0:0:
436,209,116436,1,2,0:2:0:0:
157,234,116601,1,10,0:2:0:0:
367,151,116766,1,2,0:2:0:0:
182,316,116931,1,2,3:2:0:0:
291,99,117096,1,2,0:2:0:0:
253,361,117261,1,10,0:2:0:0:
201,76,117425,1,2,0:2:0:0:
298,291,117590,5,2,3:2:0:0:
334,310,117672,1,2,0:2:0:0:
375,307,117754,1,2,0:2:0:0:
409,284,117837,1,2,0:2:0:0:
426,247,117919,1,8,0:2:0:0:
421,206,118002,1,2,0:2:0:0:
395,173,118084,1,2,0:2:0:0:
357,159,118166,1,10,0:2:0:0:
351,233,118250,5,10,0:2:0:0:
398,200,118332,1,10,0:2:0:0:
425,147,118414,1,8,0:3:0:0:
424,88,118497,1,8,0:3:0:0:
395,37,118579,1,8,0:3:0:0:
346,5,118662,1,8,0:3:0:0:
287,0,118744,1,4,0:3:0:0:
233,22,118826,1,4,0:3:0:0:
196,68,118909,6,0,L|170:196,1,118.999996368408,6|2,3:2|0:2,0:0:0:0:
294,161,119156,1,2,0:2:0:0:
285,135,119239,2,0,L|259:263,1,118.999996368408,10|2,0:2|0:2,0:0:0:0:
382,244,119486,1,2,0:2:0:0:
373,218,119569,2,0,L|347:346,1,118.999996368408,2|2,3:2|0:2,0:0:0:0:
506,153,119898,1,10,0:2:0:0:
261,251,120063,1,2,0:2:0:0:
115,204,120228,5,2,3:2:0:0:
161,381,120393,1,2,0:2:0:0:
319,342,120557,1,10,0:2:0:0:
273,165,120722,1,2,0:2:0:0:
218,270,120887,1,2,3:2:0:0:
218,270,120969,1,2,0:0:0:0:
218,270,121052,1,2,0:2:0:0:
218,270,121134,1,2,0:0:0:0:
218,270,121217,2,0,P|283:265|348:250,1,118.999996368408,10|2,0:2|0:2,0:0:0:0:
145,28,121546,5,2,3:2:0:0:
273,165,121711,1,2,0:2:0:0:
363,0,121876,1,10,0:2:0:0:
259,60,122041,1,2,0:2:0:0:
403,302,122206,5,2,3:2:0:0:
273,165,122371,1,2,0:2:0:0:
190,339,122535,1,10,0:2:0:0:
286,270,122700,1,2,0:2:0:0:
79,174,122865,5,2,3:2:0:0:
104,218,122947,1,2,0:0:0:0:
147,244,123029,1,2,0:0:0:0:
197,248,123112,1,2,0:0:0:0:
243,226,123194,1,10,0:2:0:0:
285,197,123276,1,2,0:0:0:0:
335,191,123360,1,2,0:0:0:0:
382,209,123441,1,2,0:0:0:0:
422,229,123523,5,2,3:2:0:0:
389,190,123607,1,2,0:0:0:0:
342,172,123690,1,10,0:2:0:0:
292,178,123772,1,10,0:2:0:0:
250,207,123854,1,10,0:2:0:0:
204,229,123936,1,10,0:2:0:0:
154,225,124019,1,10,0:2:0:0:
111,199,124101,1,10,0:2:0:0:
86,155,124184,6,0,L|73:20,1,118.999996368408,2|2,3:2|0:2,0:0:0:0:
233,47,124431,1,2,0:2:0:0:
210,8,124513,2,0,L|188:126,1,118.999996368408,10|2,0:2|0:2,0:0:0:0:
305,342,124761,1,2,0:2:0:0:
337,375,124843,2,0,L|327:256,1,118.999996368408,2|2,3:2|0:2,0:0:0:0:
415,87,125090,1,2,0:0:0:0:
435,50,125173,1,10,0:2:0:0:
477,175,125338,1,2,0:2:0:0:
306,66,125502,5,2,3:2:0:0:
150,205,125667,1,2,0:2:0:0:
332,262,125832,1,10,0:2:0:0:
62,221,125997,1,2,0:2:0:0:
246,161,126162,1,2,3:2:0:0:
246,161,126244,1,2,0:0:0:0:
246,161,126327,1,2,0:2:0:0:
246,161,126409,1,2,0:0:0:0:
246,161,126491,2,0,L|223:304,1,118.999996368408,10|2,0:2|0:2,0:0:0:0:
18,74,126821,6,0,P|102:113|176:5,1,237.999992736817,2|8,3:2|0:2,0:0:0:0:
149,136,127316,1,2,0:2:0:0:
494,310,127480,2,0,P|410:271|336:379,1,237.999992736817,2|8,3:2|0:2,0:0:0:0:
401,228,127975,1,2,0:2:0:0:
177,196,128140,5,8,0:3:0:0:
169,243,128222,1,2,0:2:0:0:
162,290,128304,1,2,0:2:0:0:
154,337,128387,1,2,0:2:0:0:
147,384,128469,2,0,L|126:317,1,59.4999981842042,8|2,0:3|0:2,0:0:0:0:
383,284,128634,2,0,L|404:217,1,59.4999981842042,2|2,0:2|0:2,0:0:0:0:
368,83,128799,5,4,0:3:0:0:
339,114,128881,1,2,0:2:0:0:
301,130,128963,1,2,0:2:0:0:
260,128,129046,1,2,0:2:0:0:
223,108,129128,1,10,0:2:0:0:
179,76,129211,1,10,0:2:0:0:
125,70,129293,1,10,0:2:0:0:
75,89,129376,1,10,0:2:0:0:
34,126,129458,6,0,L|61:256,1,118.999996368408,6|0,3:2|0:0,0:0:0:0:
400,227,129788,2,0,L|426:356,1,118.999996368408,10|0,0:2|0:0,0:0:0:0:
27,350,130118,6,0,L|173:312,1,118.999996368408,6|0,3:2|0:0,0:0:0:0:
310,137,130447,2,0,L|456:99,1,118.999996368408,10|0,0:2|0:0,0:0:0:0:
256,347,130777,5,6,3:2:0:0:
34,126,131107,1,10,0:2:0:0:
369,19,131436,1,6,3:2:0:0:
251,177,131766,6,0,L|255:227,1,51
260,259,132096,5,2,0:2:0:0:
81,363,134733,5,2,0:2:0:0:
383,294,137371,5,2,0:2:0:0:
129,211,140008,5,2,0:2:0:0:
311,134,141986,5,2,0:2:0:0:
389,101,142316,1,2,0:2:0:0:
452,37,142645,5,6,3:2:0:0:
415,225,142975,1,0,3:2:0:0:
227,188,143305,1,0,3:2:0:0:
264,0,143634,1,0,3:2:0:0:
77,138,143964,5,0,3:2:0:0:
114,326,144294,1,0,3:2:0:0:
201,276,144458,1,2,0:2:0:0:
201,276,144624,1,2,3:2:0:0:
302,289,144788,1,2,0:2:0:0:
252,195,144953,1,2,3:2:0:0:
252,195,145118,1,2,0:2:0:0:
265,101,145283,5,2,3:2:0:0:
453,186,145612,1,0,3:2:0:0:
223,27,145942,1,0,3:2:0:0:
35,112,146271,1,0,3:2:0:0:
223,186,146601,5,0,3:2:0:0:
306,208,146931,1,0,3:2:0:0:
139,229,147261,2,0,L|148:271,1,34,2|0,3:2|0:0,0:0:0:0:
58,277,147590,2,0,L|67:319,1,34,2|0,3:2|0:0,0:0:0:0:
248,58,147920,5,6,3:2:0:0:
512,202,148250,1,0,3:2:0:0:
452,0,148579,1,0,3:2:0:0:
308,262,148909,1,2,3:2:0:0:
390,190,149239,5,6,3:2:0:0:
338,365,149569,1,0,3:2:0:0:
214,140,149898,1,0,3:2:0:0:
163,313,150228,1,2,3:2:0:0:
84,75,150557,5,6,3:2:0:0:
135,217,150887,1,0,3:2:0:0:
277,166,151217,1,0,3:2:0:0:
226,24,151546,1,2,3:2:0:0:
186,123,151876,5,6,3:2:0:0:
233,253,152041,1,0,3:2:0:0:
174,118,152205,1,0,3:2:0:0:
225,269,152371,1,0,3:2:0:0:
335,208,152535,5,0,3:2:0:0:
331,229,152617,1,0,3:2:0:0:
327,251,152699,1,0,3:2:0:0:
324,273,152782,1,0,3:2:0:0:
319,296,152865,6,0,L|341:297,1,21.25,0|0,3:2|3:2,0:0:0:0:
317,317,152947,2,0,L|292:315,1,21.25,0|0,3:2|3:2,0:0:0:0:
313,338,153030,2,0,L|339:340,1,21.25,0|0,3:2|3:2,0:0:0:0:
310,360,153112,2,0,L|286:358,1,21.25,0|0,3:2|3:2,0:0:0:0:
310,360,154019,5,0,0:0:0:0:
112,296,154184,1,0,0:0:0:0:
112,87,154349,1,0,0:0:0:0:
310,23,154513,6,0,L|389:131,1,118.999996368408,6|2,3:2|0:2,0:0:0:0:
269,138,154761,1,2,0:2:0:0:
269,138,154843,2,0,L|347:245,1,118.999996368408,10|2,0:2|0:2,0:0:0:0:
239,263,155090,1,2,0:2:0:0:
239,263,155172,2,0,L|317:370,1,118.999996368408,2|2,3:2|0:2,0:0:0:0:
151,169,155502,1,10,0:2:0:0:
443,211,155667,1,2,0:2:0:0:
90,303,155832,5,2,3:2:0:0:
63,61,155997,1,2,0:2:0:0:
305,34,156162,1,10,0:2:0:0:
332,276,156327,1,2,0:2:0:0:
246,178,156491,1,2,3:2:0:0:
284,161,156573,1,2,0:0:0:0:
325,154,156656,1,2,0:2:0:0:
366,158,156738,1,2,0:0:0:0:
405,174,156821,2,0,L|464:304,1,118.999996368408,10|2,0:2|0:2,0:0:0:0:
118,354,157151,5,0,3:2:0:0:
365,317,157316,1,2,0:2:0:0:
133,266,157480,1,10,0:2:0:0:
311,236,157645,1,2,0:2:0:0:
89,183,157810,1,2,3:2:0:0:
349,142,157975,1,2,0:2:0:0:
116,91,158140,1,10,0:2:0:0:
281,69,158305,1,2,0:2:0:0:
190,29,158469,5,2,3:2:0:0:
195,58,158551,1,2,0:0:0:0:
200,87,158633,1,2,0:0:0:0:
205,116,158716,1,2,0:0:0:0:
210,146,158798,1,10,0:2:0:0:
215,175,158881,1,2,0:0:0:0:
220,204,158963,1,2,0:0:0:0:
225,234,159045,1,2,0:0:0:0:
250,273,159129,5,2,3:2:0:0:
284,291,159211,1,2,0:0:0:0:
317,293,159293,1,2,0:2:0:0:
353,278,159376,1,10,0:2:0:0:
385,256,159458,1,10,0:2:0:0:
410,226,159541,1,10,0:2:0:0:
427,191,159623,1,2,0:2:0:0:
436,154,159705,1,10,0:2:0:0:
440,115,159788,6,0,L|408:-18,1,118.999996368408,2|2,3:2|0:2,0:0:0:0:
326,174,160035,1,2,0:2:0:0:
311,201,160118,2,0,L|279:68,1,118.999996368408,10|2,0:2|0:2,0:0:0:0:
206,290,160365,1,2,0:2:0:0:
191,317,160448,2,0,L|159:184,1,118.999996368408,2|2,3:2|0:2,0:0:0:0:
33,50,160777,1,10,0:2:0:0:
209,105,160942,1,2,0:2:0:0:
0,201,161107,5,2,3:2:0:0:
226,117,161272,1,2,0:2:0:0:
16,44,161436,1,10,0:2:0:0:
254,0,161601,1,2,0:2:0:0:
98,103,161766,1,2,3:2:0:0:
111,147,161848,1,2,0:0:0:0:
136,187,161930,1,2,0:2:0:0:
174,216,162013,1,2,0:0:0:0:
218,230,162095,1,10,0:2:0:0:
348,70,162261,1,2,0:2:0:0:
302,283,162425,5,2,3:2:0:0:
163,0,162590,1,2,0:2:0:0:
45,294,162755,1,10,0:2:0:0:
102,63,162920,1,2,0:2:0:0:
225,366,163085,1,2,3:2:0:0:
183,91,163250,1,2,0:2:0:0:
415,277,163415,1,10,0:2:0:0:
257,35,163579,1,2,0:2:0:0:
167,199,163744,5,10,3:2:0:0:
150,194,163826,1,10,0:2:0:0:
133,190,163908,1,10,0:2:0:0:
116,186,163991,1,10,0:2:0:0:
98,181,164073,1,8,0:3:0:0:
81,177,164156,1,8,0:3:0:0:
64,173,164238,1,8,0:3:0:0:
46,168,164320,1,10,0:2:0:0:
92,90,164404,5,10,0:2:0:0:
148,70,164486,1,10,0:2:0:0:
206,78,164568,1,8,0:3:0:0:
255,111,164651,1,8,0:3:0:0:
284,162,164733,1,8,0:3:0:0:
286,221,164816,1,8,0:3:0:0:
260,274,164898,1,4,0:3:0:0:
214,310,164980,1,4,0:3:0:0:
156,321,165063,6,0,P|70:309|24:278,1,118.999996368408,6|2,3:2|0:2,0:0:0:0:
183,208,165310,1,2,0:2:0:0:
183,208,165393,2,0,P|171:294|140:340,1,118.999996368408,10|2,0:2|0:2,0:0:0:0:
70,180,165640,1,2,0:2:0:0:
70,180,165722,2,0,P|156:192|202:223,1,118.999996368408,2|2,3:2|0:2,0:0:0:0:
332,363,166052,1,10,0:2:0:0:
459,160,166217,1,2,0:2:0:0:
211,321,166382,5,2,3:2:0:0:
490,364,166546,1,2,0:2:0:0:
283,254,166711,1,10,0:2:0:0:
438,281,166876,1,2,0:2:0:0:
374,205,167041,1,0,3:2:0:0:
345,376,167206,1,2,0:2:0:0:
386,119,167371,1,10,0:2:0:0:
360,293,167535,1,2,0:2:0:0:
153,117,167700,5,2,3:2:0:0:
329,47,167865,1,2,0:2:0:0:
94,39,168030,1,10,0:2:0:0:
52,143,168195,1,2,0:2:0:0:
8,0,168360,1,2,3:2:0:0:
153,211,168524,1,2,0:2:0:0:
306,158,168689,1,10,0:2:0:0:
0,265,168854,1,2,0:2:0:0:
258,323,169019,5,2,3:2:0:0:
284,337,169101,1,2,0:0:0:0:
312,344,169183,1,2,0:0:0:0:
342,345,169266,1,2,0:0:0:0:
371,338,169348,1,10,0:2:0:0:
397,325,169431,1,2,0:0:0:0:
420,305,169513,1,2,0:0:0:0:
437,281,169595,1,2,0:0:0:0:
453,231,169678,5,2,3:2:0:0:
418,208,169760,1,2,0:0:0:0:
379,194,169842,1,10,0:2:0:0:
337,188,169925,1,10,0:2:0:0:
296,191,170007,1,10,0:2:0:0:
256,203,170090,1,10,0:2:0:0:
220,224,170172,1,10,0:2:0:0:
189,251,170254,1,10,0:2:0:0:
165,285,170338,6,0,L|136:152,1,118.999996368408,2|2,3:2|0:2,0:0:0:0:
21,345,170585,1,2,0:2:0:0:
21,345,170667,2,0,L|46:228,1,118.999996368408,10|2,0:2|0:2,0:0:0:0:
304,376,170915,1,2,0:2:0:0:
304,376,170997,2,0,L|274:242,1,118.999996368408,2|2,3:2|0:2,0:0:0:0:
79,101,171327,1,10,0:2:0:0:
366,43,171491,1,2,0:2:0:0:
147,217,171656,5,2,3:2:0:0:
0,44,171821,1,2,0:2:0:0:
295,169,171986,1,10,0:2:0:0:
162,366,172151,1,2,0:2:0:0:
36,281,172316,1,2,3:2:0:0:
95,274,172398,1,2,0:0:0:0:
154,267,172480,1,2,0:2:0:0:
213,261,172563,1,2,0:0:0:0:
272,254,172645,1,10,0:2:0:0:
141,164,172810,1,2,0:2:0:0:
412,290,172975,6,0,B|471:230|461:139|461:139|395:51,1,237.999992736817,2|8,3:2|0:2,0:0:0:0:
255,13,173469,1,2,0:2:0:0:
100,290,173634,2,0,B|41:230|51:139|51:139|117:51,1,237.999992736817,2|8,3:2|0:2,0:0:0:0:
258,363,174129,1,2,0:2:0:0:
187,240,174294,5,8,0:3:0:0:
165,185,174376,1,2,0:2:0:0:
181,129,174458,1,2,0:2:0:0:
227,93,174541,1,2,0:2:0:0:
285,92,174623,1,8,0:3:0:0:
333,126,174706,1,2,0:2:0:0:
350,182,174788,1,2,0:2:0:0:
331,237,174870,1,2,0:2:0:0:
256,322,174953,5,4,0:3:0:0:
256,304,175036,1,2,0:2:0:0:
256,287,175118,1,2,0:2:0:0:
256,269,175200,1,2,0:2:0:0:
256,251,175283,1,10,0:2:0:0:
256,233,175365,1,10,0:2:0:0:
256,215,175448,1,10,0:2:0:0:
256,197,175530,1,10,0:2:0:0:
256,180,175612,6,0,L|137:145,1,118.999996368408,6|0,3:2|0:0,0:0:0:0:
256,180,175942,2,0,L|375:145,1,118.999996368408,10|0,0:2|0:0,0:0:0:0:
85,70,176272,2,0,P|46:127|52:183,1,118.999996368408,6|0,3:2|0:0,0:0:0:0:
459,174,176601,2,0,P|458:116|423:70,1,118.999996368408,10|0,0:2|0:0,0:0:0:0:
199,353,176931,5,6,3:2:0:0:
315,288,177261,1,10,0:2:0:0:
197,183,177590,1,6,3:2:0:0:
308,97,177920,1,0,0:0:0:0:
253,4,178250,5,6,3:2:0:0:
93,142,178415,1,2,0:0:0:0:
93,142,178497,1,2,0:0:0:0:
93,142,178579,2,0,P|85:216|125:272,1,101.999996887207,10|2,0:0|0:2,0:0:0:0:
173,92,178909,1,2,3:2:0:0:
173,92,179074,1,0,0:0:0:0:
99,30,179239,2,0,L|0:52,1,101.999996887207,10|0,0:0|0:0,0:0:0:0:
171,292,179568,6,0,B|190:230|190:230|166:184,1,101.999996887207,2|0,3:2|0:0,0:0:0:0:
273,358,179898,2,0,B|255:325|255:325|274:263,1,101.999996887207,10|0,0:0|0:0,0:0:0:0:
438,255,180228,1,2,3:2:0:0:
365,325,180393,1,2,0:2:0:0:
365,325,180475,1,2,0:2:0:0:
365,325,180557,1,10,0:0:0:0:
331,198,180722,1,2,0:2:0:0:
449,266,180887,5,2,3:2:0:0:
495,108,181052,1,0,0:0:0:0:
385,35,181217,2,0,L|408:159,1,101.999996887207,10|0,0:0|0:0,0:0:0:0:
279,16,181546,2,0,L|302:140,1,101.999996887207,2|2,3:2|0:2,0:0:0:0:
185,84,181876,2,0,L|208:208,1,101.999996887207,10|0,0:0|0:0,0:0:0:0:
126,383,182206,5,2,3:2:0:0:
75,302,182371,1,2,0:2:0:0:
115,209,182535,1,10,0:0:0:0:
203,184,182700,1,2,0:2:0:0:
191,328,182865,5,2,3:2:0:0:
75,302,183029,1,10,0:0:0:0:
41,266,183112,1,10,0:0:0:0:
22,222,183194,1,10,0:0:0:0:
40,111,183359,1,10,0:0:0:0:
203,184,183524,6,0,L|328:157,1,101.999996887207,2|0,3:2|0:0,0:0:0:0:
290,371,183854,2,0,L|415:344,1,101.999996887207,10|2,0:0|0:2,0:0:0:0:
432,137,184184,2,0,P|424:215|432:260,1,101.999996887207,2|0,3:2|0:0,0:0:0:0:
297,61,184513,2,0,P|305:111|302:161,1,101.999996887207,10|0,0:0|0:0,0:0:0:0:
71,53,184843,5,2,3:2:0:0:
180,30,185008,1,0,0:0:0:0:
199,135,185173,1,10,0:0:0:0:
90,158,185338,1,0,0:0:0:0:
274,251,185502,5,2,3:2:0:0:
165,228,185667,1,2,0:2:0:0:
165,228,185750,1,2,0:2:0:0:
165,228,185832,1,10,0:0:0:0:
146,333,185997,1,2,0:2:0:0:
255,356,186162,5,2,3:2:0:0:
63,258,186327,1,0,0:0:0:0:
237,157,186491,1,10,0:0:0:0:
274,251,186656,1,0,0:0:0:0:
90,158,186821,1,2,3:2:0:0:
328,40,186986,1,2,0:2:0:0:
328,40,187068,1,2,0:2:0:0:
328,40,187151,1,10,0:0:0:0:
214,7,187316,1,0,0:0:0:0:
187,247,187480,5,10,0:0:0:0:
314,172,187645,1,10,0:0:0:0:
213,146,187810,1,10,0:0:0:0:
287,273,187975,1,10,0:0:0:0:
161,233,188140,5,10,0:0:0:0:
339,185,188305,2,0,L|397:164,1,50.9999984436036,10|10,0:0|0:0,0:0:0:0:
226,120,188470,1,10,0:0:0:0:
274,298,188635,1,10,0:0:0:0:
135,210,188799,5,10,0:0:0:0:
365,208,188964,1,10,0:0:0:0:
250,94,189129,1,10,0:0:0:0:
250,325,189294,2,0,L|246:376,1,50.9999984436036,10|10,0:0|0:0,0:0:0:0:
111,173,189458,5,10,0:0:0:0:
388,245,189623,1,10,0:0:0:0:
287,70,189788,1,10,0:0:0:0:
213,348,189953,1,10,0:0:0:0:
92,121,190117,5,10,0:0:0:0:
407,300,190283,2,0,L|454:321,1,50.9999984436036,10|10,0:0|0:0,0:0:0:0:
340,53,190447,1,10,0:0:0:0:
158,368,190612,1,10,0:0:0:0:
