osu file format v14

[General]
AudioFilename: lied.mp3
AudioLeadIn: 0
PreviewTime: 58054
Countdown: 0
SampleSet: Soft
StackLeniency: 0.7
Mode: 3
LetterboxInBreaks: 0
EpilepsyWarning: 1
SpecialStyle: 0
WidescreenStoryboard: 1

[Editor]
DistanceSpacing: 0.5
BeatDivisor: 4
GridSize: 8
TimelineZoom: 1.9

[Metadata]
Title:Hanairo Biyori
TitleUnicode:花色日和
Artist:Natsume Chiaki
ArtistUnicode:なつめ千秋
Creator:Kagu-chan
Version:Hard
Source:
Tags:thousands of gifts vocaloid2 hatsune miku niconico douga Hydria
BeatmapID:657934
BeatmapSetID:292306

[Difficulty]
HPDrainRate:7.5
CircleSize:4
OverallDifficulty:7.5
ApproachRate:5
SliderMultiplier:1.4
SliderTickRate:1

[Events]
//Background and Video events
0,0,"hiyorii.jpg",0,0
//Break Periods
//Storyboard Layer 0 (Background)
//Storyboard Layer 1 (Fail)
//Storyboard Layer 2 (Pass)
//Storyboard Layer 3 (Foreground)
//Storyboard Sound Samples

[TimingPoints]
14538,329.67032967033,4,1,4,30,1,0
23768,-100,4,1,4,25,0,0
25087,-100,4,1,1,30,0,0
34318,-100,4,1,1,35,0,0
35636,-100,4,1,1,30,0,0
40664,-100,4,1,1,5,0,0
40994,-100,4,1,1,30,0,0
46186,-100,4,2,1,35,0,0
54098,-100,4,2,1,35,0,0
55417,-100,4,1,1,35,0,0
55581,-100,4,1,1,33,0,0
55746,-100,4,1,1,31,0,0
55911,-100,4,1,1,29,0,0
56076,-100,4,1,1,25,0,0
56406,-100,4,1,1,40,0,0
56735,-100,4,1,1,5,0,0
56900,-100,4,1,1,7,0,0
57065,-100,4,1,1,15,0,0
57230,-100,4,1,1,20,0,0
57395,-100,4,1,1,25,0,0
57559,-100,4,1,1,30,0,0
57724,-100,4,1,1,35,0,0
57889,-100,4,1,1,40,0,0
58054,-100,4,2,1,45,0,1
62010,-100,4,1,1,40,0,1
62340,-100,4,2,2,40,0,1
62422,-100,4,1,1,40,0,1
62999,-100,4,2,2,40,0,1
63081,-100,4,1,1,40,0,1
63329,-100,4,2,1,45,0,1
67285,-100,4,2,1,40,0,1
68603,-100,4,2,1,45,0,1
72559,-100,4,1,1,40,0,1
72889,-100,4,2,2,40,0,1
72972,-100,4,1,1,40,0,1
73548,-100,4,2,2,40,0,1
73631,-100,4,1,1,40,0,1
73878,-100,4,2,1,45,0,1
77834,-100,4,2,1,40,0,1
79153,-33.3333333333333,4,1,0,20,0,0
79194,-133.333333333333,4,1,0,20,0,0
79483,-33.3333333333333,4,1,0,20,0,0
79524,-133.333333333333,4,1,0,20,0,0
79812,-33.3333333333333,4,1,0,20,0,0
79853,-133.333333333333,4,1,0,20,0,0
80142,-33.3333333333333,4,1,0,20,0,0
80183,-133.333333333333,4,1,0,20,0,0
80472,-33.3333333333333,4,1,0,20,0,0
80513,-133.333333333333,4,1,0,20,0,0
80801,-33.3333333333333,4,1,0,20,0,0
80842,-133.333333333333,4,1,0,20,0,0
81131,-33.3333333333333,4,1,0,20,0,0
81172,-133.333333333333,4,1,0,20,0,0
81461,-33.3333333333333,4,1,0,20,0,0
81502,-133.333333333333,4,1,0,20,0,0
81790,-100,4,1,4,30,0,0
87065,-100,4,1,4,15,0,0
88054,-100,4,1,4,15,0,0
88136,-100,4,1,4,15,0,0
89373,-100,4,1,4,15,0,0
89455,-100,4,1,4,15,0,0
90691,-100,4,1,4,15,0,0
90774,-100,4,1,4,15,0,0
92010,-100,4,1,4,15,0,0
92092,-100,4,1,4,15,0,0
92340,-100,4,1,2,30,0,0
97614,-100,4,2,1,35,0,0
106845,-100,4,1,1,35,0,0
107010,-100,4,1,1,33,0,0
107175,-100,4,1,1,31,0,0
107340,-100,4,1,1,29,0,0
107505,-100,4,1,1,25,0,0
107834,-100,4,1,1,40,0,0
108164,-100,4,1,1,5,0,0
108329,-100,4,1,1,7,0,0
108494,-100,4,1,1,15,0,0
108658,-100,4,1,1,20,0,0
108823,-100,4,1,1,25,0,0
108988,-100,4,1,1,30,0,0
109153,-100,4,1,1,35,0,0
109318,-100,4,1,1,40,0,0
109483,-100,4,2,1,45,0,1
113439,-100,4,1,1,40,0,1
113768,-100,4,2,2,40,0,1
113851,-100,4,1,1,40,0,1
114428,-100,4,2,2,40,0,1
114510,-100,4,1,1,40,0,1
114757,-100,4,2,1,45,0,1
118713,-100,4,2,1,40,0,1
120032,-100,4,2,1,45,0,1
123988,-100,4,1,1,40,0,1
124318,-100,4,2,2,40,0,1
124400,-100,4,1,1,40,0,1
124977,-100,4,2,2,40,0,1
125059,-100,4,1,1,40,0,1
125307,-100,4,2,1,45,0,1
129263,-100,4,2,1,40,0,1
130581,-33.3333333333333,4,1,0,20,0,0
130622,-133.333333333333,4,1,0,20,0,0
130911,-33.3333333333333,4,1,0,20,0,0
130952,-133.333333333333,4,1,0,20,0,0
131241,-33.3333333333333,4,1,0,20,0,0
131282,-133.333333333333,4,1,0,20,0,0
131570,-33.3333333333333,4,1,0,20,0,0
131611,-133.333333333333,4,1,0,20,0,0
131900,-33.3333333333333,4,1,0,20,0,0
131941,-133.333333333333,4,1,0,20,0,0
132230,-33.3333333333333,4,1,0,20,0,0
132271,-133.333333333333,4,1,0,20,0,0
132559,-33.3333333333333,4,1,0,20,0,0
132600,-133.333333333333,4,1,0,20,0,0
132889,-33.3333333333333,4,1,0,20,0,0
132930,-133.333333333333,4,1,0,20,0,0
133219,-100,4,2,0,15,0,0
143768,-100,4,1,3,30,0,0
149043,-100,4,1,3,32,0,0
150362,-100,4,1,3,34,0,0
151680,-100,4,1,3,36,0,0
152999,-100,4,1,1,40,0,0
154318,-100,4,1,0,40,0,0
155636,-100,4,2,1,45,0,1
159592,-100,4,1,1,40,0,1
159922,-100,4,2,2,40,0,1
160005,-100,4,1,1,40,0,1
160581,-100,4,2,2,40,0,1
160664,-100,4,1,1,40,0,1
160911,-100,4,2,1,45,0,1
164867,-100,4,2,1,40,0,1
166186,-100,4,2,1,45,0,1
170142,-100,4,1,1,40,0,1
170472,-100,4,2,2,40,0,1
170554,-100,4,1,1,40,0,1
171131,-100,4,2,2,40,0,1
171213,-100,4,1,1,40,0,1
171461,-100,4,2,1,45,0,1
175417,-100,4,2,1,40,0,1
176735,-33.3333333333333,4,1,0,20,0,0
176776,-133.333333333333,4,1,0,20,0,0
177065,-33.3333333333333,4,1,0,20,0,0
177106,-133.333333333333,4,1,0,20,0,0
177395,-33.3333333333333,4,1,0,20,0,0
177436,-133.333333333333,4,1,0,20,0,0
177724,-33.3333333333333,4,1,0,20,0,0
177765,-133.333333333333,4,1,0,20,0,0
178054,-33.3333333333333,4,1,0,20,0,0
178095,-133.333333333333,4,1,0,20,0,0
178384,-33.3333333333333,4,1,0,20,0,0
178425,-133.333333333333,4,1,0,20,0,0
178713,-33.3333333333333,4,1,0,20,0,0
178754,-133.333333333333,4,1,0,20,0,0
179043,-33.3333333333333,4,1,0,20,0,0
179084,-133.333333333333,4,1,0,20,0,0
179373,-100,4,1,2,30,0,0
188603,-100,4,1,2,25,0,0
193219,-100,4,1,2,10,0,0

[HitObjects]
192,192,14537,5,0,0:0:0:0:
448,192,14537,1,0,0:0:0:0:
320,192,14702,1,0,0:0:0:0:
192,192,14867,1,0,0:0:0:0:
64,192,15032,1,0,0:0:0:0:
192,192,15197,1,0,0:0:0:0:
320,192,15362,1,2,0:0:0:0:
448,192,15444,1,2,0:0:0:0:
64,192,15527,1,8,0:0:0:0:
192,192,15527,1,0,0:0:0:0:
320,192,15691,1,0,0:0:0:0:
192,192,15856,1,0,0:0:0:0:
448,192,15856,1,0,0:0:0:0:
64,192,16021,1,0,0:0:0:0:
320,192,16186,1,0,0:0:0:0:
448,192,16351,1,0,0:0:0:0:
192,192,16516,1,0,0:0:0:0:
320,192,16680,1,2,0:0:0:0:
192,192,16763,1,2,0:0:0:0:
64,192,16845,1,8,0:0:0:0:
448,192,16845,1,0,0:0:0:0:
320,192,17010,1,0,0:0:0:0:
448,192,17175,1,0,0:0:0:0:
192,192,17175,1,0,0:0:0:0:
320,192,17340,1,0,0:0:0:0:
64,192,17505,1,0,0:0:0:0:
192,192,17669,1,0,0:0:0:0:
320,192,17834,1,0,0:0:0:0:
448,192,17999,1,2,0:0:0:0:
320,192,18081,1,2,0:0:0:0:
192,192,18164,1,8,0:0:0:0:
64,192,18164,1,0,0:0:0:0:
448,192,18329,1,0,0:0:0:0:
64,192,18494,1,0,0:0:0:0:
320,192,18494,1,0,0:0:0:0:
192,192,18658,1,0,0:0:0:0:
448,192,18823,1,0,0:0:0:0:
320,192,18988,1,0,0:0:0:0:
192,192,19153,1,0,0:0:0:0:
320,192,19318,1,2,0:0:0:0:
192,192,19400,1,2,0:0:0:0:
64,192,19483,1,0,0:0:0:0:
320,192,19483,1,8,0:0:0:0:
448,192,19647,1,0,0:0:0:0:
320,192,19812,1,0,0:0:0:0:
192,192,19812,1,0,0:0:0:0:
448,192,19977,1,0,0:0:0:0:
64,192,20142,1,0,0:0:0:0:
192,192,20307,1,0,0:0:0:0:
448,192,20472,1,0,0:0:0:0:
192,192,20636,1,2,0:0:0:0:
320,192,20719,1,2,0:0:0:0:
64,192,20801,1,8,0:0:0:0:
448,192,20801,1,0,0:0:0:0:
320,192,20966,1,0,0:0:0:0:
64,192,21131,1,0,0:0:0:0:
448,192,21131,1,0,0:0:0:0:
320,192,21296,1,0,0:0:0:0:
192,192,21461,1,0,0:0:0:0:
64,192,21625,1,0,0:0:0:0:
320,192,21790,1,0,0:0:0:0:
448,192,21955,1,2,0:0:0:0:
320,192,22037,1,2,0:0:0:0:
64,192,22120,1,8,0:0:0:0:
192,192,22120,1,0,0:0:0:0:
320,192,22285,1,0,0:0:0:0:
64,192,22450,1,0,0:0:0:0:
448,192,22450,1,0,0:0:0:0:
192,192,22614,1,0,0:0:0:0:
320,192,22779,1,0,0:0:0:0:
448,192,22944,1,0,0:0:0:0:
64,192,23109,1,0,0:0:0:0:
320,192,23274,1,2,0:0:0:0:
448,192,23356,1,2,0:0:0:0:
192,192,23439,1,8,0:0:0:0:
64,192,23439,1,0,0:0:0:0:
320,192,23603,1,0,0:0:0:0:
64,192,23768,1,0,0:0:0:0:
448,192,23768,1,0,0:0:0:0:
192,192,23933,1,0,0:0:0:0:
64,192,24098,1,0,0:0:0:0:
320,192,24263,1,0,0:0:0:0:
448,192,24428,1,0,0:0:0:0:
64,192,24592,1,2,0:0:0:0:
192,192,24675,1,2,0:0:0:0:
320,192,24757,1,8,0:0:0:0:
64,192,24757,1,0,0:0:0:0:
448,192,24922,1,0,0:0:0:0:
64,192,25087,128,0,25417:0:0:0:0:
320,192,25087,1,0,0:0:0:0:
448,192,25252,1,0,0:0:0:0:
320,192,25417,1,0,0:0:0:0:
192,192,25581,1,0,0:0:0:0:
448,192,25746,128,0,26076:0:0:0:0:
192,192,25911,1,0,0:0:0:0:
320,192,26076,1,8,0:0:0:0:
64,192,26076,1,0,0:0:0:0:
192,192,26241,1,0,0:0:0:0:
320,192,26406,128,0,26735:0:0:0:0:
64,192,26406,1,0,0:0:0:0:
192,192,26570,1,0,0:0:0:0:
448,192,26735,1,0,0:0:0:0:
192,192,26900,1,0,0:0:0:0:
64,192,27065,128,0,27395:0:0:0:0:
448,192,27230,1,0,0:0:0:0:
320,192,27395,1,8,0:0:0:0:
192,192,27395,1,0,0:0:0:0:
448,192,27559,1,0,0:0:0:0:
320,192,27724,128,0,28054:0:0:0:0:
192,192,27724,1,0,0:0:0:0:
448,192,27889,1,0,0:0:0:0:
64,192,28054,1,0,0:0:0:0:
192,192,28219,1,0,0:0:0:0:
448,192,28384,128,0,28713:0:0:0:0:
192,192,28548,1,0,0:0:0:0:
64,192,28713,1,8,0:0:0:0:
320,192,28713,1,0,0:0:0:0:
448,192,28878,1,0,0:0:0:0:
192,192,29043,128,0,29373:0:0:0:0:
64,192,29043,1,0,0:0:0:0:
320,192,29208,1,0,0:0:0:0:
448,192,29373,1,0,0:0:0:0:
64,192,29537,1,0,0:0:0:0:
320,192,29702,128,2,30032:0:0:0:0:
192,192,29867,1,2,0:0:0:0:
64,192,30032,1,2,0:0:0:0:
448,192,30032,1,8,0:0:0:0:
192,192,30197,1,2,0:0:0:0:
64,192,30362,128,0,30691:0:0:0:0:
320,192,30362,1,0,0:0:0:0:
448,192,30527,1,0,0:0:0:0:
320,192,30691,1,0,0:0:0:0:
192,192,30856,1,0,0:0:0:0:
320,192,31021,128,0,31351:0:0:0:0:
64,192,31186,1,0,0:0:0:0:
192,192,31351,1,8,0:0:0:0:
448,192,31351,1,0,0:0:0:0:
64,192,31516,1,0,0:0:0:0:
448,192,31680,128,0,32010:0:0:0:0:
192,192,31680,1,0,0:0:0:0:
320,192,31845,1,0,0:0:0:0:
192,192,32010,1,0,0:0:0:0:
64,192,32175,1,0,0:0:0:0:
192,192,32340,128,0,32669:0:0:0:0:
448,192,32505,1,0,0:0:0:0:
64,192,32669,1,8,0:0:0:0:
320,192,32669,1,0,0:0:0:0:
448,192,32834,1,0,0:0:0:0:
320,192,32999,128,0,33329:0:0:0:0:
192,192,32999,1,0,0:0:0:0:
64,192,33164,1,0,0:0:0:0:
448,192,33329,1,0,0:0:0:0:
192,192,33494,1,0,0:0:0:0:
64,192,33658,128,0,33988:0:0:0:0:
320,192,33823,1,0,0:0:0:0:
192,192,33988,1,8,0:0:0:0:
448,192,33988,1,0,0:0:0:0:
64,192,34153,1,0,0:0:0:0:
192,192,34318,1,0,0:0:0:0:
320,192,34318,1,0,0:0:0:0:
64,192,34483,1,2,0:0:0:0:
192,192,34565,1,2,0:0:0:0:
448,192,34647,1,2,0:0:0:0:
192,192,34812,1,0,0:0:0:0:
320,192,34895,1,2,0:0:0:0:
64,192,34977,128,0,35636:0:0:0:8:
448,192,34977,1,2,0:0:0:0:
192,192,35059,1,2,0:0:0:0:
320,192,35142,1,2,0:0:0:0:
448,192,35224,1,2,0:0:0:0:
192,192,35307,1,8,0:0:0:0:
320,192,35389,1,2,0:0:0:0:
448,192,35472,1,2,0:0:0:0:
192,192,35554,1,2,0:0:0:0:
448,192,35636,1,0,0:0:0:0:
320,192,35636,1,0,0:0:0:0:
192,192,35801,1,0,0:0:0:0:
320,192,35966,1,0,0:0:0:0:
448,192,36131,1,0,0:0:0:0:
64,192,36296,1,0,0:0:0:0:
192,192,36461,1,0,0:0:0:0:
320,192,36625,1,8,0:0:0:0:
448,192,36625,1,0,0:0:0:0:
192,192,36790,1,0,0:0:0:0:
320,192,36955,1,0,0:0:0:0:
64,192,36955,1,0,0:0:0:0:
448,192,37120,1,0,0:0:0:0:
320,192,37285,1,0,0:0:0:0:
192,192,37450,1,0,0:0:0:0:
64,192,37614,1,0,0:0:0:0:
320,192,37779,1,0,0:0:0:0:
448,192,37944,1,8,0:0:0:0:
192,192,37944,1,0,0:0:0:0:
64,192,38109,1,0,0:0:0:0:
320,192,38274,1,0,0:0:0:0:
192,192,38274,1,0,0:0:0:0:
448,192,38439,1,0,0:0:0:0:
320,192,38603,1,0,0:0:0:0:
64,192,38768,1,0,0:0:0:0:
192,192,38933,1,0,0:0:0:0:
320,192,39098,1,0,0:0:0:0:
448,192,39263,1,8,0:0:0:0:
192,192,39263,1,0,0:0:0:0:
64,192,39428,1,0,0:0:0:0:
448,192,39592,1,0,0:0:0:0:
320,192,39592,1,0,0:0:0:0:
64,192,39757,1,0,0:0:0:0:
448,192,39922,1,0,0:0:0:0:
320,192,40087,1,0,0:0:0:0:
64,192,40252,1,0,0:0:0:0:
192,192,40417,1,0,0:0:0:0:
448,192,40581,1,8,0:0:0:0:
320,192,40664,1,0,0:0:0:70:Taiko+2.wav
192,192,40746,1,0,0:0:0:70:Taiko+2.wav
64,192,40829,1,0,0:0:0:70:Taiko+2.wav
320,192,40911,1,0,0:0:0:0:
448,192,40911,1,0,0:0:0:70:Taiko+2.wav
192,192,41076,1,0,0:0:0:0:
64,192,41241,1,0,0:0:0:0:
192,192,41406,1,0,0:0:0:0:
320,192,41570,1,0,0:0:0:0:
192,192,41735,1,0,0:0:0:0:
64,192,41900,1,8,0:0:0:0:
448,192,41900,1,0,0:0:0:0:
192,192,42065,1,0,0:0:0:0:
448,192,42230,1,0,0:0:0:0:
320,192,42230,1,0,0:0:0:0:
64,192,42395,1,0,0:0:0:0:
448,192,42559,1,0,0:0:0:0:
320,192,42724,1,0,0:0:0:0:
192,192,42889,1,0,0:0:0:0:
64,192,43054,1,0,0:0:0:0:
192,192,43219,1,8,0:0:0:0:
448,192,43219,1,0,0:0:0:0:
64,192,43384,1,0,0:0:0:0:
320,192,43548,1,0,0:0:0:0:
448,192,43548,1,0,0:0:0:0:
64,192,43713,1,0,0:0:0:0:
192,192,43878,1,0,0:0:0:0:
320,192,44043,1,0,0:0:0:0:
448,192,44208,1,0,0:0:0:0:
64,192,44208,1,0,0:0:0:0:
320,192,44373,1,0,0:0:0:0:
192,192,44538,1,8,0:0:0:0:
448,192,44538,1,0,0:0:0:0:
320,192,44702,1,0,0:0:0:0:
64,192,44867,1,0,0:0:0:0:
192,192,44867,1,0,0:0:0:0:
448,192,45032,1,0,0:0:0:0:
320,192,45114,1,0,0:0:0:0:
192,192,45197,1,0,0:0:0:0:
64,192,45362,1,2,0:0:0:0:
192,192,45444,1,0,0:0:0:0:
320,192,45527,1,2,0:0:0:0:
448,192,45609,1,0,0:0:0:0:
64,192,45691,1,2,0:0:0:0:
192,192,45774,1,0,0:0:0:0:
320,192,45856,1,0,0:0:0:0:
448,192,45856,1,10,0:0:0:0:
64,192,45939,1,0,0:0:0:0:
192,192,46021,1,2,0:0:0:0:
320,192,46103,1,0,0:0:0:0:
64,192,46186,128,0,46516:0:0:0:0:
448,192,46186,1,0,0:0:0:0:
192,192,46516,1,0,0:0:0:0:
448,192,46680,1,0,0:0:0:0:
320,192,46845,128,0,47175:0:0:0:0:
192,192,46845,1,0,0:0:0:0:
64,192,47175,1,8,0:0:0:0:
192,192,47175,1,0,0:0:0:0:
448,192,47340,1,0,0:0:0:0:
192,192,47505,128,0,47834:0:0:0:0:
320,192,47505,1,0,0:0:0:0:
64,192,47669,1,0,0:0:0:0:
448,192,47834,1,0,0:0:0:0:
320,192,47999,1,0,0:0:0:0:
448,192,48164,128,0,48494:0:0:0:0:
64,192,48164,1,0,0:0:0:0:
320,192,48329,1,0,0:0:0:0:
192,192,48494,1,8,0:0:0:0:
64,192,48494,1,0,0:0:0:0:
320,192,48658,1,0,0:0:0:0:
320,192,48823,128,0,49153:0:0:0:0:
64,192,48823,1,0,0:0:0:0:
448,192,49153,1,0,0:0:0:0:
192,192,49318,1,0,0:0:0:0:
64,192,49483,128,0,49812:0:0:0:0:
448,192,49483,1,0,0:0:0:0:
320,192,49812,1,8,0:0:0:0:
448,192,49812,1,0,0:0:0:0:
192,192,49977,1,0,0:0:0:0:
320,192,50142,128,0,50472:0:0:0:0:
64,192,50142,1,0,0:0:0:0:
192,192,50307,1,0,0:0:0:0:
448,192,50472,1,0,0:0:0:0:
64,192,50636,1,0,0:0:0:0:
192,192,50801,128,0,51131:0:0:0:0:
320,192,50801,1,0,0:0:0:0:
64,192,51131,1,8,0:0:0:0:
448,192,51131,1,0,0:0:0:0:
320,192,51296,1,0,0:0:0:0:
448,192,51461,128,0,51790:0:0:0:0:
192,192,51461,1,0,0:0:0:0:
320,192,51790,1,0,0:0:0:0:
64,192,51955,1,0,0:0:0:0:
192,192,52120,128,0,52450:0:0:0:0:
320,192,52120,1,0,0:0:0:0:
448,192,52450,1,8,0:0:0:0:
64,192,52450,1,0,0:0:0:0:
320,192,52614,1,0,0:0:0:0:
448,192,52779,128,0,53109:0:0:0:0:
192,192,52779,1,0,0:0:0:0:
64,192,52944,1,0,0:0:0:0:
320,192,53109,1,0,0:0:0:0:
192,192,53274,1,0,0:0:0:0:
64,192,53439,128,0,53768:0:0:0:0:
320,192,53439,1,0,0:0:0:0:
192,192,53768,1,8,0:0:0:0:
448,192,53768,1,0,0:0:0:0:
320,192,53933,1,0,0:0:0:0:
192,192,54098,1,0,0:0:0:0:
64,192,54098,1,0,0:0:0:0:
448,192,54263,1,0,0:0:0:0:
320,192,54428,1,0,0:0:0:0:
192,192,54428,1,0,0:0:0:0:
64,192,54592,1,0,0:0:0:0:
320,192,54757,1,0,0:0:0:0:
448,192,54757,1,0,0:0:0:0:
192,192,54922,1,0,0:0:0:0:
64,192,55087,1,0,0:0:0:0:
448,192,55087,1,8,0:0:0:0:
192,192,55252,1,0,0:0:0:0:
64,192,55417,1,0,0:0:0:0:
320,192,55417,1,0,0:0:0:0:
64,192,55581,1,0,0:0:0:0:
320,192,55581,1,0,0:0:0:0:
192,192,55746,1,0,0:0:0:0:
448,192,55746,1,0,0:0:0:0:
192,192,55911,1,0,0:0:0:0:
448,192,55911,1,0,0:0:0:0:
448,192,56076,1,0,0:0:0:0:
320,192,56158,1,0,0:0:0:0:
192,192,56241,1,0,0:0:0:0:
64,192,56323,1,0,0:0:0:0:
448,192,56406,1,0,0:0:0:0:
320,192,56488,1,0,0:0:0:0:
192,192,56570,1,0,0:0:0:0:
64,192,56653,1,0,0:0:0:0:
448,192,56735,1,0,0:0:0:0:
192,192,56900,1,0,0:0:0:0:
320,192,57065,1,0,0:0:0:0:
448,192,57230,1,0,0:0:0:0:
64,192,57395,1,0,0:0:0:0:
192,192,57559,1,0,0:0:0:0:
320,192,57724,1,0,0:0:0:0:
448,192,57889,1,0,0:0:0:0:
64,192,58054,1,0,0:0:0:0:
320,192,58054,1,0,0:0:0:0:
192,192,58219,1,0,0:0:0:0:
320,192,58301,1,0,0:0:0:0:
448,192,58384,1,0,0:0:0:0:
64,192,58384,1,8,0:0:0:0:
192,192,58548,1,0,0:0:0:0:
320,192,58631,1,0,0:0:0:0:
448,192,58713,1,0,0:0:0:0:
64,192,58713,1,0,0:0:0:0:
320,192,58878,1,0,0:0:0:0:
64,192,59043,1,8,0:0:0:0:
448,192,59043,1,0,0:0:0:0:
320,192,59208,1,0,0:0:0:0:
192,192,59373,1,0,0:0:0:0:
448,192,59538,1,0,0:0:0:0:
320,192,59702,1,8,0:0:0:0:
192,192,59702,1,0,0:0:0:0:
64,192,59867,1,0,0:0:0:0:
192,192,60032,1,0,0:0:0:0:
448,192,60197,1,0,0:0:0:0:
320,192,60362,1,8,0:0:0:0:
192,192,60362,1,0,0:0:0:0:
64,192,60527,1,0,0:0:0:0:
320,192,60691,128,0,61021:0:0:0:0:
192,192,60691,1,0,0:0:0:0:
64,192,60856,1,0,0:0:0:0:
448,192,61021,1,8,0:0:0:0:
64,192,61186,1,0,0:0:0:0:
448,192,61351,128,0,61680:0:0:0:0:
192,192,61351,1,0,0:0:0:0:
64,192,61516,1,0,0:0:0:0:
320,192,61680,1,8,0:0:0:0:
64,192,61845,1,0,0:0:0:0:
448,192,62010,1,2,0:0:0:0:
320,192,62092,1,2,0:0:0:0:
192,192,62175,1,2,0:0:0:0:
64,192,62257,1,2,0:0:0:0:
448,192,62340,1,10,0:0:0:0:
320,192,62422,1,2,0:0:0:0:
192,192,62505,1,2,0:0:0:0:
448,192,62587,1,2,0:0:0:0:
64,192,62669,1,2,0:0:0:0:
192,192,62752,1,2,0:0:0:0:
448,192,62834,1,2,0:0:0:0:
320,192,62917,1,2,0:0:0:0:
64,192,62999,1,10,0:0:0:0:
192,192,63081,1,2,0:0:0:0:
448,192,63164,1,2,0:0:0:0:
320,192,63246,1,2,0:0:0:0:
192,192,63329,1,0,0:0:0:0:
64,192,63329,1,0,0:0:0:0:
320,192,63494,1,0,0:0:0:0:
192,192,63576,1,0,0:0:0:0:
64,192,63658,1,0,0:0:0:0:
448,192,63658,1,8,0:0:0:0:
320,192,63823,1,0,0:0:0:0:
192,192,63906,1,0,0:0:0:0:
64,192,63988,1,0,0:0:0:0:
448,192,63988,1,0,0:0:0:0:
192,192,64153,1,0,0:0:0:0:
448,192,64318,1,8,0:0:0:0:
320,192,64318,1,0,0:0:0:0:
64,192,64483,1,0,0:0:0:0:
192,192,64647,1,0,0:0:0:0:
320,192,64812,1,0,0:0:0:0:
192,192,64977,1,8,0:0:0:0:
448,192,64977,1,0,0:0:0:0:
320,192,65142,1,0,0:0:0:0:
64,192,65307,1,0,0:0:0:0:
320,192,65472,1,0,0:0:0:0:
192,192,65636,1,8,0:0:0:0:
448,192,65636,1,0,0:0:0:0:
64,192,65801,1,0,0:0:0:0:
320,192,65966,128,0,66296:0:0:0:0:
448,192,65966,1,0,0:0:0:0:
192,192,66131,1,0,0:0:0:0:
64,192,66296,128,0,66625:0:0:0:0:
448,192,66296,1,8,0:0:0:0:
192,192,66461,1,0,0:0:0:0:
448,192,66625,128,0,66955:0:0:0:0:
320,192,66625,1,0,0:0:0:0:
64,192,66790,1,0,0:0:0:0:
192,192,66955,128,0,67285:0:0:0:0:
320,192,66955,1,8,0:0:0:0:
64,192,67120,1,0,0:0:0:0:
320,192,67285,1,2,0:0:0:0:
64,192,67367,1,2,0:0:0:0:
448,192,67450,1,2,0:0:0:0:
320,192,67532,1,2,0:0:0:0:
64,192,67614,1,10,0:0:0:0:
192,192,67697,1,2,0:0:0:0:
448,192,67779,1,2,0:0:0:0:
320,192,67862,1,2,0:0:0:0:
192,192,67944,1,2,0:0:0:0:
64,192,68027,1,2,0:0:0:0:
320,192,68109,1,2,0:0:0:0:
448,192,68191,1,2,0:0:0:0:
192,192,68274,1,10,0:0:0:0:
64,192,68356,1,2,0:0:0:0:
320,192,68439,1,2,0:0:0:0:
192,192,68521,1,2,0:0:0:0:
64,192,68603,1,0,0:0:0:0:
448,192,68603,1,0,0:0:0:0:
320,192,68768,1,0,0:0:0:0:
64,192,68851,1,0,0:0:0:0:
192,192,68933,1,0,0:0:0:0:
448,192,68933,1,8,0:0:0:0:
64,192,69098,1,0,0:0:0:0:
448,192,69180,1,0,0:0:0:0:
192,192,69263,1,0,0:0:0:0:
320,192,69263,1,0,0:0:0:0:
64,192,69428,1,0,0:0:0:0:
320,192,69592,1,8,0:0:0:0:
192,192,69592,1,0,0:0:0:0:
448,192,69757,1,0,0:0:0:0:
192,192,69922,1,0,0:0:0:0:
320,192,70087,1,0,0:0:0:0:
64,192,70252,1,8,0:0:0:0:
192,192,70252,1,0,0:0:0:0:
448,192,70417,1,0,0:0:0:0:
192,192,70581,1,0,0:0:0:0:
320,192,70746,1,0,0:0:0:0:
64,192,70911,1,8,0:0:0:0:
448,192,70911,1,0,0:0:0:0:
192,192,71076,1,0,0:0:0:0:
448,192,71241,128,0,71406:0:0:0:0:
320,192,71241,1,0,0:0:0:0:
192,192,71406,128,0,71570:0:0:0:0:
64,192,71406,1,0,0:0:0:0:
320,192,71570,128,8,71735:0:0:0:0:
448,192,71570,1,0,0:0:0:0:
64,192,71735,128,0,71900:0:0:0:0:
192,192,71735,1,0,0:0:0:0:
448,192,71900,128,0,72065:0:0:0:0:
320,192,71900,1,0,0:0:0:0:
192,192,72065,128,0,72230:0:0:0:0:
64,192,72065,1,0,0:0:0:0:
320,192,72230,128,8,72395:0:0:0:0:
448,192,72230,1,0,0:0:0:0:
64,192,72395,128,0,72559:0:0:0:0:
192,192,72395,1,0,0:0:0:0:
448,192,72559,1,2,0:0:0:0:
320,192,72642,1,2,0:0:0:0:
192,192,72724,1,2,0:0:0:0:
448,192,72807,1,2,0:0:0:0:
64,192,72889,1,10,0:0:0:0:
192,192,72972,1,2,0:0:0:0:
64,192,73054,1,2,0:0:0:0:
320,192,73136,1,2,0:0:0:0:
448,192,73219,1,2,0:0:0:0:
192,192,73301,1,2,0:0:0:0:
320,192,73384,1,2,0:0:0:0:
64,192,73466,1,2,0:0:0:0:
192,192,73548,1,10,0:0:0:0:
448,192,73631,1,2,0:0:0:0:
320,192,73713,1,2,0:0:0:0:
64,192,73796,1,2,0:0:0:0:
192,192,73878,1,0,0:0:0:0:
448,192,73878,1,0,0:0:0:0:
320,192,74043,1,0,0:0:0:0:
192,192,74125,1,0,0:0:0:0:
64,192,74208,1,0,0:0:0:0:
448,192,74208,1,8,0:0:0:0:
192,192,74373,1,0,0:0:0:0:
320,192,74455,1,0,0:0:0:0:
64,192,74538,1,0,0:0:0:0:
448,192,74538,1,0,0:0:0:0:
320,192,74702,1,0,0:0:0:0:
192,192,74867,1,8,0:0:0:0:
64,192,74867,1,0,0:0:0:0:
448,192,75032,1,0,0:0:0:0:
64,192,75197,1,0,0:0:0:0:
192,192,75362,1,0,0:0:0:0:
64,192,75527,1,8,0:0:0:0:
320,192,75527,1,0,0:0:0:0:
448,192,75691,1,0,0:0:0:0:
192,192,75856,1,0,0:0:0:0:
320,192,76021,1,0,0:0:0:0:
64,192,76186,1,8,0:0:0:0:
448,192,76186,1,0,0:0:0:0:
192,192,76351,1,0,0:0:0:0:
448,192,76516,128,0,76845:0:0:0:0:
64,192,76516,1,0,0:0:0:0:
192,192,76680,1,0,0:0:0:0:
64,192,76845,1,0,0:0:0:0:
320,192,76845,1,8,0:0:0:0:
192,192,77010,1,0,0:0:0:0:
192,192,77175,128,0,77505:0:0:0:0:
448,192,77175,1,0,0:0:0:0:
320,192,77340,1,0,0:0:0:0:
64,192,77505,1,0,0:0:0:0:
448,192,77505,1,8,0:0:0:0:
320,192,77669,1,0,0:0:0:0:
448,192,77834,1,2,0:0:0:0:
192,192,77917,1,2,0:0:0:0:
320,192,77999,1,2,0:0:0:0:
64,192,78081,1,2,0:0:0:0:
192,192,78164,1,10,0:0:0:0:
448,192,78246,1,2,0:0:0:0:
320,192,78329,1,2,0:0:0:0:
448,192,78411,1,2,0:0:0:0:
64,192,78494,1,2,0:0:0:0:
192,192,78576,1,2,0:0:0:0:
64,192,78658,1,2,0:0:0:0:
320,192,78741,1,2,0:0:0:0:
448,192,78823,1,10,0:0:0:0:
192,192,78906,1,2,0:0:0:0:
64,192,78988,1,2,0:0:0:0:
320,192,79070,1,2,0:0:0:0:
192,192,79153,128,0,79483:0:0:0:0:
448,192,79153,1,0,0:0:0:0:
448,192,79483,128,0,79812:0:0:0:0:
64,192,79483,1,0,0:0:0:0:
64,192,79812,128,0,80142:0:0:0:0:
320,192,79812,1,0,0:0:0:0:
320,192,80142,128,0,80472:0:0:0:0:
192,192,80142,1,0,0:0:0:0:
192,192,80472,128,0,80801:0:0:0:0:
448,192,80472,1,0,0:0:0:0:
448,192,80801,128,0,81131:0:0:0:0:
64,192,80801,1,0,0:0:0:0:
64,192,81131,128,0,81461:0:0:0:0:
320,192,81131,1,0,0:0:0:0:
192,192,81790,128,0,84428:0:0:0:0:
448,192,81790,1,0,0:0:0:0:
64,192,81790,1,0,0:0:0:0:
320,192,81955,1,0,0:0:0:0:
448,192,82038,1,0,0:0:0:0:
64,192,82120,1,0,0:0:0:0:
320,192,82285,1,0,0:0:0:0:
64,192,82450,1,0,0:0:0:0:
448,192,82614,1,0,0:0:0:0:
64,192,82697,1,0,0:0:0:0:
320,192,82779,1,8,0:0:0:0:
448,192,82944,1,0,0:0:0:0:
64,192,83109,1,0,0:0:0:0:
320,192,83274,1,0,0:0:0:0:
448,192,83356,1,0,0:0:0:0:
64,192,83439,1,0,0:0:0:0:
448,192,83603,1,0,0:0:0:0:
320,192,83768,1,0,0:0:0:0:
448,192,83933,1,0,0:0:0:0:
320,192,84016,1,0,0:0:0:0:
64,192,84098,1,8,0:0:0:0:
448,192,84263,1,0,0:0:0:0:
64,192,84428,1,0,0:0:0:0:
320,192,84592,1,0,0:0:0:0:
192,192,84675,1,0,0:0:0:0:
448,192,84757,1,0,0:0:0:0:
192,192,84922,1,0,0:0:0:0:
64,192,85005,1,0,0:0:0:0:
320,192,85087,1,0,0:0:0:0:
64,192,85252,1,0,0:0:0:0:
448,192,85334,1,0,0:0:0:0:
192,192,85417,1,8,0:0:0:0:
64,192,85581,1,0,0:0:0:0:
320,192,85746,1,0,0:0:0:0:
448,192,85911,1,0,0:0:0:0:
192,192,86076,1,0,0:0:0:0:
320,192,86241,1,0,0:0:0:0:
448,192,86323,1,0,0:0:0:0:
64,192,86406,1,0,0:0:0:0:
448,192,86570,1,0,0:0:0:0:
64,192,86653,1,0,0:0:0:0:
192,192,86735,1,8,0:0:0:0:
448,192,86900,1,0,0:0:0:0:
320,192,86983,1,0,0:0:0:0:
64,192,87065,128,0,87230:0:0:0:0:
448,192,87230,1,0,0:0:0:0:
192,192,87312,1,0,0:0:0:0:
320,192,87395,1,0,0:0:0:0:
448,192,87559,128,0,87724:0:0:0:0:
192,192,87889,128,0,88054:0:0:0:0:
320,192,88054,128,8,88219:0:0:0:0:
64,192,88219,128,0,88384:0:0:0:0:
320,192,88548,1,0,0:0:0:0:
192,192,88631,1,0,0:0:0:0:
448,192,88713,128,0,88878:0:0:0:0:
64,192,88878,128,0,89043:0:0:0:0:
320,192,89043,128,0,89208:0:0:0:0:
192,192,89208,1,0,0:0:0:0:
448,192,89290,1,0,0:0:0:0:
320,192,89373,128,8,89538:0:0:0:0:
192,192,89538,128,0,89702:0:0:0:0:
64,192,89702,128,0,89867:0:0:0:0:
448,192,89867,1,0,0:0:0:0:
320,192,89950,1,0,0:0:0:0:
448,192,90197,1,0,0:0:0:0:
64,192,90279,1,0,0:0:0:0:
320,192,90362,128,0,90527:0:0:0:0:
448,192,90527,128,0,90691:0:0:0:0:
192,192,90691,128,8,90856:0:0:0:0:
448,192,90856,1,0,0:0:0:0:
320,192,90939,1,0,0:0:0:0:
64,192,91021,128,0,91186:0:0:0:0:
448,192,91186,1,0,0:0:0:0:
320,192,91351,1,0,0:0:0:0:
192,192,91516,1,0,0:0:0:0:
320,192,91598,1,0,0:0:0:0:
64,192,91680,128,0,91845:0:0:0:0:
192,192,91845,128,0,92010:0:0:0:0:
448,192,92010,128,8,92175:0:0:0:0:
64,192,92175,1,0,0:0:0:0:
320,192,92257,1,0,0:0:0:0:
192,192,92340,1,0,0:0:0:0:
64,192,92340,1,0,0:0:0:0:
320,192,92505,1,0,0:0:0:0:
448,192,92669,1,0,0:0:0:0:
320,192,92834,1,0,0:0:0:0:
64,192,92999,1,0,0:0:0:0:
448,192,92999,1,0,0:0:0:0:
192,192,93164,1,0,0:0:0:0:
64,192,93329,1,0,0:0:0:0:
320,192,93329,1,8,0:0:0:0:
192,192,93494,1,0,0:0:0:0:
320,192,93658,1,0,0:0:0:0:
64,192,93823,1,0,0:0:0:0:
192,192,93906,1,0,0:0:0:0:
320,192,93988,1,0,0:0:0:0:
448,192,94153,1,0,0:0:0:0:
320,192,94235,1,0,0:0:0:0:
192,192,94318,1,0,0:0:0:0:
64,192,94318,1,0,0:0:0:0:
448,192,94483,1,0,0:0:0:0:
320,192,94565,1,0,0:0:0:0:
192,192,94647,1,8,0:0:0:0:
448,192,94730,1,0,0:0:0:0:
64,192,94812,1,0,0:0:0:0:
192,192,94895,1,0,0:0:0:0:
320,192,94977,128,0,95307:0:0:0:0:
448,192,94977,1,0,0:0:0:0:
192,192,95472,1,0,0:0:0:0:
320,192,95554,1,0,0:0:0:0:
64,192,95636,128,0,95801:0:0:0:0:
448,192,95636,1,0,0:0:0:0:
192,192,95801,1,0,0:0:0:0:
320,192,95884,1,0,0:0:0:0:
448,192,95966,1,8,0:0:0:0:
320,192,96131,1,0,0:0:0:0:
64,192,96296,1,0,0:0:0:0:
192,192,96296,1,0,0:0:0:0:
448,192,96461,1,0,0:0:0:0:
320,192,96543,1,0,0:0:0:0:
192,192,96625,1,0,0:0:0:0:
320,192,96790,1,0,0:0:0:0:
448,192,96873,1,0,0:0:0:0:
192,192,96955,128,0,97285:0:0:0:0:
448,192,97120,1,2,0:0:0:0:
320,192,97202,1,0,0:0:0:0:
64,192,97285,1,10,0:0:0:0:
320,192,97367,1,0,0:0:0:0:
448,192,97450,1,10,0:0:0:0:
192,192,97532,1,0,0:0:0:0:
64,192,97614,1,0,0:0:0:0:
320,192,97614,1,0,0:0:0:0:
192,192,97779,1,0,0:0:0:0:
448,192,97944,1,0,0:0:0:0:
64,192,97944,1,0,0:0:0:0:
320,192,98109,1,0,0:0:0:0:
192,192,98274,1,0,0:0:0:0:
448,192,98274,1,0,0:0:0:0:
320,192,98439,1,0,0:0:0:0:
64,192,98603,1,0,0:0:0:0:
448,192,98603,1,8,0:0:0:0:
192,192,98768,1,0,0:0:0:0:
64,192,98933,1,0,0:0:0:0:
448,192,98933,1,0,0:0:0:0:
320,192,99098,1,0,0:0:0:0:
192,192,99263,1,0,0:0:0:0:
448,192,99263,1,0,0:0:0:0:
320,192,99428,1,0,0:0:0:0:
64,192,99592,1,0,0:0:0:0:
448,192,99592,1,0,0:0:0:0:
320,192,99757,1,0,0:0:0:0:
64,192,99922,1,0,0:0:0:0:
448,192,99922,1,8,0:0:0:0:
192,192,100087,1,0,0:0:0:0:
64,192,100252,1,0,0:0:0:0:
448,192,100252,1,0,0:0:0:0:
320,192,100417,1,0,0:0:0:0:
192,192,100581,1,0,0:0:0:0:
448,192,100581,1,0,0:0:0:0:
320,192,100746,1,0,0:0:0:0:
64,192,100911,1,0,0:0:0:0:
192,192,100911,1,0,0:0:0:0:
320,192,101076,1,0,0:0:0:0:
192,192,101241,1,0,0:0:0:0:
448,192,101241,1,8,0:0:0:0:
320,192,101406,1,0,0:0:0:0:
448,192,101570,1,0,0:0:0:0:
64,192,101570,1,0,0:0:0:0:
192,192,101735,1,0,0:0:0:0:
320,192,101900,1,0,0:0:0:0:
64,192,101900,1,0,0:0:0:0:
448,192,102065,1,0,0:0:0:0:
192,192,102230,1,0,0:0:0:0:
64,192,102230,1,0,0:0:0:0:
448,192,102395,1,0,0:0:0:0:
64,192,102559,1,0,0:0:0:0:
320,192,102559,1,8,0:0:0:0:
192,192,102724,1,0,0:0:0:0:
64,192,102889,1,0,0:0:0:0:
448,192,102889,1,0,0:0:0:0:
320,192,103054,1,0,0:0:0:0:
192,192,103219,1,0,0:0:0:0:
448,192,103219,1,0,0:0:0:0:
64,192,103384,1,0,0:0:0:0:
192,192,103548,1,0,0:0:0:0:
320,192,103548,1,0,0:0:0:0:
64,192,103713,1,0,0:0:0:0:
192,192,103878,1,0,0:0:0:0:
448,192,103878,1,8,0:0:0:0:
320,192,104043,1,0,0:0:0:0:
64,192,104208,1,0,0:0:0:0:
192,192,104208,1,0,0:0:0:0:
320,192,104373,1,0,0:0:0:0:
64,192,104538,1,0,0:0:0:0:
448,192,104538,1,0,0:0:0:0:
320,192,104702,1,0,0:0:0:0:
192,192,104867,1,0,0:0:0:0:
448,192,104867,1,0,0:0:0:0:
320,192,105032,1,0,0:0:0:0:
64,192,105197,1,0,0:0:0:0:
448,192,105197,1,8,0:0:0:0:
320,192,105362,1,0,0:0:0:0:
64,192,105527,1,0,0:0:0:0:
192,192,105527,1,0,0:0:0:0:
320,192,105691,1,0,0:0:0:0:
448,192,105691,1,0,0:0:0:0:
64,192,105856,1,0,0:0:0:0:
192,192,105856,1,0,0:0:0:0:
320,192,106021,1,0,0:0:0:0:
448,192,106021,1,0,0:0:0:0:
64,192,106186,1,0,0:0:0:0:
192,192,106186,1,0,0:0:0:0:
320,192,106351,1,0,0:0:0:0:
448,192,106351,1,0,0:0:0:0:
64,192,106516,1,0,0:0:0:0:
192,192,106516,1,8,0:0:0:0:
320,192,106680,1,0,0:0:0:0:
448,192,106680,1,0,0:0:0:0:
320,192,106845,1,0,0:0:0:0:
64,192,106845,1,0,0:0:0:0:
320,192,107010,1,0,0:0:0:0:
64,192,107010,1,0,0:0:0:0:
448,192,107175,1,0,0:0:0:0:
192,192,107175,1,0,0:0:0:0:
448,192,107340,1,0,0:0:0:0:
192,192,107340,1,0,0:0:0:0:
448,192,107505,1,0,0:0:0:0:
320,192,107587,1,0,0:0:0:0:
64,192,107669,1,0,0:0:0:0:
192,192,107752,1,0,0:0:0:0:
448,192,107834,1,0,0:0:0:0:
320,192,107917,1,0,0:0:0:0:
192,192,107999,1,0,0:0:0:0:
64,192,108081,1,0,0:0:0:0:
448,192,108164,1,0,0:0:0:0:
320,192,108329,1,0,0:0:0:0:
192,192,108494,1,0,0:0:0:0:
64,192,108658,1,0,0:0:0:0:
448,192,108823,1,0,0:0:0:0:
320,192,108988,1,0,0:0:0:0:
192,192,109153,1,0,0:0:0:0:
64,192,109318,1,0,0:0:0:0:
320,192,109483,1,0,0:0:0:0:
448,192,109483,1,0,0:0:0:0:
192,192,109647,1,0,0:0:0:0:
320,192,109730,1,0,0:0:0:0:
64,192,109812,1,0,0:0:0:0:
448,192,109812,1,8,0:0:0:0:
320,192,109977,1,0,0:0:0:0:
192,192,110059,1,0,0:0:0:0:
448,192,110142,1,0,0:0:0:0:
64,192,110142,1,0,0:0:0:0:
192,192,110307,1,0,0:0:0:0:
448,192,110472,1,8,0:0:0:0:
320,192,110472,1,0,0:0:0:0:
192,192,110636,1,0,0:0:0:0:
64,192,110801,1,0,0:0:0:0:
320,192,110966,1,0,0:0:0:0:
192,192,111131,1,8,0:0:0:0:
64,192,111131,1,0,0:0:0:0:
448,192,111296,1,0,0:0:0:0:
320,192,111461,1,0,0:0:0:0:
64,192,111625,1,0,0:0:0:0:
320,192,111790,1,8,0:0:0:0:
448,192,111790,1,0,0:0:0:0:
192,192,111955,1,0,0:0:0:0:
320,192,112120,128,0,112450:0:0:0:0:
64,192,112120,1,0,0:0:0:0:
192,192,112285,1,0,0:0:0:0:
448,192,112450,1,8,0:0:0:0:
64,192,112450,1,0,0:0:0:0:
192,192,112614,1,0,0:0:0:0:
64,192,112779,128,0,113109:0:0:0:0:
448,192,112779,1,0,0:0:0:0:
320,192,112944,1,0,0:0:0:0:
192,192,113109,1,8,0:0:0:0:
448,192,113109,1,0,0:0:0:0:
320,192,113274,1,0,0:0:0:0:
192,192,113439,1,2,0:0:0:0:
448,192,113521,1,2,0:0:0:0:
320,192,113603,1,2,0:0:0:0:
64,192,113686,1,2,0:0:0:0:
192,192,113768,1,10,0:0:0:0:
320,192,113851,1,2,0:0:0:0:
64,192,113933,1,2,0:0:0:0:
448,192,114016,1,2,0:0:0:0:
320,192,114098,1,2,0:0:0:0:
192,192,114180,1,2,0:0:0:0:
448,192,114263,1,2,0:0:0:0:
64,192,114345,1,2,0:0:0:0:
192,192,114428,1,10,0:0:0:0:
448,192,114510,1,2,0:0:0:0:
320,192,114592,1,2,0:0:0:0:
64,192,114675,1,2,0:0:0:0:
448,192,114757,1,0,0:0:0:0:
192,192,114757,1,0,0:0:0:0:
320,192,114922,1,0,0:0:0:0:
192,192,115005,1,0,0:0:0:0:
448,192,115087,1,8,0:0:0:0:
64,192,115087,1,0,0:0:0:0:
192,192,115252,1,0,0:0:0:0:
320,192,115334,1,0,0:0:0:0:
64,192,115417,1,0,0:0:0:0:
448,192,115417,1,0,0:0:0:0:
320,192,115581,1,0,0:0:0:0:
192,192,115746,1,8,0:0:0:0:
64,192,115746,1,0,0:0:0:0:
448,192,115911,1,0,0:0:0:0:
64,192,116076,1,0,0:0:0:0:
192,192,116241,1,0,0:0:0:0:
448,192,116406,1,8,0:0:0:0:
64,192,116406,1,0,0:0:0:0:
320,192,116570,1,0,0:0:0:0:
448,192,116735,1,0,0:0:0:0:
192,192,116900,1,0,0:0:0:0:
320,192,117065,1,8,0:0:0:0:
448,192,117065,1,0,0:0:0:0:
64,192,117230,1,0,0:0:0:0:
320,192,117395,1,0,0:0:0:0:
448,192,117395,128,0,117724:0:0:0:0:
64,192,117559,1,0,0:0:0:0:
192,192,117724,128,0,118054:0:0:0:0:
320,192,117724,1,8,0:0:0:0:
64,192,117889,1,0,0:0:0:0:
320,192,118054,128,0,118384:0:0:0:0:
448,192,118054,1,0,0:0:0:0:
192,192,118219,1,0,0:0:0:0:
64,192,118384,128,0,118713:0:0:0:0:
448,192,118384,1,8,0:0:0:0:
192,192,118548,1,0,0:0:0:0:
320,192,118713,1,2,0:0:0:0:
448,192,118796,1,2,0:0:0:0:
192,192,118878,1,2,0:0:0:0:
320,192,118961,1,2,0:0:0:0:
64,192,119043,1,10,0:0:0:0:
192,192,119125,1,2,0:0:0:0:
64,192,119208,1,2,0:0:0:0:
320,192,119290,1,2,0:0:0:0:
192,192,119373,1,2,0:0:0:0:
448,192,119455,1,2,0:0:0:0:
320,192,119538,1,2,0:0:0:0:
64,192,119620,1,2,0:0:0:0:
192,192,119702,1,10,0:0:0:0:
448,192,119785,1,2,0:0:0:0:
320,192,119867,1,2,0:0:0:0:
64,192,119950,1,2,0:0:0:0:
448,192,120032,1,0,0:0:0:0:
192,192,120032,1,0,0:0:0:0:
320,192,120197,1,0,0:0:0:0:
192,192,120279,1,0,0:0:0:0:
64,192,120362,1,0,0:0:0:0:
448,192,120362,1,8,0:0:0:0:
320,192,120527,1,0,0:0:0:0:
192,192,120609,1,0,0:0:0:0:
64,192,120691,1,0,0:0:0:0:
448,192,120691,1,0,0:0:0:0:
320,192,120856,1,0,0:0:0:0:
192,192,121021,1,8,0:0:0:0:
64,192,121021,1,0,0:0:0:0:
448,192,121186,1,0,0:0:0:0:
320,192,121351,1,0,0:0:0:0:
64,192,121516,1,0,0:0:0:0:
192,192,121680,1,8,0:0:0:0:
448,192,121680,1,0,0:0:0:0:
64,192,121845,1,0,0:0:0:0:
320,192,122010,1,0,0:0:0:0:
448,192,122175,1,0,0:0:0:0:
192,192,122340,1,8,0:0:0:0:
320,192,122340,1,0,0:0:0:0:
64,192,122505,1,0,0:0:0:0:
448,192,122669,128,0,122834:0:0:0:0:
192,192,122669,1,0,0:0:0:0:
320,192,122834,1,0,0:0:0:0:
64,192,122834,128,0,122999:0:0:0:0:
192,192,122999,128,0,123164:0:0:0:0:
448,192,122999,1,8,0:0:0:0:
64,192,123164,1,0,0:0:0:0:
320,192,123164,128,0,123329:0:0:0:0:
448,192,123329,128,0,123494:0:0:0:0:
192,192,123329,1,0,0:0:0:0:
320,192,123494,1,0,0:0:0:0:
64,192,123494,128,0,123658:0:0:0:0:
192,192,123658,128,0,123823:0:0:0:0:
448,192,123658,1,8,0:0:0:0:
64,192,123823,1,0,0:0:0:0:
320,192,123823,128,0,123988:0:0:0:0:
192,192,123988,1,2,0:0:0:0:
448,192,124070,1,2,0:0:0:0:
64,192,124153,1,2,0:0:0:0:
320,192,124235,1,2,0:0:0:0:
192,192,124318,1,10,0:0:0:0:
64,192,124400,1,2,0:0:0:0:
448,192,124483,1,2,0:0:0:0:
320,192,124565,1,2,0:0:0:0:
64,192,124647,1,2,0:0:0:0:
448,192,124730,1,2,0:0:0:0:
192,192,124812,1,2,0:0:0:0:
320,192,124895,1,2,0:0:0:0:
64,192,124977,1,10,0:0:0:0:
192,192,125059,1,2,0:0:0:0:
448,192,125142,1,2,0:0:0:0:
320,192,125224,1,2,0:0:0:0:
192,192,125307,1,0,0:0:0:0:
64,192,125307,1,0,0:0:0:0:
320,192,125472,1,0,0:0:0:0:
448,192,125554,1,0,0:0:0:0:
64,192,125636,1,0,0:0:0:0:
192,192,125636,1,8,0:0:0:0:
320,192,125801,1,0,0:0:0:0:
192,192,125884,1,0,0:0:0:0:
64,192,125966,1,0,0:0:0:0:
448,192,125966,1,0,0:0:0:0:
320,192,126131,1,0,0:0:0:0:
192,192,126296,1,8,0:0:0:0:
64,192,126296,1,0,0:0:0:0:
448,192,126461,1,0,0:0:0:0:
320,192,126625,1,0,0:0:0:0:
64,192,126790,1,0,0:0:0:0:
192,192,126955,1,8,0:0:0:0:
320,192,126955,1,0,0:0:0:0:
448,192,127120,1,0,0:0:0:0:
192,192,127285,1,0,0:0:0:0:
320,192,127450,1,0,0:0:0:0:
64,192,127614,1,8,0:0:0:0:
448,192,127614,1,0,0:0:0:0:
192,192,127779,1,0,0:0:0:0:
64,192,127944,1,0,0:0:0:0:
320,192,127944,1,0,0:0:0:0:
448,192,128109,1,0,0:0:0:0:
64,192,128274,1,0,0:0:0:0:
320,192,128274,1,8,0:0:0:0:
192,192,128439,1,0,0:0:0:0:
448,192,128603,1,0,0:0:0:0:
64,192,128603,1,0,0:0:0:0:
320,192,128768,1,0,0:0:0:0:
192,192,128933,1,8,0:0:0:0:
64,192,128933,1,0,0:0:0:0:
448,192,129098,1,0,0:0:0:0:
320,192,129263,1,2,0:0:0:0:
192,192,129345,1,2,0:0:0:0:
448,192,129428,1,2,0:0:0:0:
64,192,129510,1,2,0:0:0:0:
192,192,129592,1,10,0:0:0:0:
320,192,129675,1,2,0:0:0:0:
64,192,129757,1,2,0:0:0:0:
448,192,129840,1,2,0:0:0:0:
320,192,129922,1,2,0:0:0:0:
448,192,130005,1,2,0:0:0:0:
192,192,130087,1,2,0:0:0:0:
320,192,130169,1,2,0:0:0:0:
64,192,130252,1,10,0:0:0:0:
320,192,130334,1,2,0:0:0:0:
192,192,130417,1,2,0:0:0:0:
448,192,130499,1,2,0:0:0:0:
320,192,130581,128,0,130911:0:0:0:0:
64,192,130581,1,0,0:0:0:0:
64,192,130911,128,0,131241:0:0:0:0:
192,192,130911,1,0,0:0:0:0:
320,192,131241,128,0,131570:0:0:0:0:
448,192,131241,1,0,0:0:0:0:
64,192,131570,128,0,131900:0:0:0:0:
192,192,131570,1,0,0:0:0:0:
448,192,131900,128,0,132230:0:0:0:0:
192,192,131900,1,0,0:0:0:0:
320,192,132230,128,0,132559:0:0:0:0:
192,192,132230,1,0,0:0:0:0:
192,192,132559,128,0,132889:0:0:0:0:
64,192,132559,1,0,0:0:0:0:
448,192,133219,128,0,134702:0:0:0:0:
320,192,133219,1,2,0:0:0:0:
192,192,133384,1,2,0:0:0:0:
64,192,133548,1,2,0:0:0:0:
320,192,133713,1,2,0:0:0:0:
192,192,133878,1,2,0:0:0:0:
320,192,134043,1,2,0:0:0:0:
64,192,134208,1,2,0:0:0:0:
192,192,134373,1,2,0:0:0:0:
320,192,134538,1,2,0:0:0:0:
64,192,134702,1,2,0:0:0:0:
320,192,134867,1,2,0:0:0:0:
192,192,135032,1,2,0:0:0:0:
320,192,135114,1,0,0:0:0:0:
448,192,135197,1,0,0:0:0:0:
320,192,135362,1,0,0:0:0:0:
192,192,135444,1,0,0:0:0:0:
64,192,135527,1,0,0:0:0:0:
192,192,135691,1,0,0:0:0:0:
320,192,135856,128,0,137175:0:0:0:0:
64,192,135856,1,2,0:0:0:0:
448,192,136021,1,2,0:0:0:0:
192,192,136186,1,2,0:0:0:0:
64,192,136351,1,2,0:0:0:0:
448,192,136516,1,2,0:0:0:0:
192,192,136680,1,2,0:0:0:0:
448,192,136845,1,2,0:0:0:0:
64,192,137010,1,2,0:0:0:0:
192,192,137175,1,2,0:0:0:0:
64,192,137340,1,2,0:0:0:0:
448,192,137505,1,2,0:0:0:0:
192,192,137669,1,2,0:0:0:0:
320,192,137834,1,0,0:0:0:0:
64,192,137999,1,0,0:0:0:0:
448,192,138164,1,0,0:0:0:0:
192,192,138329,1,0,0:0:0:0:
64,192,138494,128,0,139812:0:0:0:0:
320,192,138494,1,2,0:0:0:0:
192,192,138658,1,2,0:0:0:0:
448,192,138823,1,2,0:0:0:0:
320,192,138988,1,2,0:0:0:0:
448,192,139153,1,2,0:0:0:0:
192,192,139318,1,2,0:0:0:0:
320,192,139483,1,2,0:0:0:0:
192,192,139647,1,2,0:0:0:0:
448,192,139812,1,2,0:0:0:0:
320,192,139977,1,2,0:0:0:0:
192,192,140142,1,2,0:0:0:0:
448,192,140307,1,2,0:0:0:0:
64,192,140472,1,0,0:0:0:0:
192,192,140636,1,0,0:0:0:0:
448,192,140801,1,0,0:0:0:0:
64,192,140966,1,0,0:0:0:0:
448,192,141131,128,0,142450:0:0:0:0:
320,192,141131,1,2,0:0:0:0:
192,192,141296,1,2,0:0:0:0:
64,192,141461,1,2,0:0:0:0:
320,192,141625,1,2,0:0:0:0:
64,192,141790,1,2,0:0:0:0:
192,192,141955,1,2,0:0:0:0:
64,192,142120,1,2,0:0:0:0:
320,192,142285,1,2,0:0:0:0:
192,192,142450,1,2,0:0:0:0:
64,192,142614,1,2,0:0:0:0:
320,192,142779,1,2,0:0:0:0:
448,192,142944,1,2,0:0:0:0:
192,192,143109,1,0,0:0:0:0:
320,192,143274,1,0,0:0:0:0:
64,192,143439,1,0,0:0:0:0:
448,192,143603,1,0,0:0:0:0:
64,192,143768,1,0,0:0:0:0:
320,192,143768,1,0,0:0:0:0:
192,192,143768,1,0,0:0:0:0:
192,192,144098,1,0,0:0:0:0:
448,192,144098,1,0,0:0:0:0:
320,192,144098,1,0,0:0:0:0:
320,192,144428,1,0,0:0:0:0:
64,192,144428,1,0,0:0:0:0:
448,192,144428,1,0,0:0:0:0:
192,192,144592,1,8,0:0:0:0:
448,192,144675,1,8,0:0:0:0:
64,192,144757,1,0,0:0:0:0:
320,192,144757,1,8,0:0:0:0:
192,192,145087,1,0,0:0:0:0:
448,192,145087,1,0,0:0:0:0:
320,192,145087,1,0,0:0:0:0:
64,192,145417,1,0,0:0:0:0:
448,192,145417,1,0,0:0:0:0:
192,192,145417,1,0,0:0:0:0:
64,192,145746,1,0,0:0:0:0:
448,192,145746,1,0,0:0:0:0:
192,192,145746,1,0,0:0:0:0:
320,192,145911,1,8,0:0:0:0:
64,192,145994,1,8,0:0:0:0:
192,192,146076,1,8,0:0:0:0:
448,192,146076,1,0,0:0:0:0:
64,192,146406,1,0,0:0:0:0:
448,192,146406,1,0,0:0:0:0:
320,192,146406,1,0,0:0:0:0:
192,192,146735,1,0,0:0:0:0:
320,192,146735,1,0,0:0:0:0:
448,192,146735,1,0,0:0:0:0:
448,192,147065,1,0,0:0:0:0:
64,192,147065,1,0,0:0:0:0:
192,192,147065,1,0,0:0:0:0:
320,192,147230,1,8,0:0:0:0:
192,192,147312,1,8,0:0:0:0:
64,192,147395,1,0,0:0:0:0:
448,192,147395,1,8,0:0:0:0:
448,192,147724,1,0,0:0:0:0:
320,192,147724,1,0,0:0:0:0:
64,192,147724,1,0,0:0:0:0:
320,192,148054,1,0,0:0:0:0:
64,192,148054,1,0,0:0:0:0:
192,192,148054,1,0,0:0:0:0:
192,192,148384,1,0,0:0:0:0:
448,192,148384,1,0,0:0:0:0:
64,192,148384,1,0,0:0:0:0:
320,192,148548,1,8,0:0:0:0:
64,192,148631,1,8,0:0:0:0:
192,192,148713,1,0,0:0:0:0:
448,192,148713,1,8,0:0:0:0:
64,192,149043,1,0,0:0:0:0:
448,192,149043,1,0,0:0:0:0:
320,192,149043,1,0,0:0:0:0:
64,192,149373,1,0,0:0:0:0:
448,192,149373,1,0,0:0:0:0:
192,192,149373,1,0,0:0:0:0:
192,192,149702,1,0,0:0:0:0:
448,192,149702,1,0,0:0:0:0:
64,192,149702,1,0,0:0:0:0:
320,192,149867,1,8,0:0:0:0:
448,192,149950,1,8,0:0:0:0:
64,192,150032,1,0,0:0:0:0:
192,192,150032,1,8,0:0:0:0:
192,192,150362,1,0,0:0:0:0:
448,192,150362,1,0,0:0:0:0:
320,192,150362,1,0,0:0:0:0:
64,192,150691,1,0,0:0:0:0:
320,192,150691,1,0,0:0:0:0:
192,192,150691,1,0,0:0:0:0:
192,192,151021,1,0,0:0:0:0:
320,192,151021,1,0,0:0:0:0:
64,192,151021,1,0,0:0:0:0:
448,192,151186,1,8,0:0:0:0:
192,192,151268,1,8,0:0:0:0:
320,192,151351,1,8,0:0:0:0:
64,192,151351,1,0,0:0:0:0:
320,192,151680,1,0,0:0:0:0:
64,192,151680,1,0,0:0:0:0:
448,192,151680,1,0,0:0:0:0:
192,192,152010,1,0,0:0:0:0:
448,192,152010,1,0,0:0:0:0:
320,192,152010,1,0,0:0:0:0:
64,192,152340,1,0,0:0:0:0:
320,192,152340,1,0,0:0:0:0:
448,192,152340,1,0,0:0:0:0:
192,192,152505,1,8,0:0:0:0:
320,192,152587,1,8,0:0:0:0:
448,192,152669,1,8,0:0:0:0:
64,192,152669,1,0,0:0:0:0:
448,192,152999,1,0,0:0:0:0:
192,192,152999,1,0,0:0:0:0:
64,192,153164,1,0,0:0:0:0:
320,192,153164,1,0,0:0:0:0:
192,192,153329,1,0,0:0:0:0:
448,192,153329,1,0,0:0:0:0:
64,192,153494,1,0,0:0:0:0:
320,192,153494,1,0,0:0:0:0:
448,192,153658,1,2,0:0:0:0:
192,192,153741,1,2,0:0:0:0:
320,192,153823,1,2,0:0:0:0:
64,192,153906,1,2,0:0:0:0:
448,192,153988,1,2,0:0:0:0:
192,192,154070,1,2,0:0:0:0:
320,192,154153,1,2,0:0:0:0:
64,192,154235,1,2,0:0:0:0:
448,192,154318,1,4,0:0:0:0:
192,192,154318,1,4,0:0:0:0:
320,192,155142,1,0,0:0:0:0:
64,192,155142,1,0,0:0:0:0:
192,192,155307,1,0,0:0:0:0:
448,192,155307,1,0,0:0:0:0:
64,192,155472,1,0,0:0:0:0:
320,192,155472,1,0,0:0:0:0:
448,192,155636,1,0,0:0:0:0:
64,192,155636,1,0,0:0:0:0:
192,192,155801,1,0,0:0:0:0:
320,192,155884,1,0,0:0:0:0:
448,192,155966,1,8,0:0:0:0:
64,192,155966,1,0,0:0:0:0:
320,192,156131,1,0,0:0:0:0:
192,192,156213,1,0,0:0:0:0:
64,192,156296,1,0,0:0:0:0:
448,192,156296,1,0,0:0:0:0:
320,192,156461,1,0,0:0:0:0:
192,192,156625,1,8,0:0:0:0:
64,192,156625,1,0,0:0:0:0:
448,192,156790,1,0,0:0:0:0:
64,192,156955,1,0,0:0:0:0:
320,192,157120,1,0,0:0:0:0:
192,192,157285,1,8,0:0:0:0:
448,192,157285,1,0,0:0:0:0:
320,192,157450,1,0,0:0:0:0:
64,192,157614,1,0,0:0:0:0:
192,192,157779,1,0,0:0:0:0:
448,192,157944,1,8,0:0:0:0:
64,192,157944,1,0,0:0:0:0:
320,192,158109,1,0,0:0:0:0:
192,192,158274,128,0,158603:0:0:0:0:
64,192,158274,1,0,0:0:0:0:
320,192,158439,1,0,0:0:0:0:
64,192,158603,1,8,0:0:0:0:
448,192,158603,1,0,0:0:0:0:
320,192,158768,1,0,0:0:0:0:
320,192,158933,128,0,159263:0:0:0:0:
64,192,158933,1,0,0:0:0:0:
192,192,159098,1,0,0:0:0:0:
448,192,159263,1,8,0:0:0:0:
64,192,159263,1,0,0:0:0:0:
192,192,159428,1,0,0:0:0:0:
320,192,159592,1,2,0:0:0:0:
448,192,159675,1,2,0:0:0:0:
192,192,159757,1,2,0:0:0:0:
64,192,159840,1,2,0:0:0:0:
320,192,159922,1,10,0:0:0:0:
192,192,160005,1,2,0:0:0:0:
448,192,160087,1,2,0:0:0:0:
320,192,160169,1,2,0:0:0:0:
64,192,160252,1,2,0:0:0:0:
192,192,160334,1,2,0:0:0:0:
448,192,160417,1,2,0:0:0:0:
64,192,160499,1,2,0:0:0:0:
320,192,160581,1,10,0:0:0:0:
192,192,160664,1,2,0:0:0:0:
448,192,160746,1,2,0:0:0:0:
64,192,160829,1,2,0:0:0:0:
192,192,160911,1,0,0:0:0:0:
448,192,160911,1,0,0:0:0:0:
320,192,161076,1,0,0:0:0:0:
192,192,161158,1,0,0:0:0:0:
64,192,161241,1,0,0:0:0:0:
448,192,161241,1,8,0:0:0:0:
320,192,161406,1,0,0:0:0:0:
448,192,161488,1,0,0:0:0:0:
192,192,161570,1,0,0:0:0:0:
64,192,161570,1,0,0:0:0:0:
320,192,161735,1,0,0:0:0:0:
192,192,161900,1,8,0:0:0:0:
64,192,161900,1,0,0:0:0:0:
448,192,162065,1,0,0:0:0:0:
64,192,162230,1,0,0:0:0:0:
320,192,162230,1,0,0:0:0:0:
192,192,162395,1,0,0:0:0:0:
320,192,162559,1,8,0:0:0:0:
448,192,162559,1,0,0:0:0:0:
64,192,162724,1,0,0:0:0:0:
192,192,162889,1,0,0:0:0:0:
64,192,163054,1,0,0:0:0:0:
192,192,163219,1,8,0:0:0:0:
448,192,163219,1,0,0:0:0:0:
320,192,163384,1,0,0:0:0:0:
64,192,163548,1,0,0:0:0:0:
448,192,163548,128,0,163878:0:0:0:0:
192,192,163713,1,0,0:0:0:0:
320,192,163878,1,8,0:0:0:0:
64,192,163878,128,0,164208:0:0:0:0:
192,192,164043,1,0,0:0:0:0:
448,192,164208,1,0,0:0:0:0:
320,192,164208,128,0,164538:0:0:0:0:
192,192,164373,1,0,0:0:0:0:
64,192,164538,1,0,0:0:0:0:
192,192,164538,128,8,164867:0:0:0:0:
448,192,164702,1,0,0:0:0:0:
64,192,164867,1,2,0:0:0:0:
192,192,164950,1,2,0:0:0:0:
320,192,165032,1,2,0:0:0:0:
64,192,165114,1,2,0:0:0:0:
320,192,165197,1,10,0:0:0:0:
448,192,165279,1,2,0:0:0:0:
192,192,165362,1,2,0:0:0:0:
448,192,165444,1,2,0:0:0:0:
320,192,165527,1,2,0:0:0:0:
64,192,165609,1,2,0:0:0:0:
192,192,165691,1,2,0:0:0:0:
320,192,165774,1,2,0:0:0:0:
64,192,165856,1,10,0:0:0:0:
448,192,165939,1,2,0:0:0:0:
320,192,166021,1,2,0:0:0:0:
64,192,166103,1,2,0:0:0:0:
192,192,166186,1,0,0:0:0:0:
448,192,166186,1,0,0:0:0:0:
320,192,166351,1,0,0:0:0:0:
192,192,166433,1,0,0:0:0:0:
64,192,166516,1,0,0:0:0:0:
448,192,166516,1,8,0:0:0:0:
192,192,166680,1,0,0:0:0:0:
64,192,166763,1,0,0:0:0:0:
320,192,166845,1,0,0:0:0:0:
448,192,166845,1,0,0:0:0:0:
192,192,167010,1,0,0:0:0:0:
320,192,167175,1,8,0:0:0:0:
448,192,167175,1,0,0:0:0:0:
64,192,167340,1,0,0:0:0:0:
320,192,167505,1,0,0:0:0:0:
192,192,167669,1,0,0:0:0:0:
448,192,167834,1,8,0:0:0:0:
64,192,167834,1,0,0:0:0:0:
192,192,167999,1,0,0:0:0:0:
320,192,168164,1,0,0:0:0:0:
64,192,168329,1,0,0:0:0:0:
320,192,168494,1,8,0:0:0:0:
192,192,168494,1,0,0:0:0:0:
448,192,168658,1,0,0:0:0:0:
192,192,168823,128,0,168988:0:0:0:0:
320,192,168823,1,0,0:0:0:0:
448,192,168988,128,0,169153:0:0:0:0:
64,192,168988,1,0,0:0:0:0:
320,192,169153,128,8,169318:0:0:0:0:
192,192,169153,1,0,0:0:0:0:
64,192,169318,128,0,169483:0:0:0:0:
448,192,169318,1,0,0:0:0:0:
192,192,169483,128,0,169647:0:0:0:0:
320,192,169483,1,0,0:0:0:0:
448,192,169647,128,0,169812:0:0:0:0:
64,192,169647,1,0,0:0:0:0:
320,192,169812,128,8,169977:0:0:0:0:
192,192,169812,1,0,0:0:0:0:
64,192,169977,128,0,170142:0:0:0:0:
448,192,169977,1,0,0:0:0:0:
192,192,170142,1,2,0:0:0:0:
448,192,170224,1,2,0:0:0:0:
320,192,170307,1,2,0:0:0:0:
192,192,170389,1,2,0:0:0:0:
320,192,170472,1,10,0:0:0:0:
64,192,170554,1,2,0:0:0:0:
192,192,170636,1,2,0:0:0:0:
448,192,170719,1,2,0:0:0:0:
64,192,170801,1,2,0:0:0:0:
320,192,170884,1,2,0:0:0:0:
192,192,170966,1,2,0:0:0:0:
448,192,171048,1,2,0:0:0:0:
64,192,171131,1,10,0:0:0:0:
192,192,171213,1,2,0:0:0:0:
320,192,171296,1,2,0:0:0:0:
192,192,171378,1,2,0:0:0:0:
448,192,171461,1,0,0:0:0:0:
64,192,171461,1,0,0:0:0:0:
320,192,171625,1,0,0:0:0:0:
192,192,171708,1,0,0:0:0:0:
64,192,171790,1,0,0:0:0:0:
448,192,171790,1,8,0:0:0:0:
320,192,171955,1,0,0:0:0:0:
192,192,172038,1,0,0:0:0:0:
64,192,172120,1,0,0:0:0:0:
448,192,172120,1,0,0:0:0:0:
320,192,172285,1,0,0:0:0:0:
64,192,172450,1,8,0:0:0:0:
448,192,172450,1,0,0:0:0:0:
192,192,172614,1,0,0:0:0:0:
448,192,172779,1,0,0:0:0:0:
320,192,172944,1,0,0:0:0:0:
64,192,173109,1,8,0:0:0:0:
448,192,173109,1,0,0:0:0:0:
192,192,173274,1,0,0:0:0:0:
448,192,173439,1,0,0:0:0:0:
320,192,173603,1,0,0:0:0:0:
448,192,173768,1,8,0:0:0:0:
192,192,173768,1,0,0:0:0:0:
64,192,173933,1,0,0:0:0:0:
320,192,174098,128,0,174428:0:0:0:0:
192,192,174098,1,0,0:0:0:0:
448,192,174263,1,0,0:0:0:0:
64,192,174428,1,8,0:0:0:0:
192,192,174428,1,0,0:0:0:0:
448,192,174592,1,0,0:0:0:0:
192,192,174757,128,0,175087:0:0:0:0:
320,192,174757,1,0,0:0:0:0:
448,192,174922,1,0,0:0:0:0:
320,192,175087,1,8,0:0:0:0:
64,192,175087,1,0,0:0:0:0:
448,192,175252,1,0,0:0:0:0:
192,192,175417,1,2,0:0:0:0:
320,192,175499,1,2,0:0:0:0:
64,192,175581,1,2,0:0:0:0:
192,192,175664,1,2,0:0:0:0:
448,192,175746,1,10,0:0:0:0:
320,192,175829,1,2,0:0:0:0:
64,192,175911,1,2,0:0:0:0:
448,192,175994,1,2,0:0:0:0:
192,192,176076,1,2,0:0:0:0:
320,192,176158,1,2,0:0:0:0:
64,192,176241,1,2,0:0:0:0:
448,192,176323,1,2,0:0:0:0:
192,192,176406,1,10,0:0:0:0:
320,192,176488,1,2,0:0:0:0:
64,192,176570,1,2,0:0:0:0:
448,192,176653,1,2,0:0:0:0:
192,192,176735,128,0,177065:0:0:0:0:
320,192,176735,1,0,0:0:0:0:
320,192,177065,128,0,177395:0:0:0:0:
64,192,177065,1,0,0:0:0:0:
64,192,177395,128,0,177724:0:0:0:0:
448,192,177395,1,0,0:0:0:0:
448,192,177724,128,0,178054:0:0:0:0:
192,192,177724,1,0,0:0:0:0:
192,192,178054,128,0,178384:0:0:0:0:
320,192,178054,1,0,0:0:0:0:
448,192,178384,128,0,178713:0:0:0:0:
64,192,178384,1,0,0:0:0:0:
64,192,178713,128,0,179043:0:0:0:0:
320,192,178713,1,0,0:0:0:0:
192,192,179373,128,0,180032:0:0:0:0:
320,192,179373,1,0,0:0:0:0:
448,192,179538,1,0,0:0:0:0:
64,192,179702,1,0,0:0:0:0:
320,192,179867,1,0,0:0:0:0:
64,192,180032,1,0,0:0:0:0:
448,192,180197,1,0,0:0:0:0:
192,192,180279,1,0,0:0:0:0:
320,192,180362,1,8,0:0:0:0:
64,192,180362,1,0,0:0:0:0:
192,192,180527,1,0,0:0:0:0:
320,192,180691,128,0,181351:0:0:0:0:
448,192,180691,1,0,0:0:0:0:
192,192,180856,1,0,0:0:0:0:
448,192,181021,1,0,0:0:0:0:
64,192,181186,1,0,0:0:0:0:
448,192,181351,1,0,0:0:0:0:
192,192,181516,1,0,0:0:0:0:
448,192,181598,1,0,0:0:0:0:
320,192,181680,1,8,0:0:0:0:
64,192,181680,1,0,0:0:0:0:
192,192,181845,1,0,0:0:0:0:
64,192,182010,128,0,182669:0:0:0:0:
448,192,182010,1,0,0:0:0:0:
192,192,182175,1,0,0:0:0:0:
320,192,182340,1,0,0:0:0:0:
192,192,182505,1,0,0:0:0:0:
448,192,182669,1,0,0:0:0:0:
192,192,182834,1,0,0:0:0:0:
64,192,182917,1,0,0:0:0:0:
320,192,182999,1,8,0:0:0:0:
448,192,182999,1,0,0:0:0:0:
64,192,183164,1,0,0:0:0:0:
448,192,183329,128,0,183823:0:0:0:0:
320,192,183329,1,0,0:0:0:0:
192,192,183494,1,0,0:0:0:0:
64,192,183658,1,0,0:0:0:0:
320,192,183906,1,0,0:0:0:0:
192,192,183988,128,0,184153:0:0:0:0:
320,192,184235,1,0,0:0:0:0:
448,192,184318,1,8,0:0:0:0:
64,192,184318,1,0,0:0:0:0:
320,192,184400,1,0,0:0:0:0:
192,192,184483,1,0,0:0:0:0:
64,192,184565,1,0,0:0:0:0:
320,192,184647,128,0,185142:0:0:0:0:
448,192,184977,1,0,0:0:0:0:
192,192,185224,1,0,0:0:0:0:
64,192,185307,128,0,185472:0:0:0:0:
192,192,185554,1,0,0:0:0:0:
320,192,185636,1,8,0:0:0:0:
64,192,185719,1,0,0:0:0:0:
192,192,185801,1,0,0:0:0:0:
320,192,185884,1,0,0:0:0:0:
448,192,185966,1,0,0:0:0:0:
64,192,185966,128,0,186131:0:0:0:0:
192,192,186213,1,0,0:0:0:0:
320,192,186296,1,0,0:0:0:0:
448,192,186378,1,0,0:0:0:0:
192,192,186461,1,0,0:0:0:0:
320,192,186543,1,0,0:0:0:0:
64,192,186625,1,0,0:0:0:0:
192,192,186708,1,0,0:0:0:0:
448,192,186790,1,0,0:0:0:0:
320,192,186873,1,0,0:0:0:0:
64,192,186955,1,8,0:0:0:0:
448,192,186955,1,0,0:0:0:0:
192,192,187038,1,0,0:0:0:0:
64,192,187120,1,0,0:0:0:0:
320,192,187202,1,0,0:0:0:0:
448,192,187285,128,0,187450:0:0:0:0:
192,192,187450,1,0,0:0:0:0:
320,192,187614,128,0,187779:0:0:0:0:
64,192,187779,128,0,187944:0:0:0:0:
448,192,187944,128,0,188109:0:0:0:0:
320,192,188191,1,0,0:0:0:0:
192,192,188274,128,8,188439:0:0:0:0:
448,192,188274,1,0,0:0:0:0:
64,192,188439,128,0,188603:0:0:0:0:
448,192,188603,1,0,0:0:0:0:
192,192,188768,1,0,0:0:0:0:
64,192,188933,1,0,0:0:0:0:
448,192,188933,1,0,0:0:0:0:
320,192,189098,1,0,0:0:0:0:
192,192,189263,1,0,0:0:0:0:
64,192,189263,1,0,0:0:0:0:
320,192,189428,1,0,0:0:0:0:
448,192,189510,1,0,0:0:0:0:
192,192,189592,1,0,0:0:0:0:
64,192,189757,1,0,0:0:0:0:
448,192,189922,1,0,0:0:0:0:
192,192,189922,1,0,0:0:0:0:
320,192,190087,1,0,0:0:0:0:
192,192,190252,1,0,0:0:0:0:
64,192,190252,1,0,0:0:0:0:
320,192,190417,1,0,0:0:0:0:
448,192,190499,1,0,0:0:0:0:
192,192,190581,1,0,0:0:0:0:
320,192,190746,1,0,0:0:0:0:
64,192,190911,1,0,0:0:0:0:
448,192,190911,1,0,0:0:0:0:
192,192,191076,1,0,0:0:0:0:
320,192,191241,1,0,0:0:0:0:
448,192,191241,1,0,0:0:0:0:
192,192,191406,1,0,0:0:0:0:
320,192,191488,1,0,0:0:0:0:
64,192,191570,1,0,0:0:0:0:
320,192,191735,1,0,0:0:0:0:
64,192,193219,1,0,0:0:0:50:C5S_s.wav
192,192,193301,1,0,0:0:0:50:E5S_s.wav
320,192,193384,1,0,0:0:0:50:G5S_s.wav
448,192,193466,1,0,0:0:0:50:D6S.wav
64,192,194702,1,0,0:0:0:45:D#7S_Eb7S.wav
192,192,195691,1,0,0:0:0:45:A#7S_Bb7S.wav
320,192,196516,1,0,0:0:0:45:D8S.wav
