osu file format v14

[General]
AudioFilename: lied.mp3
AudioLeadIn: 0
PreviewTime: 58054
Countdown: 0
SampleSet: Normal
StackLeniency: 0.7
Mode: 3
LetterboxInBreaks: 0
EpilepsyWarning: 1
SpecialStyle: 0
WidescreenStoryboard: 1

[Editor]
Bookmarks: 1351,14538,25087,35636,46186,58054,79153,87065,92340,97614,109483,130581,143768,155636,166186,176735,188603,196516
DistanceSpacing: 0.5
BeatDivisor: 2
GridSize: 8
TimelineZoom: 1.9

[Metadata]
Title:Hanairo Biyori
TitleUnicode:花色日和
Artist:Natsume Chiaki
ArtistUnicode:なつめ千秋
Creator:Kagu-chan
Version:Easy
Source:
Tags:thousands of gifts vocaloid2 hatsune miku niconico douga Hydria
BeatmapID:657932
BeatmapSetID:292306

[Difficulty]
HPDrainRate:6.5
CircleSize:4
OverallDifficulty:7
ApproachRate:5
SliderMultiplier:1.4
SliderTickRate:1

[Events]
//Background and Video events
0,0,"hiyorii.jpg",0,0
//Break Periods
//Storyboard Layer 0 (Background)
//Storyboard Layer 1 (Fail)
//Storyboard Layer 2 (Pass)
//Storyboard Layer 3 (Foreground)
//Storyboard Sound Samples

[TimingPoints]
14538,329.67032967033,4,1,4,30,1,0
23768,-100,4,1,4,25,0,0
25087,-100,4,1,1,30,0,0
34318,-100,4,1,1,35,0,0
35636,-100,4,1,1,30,0,0
40664,-100,4,1,1,5,0,0
40994,-100,4,1,1,30,0,0
46186,-100,4,2,1,35,0,0
55417,-100,4,1,1,35,0,0
55581,-100,4,1,1,33,0,0
55746,-100,4,1,1,31,0,0
55911,-100,4,1,1,29,0,0
56076,-100,4,1,1,25,0,0
56406,-100,4,1,1,40,0,0
56735,-100,4,1,1,5,0,0
56900,-100,4,1,1,7,0,0
57065,-100,4,1,1,15,0,0
57230,-100,4,1,1,20,0,0
57395,-100,4,1,1,25,0,0
57559,-100,4,1,1,30,0,0
57724,-100,4,1,1,35,0,0
57889,-100,4,1,1,40,0,0
58054,-100,4,2,1,45,0,1
62010,-100,4,1,1,40,0,1
62340,-100,4,2,2,40,0,1
62422,-100,4,1,1,40,0,1
62999,-100,4,2,2,40,0,1
63081,-100,4,1,1,40,0,1
63329,-100,4,2,1,45,0,1
67285,-100,4,2,1,40,0,1
68603,-100,4,2,1,45,0,1
72559,-100,4,1,1,40,0,1
72889,-100,4,2,2,40,0,1
72972,-100,4,1,1,40,0,1
73548,-100,4,2,2,40,0,1
73631,-100,4,1,1,40,0,1
73878,-100,4,2,1,45,0,1
77834,-100,4,2,1,40,0,1
79153,-100,4,1,0,20,0,0
81790,-100,4,1,4,30,0,0
87065,-100,4,1,4,15,0,0
88054,-100,4,1,4,15,0,0
88136,-100,4,1,4,15,0,0
89373,-100,4,1,4,15,0,0
89455,-100,4,1,4,15,0,0
90691,-100,4,1,4,15,0,0
90774,-100,4,1,4,15,0,0
92010,-100,4,1,4,15,0,0
92092,-100,4,1,4,15,0,0
92340,-100,4,1,2,30,0,0
97614,-100,4,2,1,35,0,0
106845,-100,4,1,1,35,0,0
107010,-100,4,1,1,33,0,0
107175,-100,4,1,1,31,0,0
107340,-100,4,1,1,29,0,0
107505,-100,4,1,1,25,0,0
107834,-100,4,1,1,40,0,0
108164,-100,4,1,1,5,0,0
108329,-100,4,1,1,7,0,0
108494,-100,4,1,1,15,0,0
108658,-100,4,1,1,20,0,0
108823,-100,4,1,1,25,0,0
108988,-100,4,1,1,30,0,0
109153,-100,4,1,1,35,0,0
109318,-100,4,1,1,40,0,0
109483,-100,4,2,1,45,0,1
113439,-100,4,1,1,40,0,1
113768,-100,4,2,2,40,0,1
113851,-100,4,1,1,40,0,1
114428,-100,4,2,2,40,0,1
114510,-100,4,1,1,40,0,1
114757,-100,4,2,1,45,0,1
118713,-100,4,2,1,40,0,1
120032,-100,4,2,1,45,0,1
123988,-100,4,1,1,40,0,1
124318,-100,4,2,2,40,0,1
124400,-100,4,1,1,40,0,1
124977,-100,4,2,2,40,0,1
125059,-100,4,1,1,40,0,1
125307,-100,4,2,1,45,0,1
129263,-100,4,2,1,40,0,1
130581,-100,4,1,0,20,0,0
133219,-100,4,2,0,15,0,0
143768,-100,4,1,3,30,0,0
149043,-100,4,1,3,32,0,0
150362,-100,4,1,3,34,0,0
151680,-100,4,1,3,36,0,0
152999,-100,4,1,1,40,0,0
154318,-100,4,1,0,40,0,0
155636,-100,4,2,1,45,0,1
159592,-100,4,1,1,40,0,1
159922,-100,4,2,2,40,0,1
160005,-100,4,1,1,40,0,1
160581,-100,4,2,2,40,0,1
160664,-100,4,1,1,40,0,1
160911,-100,4,2,1,45,0,1
164867,-100,4,2,1,40,0,1
166186,-100,4,2,1,45,0,1
170142,-100,4,1,1,40,0,1
170472,-100,4,2,2,40,0,1
170554,-100,4,1,1,40,0,1
171131,-100,4,2,2,40,0,1
171213,-100,4,1,1,40,0,1
171461,-100,4,2,1,45,0,1
175417,-100,4,2,1,40,0,1
176735,-100,4,1,0,20,0,0
179373,-100,4,1,2,30,0,0
188603,-100,4,1,2,25,0,0
193219,-100,4,1,2,10,0,0

[HitObjects]
64,192,14537,5,0,0:0:0:0:
448,192,14537,1,0,0:0:0:0:
320,192,14867,1,0,0:0:0:0:
192,192,15197,1,0,0:0:0:0:
64,192,15527,1,8,0:0:0:0:
320,192,15856,1,0,0:0:0:0:
448,192,16186,1,0,0:0:0:0:
192,192,16516,1,0,0:0:0:0:
320,192,16845,1,8,0:0:0:0:
64,192,17175,1,0,0:0:0:0:
192,192,17505,1,0,0:0:0:0:
320,192,17834,1,0,0:0:0:0:
192,192,18164,1,8,0:0:0:0:
448,192,18494,1,0,0:0:0:0:
320,192,18823,1,0,0:0:0:0:
192,192,19153,1,0,0:0:0:0:
320,192,19483,1,8,0:0:0:0:
64,192,19812,1,0,0:0:0:0:
320,192,20142,1,0,0:0:0:0:
192,192,20472,1,0,0:0:0:0:
320,192,20801,1,8,0:0:0:0:
448,192,21131,1,0,0:0:0:0:
192,192,21461,1,0,0:0:0:0:
64,192,21790,1,0,0:0:0:0:
320,192,22120,1,8,0:0:0:0:
192,192,22450,1,0,0:0:0:0:
448,192,22779,1,0,0:0:0:0:
320,192,23109,1,0,0:0:0:0:
192,192,23439,1,8,0:0:0:0:
64,192,23768,1,0,0:0:0:0:
448,192,23933,1,0,0:0:0:0:
192,192,24098,1,0,0:0:0:0:
320,192,24263,1,0,0:0:0:0:
64,192,24428,1,0,0:0:0:0:
192,192,24592,1,2,0:0:0:0:
320,192,24757,1,8,0:0:0:0:
448,192,24922,1,0,0:0:0:0:
192,192,25087,1,0,0:0:0:0:
320,192,25417,1,0,0:0:0:0:
448,192,25746,1,0,0:0:0:0:
192,192,26076,1,8,0:0:0:0:
64,192,26406,1,0,0:0:0:0:
192,192,26735,1,0,0:0:0:0:
320,192,27065,1,0,0:0:0:0:
64,192,27395,1,8,0:0:0:0:
192,192,27724,1,0,0:0:0:0:
320,192,28054,1,0,0:0:0:0:
192,192,28384,1,0,0:0:0:0:
448,192,28713,1,8,0:0:0:0:
320,192,29043,1,0,0:0:0:0:
192,192,29373,1,0,0:0:0:0:
320,192,29702,1,0,0:0:0:0:
64,192,30362,1,0,0:0:0:0:
192,192,30691,1,0,0:0:0:0:
320,192,31021,1,0,0:0:0:0:
64,192,31351,1,8,0:0:0:0:
192,192,31680,1,0,0:0:0:0:
320,192,32010,1,0,0:0:0:0:
448,192,32340,1,0,0:0:0:0:
192,192,32669,1,8,0:0:0:0:
64,192,32999,1,0,0:0:0:0:
448,192,33329,1,0,0:0:0:0:
192,192,33658,1,0,0:0:0:0:
320,192,33988,1,8,0:0:0:0:
64,192,34318,128,0,35636:0:0:0:0:
192,192,34647,1,2,0:0:0:0:
448,192,34977,1,2,0:0:0:0:
320,192,35307,1,8,0:0:0:0:
192,192,35636,1,0,0:0:0:0:
64,192,35966,1,0,0:0:0:0:
320,192,36296,1,0,0:0:0:0:
192,192,36625,1,8,0:0:0:0:
448,192,36955,1,0,0:0:0:0:
64,192,37285,1,0,0:0:0:0:
320,192,37614,1,0,0:0:0:0:
192,192,37944,1,8,0:0:0:0:
448,192,38274,1,0,0:0:0:0:
320,192,38603,1,0,0:0:0:0:
64,192,38933,1,0,0:0:0:0:
192,192,39263,1,8,0:0:0:0:
320,192,39592,1,0,0:0:0:0:
448,192,39922,1,0,0:0:0:0:
320,192,40252,128,0,40581:0:0:0:0:
64,192,40581,1,8,0:0:0:0:
192,192,40911,1,0,0:0:0:70:Taiko+2.wav
64,192,41241,1,0,0:0:0:0:
320,192,41570,1,0,0:0:0:0:
192,192,41900,1,8,0:0:0:0:
320,192,42230,1,0,0:0:0:0:
448,192,42559,1,0,0:0:0:0:
192,192,42889,1,0,0:0:0:0:
320,192,43219,1,8,0:0:0:0:
192,192,43548,1,0,0:0:0:0:
64,192,43878,1,0,0:0:0:0:
320,192,44208,1,0,0:0:0:0:
192,192,44538,1,8,0:0:0:0:
448,192,44867,1,0,0:0:0:0:
64,192,45197,1,0,0:0:0:0:
320,192,45527,1,2,0:0:0:0:
192,192,45856,1,10,0:0:0:0:
448,192,46186,1,0,0:0:0:0:
64,192,46186,1,0,0:0:0:0:
320,192,46845,1,0,0:0:0:0:
192,192,47505,1,0,0:0:0:0:
64,192,48164,1,0,0:0:0:0:
192,192,48494,1,8,0:0:0:0:
64,192,48823,1,0,0:0:0:0:
448,192,48823,1,0,0:0:0:0:
320,192,49483,1,0,0:0:0:0:
192,192,50142,1,0,0:0:0:0:
448,192,50801,1,0,0:0:0:0:
320,192,51131,1,8,0:0:0:0:
64,192,51461,1,0,0:0:0:0:
448,192,51461,1,0,0:0:0:0:
192,192,52120,1,0,0:0:0:0:
448,192,52779,1,0,0:0:0:0:
320,192,53439,1,0,0:0:0:0:
448,192,53768,1,8,0:0:0:0:
64,192,53768,1,0,0:0:0:0:
192,192,54098,1,0,0:0:0:0:
64,192,54428,1,0,0:0:0:0:
448,192,54757,1,0,0:0:0:0:
320,192,55087,1,8,0:0:0:0:
64,192,55417,1,0,0:0:0:0:
320,192,55746,1,0,0:0:0:0:
192,192,56076,1,0,0:0:0:0:
448,192,56406,1,0,0:0:0:0:
64,192,56735,1,0,0:0:0:0:
192,192,56900,1,0,0:0:0:0:
320,192,57065,1,0,0:0:0:0:
448,192,57230,1,0,0:0:0:0:
64,192,57395,1,0,0:0:0:0:
192,192,57559,1,0,0:0:0:0:
320,192,57724,1,0,0:0:0:0:
448,192,57889,1,0,0:0:0:0:
192,192,58054,1,0,0:0:0:0:
64,192,58054,1,0,0:0:0:0:
448,192,58384,1,8,0:0:0:0:
64,192,58713,1,0,0:0:0:0:
320,192,59043,1,8,0:0:0:0:
192,192,59373,1,0,0:0:0:0:
448,192,59702,1,8,0:0:0:0:
320,192,60032,1,0,0:0:0:0:
192,192,60362,1,8,0:0:0:0:
64,192,60691,128,0,61021:0:0:0:0:
320,192,61021,1,8,0:0:0:0:
448,192,61351,128,0,61680:0:0:0:0:
192,192,61680,1,8,0:0:0:0:
64,192,62010,1,2,0:0:0:0:
192,192,62175,1,2,0:0:0:0:
320,192,62340,1,10,0:0:0:0:
448,192,62505,1,2,0:0:0:0:
64,192,62669,1,2,0:0:0:0:
192,192,62834,1,2,0:0:0:0:
320,192,62999,1,10,0:0:0:0:
448,192,63164,1,2,0:0:0:0:
64,192,63329,1,0,0:0:0:0:
320,192,63658,1,8,0:0:0:0:
192,192,63988,1,0,0:0:0:0:
448,192,64318,1,8,0:0:0:0:
320,192,64647,1,0,0:0:0:0:
64,192,64977,1,8,0:0:0:0:
448,192,65307,1,0,0:0:0:0:
192,192,65636,1,8,0:0:0:0:
448,192,65966,128,0,66296:0:0:0:0:
192,192,66296,1,8,0:0:0:0:
64,192,66625,128,0,66955:0:0:0:0:
320,192,66955,1,8,0:0:0:0:
448,192,67285,128,2,67614:0:0:0:0:
320,192,67614,128,10,67944:0:0:0:0:
192,192,67944,128,2,68274:0:0:0:0:
64,192,68274,128,10,68603:0:0:0:0:
320,192,68603,1,0,0:0:0:0:
192,192,68933,1,8,0:0:0:0:
320,192,69263,1,0,0:0:0:0:
64,192,69592,1,8,0:0:0:0:
320,192,69922,1,0,0:0:0:0:
192,192,70252,1,8,0:0:0:0:
448,192,70581,1,0,0:0:0:0:
64,192,70911,1,8,0:0:0:0:
320,192,71241,128,0,71570:0:0:0:0:
64,192,71570,1,8,0:0:0:0:
192,192,71900,128,0,72230:0:0:0:0:
448,192,72230,1,8,0:0:0:0:
448,192,72559,1,2,0:0:0:0:
192,192,72724,1,2,0:0:0:0:
320,192,72889,1,10,0:0:0:0:
64,192,73054,1,2,0:0:0:0:
448,192,73219,1,2,0:0:0:0:
192,192,73384,1,2,0:0:0:0:
320,192,73548,1,10,0:0:0:0:
64,192,73713,1,2,0:0:0:0:
448,192,73878,1,0,0:0:0:0:
320,192,74208,1,8,0:0:0:0:
192,192,74538,1,0,0:0:0:0:
320,192,74867,1,8,0:0:0:0:
64,192,75197,1,0,0:0:0:0:
192,192,75527,1,8,0:0:0:0:
320,192,75856,1,0,0:0:0:0:
192,192,76186,1,8,0:0:0:0:
64,192,76516,1,0,0:0:0:0:
448,192,76516,1,0,0:0:0:0:
192,192,77175,1,0,0:0:0:0:
320,192,77175,1,0,0:0:0:0:
448,192,77834,128,2,78164:0:0:0:0:
320,192,78164,128,10,78494:0:0:0:0:
192,192,78494,128,2,78823:0:0:0:0:
64,192,78823,128,10,79153:0:0:0:0:
320,192,79153,128,0,79483:0:0:0:0:
192,192,79483,128,0,79812:0:0:0:0:
448,192,79812,128,0,80142:0:0:0:0:
64,192,80142,128,0,80472:0:0:0:0:
320,192,80472,128,0,80801:0:0:0:0:
192,192,80801,128,0,81131:0:0:0:0:
448,192,81131,128,0,81461:0:0:0:0:
64,192,81790,1,0,0:0:0:0:
320,192,81790,128,0,84428:0:0:0:0:
64,192,84428,1,0,0:0:0:0:
192,192,84757,1,0,0:0:0:0:
320,192,85087,1,0,0:0:0:0:
448,192,85417,1,0,0:0:0:0:
320,192,85746,1,0,0:0:0:0:
192,192,86076,1,0,0:0:0:0:
320,192,86406,1,0,0:0:0:0:
192,192,86735,1,0,0:0:0:0:
448,192,87065,1,0,0:0:0:0:
64,192,87559,1,0,0:0:0:0:
320,192,87889,1,0,0:0:0:0:
448,192,88384,1,0,0:0:0:0:
64,192,88713,1,0,0:0:0:0:
192,192,89043,1,0,0:0:0:0:
448,192,89373,1,0,0:0:0:0:
64,192,89702,1,0,0:0:0:0:
320,192,90197,1,0,0:0:0:0:
64,192,90691,1,0,0:0:0:0:
448,192,91021,1,0,0:0:0:0:
64,192,91351,1,0,0:0:0:0:
320,192,91680,1,0,0:0:0:0:
192,192,92010,1,0,0:0:0:0:
64,192,92340,1,0,0:0:0:0:
448,192,92340,1,0,0:0:0:0:
320,192,92669,128,0,92999:0:0:0:0:
192,192,92999,1,0,0:0:0:0:
448,192,93329,1,8,0:0:0:0:
320,192,93658,1,0,0:0:0:0:
64,192,93658,1,0,0:0:0:0:
448,192,93988,1,0,0:0:0:0:
192,192,94318,1,0,0:0:0:0:
320,192,94647,1,8,0:0:0:0:
64,192,94977,1,0,0:0:0:0:
448,192,95636,1,0,0:0:0:0:
320,192,96296,1,0,0:0:0:0:
192,192,96625,1,0,0:0:0:0:
64,192,96955,1,0,0:0:0:0:
320,192,97285,1,8,0:0:0:0:
448,192,97614,1,0,0:0:0:0:
64,192,97614,1,0,0:0:0:0:
192,192,98274,1,0,0:0:0:0:
320,192,98933,1,0,0:0:0:0:
192,192,99263,1,0,0:0:0:0:
448,192,99592,1,0,0:0:0:0:
320,192,100252,1,0,0:0:0:0:
192,192,100252,1,0,0:0:0:0:
64,192,100911,1,0,0:0:0:0:
448,192,101570,1,0,0:0:0:0:
320,192,101900,1,0,0:0:0:0:
192,192,102230,1,0,0:0:0:0:
64,192,102889,1,0,0:0:0:0:
448,192,102889,1,0,0:0:0:0:
192,192,103219,1,0,0:0:0:0:
320,192,103548,1,0,0:0:0:0:
64,192,103878,1,8,0:0:0:0:
192,192,104208,1,0,0:0:0:0:
320,192,104538,1,0,0:0:0:0:
448,192,104867,1,0,0:0:0:0:
192,192,105197,1,8,0:0:0:0:
448,192,105527,1,0,0:0:0:0:
320,192,105856,1,0,0:0:0:0:
192,192,106186,1,0,0:0:0:0:
64,192,106516,1,8,0:0:0:0:
448,192,106845,128,0,107175:0:0:0:0:
320,192,107175,128,0,107505:0:0:0:0:
64,192,107505,128,0,107834:0:0:0:0:
448,192,107834,128,0,108164:0:0:0:0:
64,192,108164,1,0,0:0:0:0:
192,192,108329,1,0,0:0:0:0:
320,192,108494,1,0,0:0:0:0:
448,192,108658,1,0,0:0:0:0:
64,192,108823,1,0,0:0:0:0:
192,192,108988,1,0,0:0:0:0:
320,192,109153,1,0,0:0:0:0:
448,192,109318,1,0,0:0:0:0:
192,192,109483,1,0,0:0:0:0:
64,192,109483,1,0,0:0:0:0:
320,192,109812,1,8,0:0:0:0:
64,192,110142,1,0,0:0:0:0:
192,192,110472,1,8,0:0:0:0:
448,192,110801,1,0,0:0:0:0:
320,192,111131,1,8,0:0:0:0:
192,192,111461,1,0,0:0:0:0:
320,192,111790,1,8,0:0:0:0:
192,192,112120,128,0,112450:0:0:0:0:
448,192,112450,1,8,0:0:0:0:
320,192,112779,128,0,113109:0:0:0:0:
64,192,113109,1,8,0:0:0:0:
448,192,113439,1,2,0:0:0:0:
320,192,113603,1,2,0:0:0:0:
192,192,113768,1,10,0:0:0:0:
320,192,113933,1,2,0:0:0:0:
64,192,114098,1,2,0:0:0:0:
192,192,114263,1,2,0:0:0:0:
320,192,114428,1,10,0:0:0:0:
192,192,114592,1,2,0:0:0:0:
448,192,114757,1,0,0:0:0:0:
64,192,115087,1,8,0:0:0:0:
448,192,115417,1,0,0:0:0:0:
320,192,115746,1,8,0:0:0:0:
64,192,116076,1,0,0:0:0:0:
192,192,116406,1,8,0:0:0:0:
320,192,116735,1,0,0:0:0:0:
448,192,117065,1,8,0:0:0:0:
320,192,117395,128,0,117724:0:0:0:0:
64,192,117724,1,8,0:0:0:0:
192,192,118054,128,0,118384:0:0:0:0:
320,192,118384,1,8,0:0:0:0:
448,192,118713,128,2,119043:0:0:0:0:
320,192,119043,128,10,119373:0:0:0:0:
192,192,119373,128,2,119702:0:0:0:0:
64,192,119702,128,10,120032:0:0:0:0:
448,192,120032,1,0,0:0:0:0:
320,192,120362,1,8,0:0:0:0:
192,192,120691,1,0,0:0:0:0:
64,192,121021,1,8,0:0:0:0:
448,192,121351,1,0,0:0:0:0:
320,192,121680,1,8,0:0:0:0:
448,192,122010,1,0,0:0:0:0:
192,192,122340,1,8,0:0:0:0:
320,192,122669,128,0,122999:0:0:0:0:
64,192,122999,1,8,0:0:0:0:
192,192,123329,128,0,123658:0:0:0:0:
448,192,123658,1,8,0:0:0:0:
64,192,123988,1,2,0:0:0:0:
192,192,124153,1,2,0:0:0:0:
320,192,124318,1,10,0:0:0:0:
192,192,124483,1,2,0:0:0:0:
448,192,124647,1,2,0:0:0:0:
320,192,124812,1,2,0:0:0:0:
192,192,124977,1,10,0:0:0:0:
320,192,125142,1,2,0:0:0:0:
64,192,125307,1,0,0:0:0:0:
448,192,125636,1,8,0:0:0:0:
64,192,125966,1,0,0:0:0:0:
192,192,126296,1,8,0:0:0:0:
320,192,126625,1,0,0:0:0:0:
448,192,126955,1,8,0:0:0:0:
192,192,127285,1,0,0:0:0:0:
320,192,127614,1,8,0:0:0:0:
64,192,127944,1,0,0:0:0:0:
448,192,127944,1,0,0:0:0:0:
192,192,128603,1,0,0:0:0:0:
320,192,128603,1,0,0:0:0:0:
448,192,129263,128,2,129592:0:0:0:0:
320,192,129592,128,10,129922:0:0:0:0:
192,192,129922,128,2,130252:0:0:0:0:
64,192,130252,128,10,130581:0:0:0:0:
320,192,130581,1,0,0:0:0:0:
448,192,130911,1,0,0:0:0:0:
192,192,131241,1,0,0:0:0:0:
320,192,131570,1,0,0:0:0:0:
64,192,131900,1,0,0:0:0:0:
192,192,132230,1,0,0:0:0:0:
448,192,132559,128,0,132889:0:0:0:0:
320,192,133219,128,2,134702:0:0:0:0:
448,192,135197,128,0,135527:0:0:0:0:
192,192,135527,128,0,135856:0:0:0:0:
64,192,135856,128,2,137175:0:0:0:0:
192,192,137834,1,0,0:0:0:0:
320,192,138164,1,0,0:0:0:0:
448,192,138494,128,2,139812:0:0:0:0:
320,192,140472,128,0,140801:0:0:0:0:
64,192,140801,128,0,141131:0:0:0:0:
448,192,141131,128,2,142450:0:0:0:0:
320,192,143109,1,0,0:0:0:0:
192,192,143439,1,0,0:0:0:0:
64,192,143768,128,4,145087:0:0:0:0:
320,192,143768,1,0,0:0:0:0:
192,192,144098,1,0,0:0:0:0:
320,192,144428,1,0,0:0:0:0:
448,192,144757,1,8,0:0:0:0:
192,192,145087,1,0,0:0:0:0:
320,192,145417,1,0,0:0:0:0:
448,192,145746,1,0,0:0:0:0:
192,192,146076,1,8,0:0:0:0:
448,192,146406,128,0,147724:0:0:0:0:
192,192,146735,1,0,0:0:0:0:
64,192,147065,1,0,0:0:0:0:
320,192,147395,1,8,0:0:0:0:
192,192,147724,1,0,0:0:0:0:
320,192,148054,1,0,0:0:0:0:
448,192,148384,1,0,0:0:0:0:
192,192,148713,1,8,0:0:0:0:
64,192,149043,128,4,149702:0:0:0:0:
448,192,149043,1,0,0:0:0:0:
320,192,149373,1,0,0:0:0:0:
448,192,149702,1,0,0:0:0:0:
192,192,150032,1,8,0:0:0:0:
320,192,150362,128,0,151021:0:0:0:0:
64,192,150362,1,4,0:0:0:0:
192,192,150691,1,0,0:0:0:0:
448,192,151021,1,0,0:0:0:0:
192,192,151351,1,8,0:0:0:0:
448,192,151680,128,4,152340:0:0:0:0:
64,192,151680,1,0,0:0:0:0:
192,192,152010,1,0,0:0:0:0:
320,192,152340,1,0,0:0:0:0:
192,192,152669,1,8,0:0:0:0:
64,192,152999,128,0,154318:0:0:0:0:
320,192,152999,1,0,0:0:0:0:
448,192,153329,1,0,0:0:0:0:
320,192,153658,1,0,0:0:0:0:
192,192,153988,1,2,0:0:0:0:
320,192,154318,1,4,0:0:0:0:
448,192,155636,1,0,0:0:0:0:
192,192,155636,1,0,0:0:0:0:
320,192,155966,1,8,0:0:0:0:
64,192,156296,1,0,0:0:0:0:
192,192,156625,1,8,0:0:0:0:
320,192,156955,1,0,0:0:0:0:
192,192,157285,1,8,0:0:0:0:
448,192,157614,1,0,0:0:0:0:
320,192,157944,1,8,0:0:0:0:
192,192,158274,128,0,158603:0:0:0:0:
448,192,158603,1,8,0:0:0:0:
320,192,158933,128,0,159263:0:0:0:0:
64,192,159263,1,8,0:0:0:0:
448,192,159592,1,2,0:0:0:0:
320,192,159757,1,2,0:0:0:0:
192,192,159922,1,10,0:0:0:0:
64,192,160087,1,2,0:0:0:0:
192,192,160252,1,2,0:0:0:0:
320,192,160417,1,2,0:0:0:0:
448,192,160581,1,10,0:0:0:0:
320,192,160746,1,2,0:0:0:0:
192,192,160911,1,0,0:0:0:0:
64,192,161241,1,8,0:0:0:0:
192,192,161570,1,0,0:0:0:0:
320,192,161900,1,8,0:0:0:0:
448,192,162230,1,0,0:0:0:0:
320,192,162559,1,8,0:0:0:0:
192,192,162889,1,0,0:0:0:0:
64,192,163219,1,8,0:0:0:0:
448,192,163548,128,0,163878:0:0:0:0:
192,192,163878,1,8,0:0:0:0:
64,192,164208,128,0,164538:0:0:0:0:
320,192,164538,1,8,0:0:0:0:
448,192,164867,128,2,165197:0:0:0:0:
320,192,165197,128,10,165527:0:0:0:0:
192,192,165527,128,2,165856:0:0:0:0:
64,192,165856,128,10,166186:0:0:0:0:
320,192,166186,1,0,0:0:0:0:
448,192,166516,1,8,0:0:0:0:
192,192,166845,1,0,0:0:0:0:
320,192,167175,1,8,0:0:0:0:
64,192,167505,1,0,0:0:0:0:
448,192,167834,1,8,0:0:0:0:
192,192,168164,1,0,0:0:0:0:
320,192,168494,1,8,0:0:0:0:
448,192,168823,128,0,169153:0:0:0:0:
192,192,169153,1,8,0:0:0:0:
64,192,169483,128,0,169812:0:0:0:0:
320,192,169812,1,8,0:0:0:0:
448,192,170142,1,2,0:0:0:0:
320,192,170307,1,2,0:0:0:0:
64,192,170472,1,10,0:0:0:0:
192,192,170636,1,2,0:0:0:0:
448,192,170801,1,2,0:0:0:0:
64,192,170966,1,2,0:0:0:0:
320,192,171131,1,10,0:0:0:0:
192,192,171296,1,2,0:0:0:0:
448,192,171461,1,0,0:0:0:0:
192,192,171790,1,8,0:0:0:0:
320,192,172120,1,0,0:0:0:0:
448,192,172450,1,8,0:0:0:0:
320,192,172779,1,0,0:0:0:0:
64,192,173109,1,8,0:0:0:0:
192,192,173439,1,0,0:0:0:0:
320,192,173768,1,8,0:0:0:0:
64,192,174098,1,0,0:0:0:0:
448,192,174098,1,0,0:0:0:0:
320,192,174757,1,0,0:0:0:0:
192,192,174757,1,0,0:0:0:0:
448,192,175417,128,2,175746:0:0:0:0:
320,192,175746,128,10,176076:0:0:0:0:
192,192,176076,128,2,176406:0:0:0:0:
64,192,176406,128,10,176735:0:0:0:0:
320,192,176735,1,0,0:0:0:0:
64,192,177065,1,0,0:0:0:0:
448,192,177395,1,0,0:0:0:0:
192,192,177724,1,0,0:0:0:0:
320,192,178054,1,0,0:0:0:0:
64,192,178384,1,0,0:0:0:0:
448,192,178713,1,0,0:0:0:0:
320,192,179373,128,0,182010:0:0:0:0:
64,192,179373,1,0,0:0:0:0:
64,192,182010,1,0,0:0:0:0:
192,192,182340,1,0,0:0:0:0:
448,192,182669,1,0,0:0:0:0:
320,192,182999,1,8,0:0:0:0:
64,192,183329,1,0,0:0:0:0:
192,192,183658,1,0,0:0:0:0:
320,192,183988,1,0,0:0:0:0:
448,192,184318,1,8,0:0:0:0:
320,192,184647,1,0,0:0:0:0:
64,192,184977,1,0,0:0:0:0:
192,192,185307,1,0,0:0:0:0:
448,192,185636,1,8,0:0:0:0:
320,192,185966,1,0,0:0:0:0:
64,192,186296,1,0,0:0:0:0:
192,192,186625,1,0,0:0:0:0:
320,192,186955,1,8,0:0:0:0:
448,192,187285,1,0,0:0:0:0:
64,192,187614,1,0,0:0:0:0:
192,192,187944,1,0,0:0:0:0:
320,192,188274,1,8,0:0:0:0:
64,192,188603,1,0,0:0:0:0:
192,192,188768,1,0,0:0:0:0:
320,192,188933,1,0,0:0:0:0:
448,192,189098,1,0,0:0:0:0:
192,192,189263,1,0,0:0:0:0:
64,192,189592,1,0,0:0:0:0:
448,192,189757,1,0,0:0:0:0:
320,192,189922,1,0,0:0:0:0:
192,192,190087,1,0,0:0:0:0:
64,192,190252,1,0,0:0:0:0:
448,192,190581,1,0,0:0:0:0:
320,192,190746,1,0,0:0:0:0:
64,192,190911,1,0,0:0:0:0:
192,192,191076,1,0,0:0:0:0:
320,192,191241,1,0,0:0:0:0:
448,192,191570,1,0,0:0:0:0:
192,192,191735,1,0,0:0:0:0:
192,192,193219,1,0,0:0:0:50:C5S_s.wav
64,192,194702,1,0,0:0:0:45:D#7S_Eb7S.wav
192,192,195691,1,0,0:0:0:45:A#7S_Bb7S.wav
320,192,196516,1,0,0:0:0:45:D8S.wav
