osu file format v14

[General]
AudioFilename: audio.mp3
AudioLeadIn: 0
PreviewTime: 57394
Countdown: 0
SampleSet: Soft
StackLeniency: 0.7
Mode: 3
LetterboxInBreaks: 0
SpecialStyle: 0
WidescreenStoryboard: 1

[Editor]
Bookmarks: 1351,14538,25087,35636,46186,58054,79153,87065,92340,97614,109483,130581,143768,155636,166186,176735,188603,196516,199153
DistanceSpacing: 0.5
BeatDivisor: 4
GridSize: 8
TimelineZoom: 1.1

[Metadata]
Title:Hanairo Biyori
TitleUnicode:花色日和
Artist:Natsume Chiaki
ArtistUnicode:なつめ千秋
Creator:Asherz007
Version:Petal Rain
Source:
Tags:thousands of gifts vocaloid2 hatsune miku tailsdk Sooph big_z11 big z11 UnluckyCroco
BeatmapID:2065032
BeatmapSetID:987173

[Difficulty]
HPDrainRate:8.5
CircleSize:4
OverallDifficulty:8.5
ApproachRate:5
SliderMultiplier:1.4
SliderTickRate:1

[Events]
//Background and Video events
0,0,"bg.jpg",0,0
Video,0,"video.avi"
//Break Periods
//Storyboard Layer 0 (Background)
//Storyboard Layer 1 (Fail)
//Storyboard Layer 2 (Pass)
//Storyboard Layer 3 (Foreground)
//Storyboard Layer 4 (Overlay)
//Storyboard Sound Samples

[TimingPoints]
1351,329.67032967033,4,2,1,40,1,0
14537,-100,4,3,1,60,0,0
58054,-100,4,3,1,60,0,1
81131,-100,4,3,1,60,0,0
109482,-100,4,3,1,60,0,1
132559,-100,4,3,1,60,0,0
133219,-126.582278481013,4,2,1,40,0,0
143109,-116.279069767442,4,2,1,40,0,0
143438,-107.52688172043,4,2,1,40,0,0
143768,-100,4,3,1,60,0,0
155636,-100,4,3,1,60,0,1
178713,-100,4,3,1,60,0,0
193219,-100,4,2,1,40,0,0

[HitObjects]
64,192,1351,5,0,0:0:0:0:
448,192,1433,1,0,0:0:0:0:
320,192,1515,128,0,2944:0:0:0:0:
192,192,2944,1,0,0:0:0:0:
320,192,2999,1,0,0:0:0:0:
192,192,3054,1,0,0:0:0:0:
64,192,3109,128,0,4318:0:0:0:0:
320,192,4318,128,0,4592:0:0:0:0:
448,192,4592,128,0,4812:0:0:0:0:
64,192,4812,128,0,4977:0:0:0:0:
192,192,4977,1,0,0:0:0:0:
320,192,5059,1,0,0:0:0:0:
192,192,5142,1,0,0:0:0:0:
64,192,5224,128,0,5389:0:0:0:0:
448,192,5389,128,0,5636:0:0:0:0:
192,192,5636,128,0,6007:0:0:0:0:
64,192,6007,128,0,6502:0:0:0:0:
320,192,6502,1,0,0:0:0:0:
448,192,6543,128,0,7285:0:0:0:0:
320,192,7285,128,0,7394:0:0:0:0:
192,192,7394,128,0,7779:0:0:0:0:
64,192,7779,128,0,9263:0:0:0:0:
192,192,9922,128,0,10169:0:0:0:0:
320,192,10169,128,0,10471:0:0:0:0:
448,192,10471,128,0,10746:0:0:0:0:
64,192,10746,128,0,10966:0:0:0:0:
192,192,10966,128,0,11131:0:0:0:0:
320,192,11131,128,0,11405:0:0:0:0:
448,192,11405,128,0,11625:0:0:0:0:
64,192,11625,128,0,11900:0:0:0:0:
320,192,11900,1,0,0:0:0:0:
448,192,11927,1,0,0:0:0:0:
192,192,11955,128,0,14537:0:0:0:0:
64,192,14537,1,0,0:0:0:0:
320,192,14537,1,2,0:0:0:0:
448,192,14537,1,4,0:0:0:0:
192,192,14620,1,0,0:0:0:0:
320,192,14702,1,0,0:0:0:0:
448,192,14785,1,0,0:0:0:0:
192,192,14867,1,10,0:0:0:0:
64,192,14867,1,0,0:0:0:0:
320,192,14949,1,0,0:0:0:0:
64,192,15032,1,0,0:0:0:0:
192,192,15114,1,0,0:0:0:0:
320,192,15197,1,2,0:0:0:0:
448,192,15197,1,0,0:0:0:0:
192,192,15279,1,0,0:0:0:0:
64,192,15361,1,0,0:0:0:0:
448,192,15444,1,0,0:0:0:0:
320,192,15526,1,10,0:0:0:0:
64,192,15526,1,0,0:0:0:0:
192,192,15609,1,0,0:0:0:0:
320,192,15691,1,0,0:0:0:0:
448,192,15691,1,0,0:0:0:0:
192,192,15774,1,0,0:0:0:0:
64,192,15774,1,0,0:0:0:0:
320,192,15856,1,2,0:0:0:0:
448,192,15856,1,0,0:0:0:0:
64,192,15938,1,0,0:0:0:0:
192,192,16021,1,0,0:0:0:0:
320,192,16103,1,0,0:0:0:0:
64,192,16186,1,10,0:0:0:0:
448,192,16186,1,0,0:0:0:0:
192,192,16268,1,0,0:0:0:0:
320,192,16351,1,0,0:0:0:0:
448,192,16351,1,0,0:0:0:0:
192,192,16433,1,0,0:0:0:0:
64,192,16433,1,0,0:0:0:0:
320,192,16515,1,2,0:0:0:0:
448,192,16515,1,0,0:0:0:0:
64,192,16598,1,0,0:0:0:0:
192,192,16680,1,0,0:0:0:0:
448,192,16763,1,0,0:0:0:0:
64,192,16845,1,10,0:0:0:0:
320,192,16845,1,0,0:0:0:0:
192,192,16927,1,0,0:0:0:0:
320,192,17010,1,0,0:0:0:0:
448,192,17010,1,0,0:0:0:0:
192,192,17092,1,0,0:0:0:0:
64,192,17092,1,0,0:0:0:0:
320,192,17175,1,2,0:0:0:0:
448,192,17175,1,0,0:0:0:0:
64,192,17257,1,0,0:0:0:0:
192,192,17340,1,0,0:0:0:0:
320,192,17422,1,0,0:0:0:0:
192,192,17504,1,10,0:0:0:0:
448,192,17504,1,0,0:0:0:0:
64,192,17587,1,0,0:0:0:0:
320,192,17669,1,0,0:0:0:0:
192,192,17752,1,0,0:0:0:0:
64,192,17834,1,0,0:0:0:0:
448,192,17834,1,2,0:0:0:0:
320,192,17916,1,0,0:0:0:0:
192,192,17999,1,0,0:0:0:0:
64,192,18081,1,0,0:0:0:0:
320,192,18164,1,10,0:0:0:0:
448,192,18164,1,0,0:0:0:0:
192,192,18246,1,0,0:0:0:0:
64,192,18329,1,0,0:0:0:0:
320,192,18329,1,0,0:0:0:0:
192,192,18411,1,0,0:0:0:0:
448,192,18411,1,0,0:0:0:0:
64,192,18493,1,2,0:0:0:0:
320,192,18493,1,0,0:0:0:0:
448,192,18576,1,0,0:0:0:0:
192,192,18658,1,0,0:0:0:0:
320,192,18741,1,0,0:0:0:0:
64,192,18823,1,10,0:0:0:0:
448,192,18823,1,0,0:0:0:0:
192,192,18905,1,0,0:0:0:0:
320,192,18988,1,0,0:0:0:0:
448,192,18988,1,0,0:0:0:0:
192,192,19070,1,0,0:0:0:0:
64,192,19070,1,0,0:0:0:0:
320,192,19153,1,2,0:0:0:0:
448,192,19153,1,0,0:0:0:0:
64,192,19235,1,0,0:0:0:0:
192,192,19318,1,0,0:0:0:0:
320,192,19318,1,0,0:0:0:0:
448,192,19400,1,0,0:0:0:0:
64,192,19400,1,0,0:0:0:0:
192,192,19482,1,10,0:0:0:0:
320,192,19482,1,0,0:0:0:0:
448,192,19565,1,0,0:0:0:0:
192,192,19647,1,0,0:0:0:0:
64,192,19647,1,0,0:0:0:0:
320,192,19730,1,0,0:0:0:0:
448,192,19730,1,0,0:0:0:0:
192,192,19812,1,0,0:0:0:0:
64,192,19812,1,2,0:0:0:0:
320,192,19894,1,0,0:0:0:0:
448,192,19977,1,0,0:0:0:0:
192,192,20059,1,0,0:0:0:0:
64,192,20142,1,10,0:0:0:0:
320,192,20142,1,0,0:0:0:0:
448,192,20224,1,0,0:0:0:0:
192,192,20307,1,0,0:0:0:0:
64,192,20307,1,0,0:0:0:0:
320,192,20389,1,0,0:0:0:0:
448,192,20389,1,0,0:0:0:0:
192,192,20471,1,2,0:0:0:0:
64,192,20471,1,0,0:0:0:0:
448,192,20554,1,0,0:0:0:0:
320,192,20636,1,0,0:0:0:0:
192,192,20636,1,0,0:0:0:0:
64,192,20719,1,0,0:0:0:0:
448,192,20719,1,0,0:0:0:0:
320,192,20801,1,10,0:0:0:0:
192,192,20801,1,0,0:0:0:0:
64,192,20883,1,0,0:0:0:0:
320,192,20966,1,0,0:0:0:0:
448,192,20966,1,0,0:0:0:0:
192,192,21048,1,0,0:0:0:0:
320,192,21131,1,0,0:0:0:0:
448,192,21131,1,2,0:0:0:0:
192,192,21213,1,0,0:0:0:0:
448,192,21296,1,0,0:0:0:0:
64,192,21296,1,0,0:0:0:0:
320,192,21378,1,0,0:0:0:0:
192,192,21460,1,10,0:0:0:0:
448,192,21460,1,0,0:0:0:0:
64,192,21543,1,0,0:0:0:0:
192,192,21625,1,0,0:0:0:0:
320,192,21625,1,0,0:0:0:0:
64,192,21708,1,0,0:0:0:0:
320,192,21790,1,2,0:0:0:0:
448,192,21790,1,0,0:0:0:0:
192,192,21872,1,0,0:0:0:0:
64,192,21955,1,0,0:0:0:0:
448,192,21955,1,0,0:0:0:0:
320,192,22037,1,0,0:0:0:0:
448,192,22120,1,0,0:0:0:0:
192,192,22120,1,10,0:0:0:0:
320,192,22202,1,0,0:0:0:0:
64,192,22285,1,0,0:0:0:0:
192,192,22285,1,0,0:0:0:0:
448,192,22367,1,0,0:0:0:0:
320,192,22449,1,0,0:0:0:0:
64,192,22449,1,2,0:0:0:0:
192,192,22532,1,0,0:0:0:0:
448,192,22614,1,0,0:0:0:0:
64,192,22614,1,0,0:0:0:0:
320,192,22697,1,0,0:0:0:0:
192,192,22779,1,10,0:0:0:0:
64,192,22779,1,0,0:0:0:0:
448,192,22861,1,0,0:0:0:0:
320,192,22944,1,0,0:0:0:0:
64,192,23026,1,0,0:0:0:0:
320,192,23109,1,2,0:0:0:0:
448,192,23109,1,0,0:0:0:0:
192,192,23191,1,0,0:0:0:0:
64,192,23274,1,0,0:0:0:0:
320,192,23274,1,0,0:0:0:0:
448,192,23356,1,0,0:0:0:0:
192,192,23356,1,0,0:0:0:0:
64,192,23438,1,10,0:0:0:0:
320,192,23438,1,0,0:0:0:0:
448,192,23521,1,0,0:0:0:0:
192,192,23603,1,0,0:0:0:0:
320,192,23686,1,0,0:0:0:0:
64,192,23768,1,0,0:0:0:0:
448,192,23768,1,2,0:0:0:0:
192,192,23933,1,0,0:0:0:0:
448,192,23933,1,2,0:0:0:0:
320,192,24098,1,2,0:0:0:0:
64,192,24098,1,0,0:0:0:0:
64,192,24263,1,0,0:0:0:0:
192,192,24263,1,2,0:0:0:0:
320,192,24427,1,2,0:0:0:0:
448,192,24427,1,0,0:0:0:0:
448,192,24592,1,0,0:0:0:0:
64,192,24592,1,2,0:0:0:0:
192,192,24647,1,2,0:0:0:45:
320,192,24702,1,2,0:0:0:45:
64,192,24757,1,2,0:0:0:0:
448,192,24757,1,0,0:0:0:0:
320,192,24922,1,0,0:0:0:0:
192,192,24922,1,2,0:0:0:0:
192,192,25087,1,2,0:0:0:0:
64,192,25087,1,0,0:0:0:0:
64,192,25252,1,0,0:0:0:0:
320,192,25416,1,2,0:0:0:0:
448,192,25416,1,0,0:0:0:0:
320,192,25581,1,0,0:0:0:0:
192,192,25746,1,2,0:0:0:0:
448,192,25746,1,0,0:0:0:0:
192,192,25911,1,0,0:0:0:0:
320,192,25966,1,0,0:0:0:0:
192,192,26021,1,0,0:0:0:0:
64,192,26076,1,2,0:0:0:0:
448,192,26076,1,0,0:0:0:0:
448,192,26241,1,0,0:0:0:0:
320,192,26405,1,2,0:0:0:0:
192,192,26405,1,0,0:0:0:0:
320,192,26570,1,0,0:0:0:0:
64,192,26625,1,0,0:0:0:0:
320,192,26680,1,0,0:0:0:0:
448,192,26735,1,0,0:0:0:0:
192,192,26735,1,2,0:0:0:0:
192,192,26900,1,0,0:0:0:0:
320,192,27065,1,2,0:0:0:0:
448,192,27065,1,0,0:0:0:0:
64,192,27230,1,0,0:0:0:0:
320,192,27312,1,0,0:0:0:0:
192,192,27394,1,2,0:0:0:0:
448,192,27394,1,0,0:0:0:0:
448,192,27559,1,0,0:0:0:0:
320,192,27724,1,0,0:0:0:0:
64,192,27724,1,2,0:0:0:0:
192,192,27889,1,0,0:0:0:0:
64,192,28054,1,0,0:0:0:0:
448,192,28054,1,2,0:0:0:0:
448,192,28219,1,0,0:0:0:0:
64,192,28383,1,0,0:0:0:0:
192,192,28383,1,2,0:0:0:0:
64,192,28548,1,0,0:0:0:0:
448,192,28603,1,0,0:0:0:0:
64,192,28658,1,0,0:0:0:0:
192,192,28713,1,0,0:0:0:0:
320,192,28713,1,2,0:0:0:0:
320,192,28878,1,0,0:0:0:0:
192,192,29043,1,2,0:0:0:0:
448,192,29043,1,0,0:0:0:0:
192,192,29208,1,0,0:0:0:0:
320,192,29263,1,0,0:0:0:0:
192,192,29318,1,0,0:0:0:0:
64,192,29372,1,2,0:0:0:0:
448,192,29372,1,0,0:0:0:0:
448,192,29537,1,0,0:0:0:0:
320,192,29702,1,2,0:0:0:0:
192,192,29702,1,0,0:0:0:0:
64,192,29867,1,0,0:0:0:0:
192,192,30032,1,2,0:0:0:0:
448,192,30032,1,0,0:0:0:0:
320,192,30197,1,0,0:0:0:0:
448,192,30279,1,0,0:0:0:0:
192,192,30361,1,0,0:0:0:0:
64,192,30361,1,2,0:0:0:0:
192,192,30526,1,0,0:0:0:0:
320,192,30691,1,2,0:0:0:0:
64,192,30691,1,0,0:0:0:0:
320,192,30856,1,0,0:0:0:0:
64,192,31021,1,0,0:0:0:0:
448,192,31021,1,2,0:0:0:0:
64,192,31186,1,0,0:0:0:0:
320,192,31241,1,0,0:0:0:0:
64,192,31296,1,0,0:0:0:0:
192,192,31351,1,2,0:0:0:0:
448,192,31351,1,0,0:0:0:0:
448,192,31515,1,0,0:0:0:0:
192,192,31680,1,0,0:0:0:0:
320,192,31680,1,2,0:0:0:0:
192,192,31845,1,0,0:0:0:0:
448,192,31900,1,0,0:0:0:0:
192,192,31955,1,0,0:0:0:0:
64,192,32010,1,2,0:0:0:0:
320,192,32010,1,0,0:0:0:0:
320,192,32175,1,0,0:0:0:0:
192,192,32340,1,2,0:0:0:0:
64,192,32340,1,0,0:0:0:0:
320,192,32504,1,0,0:0:0:0:
448,192,32669,1,0,0:0:0:0:
64,192,32669,1,2,0:0:0:0:
64,192,32834,1,0,0:0:0:0:
320,192,32999,1,2,0:0:0:0:
448,192,32999,1,0,0:0:0:0:
192,192,33164,1,0,0:0:0:0:
64,192,33329,1,0,0:0:0:0:
320,192,33329,1,2,0:0:0:0:
320,192,33493,1,0,0:0:0:0:
448,192,33658,1,0,0:0:0:0:
64,192,33658,1,2,0:0:0:0:
64,192,33823,1,0,0:0:0:0:
320,192,33878,1,0,0:0:0:0:
64,192,33933,1,0,0:0:0:0:
192,192,33988,1,2,0:0:0:0:
448,192,33988,1,0,0:0:0:0:
448,192,34153,1,0,0:0:0:0:
64,192,34318,1,2,0:0:0:0:
192,192,34318,1,0,0:0:0:0:
192,192,34482,1,0,0:0:0:0:
320,192,34537,1,0,0:0:0:0:
192,192,34592,1,0,0:0:0:0:
64,192,34647,1,0,0:0:0:0:
448,192,34647,1,2,0:0:0:0:
448,192,34812,1,8,0:0:0:30:
192,192,34894,1,8,0:0:0:30:
64,192,34977,1,2,0:0:0:0:
320,192,34977,1,8,0:0:0:30:
448,192,35059,1,8,0:0:0:30:
192,192,35142,1,8,0:0:0:30:
320,192,35224,1,8,0:0:0:30:
64,192,35307,1,2,0:0:0:0:
192,192,35307,1,8,0:0:0:30:
448,192,35389,1,8,0:0:0:30:
320,192,35471,1,8,0:0:0:30:
192,192,35554,1,8,0:0:0:30:
64,192,35636,1,0,0:0:0:0:
320,192,35636,1,2,0:0:0:0:
448,192,35636,1,4,0:0:0:0:
320,192,35801,1,0,0:0:0:0:
192,192,35883,1,0,0:0:0:0:
64,192,35966,1,10,0:0:0:0:
448,192,35966,1,0,0:0:0:0:
448,192,36131,1,0,0:0:0:0:
64,192,36213,1,0,0:0:0:0:
192,192,36296,1,0,0:0:0:0:
320,192,36296,1,2,0:0:0:0:
320,192,36460,1,0,0:0:0:0:
64,192,36515,1,0,0:0:0:0:
320,192,36570,1,0,0:0:0:0:
192,192,36625,1,0,0:0:0:0:
448,192,36625,1,10,0:0:0:0:
192,192,36790,1,0,0:0:0:0:
320,192,36872,1,0,0:0:0:0:
64,192,36955,1,0,0:0:0:0:
448,192,36955,1,2,0:0:0:0:
64,192,37120,1,0,0:0:0:0:
320,192,37175,1,0,0:0:0:0:
64,192,37230,1,0,0:0:0:0:
448,192,37285,1,0,0:0:0:0:
192,192,37285,1,10,0:0:0:0:
448,192,37449,1,0,0:0:0:0:
192,192,37532,1,0,0:0:0:0:
64,192,37614,1,2,0:0:0:0:
320,192,37614,1,0,0:0:0:0:
192,192,37779,1,0,0:0:0:0:
320,192,37861,1,0,0:0:0:0:
448,192,37944,1,10,0:0:0:0:
64,192,37944,1,0,0:0:0:0:
64,192,38109,1,0,0:0:0:0:
320,192,38191,1,0,0:0:0:0:
192,192,38274,1,2,0:0:0:0:
448,192,38274,1,0,0:0:0:0:
64,192,38438,1,0,0:0:0:0:
192,192,38521,1,0,0:0:0:0:
320,192,38603,1,10,0:0:0:0:
448,192,38603,1,0,0:0:0:0:
448,192,38768,1,0,0:0:0:0:
192,192,38851,1,0,0:0:0:0:
64,192,38933,1,2,0:0:0:0:
320,192,38933,1,0,0:0:0:0:
64,192,39098,1,0,0:0:0:0:
448,192,39153,1,0,0:0:0:0:
64,192,39208,1,0,0:0:0:0:
192,192,39263,1,0,0:0:0:0:
320,192,39263,1,10,0:0:0:0:
320,192,39427,1,0,0:0:0:0:
448,192,39510,1,0,0:0:0:0:
192,192,39592,1,0,0:0:0:0:
64,192,39592,1,2,0:0:0:0:
192,192,39757,1,0,0:0:0:0:
320,192,39812,1,0,0:0:0:0:
192,192,39867,1,0,0:0:0:0:
448,192,39922,1,0,0:0:0:0:
64,192,39922,1,10,0:0:0:0:
448,192,40087,1,0,0:0:0:0:
192,192,40169,1,0,0:0:0:0:
320,192,40252,1,2,0:0:0:0:
64,192,40252,1,0,0:0:0:0:
192,192,40416,1,0,0:0:0:0:
64,192,40499,1,0,0:0:0:0:
320,192,40581,1,0,0:0:0:0:
448,192,40581,1,10,0:0:0:0:
192,192,40664,1,0,0:0:0:0:
320,192,40746,1,0,0:0:0:0:
192,192,40829,1,0,0:0:0:0:
64,192,40911,1,2,0:0:0:0:
448,192,40911,1,0,0:0:0:0:
448,192,41076,1,0,0:0:0:0:
320,192,41158,1,0,0:0:0:0:
192,192,41241,1,10,0:0:0:0:
64,192,41241,1,0,0:0:0:0:
192,192,41405,1,0,0:0:0:0:
320,192,41488,1,0,0:0:0:0:
448,192,41570,1,0,0:0:0:0:
64,192,41570,1,2,0:0:0:0:
448,192,41735,1,0,0:0:0:0:
192,192,41790,1,0,0:0:0:0:
448,192,41845,1,0,0:0:0:0:
320,192,41900,1,10,0:0:0:0:
64,192,41900,1,0,0:0:0:0:
64,192,42065,1,0,0:0:0:0:
448,192,42147,1,0,0:0:0:0:
320,192,42230,1,0,0:0:0:0:
192,192,42230,1,2,0:0:0:0:
320,192,42394,1,0,0:0:0:0:
64,192,42449,1,0,0:0:0:0:
320,192,42504,1,0,0:0:0:0:
192,192,42559,1,0,0:0:0:0:
448,192,42559,1,10,0:0:0:0:
192,192,42724,1,0,0:0:0:0:
320,192,42807,1,0,0:0:0:0:
64,192,42889,1,2,0:0:0:0:
448,192,42889,1,0,0:0:0:0:
320,192,43054,1,0,0:0:0:0:
192,192,43136,1,0,0:0:0:0:
64,192,43219,1,10,0:0:0:0:
448,192,43219,1,0,0:0:0:0:
448,192,43383,1,0,0:0:0:0:
320,192,43466,1,0,0:0:0:0:
192,192,43548,1,2,0:0:0:0:
64,192,43548,1,0,0:0:0:0:
320,192,43713,1,0,0:0:0:0:
64,192,43796,1,0,0:0:0:0:
192,192,43878,1,0,0:0:0:0:
448,192,43878,1,10,0:0:0:0:
192,192,44043,1,0,0:0:0:0:
320,192,44125,1,0,0:0:0:0:
64,192,44208,1,2,0:0:0:0:
448,192,44208,1,0,0:0:0:0:
448,192,44372,1,0,0:0:0:0:
64,192,44427,1,0,0:0:0:0:
448,192,44482,1,0,0:0:0:0:
320,192,44537,1,10,0:0:0:0:
192,192,44537,1,0,0:0:0:0:
192,192,44702,1,0,0:0:0:0:
64,192,44785,1,0,0:0:0:0:
320,192,44867,1,2,0:0:0:0:
448,192,44867,1,0,0:0:0:0:
320,192,45032,1,0,0:0:0:0:
192,192,45032,1,8,0:0:0:0:
64,192,45114,1,0,0:0:0:0:
192,192,45197,1,2,0:0:0:0:
448,192,45197,1,0,0:0:0:0:
64,192,45361,1,8,0:0:0:0:
448,192,45361,1,0,0:0:0:0:
320,192,45444,1,0,0:0:0:0:
64,192,45526,1,2,0:0:0:0:
192,192,45526,1,0,0:0:0:0:
320,192,45609,1,0,0:0:0:0:
448,192,45691,1,8,2:0:0:45:
64,192,45774,1,0,0:0:0:0:
192,192,45856,1,2,0:0:0:0:
448,192,45856,1,8,2:0:0:45:
320,192,45938,1,0,0:0:0:0:
64,192,46021,1,8,2:0:0:45:
448,192,46103,1,0,0:0:0:0:
320,192,46186,1,4,0:0:0:0:
192,192,46186,1,2,0:0:0:0:
64,192,46186,1,0,0:0:0:0:
448,192,46351,1,0,0:0:0:0:
192,192,46515,1,8,0:0:0:0:
64,192,46515,1,0,0:0:0:0:
320,192,46680,1,2,0:0:0:0:
192,192,46680,1,0,0:0:0:0:
320,192,46845,1,2,0:0:0:0:
448,192,46845,1,0,0:0:0:0:
192,192,47010,1,0,0:0:0:0:
64,192,47175,1,8,0:0:0:0:
320,192,47175,1,0,0:0:0:0:
192,192,47340,1,2,0:0:0:0:
320,192,47340,1,0,0:0:0:0:
448,192,47504,1,0,0:0:0:0:
64,192,47669,1,0,0:0:0:0:
320,192,47669,1,2,0:0:0:0:
192,192,47834,1,8,0:0:0:0:
64,192,47834,1,0,0:0:0:0:
192,192,47999,1,0,0:0:0:0:
448,192,47999,1,2,0:0:0:0:
320,192,48164,1,2,0:0:0:0:
448,192,48164,1,0,0:0:0:0:
192,192,48329,1,0,0:0:0:0:
64,192,48493,1,0,0:0:0:0:
448,192,48493,1,8,0:0:0:0:
320,192,48658,1,2,0:0:0:0:
64,192,48658,1,0,0:0:0:0:
320,192,48823,1,2,0:0:0:0:
192,192,48823,1,0,0:0:0:0:
448,192,48988,1,0,0:0:0:0:
64,192,49153,1,0,0:0:0:0:
320,192,49153,1,8,0:0:0:0:
320,192,49318,1,0,0:0:0:0:
192,192,49318,1,2,0:0:0:0:
192,192,49482,1,2,0:0:0:0:
448,192,49482,1,0,0:0:0:0:
320,192,49647,1,0,0:0:0:0:
64,192,49812,1,8,0:0:0:0:
448,192,49812,1,0,0:0:0:0:
64,192,49977,1,0,0:0:0:0:
192,192,49977,1,2,0:0:0:0:
320,192,50142,1,0,0:0:0:0:
192,192,50307,1,2,0:0:0:0:
448,192,50307,1,0,0:0:0:0:
448,192,50471,1,0,0:0:0:0:
320,192,50471,1,8,0:0:0:0:
320,192,50636,1,0,0:0:0:0:
192,192,50636,1,2,0:0:0:0:
192,192,50801,1,0,0:0:0:0:
64,192,50801,1,2,0:0:0:0:
448,192,50966,1,0,0:0:0:0:
192,192,51131,1,0,0:0:0:0:
64,192,51131,1,8,0:0:0:0:
192,192,51296,1,0,0:0:0:0:
320,192,51296,1,2,0:0:0:0:
320,192,51460,1,2,0:0:0:0:
448,192,51460,1,0,0:0:0:0:
192,192,51625,1,0,0:0:0:0:
64,192,51790,1,8,0:0:0:0:
448,192,51790,1,0,0:0:0:0:
192,192,51955,1,2,0:0:0:0:
448,192,51955,1,0,0:0:0:0:
320,192,52120,1,0,0:0:0:0:
192,192,52120,1,2,0:0:0:0:
64,192,52285,1,0,0:0:0:0:
320,192,52449,1,8,0:0:0:0:
448,192,52449,1,0,0:0:0:0:
192,192,52614,1,2,0:0:0:0:
64,192,52614,1,0,0:0:0:0:
448,192,52779,1,0,0:0:0:0:
320,192,52944,1,2,0:0:0:0:
64,192,52944,1,0,0:0:0:0:
192,192,53109,1,8,0:0:0:0:
320,192,53109,1,0,0:0:0:0:
192,192,53274,1,2,0:0:0:0:
448,192,53274,1,0,0:0:0:0:
448,192,53438,1,0,0:0:0:0:
64,192,53438,1,2,0:0:0:0:
192,192,53603,1,0,0:0:0:0:
320,192,53768,1,8,0:0:0:0:
448,192,53768,1,0,0:0:0:0:
320,192,53933,1,0,0:0:0:0:
64,192,53933,1,2,0:0:0:0:
64,192,54098,1,0,0:0:0:0:
192,192,54098,1,2,0:0:0:0:
192,192,54263,1,2,0:0:0:0:
320,192,54263,1,0,0:0:0:0:
320,192,54427,1,0,0:0:0:0:
64,192,54427,1,10,0:0:0:0:
64,192,54592,1,2,0:0:0:0:
448,192,54592,1,0,0:0:0:0:
448,192,54757,1,0,0:0:0:0:
320,192,54757,1,2,0:0:0:0:
320,192,54922,1,0,0:0:0:0:
192,192,54922,1,2,0:0:0:0:
192,192,55087,1,10,0:0:0:0:
448,192,55087,1,0,0:0:0:0:
64,192,55252,1,2,0:0:0:0:
448,192,55252,1,0,0:0:0:0:
192,192,55416,1,2,0:0:0:0:
64,192,55416,1,0,0:0:0:0:
192,192,55581,1,2,0:0:0:0:
64,192,55581,1,0,0:0:0:0:
320,192,55746,1,2,0:0:0:0:
448,192,55746,1,0,0:0:0:0:
448,192,55911,1,0,0:0:0:0:
320,192,55911,1,2,0:0:0:0:
64,192,56076,1,0,0:0:0:0:
192,192,56076,1,2,0:0:0:0:
320,192,56158,1,2,0:0:0:0:
448,192,56158,1,0,0:0:0:0:
192,192,56241,1,2,0:0:0:0:
64,192,56241,1,0,0:0:0:0:
320,192,56323,1,2,0:0:0:0:
448,192,56323,1,0,0:0:0:0:
64,192,56405,1,2,0:0:0:40:
192,192,56447,1,2,0:0:0:40:
320,192,56488,1,2,0:0:0:40:
448,192,56529,1,2,0:0:0:40:
64,192,56570,1,2,0:0:0:40:
192,192,56611,1,2,0:0:0:40:
320,192,56653,1,2,0:0:0:40:
448,192,56694,1,2,0:0:0:40:
64,192,56735,128,0,56900:0:0:0:0:
192,192,56735,1,2,0:0:0:0:
320,192,56900,128,0,57065:0:0:0:0:
448,192,57065,128,0,57230:0:0:0:0:
192,192,57230,128,0,57394:0:0:0:0:
320,192,57394,128,0,57559:0:0:0:0:
64,192,57559,1,0,0:0:0:0:
192,192,57559,1,0,0:0:0:0:
192,192,57724,1,0,0:0:0:0:
320,192,57724,1,0,0:0:0:0:
320,192,57889,1,0,0:0:0:0:
448,192,57889,1,0,0:0:0:0:
448,192,58054,1,4,0:0:0:0:
192,192,58054,1,2,0:0:0:0:
64,192,58054,1,0,0:0:0:0:
192,192,58219,1,0,0:0:0:0:
64,192,58219,1,0,0:0:0:0:
64,192,58301,1,0,0:0:0:0:
192,192,58301,1,0,0:0:0:0:
320,192,58383,1,10,0:0:0:0:
448,192,58383,1,0,0:0:0:0:
192,192,58548,1,0,0:0:0:0:
64,192,58548,1,0,0:0:0:0:
64,192,58631,1,0,0:0:0:0:
192,192,58631,1,0,0:0:0:0:
320,192,58713,1,2,0:0:0:0:
448,192,58713,1,0,0:0:0:0:
192,192,58796,1,0,0:0:0:0:
64,192,58878,1,0,0:0:0:0:
448,192,58878,1,0,0:0:0:0:
320,192,58960,1,0,0:0:0:0:
192,192,59043,1,10,0:0:0:0:
64,192,59043,1,0,0:0:0:0:
320,192,59125,1,0,0:0:0:0:
192,192,59208,1,0,0:0:0:0:
448,192,59208,1,0,0:0:0:0:
64,192,59290,1,0,0:0:0:0:
192,192,59372,1,0,0:0:0:0:
320,192,59372,1,2,0:0:0:0:
448,192,59455,1,0,0:0:0:0:
320,192,59537,1,0,0:0:0:0:
64,192,59537,1,0,0:0:0:0:
192,192,59620,1,0,0:0:0:0:
320,192,59702,1,10,0:0:0:0:
448,192,59702,1,0,0:0:0:0:
64,192,59785,1,0,0:0:0:0:
192,192,59867,1,0,0:0:0:0:
448,192,59867,1,0,0:0:0:0:
320,192,59949,1,0,0:0:0:0:
64,192,60032,1,2,0:0:0:0:
448,192,60032,1,0,0:0:0:0:
192,192,60114,1,0,0:0:0:0:
320,192,60197,1,0,0:0:0:0:
448,192,60197,1,0,0:0:0:0:
192,192,60279,1,0,0:0:0:0:
64,192,60361,1,0,0:0:0:0:
320,192,60361,1,10,0:0:0:0:
448,192,60444,1,0,0:0:0:0:
192,192,60526,1,0,0:0:0:0:
320,192,60526,1,0,0:0:0:0:
64,192,60609,1,0,0:0:0:0:
192,192,60691,1,2,0:0:0:0:
448,192,60691,1,0,0:0:0:0:
64,192,60774,1,0,0:0:0:0:
448,192,60856,1,0,0:0:0:0:
320,192,60856,1,0,0:0:0:0:
192,192,60938,1,0,0:0:0:0:
64,192,61021,1,0,0:0:0:0:
448,192,61021,1,10,0:0:0:0:
320,192,61103,1,0,0:0:0:0:
192,192,61186,1,0,0:0:0:0:
64,192,61186,1,0,0:0:0:0:
320,192,61268,1,0,0:0:0:0:
192,192,61351,1,2,0:0:0:0:
448,192,61351,1,0,0:0:0:0:
64,192,61433,1,0,0:0:0:0:
192,192,61515,1,0,0:0:0:0:
320,192,61515,1,0,0:0:0:0:
448,192,61598,1,0,0:0:0:0:
320,192,61680,1,10,0:0:0:0:
64,192,61680,1,0,0:0:0:0:
192,192,61763,1,0,0:0:0:0:
320,192,61845,1,0,0:0:0:0:
448,192,61845,1,0,0:0:0:0:
192,192,61927,1,0,0:0:0:0:
64,192,62010,1,2,0:0:0:0:
448,192,62010,1,0,0:0:0:0:
320,192,62092,1,0,0:0:0:0:
192,192,62175,1,0,0:0:0:0:
448,192,62257,1,0,0:0:0:0:
320,192,62340,1,10,0:0:0:0:
64,192,62340,1,0,0:0:0:0:
192,192,62422,1,0,0:0:0:0:
320,192,62504,1,0,0:0:0:0:
448,192,62587,1,0,0:0:0:0:
192,192,62669,1,2,0:0:0:0:
64,192,62669,1,0,0:0:0:0:
320,192,62752,1,0,0:0:0:0:
64,192,62834,1,0,0:0:0:0:
448,192,62834,1,0,0:0:0:0:
192,192,62916,1,0,0:0:0:0:
64,192,62999,1,0,0:0:0:0:
320,192,62999,1,10,0:0:0:0:
448,192,63081,1,0,0:0:0:0:
320,192,63164,1,0,0:0:0:0:
192,192,63164,1,0,0:0:0:0:
64,192,63246,1,0,0:0:0:0:
320,192,63329,1,2,0:0:0:0:
448,192,63329,1,0,0:0:0:0:
320,192,63493,1,0,0:0:0:0:
448,192,63493,1,0,0:0:0:0:
448,192,63576,1,0,0:0:0:0:
320,192,63576,1,0,0:0:0:0:
192,192,63658,1,10,0:0:0:0:
64,192,63658,1,0,0:0:0:0:
448,192,63823,1,0,0:0:0:0:
320,192,63823,1,0,0:0:0:0:
320,192,63905,1,0,0:0:0:0:
448,192,63905,1,0,0:0:0:0:
192,192,63988,1,0,0:0:0:0:
64,192,63988,1,2,0:0:0:0:
320,192,64070,1,0,0:0:0:0:
448,192,64153,1,0,0:0:0:0:
64,192,64153,1,0,0:0:0:0:
192,192,64235,1,0,0:0:0:0:
320,192,64318,1,10,0:0:0:0:
64,192,64318,1,0,0:0:0:0:
448,192,64400,1,0,0:0:0:0:
320,192,64482,1,0,0:0:0:0:
192,192,64482,1,0,0:0:0:0:
64,192,64565,1,0,0:0:0:0:
448,192,64647,1,0,0:0:0:0:
320,192,64647,1,2,0:0:0:0:
192,192,64730,1,0,0:0:0:0:
64,192,64812,1,0,0:0:0:0:
320,192,64812,1,0,0:0:0:0:
448,192,64894,1,0,0:0:0:0:
192,192,64977,1,10,0:0:0:0:
64,192,64977,1,0,0:0:0:0:
320,192,65059,1,0,0:0:0:0:
192,192,65142,1,0,0:0:0:0:
448,192,65142,1,0,0:0:0:0:
64,192,65224,1,0,0:0:0:0:
192,192,65307,1,0,0:0:0:0:
320,192,65307,1,2,0:0:0:0:
448,192,65389,1,0,0:0:0:0:
320,192,65471,1,0,0:0:0:0:
64,192,65471,1,0,0:0:0:0:
192,192,65554,1,0,0:0:0:0:
320,192,65636,1,10,0:0:0:0:
448,192,65636,1,0,0:0:0:0:
64,192,65719,1,0,0:0:0:0:
320,192,65801,1,0,0:0:0:0:
192,192,65801,1,0,0:0:0:0:
448,192,65883,1,0,0:0:0:0:
320,192,65966,1,0,0:0:0:0:
64,192,65966,1,2,0:0:0:0:
448,192,66048,1,0,0:0:0:0:
192,192,66131,1,0,0:0:0:0:
64,192,66131,1,0,0:0:0:0:
320,192,66213,1,0,0:0:0:0:
448,192,66296,1,10,0:0:0:0:
192,192,66296,1,0,0:0:0:0:
64,192,66378,1,0,0:0:0:0:
320,192,66460,1,0,0:0:0:0:
448,192,66460,1,0,0:0:0:0:
192,192,66543,1,0,0:0:0:0:
64,192,66625,1,2,0:0:0:0:
448,192,66625,1,0,0:0:0:0:
320,192,66708,1,0,0:0:0:0:
448,192,66790,1,0,0:0:0:0:
192,192,66790,1,0,0:0:0:0:
64,192,66872,1,0,0:0:0:0:
192,192,66955,1,0,0:0:0:0:
320,192,66955,1,10,0:0:0:0:
448,192,67037,1,0,0:0:0:0:
64,192,67120,1,0,0:0:0:0:
320,192,67120,1,0,0:0:0:0:
192,192,67202,1,0,0:0:0:0:
448,192,67285,1,0,0:0:0:0:
64,192,67285,1,2,0:0:0:0:
320,192,67367,1,0,0:0:0:0:
448,192,67449,1,8,2:0:0:45:
320,192,67532,1,0,0:0:0:0:
64,192,67614,1,8,2:0:0:45:
448,192,67614,1,10,0:0:0:0:
192,192,67697,1,0,0:0:0:0:
64,192,67779,1,8,2:0:0:45:
192,192,67861,1,0,0:0:0:0:
448,192,67944,1,2,0:0:0:0:
64,192,67944,1,8,2:0:0:45:
320,192,68026,1,0,0:0:0:0:
64,192,68109,1,0,0:0:0:0:
192,192,68109,1,0,0:0:0:0:
448,192,68191,1,0,0:0:0:0:
64,192,68274,1,10,0:0:0:0:
192,192,68274,1,0,0:0:0:0:
320,192,68356,1,8,0:0:0:0:
448,192,68356,1,0,0:0:0:0:
64,192,68438,1,0,0:0:0:0:
192,192,68438,1,8,0:0:0:0:
320,192,68521,1,0,0:0:0:0:
448,192,68603,1,4,0:0:0:0:
192,192,68603,1,2,0:0:0:0:
64,192,68603,1,0,0:0:0:0:
192,192,68768,1,0,0:0:0:0:
64,192,68768,1,0,0:0:0:0:
64,192,68851,1,0,0:0:0:0:
192,192,68851,1,0,0:0:0:0:
320,192,68933,1,10,0:0:0:0:
448,192,68933,1,0,0:0:0:0:
64,192,69098,1,0,0:0:0:0:
192,192,69098,1,0,0:0:0:0:
192,192,69180,1,0,0:0:0:0:
64,192,69180,1,0,0:0:0:0:
320,192,69263,1,2,0:0:0:0:
448,192,69263,1,0,0:0:0:0:
192,192,69345,1,0,0:0:0:0:
64,192,69427,1,0,0:0:0:0:
448,192,69427,1,0,0:0:0:0:
320,192,69510,1,0,0:0:0:0:
192,192,69592,1,10,0:0:0:0:
448,192,69592,1,0,0:0:0:0:
64,192,69675,1,0,0:0:0:0:
192,192,69757,1,0,0:0:0:0:
320,192,69757,1,0,0:0:0:0:
448,192,69840,1,0,0:0:0:0:
192,192,69922,1,0,0:0:0:0:
64,192,69922,1,2,0:0:0:0:
320,192,70004,1,0,0:0:0:0:
64,192,70087,1,0,0:0:0:0:
448,192,70087,1,0,0:0:0:0:
192,192,70169,1,0,0:0:0:0:
320,192,70252,1,10,0:0:0:0:
448,192,70252,1,0,0:0:0:0:
64,192,70334,1,0,0:0:0:0:
192,192,70416,1,0,0:0:0:0:
320,192,70416,1,0,0:0:0:0:
448,192,70499,1,0,0:0:0:0:
320,192,70581,1,0,0:0:0:0:
64,192,70581,1,2,0:0:0:0:
192,192,70664,1,0,0:0:0:0:
320,192,70746,1,0,0:0:0:0:
448,192,70746,1,0,0:0:0:0:
64,192,70829,1,0,0:0:0:0:
192,192,70911,1,0,0:0:0:0:
448,192,70911,1,10,0:0:0:0:
320,192,70993,1,0,0:0:0:0:
64,192,71076,1,0,0:0:0:0:
448,192,71076,1,0,0:0:0:0:
192,192,71158,1,0,0:0:0:0:
64,192,71241,1,0,0:0:0:0:
320,192,71241,1,2,0:0:0:0:
192,192,71323,1,0,0:0:0:0:
320,192,71405,1,0,0:0:0:0:
448,192,71405,1,0,0:0:0:0:
64,192,71488,1,0,0:0:0:0:
192,192,71570,1,10,0:0:0:0:
448,192,71570,1,0,0:0:0:0:
320,192,71653,1,0,0:0:0:0:
448,192,71735,1,0,0:0:0:0:
64,192,71735,1,0,0:0:0:0:
192,192,71818,1,0,0:0:0:0:
64,192,71900,1,0,0:0:0:0:
320,192,71900,1,2,0:0:0:0:
448,192,71982,1,0,0:0:0:0:
192,192,72065,1,0,0:0:0:0:
320,192,72065,1,0,0:0:0:0:
64,192,72147,1,0,0:0:0:0:
448,192,72230,1,0,0:0:0:0:
320,192,72230,1,10,0:0:0:0:
192,192,72312,1,0,0:0:0:0:
64,192,72394,1,0,0:0:0:0:
448,192,72394,1,0,0:0:0:0:
320,192,72477,1,0,0:0:0:0:
192,192,72559,1,0,0:0:0:0:
64,192,72559,1,2,0:0:0:0:
320,192,72642,1,0,0:0:0:0:
448,192,72724,1,0,0:0:0:0:
64,192,72807,1,0,0:0:0:0:
192,192,72889,1,10,0:0:0:0:
448,192,72889,1,0,0:0:0:0:
320,192,72971,1,0,0:0:0:0:
64,192,73054,1,0,0:0:0:0:
448,192,73136,1,0,0:0:0:0:
320,192,73219,1,2,0:0:0:0:
192,192,73219,1,0,0:0:0:0:
64,192,73301,1,0,0:0:0:0:
448,192,73383,1,0,0:0:0:0:
192,192,73383,1,0,0:0:0:0:
320,192,73466,1,0,0:0:0:0:
64,192,73548,1,10,0:0:0:0:
192,192,73548,1,0,0:0:0:0:
448,192,73631,1,0,0:0:0:0:
320,192,73713,1,0,0:0:0:0:
64,192,73713,1,0,0:0:0:0:
192,192,73796,1,0,0:0:0:0:
320,192,73878,1,2,0:0:0:0:
448,192,73878,1,0,0:0:0:0:
320,192,74043,1,0,0:0:0:0:
448,192,74043,1,0,0:0:0:0:
448,192,74125,1,0,0:0:0:0:
320,192,74125,1,0,0:0:0:0:
192,192,74208,1,0,0:0:0:0:
64,192,74208,1,10,0:0:0:0:
320,192,74372,1,0,0:0:0:0:
448,192,74372,1,0,0:0:0:0:
448,192,74455,1,0,0:0:0:0:
320,192,74455,1,0,0:0:0:0:
192,192,74537,1,2,0:0:0:0:
64,192,74537,1,0,0:0:0:0:
320,192,74620,1,0,0:0:0:0:
64,192,74702,1,0,0:0:0:0:
448,192,74702,1,0,0:0:0:0:
192,192,74785,1,0,0:0:0:0:
320,192,74867,1,10,0:0:0:0:
448,192,74867,1,0,0:0:0:0:
192,192,74949,1,0,0:0:0:0:
64,192,75032,1,0,0:0:0:0:
320,192,75032,1,0,0:0:0:0:
448,192,75114,1,0,0:0:0:0:
320,192,75197,1,0,0:0:0:0:
192,192,75197,1,2,0:0:0:0:
64,192,75279,1,0,0:0:0:0:
192,192,75361,1,0,0:0:0:0:
448,192,75361,1,0,0:0:0:0:
320,192,75444,1,0,0:0:0:0:
448,192,75526,1,10,0:0:0:0:
64,192,75526,1,0,0:0:0:0:
192,192,75609,1,0,0:0:0:0:
320,192,75691,1,0,0:0:0:0:
448,192,75691,1,0,0:0:0:0:
192,192,75774,1,0,0:0:0:0:
64,192,75856,1,2,0:0:0:0:
320,192,75856,1,0,0:0:0:0:
448,192,75938,1,0,0:0:0:0:
192,192,76021,1,0,0:0:0:0:
64,192,76021,1,0,0:0:0:0:
320,192,76103,1,0,0:0:0:0:
448,192,76186,1,0,0:0:0:0:
192,192,76186,1,10,0:0:0:0:
64,192,76268,1,0,0:0:0:0:
320,192,76351,1,0,0:0:0:0:
192,192,76351,1,0,0:0:0:0:
448,192,76433,1,0,0:0:0:0:
320,192,76515,1,2,0:0:0:0:
64,192,76515,1,0,0:0:0:0:
448,192,76598,1,0,0:0:0:0:
192,192,76680,1,0,0:0:0:0:
64,192,76680,1,0,0:0:0:0:
320,192,76763,1,0,0:0:0:0:
448,192,76845,1,0,0:0:0:0:
192,192,76845,1,10,0:0:0:0:
64,192,76927,1,0,0:0:0:0:
320,192,77010,1,0,0:0:0:0:
448,192,77010,1,0,0:0:0:0:
192,192,77092,1,0,0:0:0:0:
64,192,77175,1,0,0:0:0:0:
320,192,77175,1,2,0:0:0:0:
192,192,77257,1,0,0:0:0:0:
64,192,77340,1,0,0:0:0:0:
448,192,77340,1,0,0:0:0:0:
320,192,77422,1,0,0:0:0:0:
448,192,77504,1,0,0:0:0:0:
192,192,77504,1,10,0:0:0:0:
64,192,77587,1,0,0:0:0:0:
320,192,77669,1,0,0:0:0:0:
192,192,77669,1,0,0:0:0:0:
448,192,77752,1,0,0:0:0:0:
320,192,77834,1,0,0:0:0:0:
64,192,77834,1,2,0:0:0:0:
192,192,77916,1,0,0:0:0:0:
64,192,77999,1,0,0:0:0:0:
448,192,77999,1,8,2:0:0:45:
192,192,78081,1,0,0:0:0:0:
320,192,78164,1,8,2:0:0:45:
64,192,78164,1,10,0:0:0:0:
448,192,78246,1,0,0:0:0:0:
320,192,78329,1,8,2:0:0:45:
192,192,78329,1,0,0:0:0:0:
448,192,78411,1,0,0:0:0:0:
320,192,78493,1,8,2:0:0:45:
64,192,78493,1,2,0:0:0:0:
192,192,78576,1,0,0:0:0:0:
64,192,78658,1,8,2:0:0:45:
192,192,78741,1,0,0:0:0:0:
64,192,78823,1,10,0:0:0:0:
448,192,78823,1,8,2:0:0:45:
320,192,78905,1,0,0:0:0:0:
448,192,78988,1,8,2:0:0:45:
320,192,79070,1,0,0:0:0:0:
448,192,79153,1,4,0:0:0:0:
192,192,79153,1,2,0:0:0:0:
64,192,79153,1,0,0:0:0:0:
192,192,79318,1,0,0:0:0:0:
64,192,79482,1,2,0:0:0:0:
320,192,79482,1,0,0:0:0:0:
320,192,79647,1,0,0:0:0:0:
192,192,79812,1,2,0:0:0:0:
64,192,79812,1,0,0:0:0:0:
448,192,79812,1,4,0:0:0:0:
64,192,79977,1,0,0:0:0:0:
320,192,80142,1,2,0:0:0:0:
448,192,80142,1,0,0:0:0:0:
448,192,80307,1,0,0:0:0:0:
192,192,80471,1,2,0:0:0:0:
64,192,80471,1,0,0:0:0:0:
320,192,80471,1,4,0:0:0:0:
320,192,80636,1,0,0:0:0:0:
192,192,80801,1,0,0:0:0:0:
448,192,80801,1,2,0:0:0:0:
192,192,80966,1,0,0:0:0:0:
64,192,81131,1,0,0:0:0:0:
320,192,81131,1,2,0:0:0:0:
448,192,81131,1,0,0:0:0:0:
448,192,81460,128,0,81790:0:0:0:0:
192,192,81790,1,2,0:0:0:0:
64,192,81790,1,0,0:0:0:0:
320,192,81955,1,0,0:0:0:0:
192,192,82037,1,0,0:0:0:0:
64,192,82120,1,2,0:0:0:0:
448,192,82120,1,0,0:0:0:0:
320,192,82285,1,0,0:0:0:0:
192,192,82449,1,2,0:0:0:0:
64,192,82449,1,0,0:0:0:0:
320,192,82614,1,0,0:0:0:0:
192,192,82669,1,0,0:0:0:0:
320,192,82724,1,0,0:0:0:0:
448,192,82779,1,2,0:0:0:0:
64,192,82779,1,0,0:0:0:0:
192,192,82944,1,0,0:0:0:0:
320,192,83109,1,2,0:0:0:0:
448,192,83109,1,0,0:0:0:0:
192,192,83274,1,0,0:0:0:0:
448,192,83356,1,0,0:0:0:0:
320,192,83438,1,0,0:0:0:0:
64,192,83438,1,2,0:0:0:0:
192,192,83603,1,0,0:0:0:0:
64,192,83768,1,0,0:0:0:0:
448,192,83768,1,2,0:0:0:0:
192,192,83933,1,0,0:0:0:0:
320,192,83988,1,0,0:0:0:0:
192,192,84043,1,0,0:0:0:0:
64,192,84098,1,0,0:0:0:0:
448,192,84098,1,2,0:0:0:0:
320,192,84263,1,0,0:0:0:0:
192,192,84427,1,2,0:0:0:0:
448,192,84427,1,0,0:0:0:0:
64,192,84592,1,0,0:0:0:0:
448,192,84675,1,0,0:0:0:0:
320,192,84757,1,2,0:0:0:0:
192,192,84757,1,0,0:0:0:0:
448,192,84922,1,0,0:0:0:0:
192,192,85004,1,0,0:0:0:0:
64,192,85087,1,2,0:0:0:0:
320,192,85087,1,0,0:0:0:0:
448,192,85252,1,0,0:0:0:0:
64,192,85307,1,0,0:0:0:0:
448,192,85361,1,0,0:0:0:0:
320,192,85416,1,2,0:0:0:0:
192,192,85416,1,0,0:0:0:0:
64,192,85581,1,0,0:0:0:0:
320,192,85664,1,0,0:0:0:0:
192,192,85746,1,2,0:0:0:0:
448,192,85746,1,0,0:0:0:0:
64,192,85911,1,0,0:0:0:0:
320,192,86076,1,2,0:0:0:0:
448,192,86076,1,0,0:0:0:0:
192,192,86241,1,0,0:0:0:0:
320,192,86323,1,0,0:0:0:0:
64,192,86405,1,2,0:0:0:0:
448,192,86405,1,0,0:0:0:0:
320,192,86570,1,0,0:0:0:0:
64,192,86625,1,0,0:0:0:0:
320,192,86680,1,0,0:0:0:0:
192,192,86735,1,2,0:0:0:0:
448,192,86735,1,0,0:0:0:0:
320,192,86900,1,0,0:0:0:0:
448,192,86982,1,0,0:0:0:0:
64,192,87065,128,0,87230:0:0:0:0:
448,192,87230,1,0,0:0:0:0:
448,192,87312,1,0,0:0:0:0:
64,192,87559,128,0,87724:0:0:0:0:
64,192,87889,128,0,88054:0:0:0:0:
448,192,88054,128,0,88219:0:0:0:0:
64,192,88219,128,0,88383:0:0:0:0:
64,192,88548,1,0,0:0:0:0:
64,192,88631,1,0,0:0:0:0:
192,192,88713,128,0,88878:0:0:0:0:
64,192,88878,128,0,89043:0:0:0:0:
448,192,89043,128,0,89208:0:0:0:0:
320,192,89208,1,0,0:0:0:0:
320,192,89290,1,0,0:0:0:0:
192,192,89372,128,0,89537:0:0:0:0:
64,192,89537,128,0,89702:0:0:0:0:
320,192,89702,128,0,89867:0:0:0:0:
192,192,89867,1,0,0:0:0:0:
192,192,89949,1,0,0:0:0:0:
192,192,90197,1,0,0:0:0:0:
192,192,90279,1,0,0:0:0:0:
320,192,90361,128,0,90526:0:0:0:0:
448,192,90526,128,0,90691:0:0:0:0:
320,192,90691,128,0,90856:0:0:0:0:
192,192,90856,1,0,0:0:0:0:
192,192,90938,1,0,0:0:0:0:
64,192,91021,128,0,91186:0:0:0:0:
320,192,91186,128,0,91351:0:0:0:0:
64,192,91351,128,0,91515:0:0:0:0:
320,192,91515,1,0,0:0:0:0:
320,192,91598,1,0,0:0:0:0:
192,192,91680,128,0,91845:0:0:0:0:
320,192,91845,128,0,92010:0:0:0:0:
64,192,92010,128,0,92175:0:0:0:0:
448,192,92175,1,0,0:0:0:0:
448,192,92257,1,0,0:0:0:0:
320,192,92340,1,4,0:0:0:0:
192,192,92340,1,2,0:0:0:0:
64,192,92340,1,0,0:0:0:0:
320,192,92504,1,0,0:0:0:0:
192,192,92669,1,0,0:0:0:0:
192,192,92834,1,2,0:0:0:0:
64,192,92834,1,0,0:0:0:0:
448,192,92999,1,8,0:0:0:0:
64,192,92999,1,0,0:0:0:0:
448,192,93164,1,0,0:0:0:0:
192,192,93219,1,0,0:0:0:0:
448,192,93274,1,0,0:0:0:0:
64,192,93329,1,0,0:0:0:0:
64,192,93493,1,0,0:0:0:0:
320,192,93493,1,2,0:0:0:0:
320,192,93658,1,0,0:0:0:0:
192,192,93658,1,2,0:0:0:0:
192,192,93823,1,0,0:0:0:0:
448,192,93878,1,0,0:0:0:0:
64,192,93905,1,2,0:0:0:0:
192,192,93933,1,0,0:0:0:0:
320,192,93988,1,0,0:0:0:0:
320,192,94153,1,2,0:0:0:0:
448,192,94153,1,0,0:0:0:0:
192,192,94235,1,2,0:0:0:0:
64,192,94235,1,0,0:0:0:0:
320,192,94318,1,8,0:0:0:0:
448,192,94318,1,0,0:0:0:0:
192,192,94400,1,0,0:0:0:0:
64,192,94482,1,0,0:0:0:0:
320,192,94565,1,0,0:0:0:0:
192,192,94647,1,0,0:0:0:0:
448,192,94730,1,0,0:0:0:0:
320,192,94812,1,0,0:0:0:0:
192,192,94812,1,2,0:0:0:0:
448,192,94894,1,0,0:0:0:0:
64,192,94894,1,2,0:0:0:0:
192,192,94977,1,2,0:0:0:0:
320,192,94977,1,0,0:0:0:0:
448,192,95142,1,0,0:0:0:0:
448,192,95224,1,0,0:0:0:0:
64,192,95307,1,0,0:0:0:0:
64,192,95471,1,0,0:0:0:0:
64,192,95554,1,0,0:0:0:0:
320,192,95636,1,2,0:0:0:0:
448,192,95636,1,0,0:0:0:0:
320,192,95801,1,0,0:0:0:0:
64,192,95856,1,0,0:0:0:0:
448,192,95883,1,2,0:0:0:0:
320,192,95911,1,0,0:0:0:0:
192,192,95966,1,0,0:0:0:0:
192,192,96131,1,0,0:0:0:0:
448,192,96131,1,2,0:0:0:0:
320,192,96296,1,2,0:0:0:0:
448,192,96296,1,0,0:0:0:0:
320,192,96460,1,8,0:0:0:45:
64,192,96543,1,8,0:0:0:45:
192,192,96625,1,0,0:0:0:0:
192,192,96790,1,8,0:0:0:45:
64,192,96872,1,8,0:0:0:45:
448,192,96955,1,8,0:0:0:45:
320,192,97037,1,8,0:0:0:45:
64,192,97120,1,10,0:0:0:45:
192,192,97161,1,2,0:0:0:45:
320,192,97202,1,2,0:0:0:0:
448,192,97202,1,8,0:0:0:45:
192,192,97285,1,8,0:0:0:45:
64,192,97285,1,2,0:0:0:0:
448,192,97367,1,8,0:0:0:45:
64,192,97449,1,8,0:0:0:45:
448,192,97532,1,8,0:0:0:45:
320,192,97614,1,4,0:0:0:0:
192,192,97614,1,2,0:0:0:0:
64,192,97614,1,0,0:0:0:0:
448,192,97779,1,0,0:0:0:0:
192,192,97944,1,8,0:0:0:0:
64,192,97944,1,0,0:0:0:0:
320,192,98109,1,2,0:0:0:0:
192,192,98109,1,0,0:0:0:0:
320,192,98274,1,2,0:0:0:0:
448,192,98274,1,0,0:0:0:0:
192,192,98438,1,0,0:0:0:0:
64,192,98603,1,8,0:0:0:0:
320,192,98603,1,0,0:0:0:0:
192,192,98768,1,2,0:0:0:0:
320,192,98768,1,0,0:0:0:0:
448,192,98933,1,0,0:0:0:0:
64,192,99098,1,0,0:0:0:0:
320,192,99098,1,2,0:0:0:0:
192,192,99263,1,8,0:0:0:0:
64,192,99263,1,0,0:0:0:0:
192,192,99427,1,2,0:0:0:0:
448,192,99427,1,0,0:0:0:0:
320,192,99592,1,2,0:0:0:0:
448,192,99592,1,0,0:0:0:0:
192,192,99757,1,0,0:0:0:0:
64,192,99922,1,8,0:0:0:0:
448,192,99922,1,0,0:0:0:0:
320,192,100087,1,2,0:0:0:0:
64,192,100087,1,0,0:0:0:0:
320,192,100252,1,0,0:0:0:0:
192,192,100252,1,2,0:0:0:0:
448,192,100416,1,0,0:0:0:0:
64,192,100581,1,8,0:0:0:0:
320,192,100581,1,0,0:0:0:0:
320,192,100746,1,0,0:0:0:0:
192,192,100746,1,2,0:0:0:0:
192,192,100911,1,2,0:0:0:0:
448,192,100911,1,0,0:0:0:0:
320,192,101076,1,0,0:0:0:0:
64,192,101241,1,8,0:0:0:0:
448,192,101241,1,0,0:0:0:0:
64,192,101405,1,0,0:0:0:0:
192,192,101405,1,2,0:0:0:0:
320,192,101570,1,0,0:0:0:0:
192,192,101735,1,2,0:0:0:0:
448,192,101735,1,0,0:0:0:0:
448,192,101900,1,0,0:0:0:0:
320,192,101900,1,8,0:0:0:0:
320,192,102065,1,0,0:0:0:0:
192,192,102065,1,2,0:0:0:0:
192,192,102230,1,0,0:0:0:0:
64,192,102230,1,2,0:0:0:0:
448,192,102394,1,0,0:0:0:0:
192,192,102559,1,8,0:0:0:0:
64,192,102559,1,0,0:0:0:0:
192,192,102724,1,0,0:0:0:0:
320,192,102724,1,2,0:0:0:0:
320,192,102889,1,2,0:0:0:0:
448,192,102889,1,4,0:0:0:0:
64,192,102889,1,0,0:0:0:0:
192,192,103054,1,0,0:0:0:0:
448,192,103219,1,0,0:0:0:0:
64,192,103219,1,2,0:0:0:0:
448,192,103383,1,0,0:0:0:0:
192,192,103548,1,2,0:0:0:0:
64,192,103548,1,0,0:0:0:0:
320,192,103713,1,0,0:0:0:0:
192,192,103878,1,2,0:0:0:0:
448,192,103878,1,0,0:0:0:0:
192,192,104043,1,0,0:0:0:0:
320,192,104208,1,2,0:0:0:0:
64,192,104208,1,0,0:0:0:0:
320,192,104372,1,0,0:0:0:0:
448,192,104537,1,0,0:0:0:0:
64,192,104537,1,2,0:0:0:0:
64,192,104702,1,0,0:0:0:0:
192,192,104867,1,0,0:0:0:0:
448,192,104867,1,2,0:0:0:0:
448,192,105032,1,0,0:0:0:0:
192,192,105197,1,2,0:0:0:0:
64,192,105197,1,0,0:0:0:0:
64,192,105361,1,0,0:0:0:0:
448,192,105526,1,0,0:0:0:0:
320,192,105526,1,2,0:0:0:0:
320,192,105691,1,2,0:0:0:0:
192,192,105691,1,0,0:0:0:0:
192,192,105856,1,2,0:0:0:0:
448,192,105856,1,0,0:0:0:0:
448,192,106021,1,0,0:0:0:0:
64,192,106021,1,2,0:0:0:0:
64,192,106186,1,0,0:0:0:0:
192,192,106186,1,2,0:0:0:0:
192,192,106351,1,0,0:0:0:0:
320,192,106351,1,2,0:0:0:0:
320,192,106515,1,2,0:0:0:0:
64,192,106515,1,0,0:0:0:0:
448,192,106680,1,0,0:0:0:0:
64,192,106680,1,2,0:0:0:0:
320,192,106845,1,2,0:0:0:0:
448,192,106845,1,0,0:0:0:0:
320,192,107010,1,2,0:0:0:0:
448,192,107010,1,0,0:0:0:0:
192,192,107175,1,2,0:0:0:0:
64,192,107175,1,0,0:0:0:0:
64,192,107340,1,0,0:0:0:0:
192,192,107340,1,2,0:0:0:0:
448,192,107504,1,0,0:0:0:0:
320,192,107504,1,2,0:0:0:0:
192,192,107587,1,2,0:0:0:0:
64,192,107587,1,0,0:0:0:0:
320,192,107669,1,2,0:0:0:0:
448,192,107669,1,0,0:0:0:0:
192,192,107752,1,2,0:0:0:0:
64,192,107752,1,0,0:0:0:0:
448,192,107834,1,2,0:0:0:40:
320,192,107875,1,2,0:0:0:40:
192,192,107916,1,2,0:0:0:40:
64,192,107958,1,2,0:0:0:40:
448,192,107999,1,2,0:0:0:40:
320,192,108040,1,2,0:0:0:40:
192,192,108081,1,2,0:0:0:40:
64,192,108122,1,2,0:0:0:40:
448,192,108164,128,0,108988:0:0:0:0:
320,192,108164,1,2,0:0:0:0:
192,192,108329,128,0,108493:0:0:0:0:
320,192,108493,128,0,108658:0:0:0:0:
64,192,108658,128,0,108823:0:0:0:0:
192,192,108823,128,0,108988:0:0:0:0:
320,192,108988,1,0,0:0:0:0:
64,192,108988,1,0,0:0:0:0:
192,192,109153,1,0,0:0:0:0:
320,192,109153,1,0,0:0:0:0:
192,192,109318,1,0,0:0:0:0:
448,192,109318,1,0,0:0:0:0:
64,192,109482,1,0,0:0:0:0:
320,192,109482,1,2,0:0:0:0:
448,192,109482,1,4,0:0:0:0:
320,192,109647,1,0,0:0:0:0:
448,192,109647,1,0,0:0:0:0:
448,192,109730,1,0,0:0:0:0:
320,192,109730,1,0,0:0:0:0:
192,192,109812,1,10,0:0:0:0:
64,192,109812,1,0,0:0:0:0:
64,192,109977,1,0,0:0:0:0:
192,192,109977,1,0,0:0:0:0:
192,192,110059,1,0,0:0:0:0:
64,192,110059,1,0,0:0:0:0:
320,192,110142,1,2,0:0:0:0:
448,192,110142,1,0,0:0:0:0:
192,192,110224,1,0,0:0:0:0:
64,192,110307,1,0,0:0:0:0:
448,192,110307,1,0,0:0:0:0:
320,192,110389,1,0,0:0:0:0:
192,192,110471,1,10,0:0:0:0:
448,192,110471,1,0,0:0:0:0:
64,192,110554,1,0,0:0:0:0:
192,192,110636,1,0,0:0:0:0:
320,192,110636,1,0,0:0:0:0:
448,192,110719,1,0,0:0:0:0:
192,192,110801,1,0,0:0:0:0:
64,192,110801,1,2,0:0:0:0:
320,192,110883,1,0,0:0:0:0:
448,192,110966,1,0,0:0:0:0:
64,192,110966,1,0,0:0:0:0:
320,192,111048,1,0,0:0:0:0:
192,192,111131,1,10,0:0:0:0:
64,192,111131,1,0,0:0:0:0:
448,192,111213,1,0,0:0:0:0:
320,192,111296,1,0,0:0:0:0:
192,192,111296,1,0,0:0:0:0:
64,192,111378,1,0,0:0:0:0:
320,192,111460,1,2,0:0:0:0:
448,192,111460,1,0,0:0:0:0:
192,192,111543,1,0,0:0:0:0:
64,192,111625,1,0,0:0:0:0:
320,192,111625,1,0,0:0:0:0:
448,192,111708,1,0,0:0:0:0:
192,192,111790,1,0,0:0:0:0:
64,192,111790,1,10,0:0:0:0:
320,192,111872,1,0,0:0:0:0:
192,192,111955,1,0,0:0:0:0:
448,192,111955,1,0,0:0:0:0:
320,192,112037,1,0,0:0:0:0:
448,192,112120,1,2,0:0:0:0:
64,192,112120,1,0,0:0:0:0:
192,192,112202,1,0,0:0:0:0:
320,192,112285,1,0,0:0:0:0:
448,192,112285,1,0,0:0:0:0:
192,192,112367,1,0,0:0:0:0:
64,192,112449,1,0,0:0:0:0:
320,192,112449,1,10,0:0:0:0:
448,192,112532,1,0,0:0:0:0:
320,192,112614,1,0,0:0:0:0:
192,192,112614,1,0,0:0:0:0:
64,192,112697,1,0,0:0:0:0:
192,192,112779,1,2,0:0:0:0:
448,192,112779,1,0,0:0:0:0:
320,192,112861,1,0,0:0:0:0:
64,192,112944,1,0,0:0:0:0:
192,192,112944,1,0,0:0:0:0:
320,192,113026,1,0,0:0:0:0:
448,192,113109,1,0,0:0:0:0:
64,192,113109,1,10,0:0:0:0:
192,192,113191,1,0,0:0:0:0:
320,192,113274,1,0,0:0:0:0:
448,192,113274,1,0,0:0:0:0:
192,192,113356,1,0,0:0:0:0:
64,192,113438,1,0,0:0:0:0:
320,192,113438,1,2,0:0:0:0:
448,192,113521,1,0,0:0:0:0:
192,192,113603,1,0,0:0:0:0:
320,192,113686,1,0,0:0:0:0:
64,192,113768,1,10,0:0:0:0:
448,192,113768,1,0,0:0:0:0:
192,192,113851,1,0,0:0:0:0:
320,192,113933,1,0,0:0:0:0:
64,192,114015,1,0,0:0:0:0:
192,192,114098,1,0,0:0:0:0:
448,192,114098,1,2,0:0:0:0:
320,192,114180,1,0,0:0:0:0:
64,192,114263,1,0,0:0:0:0:
192,192,114263,1,0,0:0:0:0:
448,192,114345,1,0,0:0:0:0:
320,192,114427,1,0,0:0:0:0:
192,192,114427,1,10,0:0:0:0:
64,192,114510,1,0,0:0:0:0:
192,192,114592,1,0,0:0:0:0:
448,192,114592,1,0,0:0:0:0:
320,192,114675,1,0,0:0:0:0:
192,192,114757,1,0,0:0:0:0:
64,192,114757,1,2,0:0:0:0:
192,192,114922,1,0,0:0:0:0:
64,192,114922,1,0,0:0:0:0:
64,192,115004,1,0,0:0:0:0:
192,192,115004,1,0,0:0:0:0:
320,192,115087,1,10,0:0:0:0:
448,192,115087,1,0,0:0:0:0:
448,192,115252,1,0,0:0:0:0:
320,192,115252,1,0,0:0:0:0:
320,192,115334,1,0,0:0:0:0:
448,192,115334,1,0,0:0:0:0:
192,192,115416,1,2,0:0:0:0:
64,192,115416,1,0,0:0:0:0:
448,192,115499,1,0,0:0:0:0:
320,192,115581,1,0,0:0:0:0:
64,192,115581,1,0,0:0:0:0:
192,192,115664,1,0,0:0:0:0:
320,192,115746,1,10,0:0:0:0:
448,192,115746,1,0,0:0:0:0:
192,192,115829,1,0,0:0:0:0:
64,192,115911,1,0,0:0:0:0:
448,192,115911,1,0,0:0:0:0:
192,192,115993,1,0,0:0:0:0:
320,192,116076,1,2,0:0:0:0:
448,192,116076,1,0,0:0:0:0:
64,192,116158,1,0,0:0:0:0:
192,192,116241,1,0,0:0:0:0:
320,192,116241,1,0,0:0:0:0:
448,192,116323,1,0,0:0:0:0:
64,192,116405,1,0,0:0:0:0:
192,192,116405,1,10,0:0:0:0:
320,192,116488,1,0,0:0:0:0:
448,192,116570,1,0,0:0:0:0:
64,192,116570,1,0,0:0:0:0:
192,192,116653,1,0,0:0:0:0:
448,192,116735,1,0,0:0:0:0:
320,192,116735,1,2,0:0:0:0:
192,192,116818,1,0,0:0:0:0:
448,192,116900,1,0,0:0:0:0:
64,192,116900,1,0,0:0:0:0:
320,192,116982,1,0,0:0:0:0:
192,192,117065,1,10,0:0:0:0:
64,192,117065,1,0,0:0:0:0:
320,192,117147,1,0,0:0:0:0:
448,192,117230,1,0,0:0:0:0:
192,192,117230,1,0,0:0:0:0:
320,192,117312,1,0,0:0:0:0:
448,192,117394,1,2,0:0:0:0:
64,192,117394,1,0,0:0:0:0:
192,192,117477,1,0,0:0:0:0:
320,192,117559,1,0,0:0:0:0:
448,192,117559,1,0,0:0:0:0:
192,192,117642,1,0,0:0:0:0:
64,192,117724,1,0,0:0:0:0:
320,192,117724,1,10,0:0:0:0:
448,192,117807,1,0,0:0:0:0:
320,192,117889,1,0,0:0:0:0:
192,192,117889,1,0,0:0:0:0:
64,192,117971,1,0,0:0:0:0:
192,192,118054,1,2,0:0:0:0:
448,192,118054,1,0,0:0:0:0:
320,192,118136,1,0,0:0:0:0:
192,192,118219,1,0,0:0:0:0:
64,192,118219,1,0,0:0:0:0:
448,192,118301,1,0,0:0:0:0:
320,192,118383,1,10,0:0:0:0:
64,192,118383,1,0,0:0:0:0:
192,192,118466,1,0,0:0:0:0:
448,192,118548,1,0,0:0:0:0:
64,192,118548,1,0,0:0:0:0:
320,192,118631,1,0,0:0:0:0:
192,192,118713,1,2,0:0:0:0:
448,192,118713,1,0,0:0:0:0:
64,192,118796,1,0,0:0:0:0:
192,192,118878,1,8,2:0:0:45:
64,192,118960,1,0,0:0:0:0:
192,192,119043,1,10,0:0:0:0:
320,192,119043,1,8,2:0:0:45:
448,192,119125,1,0,0:0:0:0:
320,192,119208,1,8,2:0:0:45:
448,192,119290,1,0,0:0:0:0:
64,192,119372,1,2,0:0:0:0:
320,192,119372,1,8,2:0:0:45:
192,192,119455,1,0,0:0:0:0:
448,192,119537,1,0,0:0:0:0:
320,192,119537,1,0,0:0:0:0:
64,192,119620,1,0,0:0:0:0:
448,192,119702,1,0,0:0:0:0:
320,192,119702,1,10,0:0:0:0:
192,192,119785,1,8,0:0:0:0:
64,192,119785,1,0,0:0:0:0:
320,192,119867,1,8,0:0:0:0:
448,192,119867,1,0,0:0:0:0:
192,192,119949,1,0,0:0:0:0:
64,192,120032,1,0,0:0:0:0:
320,192,120032,1,2,0:0:0:0:
448,192,120032,1,4,0:0:0:0:
320,192,120197,1,0,0:0:0:0:
448,192,120197,1,0,0:0:0:0:
448,192,120279,1,0,0:0:0:0:
320,192,120279,1,0,0:0:0:0:
192,192,120361,1,10,0:0:0:0:
64,192,120361,1,0,0:0:0:0:
64,192,120526,1,0,0:0:0:0:
192,192,120526,1,0,0:0:0:0:
192,192,120609,1,0,0:0:0:0:
64,192,120609,1,0,0:0:0:0:
320,192,120691,1,2,0:0:0:0:
448,192,120691,1,0,0:0:0:0:
192,192,120774,1,0,0:0:0:0:
64,192,120856,1,0,0:0:0:0:
448,192,120856,1,0,0:0:0:0:
320,192,120938,1,0,0:0:0:0:
192,192,121021,1,10,0:0:0:0:
64,192,121021,1,0,0:0:0:0:
448,192,121103,1,0,0:0:0:0:
320,192,121186,1,0,0:0:0:0:
192,192,121186,1,0,0:0:0:0:
448,192,121268,1,0,0:0:0:0:
192,192,121351,1,0,0:0:0:0:
64,192,121351,1,2,0:0:0:0:
320,192,121433,1,0,0:0:0:0:
64,192,121515,1,0,0:0:0:0:
448,192,121515,1,0,0:0:0:0:
192,192,121598,1,0,0:0:0:0:
320,192,121680,1,10,0:0:0:0:
448,192,121680,1,0,0:0:0:0:
64,192,121763,1,0,0:0:0:0:
192,192,121845,1,0,0:0:0:0:
320,192,121845,1,0,0:0:0:0:
448,192,121927,1,0,0:0:0:0:
64,192,122010,1,0,0:0:0:0:
192,192,122010,1,2,0:0:0:0:
448,192,122092,1,0,0:0:0:0:
320,192,122175,1,0,0:0:0:0:
64,192,122175,1,0,0:0:0:0:
192,192,122257,1,0,0:0:0:0:
320,192,122340,1,10,0:0:0:0:
448,192,122340,1,0,0:0:0:0:
64,192,122422,1,0,0:0:0:0:
192,192,122504,1,0,0:0:0:0:
448,192,122504,1,0,0:0:0:0:
64,192,122587,1,0,0:0:0:0:
192,192,122669,1,2,0:0:0:0:
320,192,122669,1,0,0:0:0:0:
448,192,122752,1,0,0:0:0:0:
320,192,122834,1,0,0:0:0:0:
64,192,122834,1,0,0:0:0:0:
192,192,122916,1,0,0:0:0:0:
320,192,122999,1,10,0:0:0:0:
448,192,122999,1,0,0:0:0:0:
64,192,123081,1,0,0:0:0:0:
192,192,123164,1,0,0:0:0:0:
448,192,123164,1,0,0:0:0:0:
320,192,123246,1,0,0:0:0:0:
64,192,123329,1,2,0:0:0:0:
448,192,123329,1,0,0:0:0:0:
192,192,123411,1,0,0:0:0:0:
64,192,123493,1,0,0:0:0:0:
320,192,123493,1,0,0:0:0:0:
448,192,123576,1,0,0:0:0:0:
320,192,123658,1,10,0:0:0:0:
192,192,123658,1,0,0:0:0:0:
64,192,123741,1,0,0:0:0:0:
320,192,123823,1,0,0:0:0:0:
448,192,123823,1,0,0:0:0:0:
192,192,123905,1,0,0:0:0:0:
64,192,123988,1,2,0:0:0:0:
448,192,123988,1,0,0:0:0:0:
320,192,124070,1,0,0:0:0:0:
192,192,124153,1,0,0:0:0:0:
448,192,124235,1,0,0:0:0:0:
320,192,124318,1,10,0:0:0:0:
64,192,124318,1,0,0:0:0:0:
192,192,124400,1,0,0:0:0:0:
320,192,124482,1,0,0:0:0:0:
64,192,124565,1,0,0:0:0:0:
192,192,124647,1,2,0:0:0:0:
448,192,124647,1,0,0:0:0:0:
320,192,124730,1,0,0:0:0:0:
64,192,124812,1,0,0:0:0:0:
192,192,124812,1,0,0:0:0:0:
448,192,124894,1,0,0:0:0:0:
320,192,124977,1,10,0:0:0:0:
64,192,124977,1,0,0:0:0:0:
192,192,125059,1,0,0:0:0:0:
64,192,125142,1,0,0:0:0:0:
448,192,125142,1,0,0:0:0:0:
320,192,125224,1,0,0:0:0:0:
192,192,125307,1,2,0:0:0:0:
64,192,125307,1,0,0:0:0:0:
192,192,125471,1,0,0:0:0:0:
64,192,125471,1,0,0:0:0:0:
64,192,125554,1,0,0:0:0:0:
192,192,125554,1,0,0:0:0:0:
320,192,125636,1,10,0:0:0:0:
448,192,125636,1,0,0:0:0:0:
448,192,125801,1,0,0:0:0:0:
320,192,125801,1,0,0:0:0:0:
320,192,125883,1,0,0:0:0:0:
448,192,125883,1,0,0:0:0:0:
192,192,125966,1,2,0:0:0:0:
64,192,125966,1,0,0:0:0:0:
320,192,126048,1,0,0:0:0:0:
64,192,126131,1,0,0:0:0:0:
448,192,126131,1,0,0:0:0:0:
192,192,126213,1,0,0:0:0:0:
320,192,126296,1,10,0:0:0:0:
448,192,126296,1,0,0:0:0:0:
64,192,126378,1,0,0:0:0:0:
192,192,126460,1,0,0:0:0:0:
320,192,126460,1,0,0:0:0:0:
64,192,126543,1,0,0:0:0:0:
320,192,126625,1,0,0:0:0:0:
448,192,126625,1,2,0:0:0:0:
192,192,126708,1,0,0:0:0:0:
64,192,126790,1,0,0:0:0:0:
448,192,126790,1,0,0:0:0:0:
320,192,126872,1,0,0:0:0:0:
192,192,126955,1,10,0:0:0:0:
64,192,126955,1,0,0:0:0:0:
320,192,127037,1,0,0:0:0:0:
192,192,127120,1,0,0:0:0:0:
448,192,127120,1,0,0:0:0:0:
64,192,127202,1,0,0:0:0:0:
320,192,127285,1,2,0:0:0:0:
448,192,127285,1,0,0:0:0:0:
64,192,127367,1,0,0:0:0:0:
192,192,127449,1,0,0:0:0:0:
448,192,127449,1,0,0:0:0:0:
320,192,127532,1,0,0:0:0:0:
192,192,127614,1,0,0:0:0:0:
64,192,127614,1,10,0:0:0:0:
448,192,127697,1,0,0:0:0:0:
320,192,127779,1,0,0:0:0:0:
64,192,127779,1,0,0:0:0:0:
448,192,127861,1,0,0:0:0:0:
320,192,127944,1,2,0:0:0:0:
192,192,127944,1,0,0:0:0:0:
64,192,128026,1,0,0:0:0:0:
192,192,128109,1,0,0:0:0:0:
448,192,128109,1,0,0:0:0:0:
64,192,128191,1,0,0:0:0:0:
320,192,128274,1,10,0:0:0:0:
448,192,128274,1,0,0:0:0:0:
192,192,128356,1,0,0:0:0:0:
64,192,128438,1,0,0:0:0:0:
448,192,128438,1,0,0:0:0:0:
320,192,128521,1,0,0:0:0:0:
192,192,128603,1,0,0:0:0:0:
64,192,128603,1,2,0:0:0:0:
448,192,128686,1,0,0:0:0:0:
320,192,128768,1,0,0:0:0:0:
192,192,128768,1,0,0:0:0:0:
448,192,128851,1,0,0:0:0:0:
320,192,128933,1,10,0:0:0:0:
64,192,128933,1,0,0:0:0:0:
192,192,129015,1,0,0:0:0:0:
64,192,129098,1,0,0:0:0:0:
448,192,129098,1,0,0:0:0:0:
320,192,129180,1,0,0:0:0:0:
448,192,129263,1,0,0:0:0:0:
192,192,129263,1,2,0:0:0:0:
64,192,129345,1,0,0:0:0:0:
192,192,129427,1,0,0:0:0:0:
320,192,129427,1,8,2:0:0:45:
64,192,129510,1,0,0:0:0:0:
192,192,129592,1,10,0:0:0:0:
448,192,129592,1,8,2:0:0:45:
320,192,129675,1,0,0:0:0:0:
448,192,129757,1,8,2:0:0:45:
64,192,129757,1,0,0:0:0:0:
320,192,129840,1,0,0:0:0:0:
448,192,129922,1,8,2:0:0:45:
192,192,129922,1,2,0:0:0:0:
64,192,130004,1,0,0:0:0:0:
192,192,130087,1,8,2:0:0:45:
64,192,130169,1,0,0:0:0:0:
192,192,130252,1,10,0:0:0:0:
320,192,130252,1,8,2:0:0:45:
448,192,130334,1,0,0:0:0:0:
320,192,130416,1,8,2:0:0:45:
448,192,130499,1,0,0:0:0:0:
320,192,130581,1,4,0:0:0:0:
192,192,130581,1,2,0:0:0:0:
64,192,130581,1,0,0:0:0:0:
64,192,130746,1,0,0:0:0:0:
192,192,130911,1,0,0:0:0:0:
448,192,130911,1,2,0:0:0:0:
448,192,131076,1,0,0:0:0:0:
320,192,131241,1,0,0:0:0:0:
192,192,131241,1,2,0:0:0:0:
64,192,131241,1,4,0:0:0:0:
320,192,131405,1,0,0:0:0:0:
192,192,131570,1,2,0:0:0:0:
448,192,131570,1,0,0:0:0:0:
192,192,131735,1,0,0:0:0:0:
64,192,131900,1,0,0:0:0:0:
320,192,131900,1,2,0:0:0:0:
448,192,131900,1,4,0:0:0:0:
448,192,132065,1,0,0:0:0:0:
64,192,132230,1,0,0:0:0:0:
192,192,132230,1,2,0:0:0:0:
64,192,132394,1,0,0:0:0:0:
192,192,132559,1,0,0:0:0:0:
320,192,132559,1,2,0:0:0:0:
448,192,132559,1,0,0:0:0:0:
448,192,132889,1,0,0:0:0:0:
64,192,132930,1,0,0:0:0:0:
192,192,132971,1,0,0:0:0:0:
320,192,133013,1,0,0:0:0:0:
448,192,133054,1,0,0:0:0:0:
64,192,133095,1,0,0:0:0:0:
192,192,133136,1,0,0:0:0:0:
320,192,133177,1,0,0:0:0:0:
448,192,133219,128,0,135197:0:0:0:0:
192,192,133713,1,0,0:0:0:0:
320,192,133878,1,0,0:0:0:0:
64,192,134043,1,0,0:0:0:0:
192,192,134208,1,0,0:0:0:0:
320,192,134372,1,0,0:0:0:0:
64,192,134537,1,0,0:0:0:0:
320,192,134702,1,0,0:0:0:0:
192,192,134867,1,0,0:0:0:0:
64,192,135032,1,0,0:0:0:0:
320,192,135114,1,0,0:0:0:0:
64,192,135197,128,0,135526:0:0:0:0:
192,192,135361,1,0,0:0:0:0:
448,192,135526,128,0,135856:0:0:0:0:
320,192,135609,1,0,0:0:0:0:
192,192,135691,1,0,0:0:0:0:
64,192,135774,1,0,0:0:0:0:
320,192,135856,128,0,137834:0:0:0:0:
192,192,136021,1,0,0:0:0:0:
64,192,136186,1,0,0:0:0:0:
192,192,136351,1,0,0:0:0:0:
448,192,136515,1,0,0:0:0:0:
64,192,136680,1,0,0:0:0:0:
192,192,136845,1,0,0:0:0:0:
448,192,137010,1,0,0:0:0:0:
64,192,137175,1,0,0:0:0:0:
448,192,137340,1,0,0:0:0:0:
192,192,137504,1,0,0:0:0:0:
64,192,137669,1,0,0:0:0:0:
448,192,137752,1,0,0:0:0:0:
64,192,137834,128,0,138493:0:0:0:0:
192,192,137999,1,0,0:0:0:0:
320,192,138164,128,0,138493:0:0:0:0:
448,192,138329,1,0,0:0:0:0:
192,192,138493,128,0,140471:0:0:0:0:
64,192,138658,1,0,0:0:0:0:
448,192,138823,1,0,0:0:0:0:
64,192,138988,1,0,0:0:0:0:
320,192,139153,1,0,0:0:0:0:
448,192,139318,1,0,0:0:0:0:
64,192,139482,1,0,0:0:0:0:
320,192,139647,1,0,0:0:0:0:
448,192,139812,1,0,0:0:0:0:
320,192,139977,1,0,0:0:0:0:
64,192,140142,1,0,0:0:0:0:
320,192,140307,1,0,0:0:0:0:
448,192,140471,128,0,140801:0:0:0:0:
64,192,140636,1,0,0:0:0:0:
192,192,140801,128,0,141131:0:0:0:0:
320,192,140966,1,0,0:0:0:0:
64,192,141131,128,0,143109:0:0:0:0:
320,192,141460,1,0,0:0:0:0:
448,192,141625,1,0,0:0:0:0:
192,192,141790,1,0,0:0:0:0:
320,192,141955,1,0,0:0:0:0:
448,192,142120,1,0,0:0:0:0:
192,192,142285,1,0,0:0:0:0:
320,192,142449,1,0,0:0:0:0:
192,192,142614,1,0,0:0:0:0:
448,192,142779,1,0,0:0:0:0:
320,192,142944,1,0,0:0:0:0:
192,192,143109,128,0,143438:0:0:0:0:
448,192,143274,1,0,0:0:0:0:
320,192,143438,128,0,143768:0:0:0:0:
64,192,143603,1,0,0:0:0:0:
448,192,143768,1,4,0:0:0:0:
192,192,143768,1,2,0:0:0:0:
64,192,143768,1,0,0:0:0:0:
448,192,143933,1,0,0:0:0:0:
64,192,144098,1,0,0:0:0:0:
320,192,144098,1,2,0:0:0:0:
192,192,144263,1,0,0:0:0:0:
320,192,144427,1,0,0:0:0:0:
448,192,144427,1,2,0:0:0:0:
64,192,144592,1,0,0:0:0:0:
192,192,144647,1,0,0:0:0:0:
320,192,144702,1,0,0:0:0:0:
64,192,144757,1,2,0:0:0:0:
448,192,144757,1,0,0:0:0:0:
320,192,144922,1,0,0:0:0:0:
192,192,145087,1,0,0:0:0:0:
448,192,145087,1,2,0:0:0:0:
64,192,145252,1,0,0:0:0:0:
320,192,145416,1,2,0:0:0:0:
448,192,145416,1,0,0:0:0:0:
320,192,145581,1,0,0:0:0:0:
192,192,145746,1,2,0:0:0:0:
64,192,145746,1,0,0:0:0:0:
448,192,145911,1,0,0:0:0:0:
320,192,145966,1,0,0:0:0:0:
192,192,146021,1,0,0:0:0:0:
64,192,146076,1,0,0:0:0:0:
448,192,146076,1,2,0:0:0:0:
64,192,146241,1,0,0:0:0:0:
320,192,146405,1,2,0:0:0:0:
448,192,146405,1,0,0:0:0:0:
320,192,146570,1,0,0:0:0:0:
192,192,146735,1,2,0:0:0:0:
448,192,146735,1,0,0:0:0:0:
320,192,146900,1,0,0:0:0:0:
192,192,147065,1,2,0:0:0:0:
64,192,147065,1,0,0:0:0:0:
448,192,147230,1,0,0:0:0:0:
320,192,147285,1,0,0:0:0:0:
192,192,147340,1,0,0:0:0:0:
64,192,147394,1,2,0:0:0:0:
448,192,147394,1,0,0:0:0:0:
192,192,147559,1,0,0:0:0:0:
320,192,147724,1,2,0:0:0:0:
448,192,147724,1,0,0:0:0:0:
64,192,147889,1,0,0:0:0:0:
192,192,148054,1,2,0:0:0:0:
448,192,148054,1,0,0:0:0:0:
320,192,148219,1,0,0:0:0:0:
448,192,148383,1,0,0:0:0:0:
64,192,148383,1,2,0:0:0:0:
320,192,148548,1,0,0:0:0:0:
192,192,148603,1,0,0:0:0:0:
64,192,148658,1,0,0:0:0:0:
320,192,148713,1,2,0:0:0:0:
448,192,148713,1,0,0:0:0:0:
320,192,148878,1,0,0:0:0:0:
64,192,149043,1,2,0:0:0:0:
192,192,149043,1,4,0:0:0:0:
448,192,149043,1,0,0:0:0:0:
448,192,149208,1,0,0:0:0:0:
320,192,149372,1,2,0:0:0:0:
64,192,149372,1,0,0:0:0:0:
192,192,149537,1,0,0:0:0:0:
320,192,149702,1,2,0:0:0:0:
448,192,149702,1,0,0:0:0:0:
192,192,149867,1,0,0:0:0:0:
320,192,149922,1,0,0:0:0:0:
448,192,149977,1,0,0:0:0:0:
192,192,150032,1,0,0:0:0:0:
64,192,150032,1,2,0:0:0:0:
64,192,150197,1,0,0:0:0:0:
192,192,150361,1,0,0:0:0:0:
448,192,150361,1,4,0:0:0:0:
320,192,150361,1,2,0:0:0:0:
320,192,150526,1,0,0:0:0:0:
192,192,150691,1,2,0:0:0:0:
448,192,150691,1,0,0:0:0:0:
64,192,150856,1,0,0:0:0:0:
192,192,151021,1,0,0:0:0:0:
320,192,151021,1,2,0:0:0:0:
448,192,151186,1,0,0:0:0:0:
320,192,151241,1,0,0:0:0:0:
192,192,151296,1,0,0:0:0:0:
64,192,151351,1,2,0:0:0:0:
448,192,151351,1,0,0:0:0:0:
64,192,151515,1,0,0:0:0:0:
192,192,151680,1,2,0:0:0:0:
320,192,151680,1,4,0:0:0:0:
448,192,151680,1,0,0:0:0:0:
192,192,151845,1,0,0:0:0:0:
320,192,152010,1,0,0:0:0:0:
448,192,152010,1,2,0:0:0:0:
320,192,152175,1,0,0:0:0:0:
64,192,152340,1,2,0:0:0:0:
448,192,152340,1,0,0:0:0:0:
320,192,152504,1,0,0:0:0:0:
192,192,152559,1,0,0:0:0:0:
64,192,152614,1,0,0:0:0:0:
320,192,152669,1,2,0:0:0:0:
448,192,152669,1,0,0:0:0:0:
320,192,152834,1,0,0:0:0:0:
192,192,152999,1,2,0:0:0:0:
64,192,152999,1,0,0:0:0:0:
448,192,152999,1,4,0:0:0:0:
64,192,153164,1,0,0:0:0:0:
320,192,153164,1,2,0:0:0:0:
320,192,153329,1,0,0:0:0:0:
192,192,153329,1,2,0:0:0:0:
192,192,153493,1,2,0:0:0:0:
448,192,153493,1,0,0:0:0:0:
448,192,153658,1,0,0:0:0:0:
320,192,153658,1,2,0:0:0:0:
192,192,153741,1,2,0:0:0:0:
64,192,153741,1,0,0:0:0:0:
320,192,153823,1,2,0:0:0:0:
448,192,153823,1,0,0:0:0:0:
192,192,153905,1,2,0:0:0:0:
64,192,153905,1,0,0:0:0:0:
448,192,153988,1,2,0:0:0:40:
320,192,154029,1,2,0:0:0:40:
192,192,154070,1,2,0:0:0:40:
64,192,154111,1,2,0:0:0:40:
448,192,154153,1,2,0:0:0:40:
320,192,154194,1,2,0:0:0:40:
192,192,154235,1,2,0:0:0:40:
64,192,154276,1,2,0:0:0:40:
320,192,154318,1,2,0:0:0:0:
448,192,154318,1,0,0:0:0:0:
192,192,155142,1,0,0:0:0:0:
64,192,155142,1,0,0:0:0:0:
192,192,155307,1,0,0:0:0:0:
320,192,155307,1,0,0:0:0:0:
320,192,155471,1,0,0:0:0:0:
448,192,155471,1,0,0:0:0:0:
448,192,155636,1,4,0:0:0:0:
192,192,155636,1,2,0:0:0:0:
64,192,155636,1,0,0:0:0:0:
320,192,155719,1,0,0:0:0:0:
192,192,155801,1,0,0:0:0:0:
64,192,155801,1,0,0:0:0:0:
64,192,155883,1,0,0:0:0:0:
192,192,155883,1,0,0:0:0:0:
320,192,155966,1,10,0:0:0:0:
448,192,155966,1,0,0:0:0:0:
192,192,156048,1,0,0:0:0:0:
320,192,156131,1,0,0:0:0:0:
448,192,156131,1,0,0:0:0:0:
448,192,156213,1,0,0:0:0:0:
320,192,156213,1,0,0:0:0:0:
192,192,156296,1,2,0:0:0:0:
64,192,156296,1,0,0:0:0:0:
320,192,156378,1,0,0:0:0:0:
64,192,156460,1,0,0:0:0:0:
448,192,156460,1,0,0:0:0:0:
192,192,156543,1,0,0:0:0:0:
320,192,156625,1,10,0:0:0:0:
64,192,156625,1,0,0:0:0:0:
448,192,156708,1,0,0:0:0:0:
320,192,156790,1,0,0:0:0:0:
192,192,156790,1,0,0:0:0:0:
64,192,156872,1,0,0:0:0:0:
320,192,156955,1,0,0:0:0:0:
448,192,156955,1,2,0:0:0:0:
192,192,157037,1,0,0:0:0:0:
64,192,157120,1,0,0:0:0:0:
448,192,157120,1,0,0:0:0:0:
192,192,157202,1,0,0:0:0:0:
320,192,157285,1,10,0:0:0:0:
448,192,157285,1,0,0:0:0:0:
64,192,157367,1,0,0:0:0:0:
192,192,157449,1,0,0:0:0:0:
320,192,157449,1,0,0:0:0:0:
448,192,157532,1,0,0:0:0:0:
320,192,157614,1,2,0:0:0:0:
64,192,157614,1,0,0:0:0:0:
192,192,157697,1,0,0:0:0:0:
64,192,157779,1,0,0:0:0:0:
448,192,157779,1,0,0:0:0:0:
320,192,157861,1,0,0:0:0:0:
192,192,157944,1,0,0:0:0:0:
64,192,157944,1,10,0:0:0:0:
448,192,158026,1,0,0:0:0:0:
320,192,158109,1,0,0:0:0:0:
192,192,158109,1,0,0:0:0:0:
448,192,158191,1,0,0:0:0:0:
320,192,158274,1,2,0:0:0:0:
64,192,158274,1,0,0:0:0:0:
192,192,158356,1,0,0:0:0:0:
320,192,158438,1,0,0:0:0:0:
448,192,158438,1,0,0:0:0:0:
64,192,158521,1,0,0:0:0:0:
192,192,158603,1,10,0:0:0:0:
448,192,158603,1,0,0:0:0:0:
320,192,158686,1,0,0:0:0:0:
64,192,158768,1,0,0:0:0:0:
192,192,158768,1,0,0:0:0:0:
448,192,158851,1,0,0:0:0:0:
64,192,158933,1,2,0:0:0:0:
320,192,158933,1,0,0:0:0:0:
448,192,159015,1,0,0:0:0:0:
192,192,159098,1,0,0:0:0:0:
64,192,159098,1,0,0:0:0:0:
320,192,159180,1,0,0:0:0:0:
448,192,159263,1,10,0:0:0:0:
192,192,159263,1,0,0:0:0:0:
64,192,159345,1,0,0:0:0:0:
320,192,159427,1,0,0:0:0:0:
448,192,159427,1,0,0:0:0:0:
192,192,159510,1,0,0:0:0:0:
64,192,159592,1,2,0:0:0:0:
448,192,159592,1,0,0:0:0:0:
320,192,159675,1,0,0:0:0:0:
448,192,159757,1,0,0:0:0:0:
192,192,159840,1,0,0:0:0:0:
64,192,159922,1,0,0:0:0:0:
320,192,159922,1,10,0:0:0:0:
192,192,160004,1,0,0:0:0:0:
320,192,160087,1,0,0:0:0:0:
448,192,160169,1,0,0:0:0:0:
320,192,160252,1,0,0:0:0:0:
192,192,160252,1,2,0:0:0:0:
64,192,160334,1,0,0:0:0:0:
192,192,160416,1,0,0:0:0:0:
448,192,160416,1,0,0:0:0:0:
320,192,160499,1,0,0:0:0:0:
192,192,160581,1,10,0:0:0:0:
64,192,160581,1,0,0:0:0:0:
448,192,160664,1,0,0:0:0:0:
320,192,160746,1,0,0:0:0:0:
64,192,160746,1,0,0:0:0:0:
192,192,160829,1,0,0:0:0:0:
320,192,160911,1,2,0:0:0:0:
448,192,160911,1,0,0:0:0:0:
64,192,160993,1,0,0:0:0:0:
320,192,161076,1,0,0:0:0:0:
448,192,161076,1,0,0:0:0:0:
448,192,161158,1,0,0:0:0:0:
320,192,161158,1,0,0:0:0:0:
192,192,161241,1,10,0:0:0:0:
64,192,161241,1,0,0:0:0:0:
448,192,161323,1,0,0:0:0:0:
192,192,161405,1,0,0:0:0:0:
64,192,161405,1,0,0:0:0:0:
64,192,161488,1,0,0:0:0:0:
192,192,161488,1,0,0:0:0:0:
320,192,161570,1,2,0:0:0:0:
448,192,161570,1,0,0:0:0:0:
192,192,161653,1,0,0:0:0:0:
64,192,161735,1,0,0:0:0:0:
320,192,161735,1,0,0:0:0:0:
448,192,161818,1,0,0:0:0:0:
320,192,161900,1,0,0:0:0:0:
192,192,161900,1,10,0:0:0:0:
64,192,161982,1,0,0:0:0:0:
192,192,162065,1,0,0:0:0:0:
448,192,162065,1,0,0:0:0:0:
320,192,162147,1,0,0:0:0:0:
192,192,162230,1,2,0:0:0:0:
64,192,162230,1,0,0:0:0:0:
320,192,162312,1,0,0:0:0:0:
448,192,162394,1,0,0:0:0:0:
64,192,162394,1,0,0:0:0:0:
320,192,162477,1,0,0:0:0:0:
192,192,162559,1,10,0:0:0:0:
64,192,162559,1,0,0:0:0:0:
448,192,162642,1,0,0:0:0:0:
320,192,162724,1,0,0:0:0:0:
192,192,162724,1,0,0:0:0:0:
64,192,162807,1,0,0:0:0:0:
448,192,162889,1,2,0:0:0:0:
192,192,162889,1,0,0:0:0:0:
320,192,162971,1,0,0:0:0:0:
448,192,163054,1,0,0:0:0:0:
64,192,163054,1,0,0:0:0:0:
192,192,163136,1,0,0:0:0:0:
320,192,163219,1,10,0:0:0:0:
448,192,163219,1,0,0:0:0:0:
64,192,163301,1,0,0:0:0:0:
192,192,163383,1,0,0:0:0:0:
320,192,163383,1,0,0:0:0:0:
64,192,163466,1,0,0:0:0:0:
192,192,163548,1,2,0:0:0:0:
448,192,163548,1,0,0:0:0:0:
320,192,163631,1,0,0:0:0:0:
64,192,163713,1,0,0:0:0:0:
448,192,163713,1,0,0:0:0:0:
192,192,163796,1,0,0:0:0:0:
320,192,163878,1,10,0:0:0:0:
448,192,163878,1,0,0:0:0:0:
64,192,163960,1,0,0:0:0:0:
320,192,164043,1,0,0:0:0:0:
192,192,164043,1,0,0:0:0:0:
64,192,164125,1,0,0:0:0:0:
320,192,164208,1,2,0:0:0:0:
448,192,164208,1,0,0:0:0:0:
192,192,164290,1,0,0:0:0:0:
64,192,164372,1,0,0:0:0:0:
448,192,164372,1,0,0:0:0:0:
320,192,164455,1,0,0:0:0:0:
192,192,164537,1,10,0:0:0:0:
64,192,164537,1,0,0:0:0:0:
320,192,164620,1,0,0:0:0:0:
192,192,164702,1,0,0:0:0:0:
448,192,164702,1,0,0:0:0:0:
64,192,164785,1,0,0:0:0:0:
192,192,164867,1,2,0:0:0:0:
320,192,164867,1,0,0:0:0:0:
448,192,164949,1,0,0:0:0:0:
320,192,165032,1,8,2:0:0:45:
448,192,165114,1,0,0:0:0:0:
192,192,165197,1,10,0:0:0:0:
320,192,165197,1,8,2:0:0:45:
64,192,165279,1,0,0:0:0:0:
192,192,165361,1,8,2:0:0:45:
64,192,165444,1,0,0:0:0:0:
192,192,165526,1,2,0:0:0:0:
448,192,165526,1,8,2:0:0:45:
320,192,165609,1,0,0:0:0:0:
192,192,165691,1,0,0:0:0:0:
64,192,165691,1,0,0:0:0:0:
448,192,165774,1,0,0:0:0:0:
192,192,165856,1,10,0:0:0:0:
64,192,165856,1,0,0:0:0:0:
320,192,165938,1,8,0:0:0:0:
448,192,165938,1,0,0:0:0:0:
192,192,166021,1,8,0:0:0:0:
64,192,166021,1,0,0:0:0:0:
448,192,166103,1,0,0:0:0:0:
320,192,166186,1,4,0:0:0:0:
192,192,166186,1,2,0:0:0:0:
64,192,166186,1,0,0:0:0:0:
448,192,166268,1,0,0:0:0:0:
192,192,166351,1,0,0:0:0:0:
64,192,166351,1,0,0:0:0:0:
64,192,166433,1,0,0:0:0:0:
192,192,166433,1,0,0:0:0:0:
320,192,166515,1,10,0:0:0:0:
448,192,166515,1,0,0:0:0:0:
64,192,166598,1,0,0:0:0:0:
320,192,166680,1,0,0:0:0:0:
448,192,166680,1,0,0:0:0:0:
448,192,166763,1,0,0:0:0:0:
320,192,166763,1,0,0:0:0:0:
192,192,166845,1,2,0:0:0:0:
64,192,166845,1,0,0:0:0:0:
448,192,166927,1,0,0:0:0:0:
320,192,167010,1,0,0:0:0:0:
64,192,167010,1,0,0:0:0:0:
192,192,167092,1,0,0:0:0:0:
64,192,167175,1,0,0:0:0:0:
448,192,167175,1,10,0:0:0:0:
320,192,167257,1,0,0:0:0:0:
192,192,167340,1,0,0:0:0:0:
64,192,167340,1,0,0:0:0:0:
320,192,167422,1,0,0:0:0:0:
448,192,167504,1,0,0:0:0:0:
192,192,167504,1,2,0:0:0:0:
320,192,167587,1,0,0:0:0:0:
192,192,167669,1,0,0:0:0:0:
64,192,167669,1,0,0:0:0:0:
448,192,167752,1,0,0:0:0:0:
320,192,167834,1,10,0:0:0:0:
64,192,167834,1,0,0:0:0:0:
192,192,167916,1,0,0:0:0:0:
320,192,167999,1,0,0:0:0:0:
448,192,167999,1,0,0:0:0:0:
192,192,168081,1,0,0:0:0:0:
64,192,168164,1,2,0:0:0:0:
448,192,168164,1,0,0:0:0:0:
192,192,168246,1,0,0:0:0:0:
320,192,168329,1,0,0:0:0:0:
64,192,168329,1,0,0:0:0:0:
448,192,168411,1,0,0:0:0:0:
192,192,168493,1,10,0:0:0:0:
64,192,168493,1,0,0:0:0:0:
320,192,168576,1,0,0:0:0:0:
448,192,168658,1,0,0:0:0:0:
192,192,168658,1,0,0:0:0:0:
320,192,168741,1,0,0:0:0:0:
448,192,168823,1,0,0:0:0:0:
64,192,168823,1,2,0:0:0:0:
192,192,168905,1,0,0:0:0:0:
320,192,168988,1,0,0:0:0:0:
448,192,168988,1,0,0:0:0:0:
192,192,169070,1,0,0:0:0:0:
64,192,169153,1,0,0:0:0:0:
320,192,169153,1,10,0:0:0:0:
448,192,169235,1,0,0:0:0:0:
320,192,169318,1,0,0:0:0:0:
192,192,169318,1,0,0:0:0:0:
64,192,169400,1,0,0:0:0:0:
192,192,169482,1,2,0:0:0:0:
448,192,169482,1,0,0:0:0:0:
320,192,169565,1,0,0:0:0:0:
192,192,169647,1,0,0:0:0:0:
64,192,169647,1,0,0:0:0:0:
448,192,169730,1,0,0:0:0:0:
320,192,169812,1,10,0:0:0:0:
64,192,169812,1,0,0:0:0:0:
192,192,169894,1,0,0:0:0:0:
64,192,169977,1,0,0:0:0:0:
448,192,169977,1,0,0:0:0:0:
320,192,170059,1,0,0:0:0:0:
192,192,170142,1,2,0:0:0:0:
448,192,170142,1,0,0:0:0:0:
64,192,170224,1,0,0:0:0:0:
320,192,170307,1,0,0:0:0:0:
192,192,170389,1,0,0:0:0:0:
448,192,170471,1,10,0:0:0:0:
64,192,170471,1,0,0:0:0:0:
320,192,170554,1,0,0:0:0:0:
192,192,170636,1,0,0:0:0:0:
448,192,170719,1,0,0:0:0:0:
320,192,170801,1,2,0:0:0:0:
64,192,170801,1,0,0:0:0:0:
192,192,170883,1,0,0:0:0:0:
64,192,170966,1,0,0:0:0:0:
448,192,170966,1,0,0:0:0:0:
320,192,171048,1,0,0:0:0:0:
192,192,171131,1,10,0:0:0:0:
64,192,171131,1,0,0:0:0:0:
448,192,171213,1,0,0:0:0:0:
320,192,171296,1,0,0:0:0:0:
192,192,171296,1,0,0:0:0:0:
64,192,171378,1,0,0:0:0:0:
320,192,171460,1,2,0:0:0:0:
448,192,171460,1,0,0:0:0:0:
192,192,171543,1,0,0:0:0:0:
320,192,171625,1,0,0:0:0:0:
448,192,171625,1,0,0:0:0:0:
448,192,171708,1,0,0:0:0:0:
320,192,171708,1,0,0:0:0:0:
64,192,171790,1,0,0:0:0:0:
192,192,171790,1,10,0:0:0:0:
320,192,171872,1,0,0:0:0:0:
192,192,171955,1,0,0:0:0:0:
64,192,171955,1,0,0:0:0:0:
64,192,172037,1,0,0:0:0:0:
192,192,172037,1,0,0:0:0:0:
320,192,172120,1,2,0:0:0:0:
448,192,172120,1,0,0:0:0:0:
64,192,172202,1,0,0:0:0:0:
192,192,172285,1,0,0:0:0:0:
448,192,172285,1,0,0:0:0:0:
320,192,172367,1,0,0:0:0:0:
64,192,172449,1,10,0:0:0:0:
448,192,172449,1,0,0:0:0:0:
192,192,172532,1,0,0:0:0:0:
320,192,172614,1,0,0:0:0:0:
448,192,172614,1,0,0:0:0:0:
64,192,172697,1,0,0:0:0:0:
192,192,172779,1,2,0:0:0:0:
320,192,172779,1,0,0:0:0:0:
64,192,172861,1,0,0:0:0:0:
320,192,172944,1,0,0:0:0:0:
448,192,172944,1,0,0:0:0:0:
192,192,173026,1,0,0:0:0:0:
64,192,173109,1,10,0:0:0:0:
448,192,173109,1,0,0:0:0:0:
320,192,173191,1,0,0:0:0:0:
192,192,173274,1,0,0:0:0:0:
64,192,173274,1,0,0:0:0:0:
320,192,173356,1,0,0:0:0:0:
448,192,173438,1,0,0:0:0:0:
192,192,173438,1,2,0:0:0:0:
320,192,173521,1,0,0:0:0:0:
64,192,173603,1,0,0:0:0:0:
448,192,173603,1,0,0:0:0:0:
192,192,173686,1,0,0:0:0:0:
320,192,173768,1,10,0:0:0:0:
448,192,173768,1,0,0:0:0:0:
64,192,173851,1,0,0:0:0:0:
320,192,173933,1,0,0:0:0:0:
192,192,173933,1,0,0:0:0:0:
64,192,174015,1,0,0:0:0:0:
192,192,174098,1,2,0:0:0:0:
448,192,174098,1,0,0:0:0:0:
320,192,174180,1,0,0:0:0:0:
448,192,174263,1,0,0:0:0:0:
64,192,174263,1,0,0:0:0:0:
320,192,174345,1,0,0:0:0:0:
192,192,174427,1,10,0:0:0:0:
64,192,174427,1,0,0:0:0:0:
448,192,174510,1,0,0:0:0:0:
320,192,174592,1,0,0:0:0:0:
64,192,174592,1,0,0:0:0:0:
192,192,174675,1,0,0:0:0:0:
448,192,174757,1,0,0:0:0:0:
320,192,174757,1,2,0:0:0:0:
64,192,174840,1,0,0:0:0:0:
448,192,174922,1,0,0:0:0:0:
192,192,174922,1,0,0:0:0:0:
64,192,175004,1,0,0:0:0:0:
192,192,175087,1,10,0:0:0:0:
320,192,175087,1,0,0:0:0:0:
448,192,175169,1,0,0:0:0:0:
320,192,175252,1,0,0:0:0:0:
64,192,175252,1,0,0:0:0:0:
192,192,175334,1,0,0:0:0:0:
64,192,175416,1,2,0:0:0:0:
448,192,175416,1,0,0:0:0:0:
320,192,175499,1,0,0:0:0:0:
192,192,175581,1,0,0:0:0:0:
448,192,175581,1,8,2:0:0:45:
320,192,175664,1,0,0:0:0:0:
64,192,175746,1,10,0:0:0:0:
448,192,175746,1,8,2:0:0:45:
192,192,175829,1,0,0:0:0:0:
64,192,175911,1,0,0:0:0:0:
320,192,175911,1,8,2:0:0:45:
192,192,175993,1,0,0:0:0:0:
64,192,176076,1,2,0:0:0:0:
448,192,176076,1,8,2:0:0:45:
320,192,176158,1,0,0:0:0:0:
448,192,176241,1,8,2:0:0:45:
320,192,176323,1,0,0:0:0:0:
448,192,176405,1,8,2:0:0:45:
64,192,176405,1,10,0:0:0:0:
192,192,176488,1,0,0:0:0:0:
64,192,176570,1,8,2:0:0:45:
192,192,176653,1,0,0:0:0:0:
64,192,176735,1,2,0:0:0:0:
320,192,176735,1,4,0:0:0:0:
448,192,176735,1,0,0:0:0:0:
448,192,176900,1,0,0:0:0:0:
320,192,177065,1,2,0:0:0:0:
192,192,177065,1,0,0:0:0:0:
192,192,177230,1,0,0:0:0:0:
64,192,177394,1,0,0:0:0:0:
320,192,177394,1,2,0:0:0:0:
448,192,177394,1,4,0:0:0:0:
320,192,177559,1,0,0:0:0:0:
64,192,177724,1,0,0:0:0:0:
192,192,177724,1,2,0:0:0:0:
192,192,177889,1,0,0:0:0:0:
64,192,178054,1,0,0:0:0:0:
320,192,178054,1,2,0:0:0:0:
448,192,178054,1,4,0:0:0:0:
64,192,178219,1,0,0:0:0:0:
192,192,178383,1,0,0:0:0:0:
320,192,178383,1,2,0:0:0:0:
192,192,178548,1,0,0:0:0:0:
64,192,178713,1,0,0:0:0:0:
320,192,178713,1,0,0:0:0:0:
448,192,178713,1,2,0:0:0:0:
320,192,179043,128,0,179372:0:0:0:0:
192,192,179372,1,2,0:0:0:0:
64,192,179372,1,0,0:0:0:0:
448,192,179372,1,4,0:0:0:0:
320,192,179455,1,0,0:0:0:0:
192,192,179537,1,0,0:0:0:0:
448,192,179620,1,0,0:0:0:0:
320,192,179702,1,10,0:0:0:0:
64,192,179702,1,0,0:0:0:0:
192,192,179785,1,0,0:0:0:0:
448,192,179867,1,0,0:0:0:0:
320,192,179949,1,0,0:0:0:0:
192,192,180032,1,0,0:0:0:0:
64,192,180032,1,2,0:0:0:0:
448,192,180114,1,0,0:0:0:0:
64,192,180197,1,0,0:0:0:0:
320,192,180279,1,0,0:0:0:0:
448,192,180361,1,0,0:0:0:0:
192,192,180361,1,10,0:0:0:0:
64,192,180444,1,0,0:0:0:0:
320,192,180526,1,0,0:0:0:0:
448,192,180526,1,0,0:0:0:0:
192,192,180609,1,0,0:0:0:0:
64,192,180609,1,0,0:0:0:0:
320,192,180691,1,2,0:0:0:0:
448,192,180691,1,0,0:0:0:0:
192,192,180774,1,0,0:0:0:0:
64,192,180856,1,0,0:0:0:0:
320,192,180938,1,0,0:0:0:0:
192,192,181021,1,10,0:0:0:0:
448,192,181021,1,0,0:0:0:0:
64,192,181103,1,0,0:0:0:0:
320,192,181186,1,0,0:0:0:0:
448,192,181186,1,0,0:0:0:0:
192,192,181268,1,0,0:0:0:0:
64,192,181268,1,0,0:0:0:0:
448,192,181351,1,0,0:0:0:0:
320,192,181351,1,2,0:0:0:0:
192,192,181433,1,0,0:0:0:0:
64,192,181515,1,0,0:0:0:0:
320,192,181598,1,0,0:0:0:0:
192,192,181680,1,10,0:0:0:0:
448,192,181680,1,0,0:0:0:0:
64,192,181763,1,0,0:0:0:0:
320,192,181845,1,0,0:0:0:0:
448,192,181845,1,0,0:0:0:0:
192,192,181927,1,0,0:0:0:0:
64,192,181927,1,0,0:0:0:0:
320,192,182010,1,2,0:0:0:0:
448,192,182010,1,0,0:0:0:0:
64,192,182092,1,0,0:0:0:0:
320,192,182175,1,0,0:0:0:0:
192,192,182257,1,0,0:0:0:0:
64,192,182340,1,10,0:0:0:0:
448,192,182340,1,0,0:0:0:0:
320,192,182422,1,0,0:0:0:0:
192,192,182504,1,0,0:0:0:0:
448,192,182587,1,0,0:0:0:0:
320,192,182669,1,2,0:0:0:0:
64,192,182669,1,0,0:0:0:0:
192,192,182752,1,0,0:0:0:0:
320,192,182834,1,0,0:0:0:0:
64,192,182916,1,0,0:0:0:0:
192,192,182999,1,10,0:0:0:0:
448,192,182999,1,0,0:0:0:0:
320,192,183081,1,0,0:0:0:0:
192,192,183164,1,0,0:0:0:0:
64,192,183164,1,0,0:0:0:0:
320,192,183246,1,0,0:0:0:0:
448,192,183246,1,0,0:0:0:0:
192,192,183329,1,0,0:0:0:0:
64,192,183329,1,2,0:0:0:0:
448,192,183411,1,0,0:0:0:0:
192,192,183493,1,0,0:0:0:0:
320,192,183576,1,0,0:0:0:0:
448,192,183658,1,10,0:0:0:0:
64,192,183658,1,0,0:0:0:0:
192,192,183741,1,0,0:0:0:0:
320,192,183823,1,0,0:0:0:0:
448,192,183823,1,0,0:0:0:0:
192,192,183905,1,0,0:0:0:0:
64,192,183905,1,0,0:0:0:0:
320,192,183988,1,2,0:0:0:0:
448,192,183988,1,0,0:0:0:0:
64,192,184070,1,0,0:0:0:0:
320,192,184153,1,0,0:0:0:0:
192,192,184153,1,0,0:0:0:0:
64,192,184235,1,0,0:0:0:0:
448,192,184235,1,0,0:0:0:0:
320,192,184318,1,0,0:0:0:0:
192,192,184318,1,10,0:0:0:0:
448,192,184400,1,0,0:0:0:0:
192,192,184482,1,0,0:0:0:0:
64,192,184482,1,0,0:0:0:0:
320,192,184565,1,0,0:0:0:0:
448,192,184565,1,0,0:0:0:0:
192,192,184647,1,0,0:0:0:0:
64,192,184647,1,2,0:0:0:0:
448,192,184730,1,0,0:0:0:0:
320,192,184812,1,0,0:0:0:0:
192,192,184894,1,0,0:0:0:0:
64,192,184977,1,0,0:0:0:0:
320,192,184977,1,10,0:0:0:0:
448,192,185059,1,0,0:0:0:0:
192,192,185142,1,0,0:0:0:0:
64,192,185142,1,0,0:0:0:0:
320,192,185224,1,0,0:0:0:0:
448,192,185224,1,0,0:0:0:0:
192,192,185307,1,2,0:0:0:0:
64,192,185307,1,0,0:0:0:0:
448,192,185389,1,0,0:0:0:0:
320,192,185471,1,0,0:0:0:0:
192,192,185471,1,0,0:0:0:0:
64,192,185554,1,0,0:0:0:0:
448,192,185554,1,0,0:0:0:0:
320,192,185636,1,10,0:0:0:0:
192,192,185636,1,0,0:0:0:0:
64,192,185719,1,0,0:0:0:0:
320,192,185801,1,0,0:0:0:0:
448,192,185801,1,0,0:0:0:0:
192,192,185883,1,0,0:0:0:0:
64,192,185966,1,2,0:0:0:0:
320,192,185966,1,0,0:0:0:0:
448,192,186048,1,0,0:0:0:0:
320,192,186131,1,0,0:0:0:0:
192,192,186131,1,0,0:0:0:0:
64,192,186213,1,0,0:0:0:0:
320,192,186296,1,10,0:0:0:0:
448,192,186296,1,0,0:0:0:0:
192,192,186378,1,0,0:0:0:0:
64,192,186460,1,0,0:0:0:0:
320,192,186460,1,0,0:0:0:0:
448,192,186543,1,0,0:0:0:0:
192,192,186625,1,2,0:0:0:0:
64,192,186625,1,0,0:0:0:0:
320,192,186708,1,0,0:0:0:0:
448,192,186790,1,0,0:0:0:0:
192,192,186790,1,0,0:0:0:0:
64,192,186872,1,0,0:0:0:0:
192,192,186955,1,0,0:0:0:0:
320,192,186955,1,10,0:0:0:0:
448,192,187037,1,0,0:0:0:0:
320,192,187120,1,0,0:0:0:0:
64,192,187120,1,0,0:0:0:0:
192,192,187202,1,0,0:0:0:0:
448,192,187285,1,0,0:0:0:0:
64,192,187285,1,2,0:0:0:0:
320,192,187367,1,0,0:0:0:0:
192,192,187449,1,0,0:0:0:0:
64,192,187449,1,0,0:0:0:0:
320,192,187532,1,0,0:0:0:0:
448,192,187614,1,0,0:0:0:0:
192,192,187614,1,10,0:0:0:0:
64,192,187697,1,0,0:0:0:0:
320,192,187779,1,0,0:0:0:0:
448,192,187861,1,0,0:0:0:0:
64,192,187944,1,2,0:0:0:0:
192,192,187944,1,0,0:0:0:0:
320,192,188026,1,0,0:0:0:0:
192,192,188109,1,0,0:0:0:0:
448,192,188109,1,0,0:0:0:0:
320,192,188191,1,0,0:0:0:0:
64,192,188191,1,0,0:0:0:0:
192,192,188274,1,10,0:0:0:0:
448,192,188274,1,0,0:0:0:0:
64,192,188356,1,0,0:0:0:0:
320,192,188438,1,0,0:0:0:0:
192,192,188521,1,0,0:0:0:0:
64,192,188603,1,0,0:0:0:0:
448,192,188603,1,2,0:0:0:0:
448,192,188768,1,2,0:0:0:0:
192,192,188768,1,0,0:0:0:0:
64,192,188933,1,0,0:0:0:0:
320,192,188933,1,2,0:0:0:0:
320,192,189098,1,2,0:0:0:0:
448,192,189098,1,0,0:0:0:0:
192,192,189263,1,2,0:0:0:0:
64,192,189263,1,0,0:0:0:0:
64,192,189427,1,2,0:0:0:0:
448,192,189427,1,0,0:0:0:0:
320,192,189482,1,2,0:0:0:45:
192,192,189537,1,2,0:0:0:45:
64,192,189592,1,2,0:0:0:0:
448,192,189592,1,0,0:0:0:0:
320,192,189757,1,2,0:0:0:0:
192,192,189757,1,0,0:0:0:0:
64,192,189922,1,0,0:0:0:0:
320,192,189922,1,2,0:0:0:0:
448,192,190087,1,2,0:0:0:0:
192,192,190087,1,0,0:0:0:0:
192,192,190252,1,2,0:0:0:0:
64,192,190252,1,0,0:0:0:0:
64,192,190416,1,0,0:0:0:0:
448,192,190416,1,2,0:0:0:0:
192,192,190471,1,2,0:0:0:45:
320,192,190526,1,2,0:0:0:45:
64,192,190581,1,0,0:0:0:0:
448,192,190581,1,2,0:0:0:0:
320,192,190746,1,0,0:0:0:0:
192,192,190746,1,2,0:0:0:0:
192,192,190911,1,2,0:0:0:0:
448,192,190911,1,0,0:0:0:0:
320,192,191076,1,0,0:0:0:0:
64,192,191076,1,2,0:0:0:0:
320,192,191241,1,2,0:0:0:0:
448,192,191241,1,0,0:0:0:0:
64,192,191405,1,2,0:0:0:0:
448,192,191405,1,0,0:0:0:0:
192,192,191460,1,2,0:0:0:45:
320,192,191515,1,2,0:0:0:45:
448,192,191570,1,0,0:0:0:0:
64,192,191570,1,2,0:0:0:0:
192,192,191735,1,0,0:0:0:0:
320,192,191735,1,2,0:0:0:0:
64,192,193219,128,0,199153:0:0:0:0:
192,192,193301,1,0,0:0:0:0:
320,192,193383,1,0,0:0:0:0:
448,192,193466,1,0,0:0:0:0:
192,192,194702,128,0,199153:0:0:0:0:
320,192,195691,128,0,199153:0:0:0:0:
448,192,196515,128,0,199153:0:0:0:0:
