osu file format v14

[General]
AudioFilename: audio.mp3
AudioLeadIn: 0
PreviewTime: 57394
Countdown: 0
SampleSet: None
StackLeniency: 0.7
Mode: 3
LetterboxInBreaks: 0
SpecialStyle: 0
WidescreenStoryboard: 1

[Editor]
Bookmarks: 1351,14538,25087,35636,46186,58054,79153,87065,92340,97614,109483,130581,143768,155636,166186,176735,188603,196516,199153
DistanceSpacing: 0.5
BeatDivisor: 4
GridSize: 8
TimelineZoom: 1.5

[Metadata]
Title:Hanairo Biyori
TitleUnicode:花色日和
Artist:Natsume Chiaki
ArtistUnicode:なつめ千秋
Creator:Asherz007
Version:Normal
Source:
Tags:thousands of gifts vocaloid2 hatsune miku tailsdk Sooph big_z11 big z11 UnluckyCroco
BeatmapID:2065031
BeatmapSetID:987173

[Difficulty]
HPDrainRate:7
CircleSize:4
OverallDifficulty:7
ApproachRate:5
SliderMultiplier:1.4
SliderTickRate:1

[Events]
//Background and Video events
0,0,"bg.jpg",0,0
Video,0,"video.avi"
//Break Periods
//Storyboard Layer 0 (Background)
//Storyboard Layer 1 (Fail)
//Storyboard Layer 2 (Pass)
//Storyboard Layer 3 (Foreground)
//Storyboard Sound Samples

[TimingPoints]
1351,329.67032967033,4,2,1,40,1,0
14537,-100,4,3,1,60,0,0
58054,-100,4,3,1,60,0,1
81131,-100,4,3,1,60,0,0
109482,-100,4,3,1,60,0,1
132559,-100,4,3,1,60,0,0
133219,-100,4,2,1,80,0,0
143768,-100,4,3,1,60,0,0
155636,-100,4,3,1,60,0,1
178713,-100,4,3,1,60,0,0
193219,-100,4,2,1,40,0,0

[HitObjects]
64,192,14537,5,2,0:0:0:0:
448,192,14537,1,4,0:0:0:0:
192,192,14867,1,8,0:0:0:0:
320,192,14867,1,2,0:0:0:0:
448,192,15197,1,2,0:0:0:0:
64,192,15526,1,8,0:0:0:0:
192,192,15526,1,2,0:0:0:0:
448,192,15691,1,0,0:0:0:0:
320,192,15774,1,0,0:0:0:0:
192,192,15856,1,2,0:0:0:0:
320,192,16186,1,8,0:0:0:0:
448,192,16186,1,2,0:0:0:0:
64,192,16351,1,0,0:0:0:0:
192,192,16433,1,0,0:0:0:0:
320,192,16515,1,2,0:0:0:0:
64,192,16845,1,8,0:0:0:0:
448,192,16845,1,2,0:0:0:0:
192,192,17010,1,0,0:0:0:0:
320,192,17092,1,0,0:0:0:0:
448,192,17175,1,2,0:0:0:0:
64,192,17504,1,8,0:0:0:0:
320,192,17504,1,2,0:0:0:0:
192,192,17834,1,2,0:0:0:0:
320,192,18164,1,8,0:0:0:0:
448,192,18164,1,2,0:0:0:0:
192,192,18329,1,0,0:0:0:0:
64,192,18411,1,0,0:0:0:0:
448,192,18493,1,2,0:0:0:0:
64,192,18823,1,8,0:0:0:0:
320,192,18823,1,2,0:0:0:0:
192,192,18988,1,0,0:0:0:0:
320,192,19070,1,0,0:0:0:0:
448,192,19153,1,2,0:0:0:0:
64,192,19318,1,0,0:0:0:0:
192,192,19400,1,0,0:0:0:0:
320,192,19482,1,10,0:0:0:0:
64,192,19647,1,0,0:0:0:0:
192,192,19730,1,0,0:0:0:0:
448,192,19812,1,2,0:0:0:0:
64,192,20142,1,8,0:0:0:0:
320,192,20142,1,2,0:0:0:0:
448,192,20307,1,0,0:0:0:0:
320,192,20389,1,0,0:0:0:0:
192,192,20471,1,2,0:0:0:0:
320,192,20636,1,0,0:0:0:0:
192,192,20719,1,0,0:0:0:0:
64,192,20801,1,10,0:0:0:0:
448,192,20966,1,0,0:0:0:0:
192,192,21131,128,2,21296:0:0:0:0:
448,192,21296,128,0,21460:0:0:0:0:
64,192,21460,128,8,21625:0:0:0:0:
192,192,21460,1,2,0:0:0:0:
320,192,21625,128,0,21790:0:0:0:0:
448,192,21790,128,2,21955:0:0:0:0:
192,192,21955,128,0,22120:0:0:0:0:
320,192,22120,1,8,0:0:0:0:
448,192,22120,1,2,0:0:0:0:
64,192,22285,1,0,0:0:0:0:
320,192,22449,1,2,0:0:0:0:
192,192,22614,1,0,0:0:0:0:
64,192,22779,1,8,0:0:0:0:
448,192,22779,1,2,0:0:0:0:
320,192,23109,1,2,0:0:0:0:
64,192,23274,128,0,23438:0:0:0:0:
192,192,23438,1,8,0:0:0:0:
448,192,23438,1,2,0:0:0:0:
320,192,23603,128,0,23768:0:0:0:0:
64,192,23768,128,2,23933:0:0:0:0:
448,192,23933,128,2,24098:0:0:0:0:
320,192,24098,128,2,24263:0:0:0:0:
192,192,24263,128,2,24427:0:0:0:0:
64,192,24427,128,2,24592:0:0:0:0:
320,192,24592,128,2,24757:0:0:0:0:
448,192,24592,128,0,24757:0:0:0:0:
192,192,24757,1,2,0:0:0:0:
320,192,24922,1,2,0:0:0:0:
64,192,25087,1,2,0:0:0:0:
448,192,25252,1,0,0:0:0:0:
320,192,25416,1,2,0:0:0:0:
192,192,25581,1,0,0:0:0:0:
448,192,25746,1,2,0:0:0:0:
64,192,25911,128,0,26076:0:0:0:0:
320,192,26076,1,2,0:0:0:0:
192,192,26241,1,0,0:0:0:0:
448,192,26405,1,2,0:0:0:0:
320,192,26570,128,0,26735:0:0:0:0:
64,192,26735,1,2,0:0:0:0:
192,192,26900,1,0,0:0:0:0:
448,192,27065,1,2,0:0:0:0:
64,192,27394,1,2,0:0:0:0:
192,192,27559,1,0,0:0:0:0:
320,192,27724,1,2,0:0:0:0:
64,192,28054,1,2,0:0:0:0:
320,192,28219,1,0,0:0:0:0:
448,192,28383,1,2,0:0:0:0:
192,192,28548,128,0,28713:0:0:0:0:
64,192,28713,1,2,0:0:0:0:
320,192,28878,1,0,0:0:0:0:
192,192,29043,1,2,0:0:0:0:
448,192,29208,128,0,29372:0:0:0:0:
64,192,29372,1,2,0:0:0:0:
320,192,29537,1,0,0:0:0:0:
192,192,29702,1,2,0:0:0:0:
448,192,30032,1,2,0:0:0:0:
192,192,30361,1,2,0:0:0:0:
320,192,30526,1,0,0:0:0:0:
64,192,30691,1,2,0:0:0:0:
192,192,30856,1,0,0:0:0:0:
448,192,31021,1,2,0:0:0:0:
320,192,31186,128,0,31351:0:0:0:0:
64,192,31351,1,2,0:0:0:0:
192,192,31515,1,0,0:0:0:0:
448,192,31680,1,2,0:0:0:0:
64,192,31845,128,0,32010:0:0:0:0:
320,192,32010,1,2,0:0:0:0:
192,192,32175,1,0,0:0:0:0:
64,192,32340,1,2,0:0:0:0:
320,192,32669,1,2,0:0:0:0:
192,192,32834,1,0,0:0:0:0:
448,192,32999,1,2,0:0:0:0:
64,192,33329,1,2,0:0:0:0:
320,192,33493,1,0,0:0:0:0:
192,192,33658,1,2,0:0:0:0:
448,192,33823,128,0,33988:0:0:0:0:
64,192,33988,1,2,0:0:0:0:
192,192,34153,1,0,0:0:0:0:
320,192,34318,1,2,0:0:0:0:
64,192,34482,128,8,34647:0:0:0:30:
448,192,34647,1,2,0:0:0:0:
192,192,34812,1,8,0:0:0:30:
320,192,34977,128,10,35307:0:0:0:0:
192,192,35307,128,10,35636:0:0:0:0:
64,192,35636,1,2,0:0:0:0:
448,192,35636,1,4,0:0:0:0:
320,192,35801,1,0,0:0:0:0:
64,192,35966,1,8,0:0:0:0:
192,192,35966,1,2,0:0:0:0:
448,192,36131,1,0,0:0:0:0:
320,192,36296,1,2,0:0:0:0:
64,192,36460,128,0,36625:0:0:0:0:
192,192,36625,1,8,0:0:0:0:
448,192,36625,1,2,0:0:0:0:
320,192,36790,1,0,0:0:0:0:
64,192,36955,1,2,0:0:0:0:
448,192,37120,128,0,37285:0:0:0:0:
64,192,37285,1,8,0:0:0:0:
192,192,37285,1,2,0:0:0:0:
320,192,37449,1,0,0:0:0:0:
448,192,37614,1,2,0:0:0:0:
64,192,37944,1,8,0:0:0:0:
192,192,37944,1,2,0:0:0:0:
320,192,38109,1,0,0:0:0:0:
448,192,38274,1,2,0:0:0:0:
64,192,38603,1,8,0:0:0:0:
320,192,38603,1,2,0:0:0:0:
192,192,38768,1,0,0:0:0:0:
448,192,38933,1,2,0:0:0:0:
320,192,39098,128,0,39263:0:0:0:0:
64,192,39263,1,8,0:0:0:0:
192,192,39263,1,2,0:0:0:0:
448,192,39427,1,0,0:0:0:0:
320,192,39592,1,2,0:0:0:0:
192,192,39757,128,0,39922:0:0:0:0:
64,192,39922,1,8,0:0:0:0:
448,192,39922,1,2,0:0:0:0:
320,192,40087,1,0,0:0:0:0:
192,192,40252,1,2,0:0:0:0:
448,192,40416,128,0,40581:0:0:0:0:
64,192,40581,128,8,40911:0:0:0:0:
192,192,40581,1,2,0:0:0:0:
320,192,40911,1,2,0:0:0:0:
192,192,41076,1,0,0:0:0:0:
64,192,41241,1,8,0:0:0:0:
448,192,41241,1,2,0:0:0:0:
320,192,41405,1,0,0:0:0:0:
192,192,41570,1,2,0:0:0:0:
448,192,41735,128,0,41900:0:0:0:0:
64,192,41900,1,8,0:0:0:0:
192,192,41900,1,2,0:0:0:0:
320,192,42065,1,0,0:0:0:0:
448,192,42230,1,2,0:0:0:0:
192,192,42394,128,0,42559:0:0:0:0:
320,192,42559,1,8,0:0:0:0:
448,192,42559,1,2,0:0:0:0:
64,192,42724,1,0,0:0:0:0:
320,192,42889,1,2,0:0:0:0:
64,192,43219,1,8,0:0:0:0:
448,192,43219,1,2,0:0:0:0:
320,192,43383,1,0,0:0:0:0:
192,192,43548,1,2,0:0:0:0:
320,192,43878,1,8,0:0:0:0:
448,192,43878,1,2,0:0:0:0:
64,192,44043,1,0,0:0:0:0:
192,192,44208,1,2,0:0:0:0:
448,192,44372,128,0,44537:0:0:0:0:
64,192,44537,1,8,0:0:0:0:
320,192,44537,1,2,0:0:0:0:
192,192,44702,1,0,0:0:0:0:
448,192,44867,1,2,0:0:0:0:
64,192,45032,1,8,0:0:0:0:
320,192,45032,1,0,0:0:0:0:
192,192,45197,1,2,0:0:0:0:
320,192,45361,1,8,0:0:0:0:
448,192,45361,1,0,0:0:0:0:
64,192,45526,128,2,45856:0:0:0:0:
192,192,45856,128,10,46021:0:0:0:0:
320,192,46021,128,8,46186:2:0:0:45:
64,192,46186,1,4,0:0:0:0:
448,192,46186,1,2,0:0:0:0:
320,192,46515,1,8,0:0:0:0:
192,192,46680,1,2,0:0:0:0:
320,192,46845,1,2,0:0:0:0:
64,192,47175,1,8,0:0:0:0:
192,192,47340,1,2,0:0:0:0:
320,192,47504,1,0,0:0:0:0:
448,192,47669,1,2,0:0:0:0:
192,192,47834,1,8,0:0:0:0:
320,192,47999,1,2,0:0:0:0:
64,192,48164,1,2,0:0:0:0:
192,192,48493,1,8,0:0:0:0:
64,192,48658,1,2,0:0:0:0:
448,192,48823,1,2,0:0:0:0:
192,192,49153,1,8,0:0:0:0:
320,192,49318,1,2,0:0:0:0:
64,192,49482,1,2,0:0:0:0:
448,192,49812,1,8,0:0:0:0:
192,192,49977,1,2,0:0:0:0:
320,192,50142,1,0,0:0:0:0:
192,192,50307,1,2,0:0:0:0:
64,192,50471,128,8,50636:0:0:0:0:
448,192,50636,1,2,0:0:0:0:
320,192,50801,1,2,0:0:0:0:
192,192,51131,1,8,0:0:0:0:
320,192,51296,1,2,0:0:0:0:
448,192,51460,1,2,0:0:0:0:
64,192,51790,1,8,0:0:0:0:
320,192,51955,1,2,0:0:0:0:
192,192,52120,1,2,0:0:0:0:
448,192,52449,1,8,0:0:0:0:
64,192,52614,1,2,0:0:0:0:
192,192,52779,1,0,0:0:0:0:
320,192,52944,1,2,0:0:0:0:
192,192,53109,1,8,0:0:0:0:
448,192,53274,1,2,0:0:0:0:
320,192,53438,1,2,0:0:0:0:
64,192,53768,1,8,0:0:0:0:
192,192,53933,1,2,0:0:0:0:
448,192,54098,1,2,0:0:0:0:
320,192,54263,1,2,0:0:0:0:
192,192,54427,1,10,0:0:0:0:
448,192,54592,1,2,0:0:0:0:
320,192,54757,1,2,0:0:0:0:
64,192,54922,1,2,0:0:0:0:
192,192,55087,1,10,0:0:0:0:
320,192,55252,1,2,0:0:0:0:
64,192,55416,1,2,0:0:0:0:
192,192,55581,1,2,0:0:0:0:
320,192,55746,1,2,0:0:0:0:
448,192,55911,1,2,0:0:0:0:
192,192,56076,128,2,56241:0:0:0:0:
320,192,56241,128,2,56405:0:0:0:0:
64,192,56405,128,2,56570:0:0:0:40:
192,192,56405,128,0,56570:0:0:0:0:
320,192,56570,128,2,56735:0:0:0:40:
448,192,56570,128,0,56735:0:0:0:0:
64,192,56735,1,2,0:0:0:0:
64,192,57559,1,0,0:0:0:0:
192,192,57724,1,0,0:0:0:0:
320,192,57889,1,0,0:0:0:0:
64,192,58054,1,4,0:0:0:0:
448,192,58054,1,2,0:0:0:0:
192,192,58219,1,0,0:0:0:0:
320,192,58301,1,0,0:0:0:0:
448,192,58383,1,10,0:0:0:0:
320,192,58548,1,0,0:0:0:0:
192,192,58631,1,0,0:0:0:0:
64,192,58713,1,2,0:0:0:0:
448,192,58878,1,0,0:0:0:0:
64,192,59043,1,8,0:0:0:0:
320,192,59043,1,2,0:0:0:0:
192,192,59208,1,0,0:0:0:0:
320,192,59372,1,2,0:0:0:0:
448,192,59537,1,0,0:0:0:0:
64,192,59702,1,8,0:0:0:0:
192,192,59702,1,2,0:0:0:0:
320,192,59867,1,0,0:0:0:0:
64,192,60032,1,2,0:0:0:0:
448,192,60197,1,0,0:0:0:0:
192,192,60361,1,8,0:0:0:0:
320,192,60361,1,2,0:0:0:0:
64,192,60526,128,0,60691:0:0:0:0:
448,192,60691,128,2,60856:0:0:0:0:
192,192,60856,1,0,0:0:0:0:
320,192,61021,1,8,0:0:0:0:
448,192,61021,1,2,0:0:0:0:
64,192,61186,1,0,0:0:0:0:
320,192,61351,1,2,0:0:0:0:
192,192,61515,1,0,0:0:0:0:
64,192,61680,1,8,0:0:0:0:
448,192,61680,1,2,0:0:0:0:
320,192,61845,1,0,0:0:0:0:
192,192,62010,1,2,0:0:0:0:
320,192,62340,1,8,0:0:0:0:
448,192,62340,1,2,0:0:0:0:
64,192,62669,1,2,0:0:0:0:
320,192,62834,1,0,0:0:0:0:
192,192,62999,1,8,0:0:0:0:
448,192,62999,1,2,0:0:0:0:
64,192,63164,1,0,0:0:0:0:
320,192,63329,1,2,0:0:0:0:
192,192,63493,1,0,0:0:0:0:
320,192,63576,1,0,0:0:0:0:
448,192,63658,1,10,0:0:0:0:
320,192,63823,1,0,0:0:0:0:
192,192,63905,1,0,0:0:0:0:
64,192,63988,1,2,0:0:0:0:
448,192,64153,1,0,0:0:0:0:
64,192,64318,1,8,0:0:0:0:
320,192,64318,1,2,0:0:0:0:
192,192,64482,1,0,0:0:0:0:
448,192,64647,1,2,0:0:0:0:
64,192,64812,1,0,0:0:0:0:
192,192,64977,1,8,0:0:0:0:
320,192,64977,1,2,0:0:0:0:
448,192,65142,1,0,0:0:0:0:
64,192,65307,1,2,0:0:0:0:
320,192,65471,1,0,0:0:0:0:
64,192,65636,1,8,0:0:0:0:
192,192,65636,1,2,0:0:0:0:
448,192,65801,128,0,65966:0:0:0:0:
192,192,65966,128,2,66131:0:0:0:0:
64,192,66131,1,0,0:0:0:0:
320,192,66296,1,8,0:0:0:0:
448,192,66296,1,2,0:0:0:0:
192,192,66460,1,0,0:0:0:0:
64,192,66625,1,2,0:0:0:0:
448,192,66790,1,0,0:0:0:0:
64,192,66955,1,8,0:0:0:0:
192,192,66955,1,2,0:0:0:0:
320,192,67120,1,0,0:0:0:0:
448,192,67285,128,2,67449:0:0:0:0:
192,192,67449,128,0,67614:0:0:0:0:
320,192,67614,128,8,67779:0:0:0:0:
448,192,67614,1,2,0:0:0:0:
64,192,67779,128,0,67944:0:0:0:0:
192,192,67944,128,2,68109:0:0:0:0:
320,192,68109,128,0,68274:0:0:0:0:
64,192,68274,1,8,0:0:0:0:
448,192,68274,128,2,68438:0:0:0:0:
192,192,68438,128,8,68603:0:0:0:0:
320,192,68603,1,4,0:0:0:0:
448,192,68603,1,2,0:0:0:0:
192,192,68768,1,0,0:0:0:0:
320,192,68851,1,0,0:0:0:0:
448,192,68933,1,10,0:0:0:0:
320,192,69098,1,0,0:0:0:0:
192,192,69180,1,0,0:0:0:0:
64,192,69263,1,2,0:0:0:0:
448,192,69427,1,0,0:0:0:0:
192,192,69592,1,8,0:0:0:0:
320,192,69592,1,2,0:0:0:0:
64,192,69757,1,0,0:0:0:0:
448,192,69922,1,2,0:0:0:0:
192,192,70087,1,0,0:0:0:0:
64,192,70252,1,8,0:0:0:0:
320,192,70252,1,2,0:0:0:0:
448,192,70416,1,0,0:0:0:0:
192,192,70581,1,2,0:0:0:0:
320,192,70746,1,0,0:0:0:0:
64,192,70911,1,8,0:0:0:0:
448,192,70911,1,2,0:0:0:0:
192,192,71076,128,0,71241:0:0:0:0:
448,192,71241,128,2,71405:0:0:0:0:
320,192,71405,1,0,0:0:0:0:
64,192,71570,1,8,0:0:0:0:
192,192,71570,1,2,0:0:0:0:
448,192,71735,1,0,0:0:0:0:
320,192,71900,1,2,0:0:0:0:
64,192,72065,1,0,0:0:0:0:
192,192,72230,1,8,0:0:0:0:
448,192,72230,1,2,0:0:0:0:
320,192,72394,1,0,0:0:0:0:
64,192,72559,1,2,0:0:0:0:
320,192,72889,1,8,0:0:0:0:
448,192,72889,1,2,0:0:0:0:
192,192,73219,1,2,0:0:0:0:
448,192,73383,1,0,0:0:0:0:
192,192,73548,1,8,0:0:0:0:
320,192,73548,1,2,0:0:0:0:
64,192,73713,1,0,0:0:0:0:
448,192,73878,1,2,0:0:0:0:
192,192,74043,1,0,0:0:0:0:
320,192,74125,1,0,0:0:0:0:
448,192,74208,1,10,0:0:0:0:
320,192,74372,1,0,0:0:0:0:
192,192,74455,1,0,0:0:0:0:
64,192,74537,1,2,0:0:0:0:
448,192,74702,1,0,0:0:0:0:
64,192,74867,1,8,0:0:0:0:
192,192,74867,1,2,0:0:0:0:
320,192,75032,1,0,0:0:0:0:
448,192,75197,1,2,0:0:0:0:
192,192,75361,1,0,0:0:0:0:
320,192,75526,1,2,0:0:0:0:
448,192,75526,1,8,0:0:0:0:
64,192,75691,1,0,0:0:0:0:
320,192,75856,1,2,0:0:0:0:
192,192,76021,1,0,0:0:0:0:
64,192,76186,1,8,0:0:0:0:
448,192,76186,1,2,0:0:0:0:
320,192,76351,1,0,0:0:0:0:
192,192,76515,128,2,76845:0:0:0:0:
320,192,76845,1,8,0:0:0:0:
448,192,76845,1,2,0:0:0:0:
64,192,77010,1,0,0:0:0:0:
320,192,77175,128,2,77504:0:0:0:0:
64,192,77504,1,8,0:0:0:0:
192,192,77504,1,2,0:0:0:0:
448,192,77669,1,0,0:0:0:0:
64,192,77834,128,2,77999:0:0:0:0:
320,192,77999,128,0,78164:0:0:0:0:
64,192,78164,1,8,0:0:0:0:
192,192,78164,128,2,78329:0:0:0:0:
448,192,78329,128,0,78493:0:0:0:0:
320,192,78493,128,2,78658:0:0:0:0:
64,192,78658,128,0,78823:0:0:0:0:
192,192,78823,128,8,78988:0:0:0:0:
320,192,78823,1,2,0:0:0:0:
448,192,78988,128,0,79153:0:0:0:0:
64,192,79153,1,4,0:0:0:0:
192,192,79153,128,2,79482:0:0:0:0:
320,192,79482,128,2,79812:0:0:0:0:
192,192,79812,128,2,80142:0:0:0:0:
448,192,79812,1,4,0:0:0:0:
64,192,80142,128,2,80471:0:0:0:0:
320,192,80471,1,2,0:0:0:0:
448,192,80471,128,4,80801:0:0:0:0:
64,192,80801,128,2,81131:0:0:0:0:
192,192,81131,1,2,0:0:0:0:
320,192,81131,1,0,0:0:0:0:
448,192,81790,1,2,0:0:0:0:
192,192,82120,1,2,0:0:0:0:
320,192,82449,1,2,0:0:0:0:
64,192,82614,128,0,82779:0:0:0:0:
448,192,82779,1,2,0:0:0:0:
192,192,83109,1,2,0:0:0:0:
320,192,83438,1,2,0:0:0:0:
64,192,83768,1,2,0:0:0:0:
448,192,83933,128,0,84098:0:0:0:0:
192,192,84098,1,2,0:0:0:0:
320,192,84427,1,2,0:0:0:0:
64,192,84757,1,2,0:0:0:0:
448,192,85087,1,2,0:0:0:0:
192,192,85252,128,0,85416:0:0:0:0:
320,192,85416,1,2,0:0:0:0:
64,192,85746,1,2,0:0:0:0:
448,192,86076,1,2,0:0:0:0:
192,192,86405,1,2,0:0:0:0:
320,192,86570,128,0,86735:0:0:0:0:
64,192,86735,1,2,0:0:0:0:
192,192,87065,1,0,0:0:0:0:
448,192,87230,1,0,0:0:0:0:
320,192,87394,1,0,0:0:0:0:
64,192,87559,1,0,0:0:0:0:
448,192,87724,1,0,0:0:0:0:
192,192,87889,128,0,88054:0:0:0:0:
320,192,88054,1,0,0:0:0:0:
64,192,88219,1,0,0:0:0:0:
448,192,88383,1,0,0:0:0:0:
320,192,88548,128,0,88713:0:0:0:0:
192,192,88713,1,0,0:0:0:0:
448,192,88878,1,0,0:0:0:0:
64,192,89043,1,0,0:0:0:0:
320,192,89372,1,0,0:0:0:0:
192,192,89537,1,0,0:0:0:0:
64,192,89702,1,0,0:0:0:0:
320,192,90032,1,0,0:0:0:0:
448,192,90197,1,0,0:0:0:0:
192,192,90361,1,0,0:0:0:0:
320,192,90526,128,0,90691:0:0:0:0:
64,192,90691,1,0,0:0:0:0:
192,192,90856,1,0,0:0:0:0:
448,192,91021,1,0,0:0:0:0:
192,192,91186,128,0,91351:0:0:0:0:
320,192,91351,1,0,0:0:0:0:
64,192,91515,1,0,0:0:0:0:
448,192,91680,128,0,92340:0:0:0:0:
64,192,92340,1,4,0:0:0:0:
192,192,92340,1,2,0:0:0:0:
320,192,92504,1,0,0:0:0:0:
448,192,92669,1,0,0:0:0:0:
192,192,92834,1,2,0:0:0:0:
64,192,92999,1,8,0:0:0:0:
320,192,92999,1,0,0:0:0:0:
448,192,93164,128,0,93329:0:0:0:0:
192,192,93329,1,0,0:0:0:0:
320,192,93493,1,2,0:0:0:0:
64,192,93658,1,2,0:0:0:0:
448,192,93823,1,0,0:0:0:0:
192,192,93988,1,0,0:0:0:0:
320,192,94153,1,2,0:0:0:0:
64,192,94318,1,8,0:0:0:0:
448,192,94318,1,0,0:0:0:0:
192,192,94647,1,0,0:0:0:0:
320,192,94812,1,2,0:0:0:0:
448,192,94977,1,2,0:0:0:0:
192,192,95471,1,0,0:0:0:0:
320,192,95636,1,2,0:0:0:0:
64,192,95801,128,0,95966:0:0:0:0:
448,192,95966,1,0,0:0:0:0:
192,192,96131,1,2,0:0:0:0:
320,192,96296,1,2,0:0:0:0:
64,192,96460,1,8,0:0:0:45:
192,192,96625,1,0,0:0:0:0:
448,192,96790,1,8,0:0:0:45:
320,192,96955,128,8,97285:0:0:0:45:
192,192,97285,128,10,97449:0:0:0:45:
320,192,97449,128,8,97614:0:0:0:45:
64,192,97614,1,4,0:0:0:0:
448,192,97614,1,2,0:0:0:0:
192,192,97944,1,8,0:0:0:0:
320,192,98109,1,2,0:0:0:0:
192,192,98274,1,2,0:0:0:0:
448,192,98603,1,8,0:0:0:0:
320,192,98768,1,2,0:0:0:0:
192,192,98933,1,0,0:0:0:0:
64,192,99098,1,2,0:0:0:0:
320,192,99263,1,8,0:0:0:0:
192,192,99427,1,2,0:0:0:0:
448,192,99592,1,2,0:0:0:0:
320,192,99922,1,8,0:0:0:0:
448,192,100087,1,2,0:0:0:0:
64,192,100252,1,2,0:0:0:0:
320,192,100581,1,8,0:0:0:0:
192,192,100746,1,2,0:0:0:0:
448,192,100911,1,2,0:0:0:0:
64,192,101241,1,8,0:0:0:0:
320,192,101405,1,2,0:0:0:0:
192,192,101570,1,0,0:0:0:0:
320,192,101735,1,2,0:0:0:0:
448,192,101900,128,8,102065:0:0:0:0:
64,192,102065,1,2,0:0:0:0:
192,192,102230,1,2,0:0:0:0:
320,192,102559,1,8,0:0:0:0:
192,192,102724,1,2,0:0:0:0:
64,192,102889,1,6,0:0:0:0:
448,192,103219,1,2,0:0:0:0:
192,192,103383,1,0,0:0:0:0:
320,192,103548,1,2,0:0:0:0:
64,192,103878,1,2,0:0:0:0:
448,192,104043,1,0,0:0:0:0:
320,192,104208,1,2,0:0:0:0:
192,192,104372,1,0,0:0:0:0:
320,192,104537,1,2,0:0:0:0:
64,192,104702,1,0,0:0:0:0:
192,192,104867,1,2,0:0:0:0:
448,192,105197,1,2,0:0:0:0:
320,192,105361,1,0,0:0:0:0:
64,192,105526,1,2,0:0:0:0:
192,192,105691,1,2,0:0:0:0:
320,192,105856,1,2,0:0:0:0:
64,192,106021,1,2,0:0:0:0:
192,192,106186,1,2,0:0:0:0:
448,192,106351,1,2,0:0:0:0:
320,192,106515,1,2,0:0:0:0:
192,192,106680,1,2,0:0:0:0:
448,192,106845,1,2,0:0:0:0:
320,192,107010,1,2,0:0:0:0:
192,192,107175,1,2,0:0:0:0:
64,192,107340,1,2,0:0:0:0:
320,192,107504,128,2,107669:0:0:0:0:
192,192,107669,128,2,107834:0:0:0:0:
320,192,107834,128,2,107999:0:0:0:40:
448,192,107834,128,0,107999:0:0:0:0:
64,192,107999,128,2,108164:0:0:0:40:
192,192,107999,128,0,108164:0:0:0:0:
448,192,108164,128,2,108988:0:0:0:0:
64,192,108988,1,0,0:0:0:0:
192,192,109153,1,0,0:0:0:0:
320,192,109318,1,0,0:0:0:0:
64,192,109482,1,2,0:0:0:0:
448,192,109482,1,4,0:0:0:0:
192,192,109647,1,0,0:0:0:0:
320,192,109730,1,0,0:0:0:0:
64,192,109812,1,10,0:0:0:0:
320,192,109977,1,0,0:0:0:0:
192,192,110059,1,0,0:0:0:0:
448,192,110142,1,2,0:0:0:0:
64,192,110307,1,0,0:0:0:0:
192,192,110471,1,8,0:0:0:0:
320,192,110471,1,2,0:0:0:0:
448,192,110636,1,0,0:0:0:0:
64,192,110801,1,2,0:0:0:0:
320,192,110966,1,0,0:0:0:0:
192,192,111131,1,8,0:0:0:0:
448,192,111131,1,2,0:0:0:0:
64,192,111296,1,0,0:0:0:0:
320,192,111460,1,2,0:0:0:0:
448,192,111625,1,0,0:0:0:0:
64,192,111790,1,8,0:0:0:0:
192,192,111790,1,2,0:0:0:0:
320,192,111955,128,0,112120:0:0:0:0:
64,192,112120,128,2,112285:0:0:0:0:
448,192,112285,1,0,0:0:0:0:
192,192,112449,1,8,0:0:0:0:
320,192,112449,1,2,0:0:0:0:
64,192,112614,1,0,0:0:0:0:
448,192,112779,1,2,0:0:0:0:
192,192,112944,1,0,0:0:0:0:
320,192,113109,1,8,0:0:0:0:
448,192,113109,1,2,0:0:0:0:
64,192,113274,1,0,0:0:0:0:
320,192,113438,1,2,0:0:0:0:
192,192,113768,1,8,0:0:0:0:
448,192,113768,1,2,0:0:0:0:
64,192,114098,1,2,0:0:0:0:
448,192,114263,1,0,0:0:0:0:
192,192,114427,1,8,0:0:0:0:
320,192,114427,1,2,0:0:0:0:
64,192,114592,1,0,0:0:0:0:
448,192,114757,1,2,0:0:0:0:
192,192,114922,1,0,0:0:0:0:
320,192,115004,1,0,0:0:0:0:
64,192,115087,1,10,0:0:0:0:
320,192,115252,1,0,0:0:0:0:
192,192,115334,1,0,0:0:0:0:
448,192,115416,1,2,0:0:0:0:
64,192,115581,1,0,0:0:0:0:
192,192,115746,1,8,0:0:0:0:
320,192,115746,1,2,0:0:0:0:
448,192,115911,1,0,0:0:0:0:
64,192,116076,1,2,0:0:0:0:
320,192,116241,1,0,0:0:0:0:
192,192,116405,1,8,0:0:0:0:
448,192,116405,1,2,0:0:0:0:
64,192,116570,1,0,0:0:0:0:
448,192,116735,1,2,0:0:0:0:
320,192,116900,1,0,0:0:0:0:
64,192,117065,1,8,0:0:0:0:
192,192,117065,1,2,0:0:0:0:
448,192,117230,128,0,117394:0:0:0:0:
192,192,117394,128,2,117559:0:0:0:0:
320,192,117559,1,0,0:0:0:0:
64,192,117724,1,8,0:0:0:0:
448,192,117724,1,2,0:0:0:0:
192,192,117889,1,0,0:0:0:0:
320,192,118054,1,2,0:0:0:0:
64,192,118219,1,0,0:0:0:0:
192,192,118383,1,8,0:0:0:0:
448,192,118383,1,2,0:0:0:0:
320,192,118548,1,0,0:0:0:0:
64,192,118713,128,2,118878:0:0:0:0:
448,192,118878,128,0,119043:0:0:0:0:
192,192,119043,128,8,119208:0:0:0:0:
320,192,119043,1,2,0:0:0:0:
64,192,119208,128,0,119372:0:0:0:0:
448,192,119372,128,2,119537:0:0:0:0:
192,192,119537,128,0,119702:0:0:0:0:
64,192,119702,1,8,0:0:0:0:
320,192,119702,128,2,119867:0:0:0:0:
448,192,119867,128,8,120032:0:0:0:0:
64,192,120032,1,2,0:0:0:0:
192,192,120032,1,4,0:0:0:0:
320,192,120197,1,0,0:0:0:0:
192,192,120279,1,0,0:0:0:0:
448,192,120361,1,10,0:0:0:0:
192,192,120526,1,0,0:0:0:0:
320,192,120609,1,0,0:0:0:0:
64,192,120691,1,2,0:0:0:0:
448,192,120856,1,0,0:0:0:0:
64,192,121021,1,8,0:0:0:0:
320,192,121021,1,2,0:0:0:0:
192,192,121186,1,0,0:0:0:0:
320,192,121351,1,2,0:0:0:0:
448,192,121515,1,0,0:0:0:0:
64,192,121680,1,8,0:0:0:0:
192,192,121680,1,2,0:0:0:0:
320,192,121845,1,0,0:0:0:0:
448,192,122010,1,2,0:0:0:0:
192,192,122175,1,0,0:0:0:0:
64,192,122340,1,8,0:0:0:0:
320,192,122340,1,2,0:0:0:0:
448,192,122504,128,0,122669:0:0:0:0:
64,192,122669,128,2,122834:0:0:0:0:
320,192,122834,1,0,0:0:0:0:
64,192,122999,1,8,0:0:0:0:
192,192,122999,1,2,0:0:0:0:
448,192,123164,1,0,0:0:0:0:
320,192,123329,1,2,0:0:0:0:
64,192,123493,1,0,0:0:0:0:
192,192,123658,1,8,0:0:0:0:
448,192,123658,1,2,0:0:0:0:
320,192,123823,1,0,0:0:0:0:
64,192,123988,1,2,0:0:0:0:
192,192,124318,1,8,0:0:0:0:
448,192,124318,1,2,0:0:0:0:
320,192,124647,1,2,0:0:0:0:
192,192,124812,1,0,0:0:0:0:
64,192,124977,1,8,0:0:0:0:
320,192,124977,1,2,0:0:0:0:
448,192,125142,1,0,0:0:0:0:
64,192,125307,1,2,0:0:0:0:
320,192,125471,1,0,0:0:0:0:
192,192,125554,1,0,0:0:0:0:
448,192,125636,1,10,0:0:0:0:
192,192,125801,1,0,0:0:0:0:
320,192,125883,1,0,0:0:0:0:
64,192,125966,1,2,0:0:0:0:
448,192,126131,1,0,0:0:0:0:
192,192,126296,1,8,0:0:0:0:
320,192,126296,1,2,0:0:0:0:
64,192,126460,1,0,0:0:0:0:
320,192,126625,1,2,0:0:0:0:
192,192,126790,1,0,0:0:0:0:
64,192,126955,1,8,0:0:0:0:
448,192,126955,1,2,0:0:0:0:
320,192,127120,1,0,0:0:0:0:
64,192,127285,1,2,0:0:0:0:
448,192,127449,1,0,0:0:0:0:
192,192,127614,1,8,0:0:0:0:
320,192,127614,1,2,0:0:0:0:
64,192,127779,1,0,0:0:0:0:
320,192,127944,128,2,128274:0:0:0:0:
64,192,128274,1,8,0:0:0:0:
192,192,128274,1,2,0:0:0:0:
448,192,128438,1,0,0:0:0:0:
192,192,128603,128,2,128933:0:0:0:0:
320,192,128933,1,8,0:0:0:0:
448,192,128933,1,2,0:0:0:0:
64,192,129098,1,0,0:0:0:0:
448,192,129263,128,2,129427:0:0:0:0:
192,192,129427,128,0,129592:0:0:0:0:
320,192,129592,128,8,129757:0:0:0:0:
448,192,129592,1,2,0:0:0:0:
64,192,129757,128,0,129922:0:0:0:0:
192,192,129922,128,2,130087:0:0:0:0:
448,192,130087,128,0,130252:0:0:0:0:
64,192,130252,1,8,0:0:0:0:
320,192,130252,128,2,130416:0:0:0:0:
192,192,130416,128,0,130581:0:0:0:0:
320,192,130581,128,4,130911:0:0:0:0:
448,192,130581,1,2,0:0:0:0:
192,192,130911,128,2,131241:0:0:0:0:
64,192,131241,1,2,0:0:0:0:
320,192,131241,128,4,131570:0:0:0:0:
448,192,131570,128,2,131900:0:0:0:0:
64,192,131900,128,2,132230:0:0:0:0:
320,192,131900,1,4,0:0:0:0:
448,192,132230,128,2,132559:0:0:0:0:
192,192,132559,1,2,0:0:0:0:
320,192,132559,1,0,0:0:0:0:
448,192,133219,128,0,135197:0:0:0:0:
64,192,135197,128,0,135526:0:0:0:0:
448,192,135526,128,0,135856:0:0:0:0:
320,192,135856,128,0,137834:0:0:0:0:
64,192,137834,128,0,138164:0:0:0:0:
320,192,138164,128,0,138493:0:0:0:0:
192,192,138493,128,0,140471:0:0:0:0:
448,192,140471,128,0,140801:0:0:0:0:
192,192,140801,128,0,141131:0:0:0:0:
64,192,141131,128,0,143109:0:0:0:0:
192,192,143109,128,0,143438:0:0:0:0:
320,192,143438,128,0,143768:0:0:0:0:
64,192,143768,1,4,0:0:0:0:
448,192,143768,1,2,0:0:0:0:
192,192,144098,1,2,0:0:0:0:
320,192,144427,1,2,0:0:0:0:
64,192,144592,128,0,144757:0:0:0:0:
448,192,144757,1,2,0:0:0:0:
192,192,145087,1,2,0:0:0:0:
320,192,145416,1,2,0:0:0:0:
448,192,145581,1,0,0:0:0:0:
192,192,145746,1,2,0:0:0:0:
320,192,145911,128,0,146076:0:0:0:0:
64,192,146076,1,2,0:0:0:0:
192,192,146241,1,0,0:0:0:0:
448,192,146405,1,2,0:0:0:0:
64,192,146735,1,2,0:0:0:0:
320,192,147065,1,2,0:0:0:0:
192,192,147230,128,0,147394:0:0:0:0:
448,192,147394,1,2,0:0:0:0:
64,192,147724,1,2,0:0:0:0:
320,192,148054,1,2,0:0:0:0:
192,192,148383,1,2,0:0:0:0:
448,192,148548,128,0,148713:0:0:0:0:
64,192,148713,1,2,0:0:0:0:
320,192,149043,1,2,0:0:0:0:
448,192,149043,1,4,0:0:0:0:
192,192,149372,1,2,0:0:0:0:
448,192,149702,1,2,0:0:0:0:
64,192,149867,128,0,150032:0:0:0:0:
320,192,150032,1,2,0:0:0:0:
64,192,150361,1,4,0:0:0:0:
192,192,150361,1,2,0:0:0:0:
448,192,150691,1,2,0:0:0:0:
192,192,151021,1,2,0:0:0:0:
320,192,151186,128,0,151351:0:0:0:0:
64,192,151351,1,2,0:0:0:0:
320,192,151680,1,2,0:0:0:0:
448,192,151680,1,4,0:0:0:0:
192,192,152010,1,2,0:0:0:0:
448,192,152175,1,0,0:0:0:0:
64,192,152340,1,2,0:0:0:0:
320,192,152504,128,0,152669:0:0:0:0:
192,192,152669,1,2,0:0:0:0:
64,192,152999,1,2,0:0:0:0:
448,192,152999,1,4,0:0:0:0:
320,192,153164,1,2,0:0:0:0:
192,192,153329,1,2,0:0:0:0:
448,192,153493,1,2,0:0:0:0:
64,192,153658,128,2,153823:0:0:0:0:
448,192,153823,128,2,153988:0:0:0:0:
64,192,153988,128,2,154153:0:0:0:40:
192,192,153988,128,0,154153:0:0:0:0:
320,192,154153,128,2,154318:0:0:0:0:
448,192,154153,128,0,154318:0:0:0:0:
192,192,154318,1,2,0:0:0:0:
64,192,155142,1,0,0:0:0:0:
192,192,155307,1,0,0:0:0:0:
320,192,155471,1,0,0:0:0:0:
64,192,155636,1,4,0:0:0:0:
448,192,155636,1,2,0:0:0:0:
192,192,155801,1,0,0:0:0:0:
320,192,155883,1,0,0:0:0:0:
192,192,155966,1,10,0:0:0:0:
320,192,156131,1,0,0:0:0:0:
192,192,156213,1,0,0:0:0:0:
320,192,156296,1,2,0:0:0:0:
64,192,156460,1,0,0:0:0:0:
192,192,156625,1,8,0:0:0:0:
448,192,156625,1,2,0:0:0:0:
320,192,156790,1,0,0:0:0:0:
64,192,156955,1,2,0:0:0:0:
448,192,157120,1,0,0:0:0:0:
64,192,157285,1,8,0:0:0:0:
192,192,157285,1,2,0:0:0:0:
320,192,157449,1,0,0:0:0:0:
448,192,157614,1,2,0:0:0:0:
192,192,157779,1,0,0:0:0:0:
320,192,157944,1,8,0:0:0:0:
448,192,157944,1,2,0:0:0:0:
64,192,158109,128,0,158274:0:0:0:0:
320,192,158274,128,2,158438:0:0:0:0:
192,192,158438,1,0,0:0:0:0:
64,192,158603,1,8,0:0:0:0:
448,192,158603,1,2,0:0:0:0:
320,192,158768,1,0,0:0:0:0:
192,192,158933,1,2,0:0:0:0:
448,192,159098,1,0,0:0:0:0:
64,192,159263,1,8,0:0:0:0:
320,192,159263,1,2,0:0:0:0:
192,192,159427,1,0,0:0:0:0:
448,192,159592,1,2,0:0:0:0:
64,192,159922,1,8,0:0:0:0:
320,192,159922,1,2,0:0:0:0:
192,192,160252,1,2,0:0:0:0:
320,192,160416,1,0,0:0:0:0:
64,192,160581,1,8,0:0:0:0:
448,192,160581,1,2,0:0:0:0:
192,192,160746,1,0,0:0:0:0:
448,192,160911,1,2,0:0:0:0:
320,192,161076,1,0,0:0:0:0:
192,192,161158,1,0,0:0:0:0:
320,192,161241,1,10,0:0:0:0:
192,192,161405,1,0,0:0:0:0:
320,192,161488,1,0,0:0:0:0:
192,192,161570,1,2,0:0:0:0:
64,192,161735,1,0,0:0:0:0:
320,192,161900,1,8,0:0:0:0:
448,192,161900,1,2,0:0:0:0:
192,192,162065,1,0,0:0:0:0:
64,192,162230,1,2,0:0:0:0:
320,192,162394,1,0,0:0:0:0:
64,192,162559,1,8,0:0:0:0:
192,192,162559,1,2,0:0:0:0:
448,192,162724,1,0,0:0:0:0:
320,192,162889,1,2,0:0:0:0:
192,192,163054,1,0,0:0:0:0:
64,192,163219,1,8,0:0:0:0:
320,192,163219,1,2,0:0:0:0:
448,192,163383,128,0,163548:0:0:0:0:
192,192,163548,128,2,163713:0:0:0:0:
320,192,163713,1,0,0:0:0:0:
64,192,163878,1,8,0:0:0:0:
192,192,163878,1,2,0:0:0:0:
448,192,164043,1,0,0:0:0:0:
64,192,164208,1,2,0:0:0:0:
320,192,164372,1,0,0:0:0:0:
192,192,164537,1,8,0:0:0:0:
448,192,164537,1,2,0:0:0:0:
64,192,164702,1,0,0:0:0:0:
320,192,164867,128,2,165032:0:0:0:0:
192,192,165032,128,0,165197:0:0:0:0:
64,192,165197,1,8,0:0:0:0:
448,192,165197,128,2,165361:0:0:0:0:
320,192,165361,128,0,165526:0:0:0:0:
64,192,165526,128,2,165691:0:0:0:0:
192,192,165691,128,0,165856:0:0:0:0:
320,192,165856,128,8,166021:0:0:0:0:
448,192,165856,1,2,0:0:0:0:
64,192,166021,128,8,166186:0:0:0:0:
320,192,166186,1,4,0:0:0:0:
448,192,166186,1,2,0:0:0:0:
64,192,166351,1,0,0:0:0:0:
448,192,166433,1,0,0:0:0:0:
64,192,166515,1,10,0:0:0:0:
448,192,166680,1,0,0:0:0:0:
64,192,166763,1,0,0:0:0:0:
448,192,166845,1,2,0:0:0:0:
192,192,167010,1,0,0:0:0:0:
64,192,167175,1,8,0:0:0:0:
320,192,167175,1,2,0:0:0:0:
448,192,167340,1,0,0:0:0:0:
192,192,167504,1,2,0:0:0:0:
320,192,167669,1,0,0:0:0:0:
64,192,167834,1,8,0:0:0:0:
192,192,167834,1,2,0:0:0:0:
448,192,167999,1,0,0:0:0:0:
64,192,168164,1,2,0:0:0:0:
320,192,168329,1,0,0:0:0:0:
192,192,168493,1,8,0:0:0:0:
448,192,168493,1,2,0:0:0:0:
64,192,168658,128,0,168823:0:0:0:0:
320,192,168823,128,2,168988:0:0:0:0:
448,192,168988,1,0,0:0:0:0:
64,192,169153,1,8,0:0:0:0:
192,192,169153,1,2,0:0:0:0:
320,192,169318,1,0,0:0:0:0:
192,192,169482,1,2,0:0:0:0:
448,192,169647,1,0,0:0:0:0:
64,192,169812,1,8,0:0:0:0:
320,192,169812,1,2,0:0:0:0:
192,192,169977,1,0,0:0:0:0:
448,192,170142,1,2,0:0:0:0:
192,192,170471,1,8,0:0:0:0:
320,192,170471,1,2,0:0:0:0:
64,192,170801,1,2,0:0:0:0:
320,192,170966,1,0,0:0:0:0:
64,192,171131,1,8,0:0:0:0:
192,192,171131,1,2,0:0:0:0:
448,192,171296,1,0,0:0:0:0:
192,192,171460,1,2,0:0:0:0:
448,192,171625,1,0,0:0:0:0:
64,192,171708,1,0,0:0:0:0:
448,192,171790,1,10,0:0:0:0:
64,192,171955,1,0,0:0:0:0:
448,192,172037,1,0,0:0:0:0:
64,192,172120,1,2,0:0:0:0:
320,192,172285,1,0,0:0:0:0:
64,192,172449,1,8,0:0:0:0:
192,192,172449,1,2,0:0:0:0:
448,192,172614,1,0,0:0:0:0:
320,192,172779,1,2,0:0:0:0:
64,192,172944,1,0,0:0:0:0:
192,192,173109,1,8,0:0:0:0:
448,192,173109,1,2,0:0:0:0:
320,192,173274,1,0,0:0:0:0:
64,192,173438,1,2,0:0:0:0:
192,192,173603,1,0,0:0:0:0:
320,192,173768,1,8,0:0:0:0:
448,192,173768,1,2,0:0:0:0:
192,192,173933,1,0,0:0:0:0:
64,192,174098,128,2,174427:0:0:0:0:
320,192,174427,1,8,0:0:0:0:
448,192,174427,1,2,0:0:0:0:
192,192,174592,1,0,0:0:0:0:
448,192,174757,128,2,175087:0:0:0:0:
64,192,175087,1,8,0:0:0:0:
192,192,175087,1,2,0:0:0:0:
320,192,175252,1,0,0:0:0:0:
64,192,175416,128,2,175581:0:0:0:0:
448,192,175581,128,0,175746:0:0:0:0:
192,192,175746,128,8,175911:0:0:0:0:
320,192,175746,1,2,0:0:0:0:
64,192,175911,128,0,176076:0:0:0:0:
320,192,176076,128,2,176241:0:0:0:0:
192,192,176241,128,0,176405:0:0:0:0:
320,192,176405,1,8,0:0:0:0:
448,192,176405,128,2,176570:0:0:0:0:
64,192,176570,128,0,176735:0:0:0:0:
320,192,176735,128,2,177065:0:0:0:0:
448,192,176735,1,4,0:0:0:0:
192,192,177065,128,2,177394:0:0:0:0:
64,192,177394,1,2,0:0:0:0:
320,192,177394,128,4,177724:0:0:0:0:
448,192,177724,128,2,178054:0:0:0:0:
64,192,178054,128,2,178383:0:0:0:0:
192,192,178054,1,4,0:0:0:0:
448,192,178383,128,2,178713:0:0:0:0:
192,192,178713,1,2,0:0:0:0:
320,192,178713,1,0,0:0:0:0:
64,192,179372,1,2,0:0:0:0:
448,192,179372,1,4,0:0:0:0:
192,192,179702,1,8,0:0:0:0:
320,192,179702,1,2,0:0:0:0:
64,192,180032,1,2,0:0:0:0:
320,192,180361,1,8,0:0:0:0:
448,192,180361,1,2,0:0:0:0:
64,192,180526,1,0,0:0:0:0:
192,192,180609,1,0,0:0:0:0:
320,192,180691,1,2,0:0:0:0:
64,192,181021,1,8,0:0:0:0:
192,192,181021,1,2,0:0:0:0:
448,192,181186,1,0,0:0:0:0:
320,192,181268,1,0,0:0:0:0:
192,192,181351,1,2,0:0:0:0:
64,192,181680,1,8,0:0:0:0:
448,192,181680,1,2,0:0:0:0:
320,192,181845,1,0,0:0:0:0:
192,192,181927,1,0,0:0:0:0:
64,192,182010,1,2,0:0:0:0:
192,192,182340,1,8,0:0:0:0:
448,192,182340,1,2,0:0:0:0:
320,192,182669,1,2,0:0:0:0:
64,192,182999,1,8,0:0:0:0:
192,192,182999,1,2,0:0:0:0:
320,192,183164,1,0,0:0:0:0:
448,192,183246,1,0,0:0:0:0:
64,192,183329,1,2,0:0:0:0:
192,192,183658,1,8,0:0:0:0:
448,192,183658,1,2,0:0:0:0:
320,192,183823,1,0,0:0:0:0:
192,192,183905,1,0,0:0:0:0:
64,192,183988,1,2,0:0:0:0:
448,192,184153,1,0,0:0:0:0:
320,192,184235,1,0,0:0:0:0:
192,192,184318,1,10,0:0:0:0:
448,192,184482,1,0,0:0:0:0:
320,192,184565,1,0,0:0:0:0:
64,192,184647,1,2,0:0:0:0:
192,192,184977,1,8,0:0:0:0:
448,192,184977,1,2,0:0:0:0:
64,192,185142,1,0,0:0:0:0:
192,192,185224,1,0,0:0:0:0:
320,192,185307,1,2,0:0:0:0:
192,192,185471,1,0,0:0:0:0:
320,192,185554,1,0,0:0:0:0:
448,192,185636,1,10,0:0:0:0:
64,192,185801,1,0,0:0:0:0:
320,192,185966,128,2,186131:0:0:0:0:
64,192,186131,128,0,186296:0:0:0:0:
320,192,186296,1,8,0:0:0:0:
448,192,186296,128,2,186460:0:0:0:0:
192,192,186460,128,0,186625:0:0:0:0:
64,192,186625,128,2,186790:0:0:0:0:
320,192,186790,128,0,186955:0:0:0:0:
64,192,186955,1,8,0:0:0:0:
192,192,186955,1,2,0:0:0:0:
448,192,187120,1,0,0:0:0:0:
192,192,187285,1,2,0:0:0:0:
320,192,187449,1,0,0:0:0:0:
64,192,187614,1,8,0:0:0:0:
448,192,187614,1,2,0:0:0:0:
192,192,187944,1,2,0:0:0:0:
448,192,188109,128,0,188274:0:0:0:0:
64,192,188274,1,8,0:0:0:0:
320,192,188274,1,2,0:0:0:0:
192,192,188438,128,0,188603:0:0:0:0:
448,192,188603,128,2,188768:0:0:0:0:
64,192,188768,128,2,188933:0:0:0:0:
192,192,188933,128,2,189098:0:0:0:0:
320,192,189098,128,2,189263:0:0:0:0:
448,192,189263,128,2,189427:0:0:0:0:
64,192,189427,128,2,189592:0:0:0:0:
192,192,189427,128,0,189592:0:0:0:0:
320,192,189592,128,2,189757:0:0:0:0:
64,192,189757,128,2,189922:0:0:0:0:
448,192,189922,128,2,190087:0:0:0:0:
192,192,190087,128,2,190252:0:0:0:0:
64,192,190252,128,2,190416:0:0:0:0:
320,192,190416,128,2,190581:0:0:0:0:
448,192,190416,128,0,190581:0:0:0:0:
192,192,190581,128,2,190746:0:0:0:0:
448,192,190746,128,2,190911:0:0:0:0:
64,192,190911,128,2,191076:0:0:0:0:
192,192,191076,128,2,191241:0:0:0:0:
320,192,191241,128,2,191405:0:0:0:0:
64,192,191405,128,2,191570:0:0:0:0:
448,192,191405,128,0,191570:0:0:0:0:
192,192,191570,128,2,191735:0:0:0:0:
320,192,191735,1,2,0:0:0:0:
64,192,193219,128,0,194702:0:0:0:0:
192,192,194702,1,0,0:0:0:0:
320,192,195691,1,0,0:0:0:0:
448,192,196515,1,0,0:0:0:0:
