osu file format v14

[General]
AudioFilename: audio.mp3
AudioLeadIn: 0
PreviewTime: 67571
Countdown: 1
SampleSet: None
StackLeniency: 0.7
Mode: 0
LetterboxInBreaks: 0
WidescreenStoryboard: 0

[Editor]
DistanceSpacing: 1.2
BeatDivisor: 4
GridSize: 4
TimelineZoom: 1.1

[Metadata]
Title:More-more LOVERS!!
TitleUnicode:More-more LOVERS!!
Artist:Natsuko Aso
ArtistUnicode:麻生 夏子
Creator:donkat
Version:Yuuno
Source:えむえむっ!
Tags:anime mm! sado tarou emu emu loli
BeatmapID:1090681
BeatmapSetID:513285

[Difficulty]
HPDrainRate:5
CircleSize:4
OverallDifficulty:5
ApproachRate:7
SliderMultiplier:0.700000005960464
SliderTickRate:1

[Events]
//Background and Video events
0,0,"MM!439167.jpg",0,0
//Break Periods
2,49310,50517
2,52112,52825
//Storyboard Layer 0 (Background)
//Storyboard Layer 1 (Fail)
//Storyboard Layer 2 (Pass)
//Storyboard Layer 3 (Foreground)
//Storyboard Sound Samples

[TimingPoints]
1638.52271409891,329.664106142182,4,2,0,100,1,0
55703,-100,4,2,0,100,0,1
66252,-100,4,2,0,100,0,0

[Colours]
Combo1 : 81,102,247
Combo2 : 239,243,92
Combo3 : 154,61,239
Combo4 : 98,98,98
Combo5 : 0,170,85
Combo6 : 254,139,211

[HitObjects]
96,144,1638,6,0,P|116:104|148:104,1,70.0000005960464
208,144,2297,2,0,P|224:176|236:220,1,70.0000005960464
172,264,2957,1,8,0:0:0:0:
208,284,3122,1,8,0:0:0:0:
232,248,3286,1,8,0:0:0:0:
196,228,3451,1,8,0:0:0:0:
168,196,3616,2,0,P|172:160|172:160,2,35.0000002980232
208,136,4275,1,0,0:0:0:0:
324,236,4605,1,8,0:0:0:0:
116,152,4935,1,0,0:0:0:0:
332,312,5264,1,8,0:0:0:0:
268,256,5594,2,8,L|236:224,2,35.0000002980232
300,280,6088,1,8,0:0:0:0:
336,256,6253,2,0,L|372:224,2,35.0000002980232
300,280,6748,1,0,0:0:0:0:
264,260,6913,5,8,0:0:0:0:
192,212,7242,1,8,0:0:0:0:
264,260,7572,1,8,0:0:0:0:
192,216,7902,1,8,0:0:0:0:
264,260,8231,2,8,P|312:228|328:212,1,70.0000005960464
264,260,8891,2,8,P|212:248|188:232,1,70.0000005960464
156,168,9550,1,12,0:0:0:0:
224,116,9880,1,8,0:0:0:0:
284,172,10209,1,8,0:0:0:0:
216,220,10539,1,8,0:0:0:0:
136,244,10869,2,8,P|104:196|104:172,1,70.0000005960464
128,244,11528,2,8,P|176:276|196:276,1,70.0000005960464
268,256,12187,6,8,L|336:224,3,70.0000005960464,12|8|8|8,0:0|0:0|0:0|0:0,0:0:0:0:
331,226,13506,1,0,0:0:0:0:
364,200,13671,1,8,0:0:0:0:
356,160,13836,1,8,0:0:0:0:
320,140,14000,1,8,0:0:0:0:
236,128,14330,2,8,L|188:140,1,35.0000002980232,8|12,0:0|0:0,0:0:0:0:
160,208,14825,1,0,0:0:0:0:
228,256,15154,2,0,P|272:264|296:240,1,70.0000005960464
324,276,15649,1,0,0:0:0:0:
352,248,15814,1,2,0:0:0:0:
348,164,16143,1,8,0:0:0:0:
348,164,16226,1,8,0:0:0:0:
348,164,16308,1,8,0:0:0:0:
288,120,16473,1,2,0:0:0:0:
288,120,16555,1,2,0:0:0:0:
288,120,16638,1,2,0:0:0:0:
216,100,16803,1,2,0:0:0:0:
216,100,16885,1,2,0:0:0:0:
216,100,16967,1,2,0:0:0:0:
176,88,17132,2,0,L|140:108,1,35.0000002980232,4|0,0:0|0:0,0:0:0:0:
116,136,17462,5,4,0:0:0:0:
96,216,17792,1,8,0:0:0:0:
160,272,18121,2,2,L|200:300,1,35.0000002980232
188,292,18451,1,8,0:0:0:0:
264,160,18781,1,8,0:0:0:0:
352,260,19110,1,8,0:0:0:0:
456,180,19440,1,2,0:0:0:0:
344,96,19770,1,2,0:0:0:0:
260,100,20099,2,0,P|224:116|204:152,1,70.0000005960464
156,208,20759,2,0,L|152:248,3,35.0000002980232
180,276,21418,1,8,0:0:0:0:
216,296,21583,1,8,0:0:0:0:
260,296,21748,1,8,0:0:0:0:
300,280,21912,1,8,0:0:0:0:
336,256,22077,2,0,P|372:216|368:192,1,70.0000005960464,0|4,0:0|0:0,0:0:0:0:
328,132,22737,6,0,P|296:100|264:100,1,70.0000005960464,0|8,0:0|0:0,0:0:0:0:
188,84,23396,1,0,0:0:0:0:
188,84,23561,1,0,0:0:0:0:
152,108,23726,2,8,P|136:136|136:152,1,35.0000002980232
132,180,24055,2,0,P|144:208|156:216,1,35.0000002980232
132,180,24385,2,8,P|164:176|176:164,1,35.0000002980232
196,144,24715,1,0,0:0:0:0:
268,188,25044,1,2,0:0:0:0:
184,200,25374,2,8,P|148:228|152:256,1,70.0000005960464
220,292,26033,2,0,L|256:308,1,35.0000002980232
284,280,26363,2,0,L|316:256,1,35.0000002980232
288,224,26692,2,8,L|252:204,1,35.0000002980232
228,176,27022,1,8,0:0:0:0:
228,176,27187,1,8,0:0:0:0:
156,220,27517,1,2,0:0:0:0:
156,220,27599,1,2,0:0:0:0:
156,220,27681,1,2,0:0:0:0:
204,152,28011,5,4,0:0:0:0:
136,204,28341,2,8,P|120:220|120:244,1,35.0000002980232
117,231,28670,1,0,0:0:0:0:
168,288,28835,2,8,L|176:308,1,17.5000001490116
192,316,29000,1,8,0:0:0:0:
212,324,29083,1,8,0:0:0:0:
232,328,29165,1,8,0:0:0:0:
264,300,29330,2,0,L|288:268,1,35.0000002980232
292,232,29659,1,2,0:0:0:0:
280,212,29742,1,2,0:0:0:0:
264,200,29824,1,2,0:0:0:0:
228,176,29989,2,0,P|200:168|192:172,1,35.0000002980232
156,180,30319,2,0,L|128:220,1,35.0000002980232
104,232,30648,6,8,P|68:216|64:212,1,35.0000002980232
52,176,30978,2,8,P|48:152|64:140,1,35.0000002980232
76,108,31308,1,2,0:0:0:0:
88,92,31390,1,2,0:0:0:0:
104,80,31473,1,2,0:0:0:0:
144,80,31637,1,0,0:0:0:0:
212,128,31967,1,8,0:0:0:0:
132,212,32132,1,8,0:0:0:0:
284,220,32297,1,8,0:0:0:0:
204,316,32626,1,8,0:0:0:0:
284,220,32791,1,8,0:0:0:0:
132,212,32956,2,8,P|124:168|148:148,1,70.0000005960464,8|12,0:0|0:0,0:0:0:0:
216,196,33451,5,0,0:0:0:0:
136,152,33615,1,0,0:0:0:0:
284,140,33780,1,0,0:0:0:0:
136,152,33945,2,8,P|160:132|168:116,1,35.0000002980232
124,88,34275,2,8,P|116:64|132:56,1,35.0000002980232
192,56,34604,1,0,0:0:0:0:
284,64,34769,1,0,0:0:0:0:
188,104,34934,1,0,0:0:0:0:
256,200,35099,1,0,0:0:0:0:
224,224,35264,2,8,L|200:260,1,35.0000002980232
188,268,35511,1,8,0:0:0:0:
168,272,35593,1,8,0:0:0:0:
148,280,35676,2,8,L|88:256,1,52.5000004470348
84,220,36088,5,0,0:0:0:0:
104,184,36253,1,0,0:0:0:0:
184,208,36582,1,6,0:0:0:0:
204,172,36747,1,6,0:0:0:0:
180,136,36912,1,6,0:0:0:0:
212,76,37077,2,8,P|252:76|284:100,1,70.0000005960464
276,91,37571,1,2,0:0:0:0:
296,128,37736,1,4,0:0:0:0:
304,252,38231,2,0,L|280:288,1,35.0000002980232
248,300,38560,6,8,P|204:304|180:280,2,70.0000005960464
284,280,39385,2,0,P|304:264|304:244,1,35.0000002980232
328,220,39714,2,8,P|336:180|320:132,2,87.500000745058
292,240,40703,1,0,0:0:0:0:
252,232,40868,1,0,0:0:0:0:
212,220,41033,2,8,P|168:192|160:168,2,70.0000005960464
192,256,41857,2,0,P|192:280|208:300,1,35.0000002980232
236,300,42187,2,0,P|284:288|304:240,1,105.00000089407
284,204,42846,1,8,0:0:0:0:
252,180,43011,1,8,0:0:0:0:
220,208,43176,1,8,0:0:0:0:
188,180,43341,2,0,P|156:144|136:160,1,70.0000005960464,0|4,0:0|0:0,0:0:0:0:
132,188,43835,5,8,0:0:0:0:
168,212,44165,1,8,0:0:0:0:
204,232,44494,1,8,0:0:0:0:
240,256,44824,1,8,0:0:0:0:
296,192,45154,2,8,L|340:136,3,70.0000005960464
300,124,46308,1,12,0:0:0:0:
184,172,46802,1,8,0:0:0:0:
108,212,47132,1,8,0:0:0:0:
176,260,47461,1,8,0:0:0:0:
248,304,47791,1,8,0:0:0:0:
264,292,47873,1,8,0:0:0:0:
280,280,47956,1,8,0:0:0:0:
260,244,48121,1,2,0:0:0:0:
244,228,48203,1,2,0:0:0:0:
228,216,48285,1,2,0:0:0:0:
248,180,48450,1,8,0:0:0:0:
264,164,48533,1,8,0:0:0:0:
280,148,48615,1,8,0:0:0:0:
252,116,48780,2,2,L|224:96,1,35.0000002980232,2|10,0:0|0:0,0:0:0:0:
188,120,49110,5,4,0:0:0:0:
204,208,51417,6,8,L|248:144,1,70.0000005960464
243,150,51912,1,4,0:0:0:0:
196,144,53725,6,8,L|168:176,1,35.0000002980232
192,208,54055,2,0,L|224:244,1,35.0000002980232
252,256,54384,1,8,0:0:0:0:
288,232,54549,1,8,0:0:0:0:
316,200,54714,1,2,0:0:0:0:
320,180,54796,1,2,0:0:0:0:
316,160,54879,1,2,0:0:0:0:
344,128,55044,1,8,0:0:0:0:
356,112,55126,1,8,0:0:0:0:
368,96,55208,1,8,0:0:0:0:
344,60,55373,1,2,0:0:0:0:
324,52,55456,1,2,0:0:0:0:
304,52,55538,1,2,0:0:0:0:
276,84,55703,5,4,0:0:0:0:
216,144,56033,1,8,0:0:0:0:
276,204,56362,2,0,L|308:236,1,35.0000002980232
300,228,56692,1,8,0:0:0:0:
268,256,56857,1,2,0:0:0:0:
232,276,57022,2,8,L|196:300,3,35.0000002980232
164,276,57681,2,0,L|140:236,1,35.0000002980232
172,212,58011,2,8,P|180:188|168:168,1,35.0000002980232
148,148,58340,1,0,0:0:0:0:
180,120,58505,2,0,L|212:96,2,35.0000002980232,0|8|8,0:0|0:0|0:0,0:0:0:0:
204,156,59000,1,0,0:0:0:0:
236,180,59164,2,8,P|256:204|256:216,2,35.0000002980232
196,172,59659,5,0,0:0:0:0:
160,148,59824,1,8,0:0:0:0:
140,184,59989,1,8,0:0:0:0:
176,208,60153,1,8,0:0:0:0:
204,240,60318,2,2,P|220:260|224:276,1,35.0000002980232
204,240,60648,2,2,L|244:220,1,35.0000002980232
260,188,60978,1,0,0:0:0:0:
236,108,61307,2,8,P|256:88|256:68,2,35.0000002980232
200,132,61802,1,0,0:0:0:0:
216,172,61967,1,8,0:0:0:0:
184,200,62131,1,8,0:0:0:0:
208,236,62296,2,8,L|236:276,1,35.0000002980232
208,236,62626,2,8,L|172:264,1,35.0000002980232
144,240,62956,1,2,0:0:0:0:
112,212,63120,1,2,0:0:0:0:
108,172,63285,1,2,0:0:0:0:
140,144,63450,1,2,0:0:0:0:
180,140,63615,6,0,P|220:164|248:144,1,70.0000005960464,0|8,0:0|0:0,0:0:0:0:
316,184,64274,2,8,P|360:180|384:204,1,70.0000005960464
428,264,64934,2,8,P|440:288|432:304,1,35.0000002980232
404,316,65263,2,8,P|388:332|376:328,1,35.0000002980232
344,304,65593,2,8,P|324:288|336:276,1,35.0000002980232
336,244,65923,2,8,P|344:224|332:208,1,35.0000002980232
312,180,66252,2,2,P|280:136|260:128,3,70.0000005960464,6|2|2|2,0:0|0:0|0:0|0:0,0:0:0:0:
228,120,67406,1,8,0:0:0:0:
204,156,67571,2,2,P|176:188|188:224,3,70.0000005960464
208,244,68725,1,8,0:0:0:0:
240,272,68890,2,2,P|272:288|304:268,1,70.0000005960464
340,200,69549,2,2,P|340:156|320:128,1,70.0000005960464
252,96,70208,2,8,L|220:84,1,35.0000002980232
184,108,70538,2,8,L|160:136,1,35.0000002980232
136,168,70867,1,2,0:0:0:0:
148,184,70950,1,2,0:0:0:0:
164,200,71032,1,2,0:0:0:0:
144,236,71197,1,8,0:0:0:0:
128,252,71280,1,8,0:0:0:0:
116,268,71362,1,8,0:0:0:0:
144,300,71527,5,4,0:0:0:0:
224,320,71856,2,0,P|272:304|280:280,1,70.0000005960464
296,252,72351,1,0,0:0:0:0:
272,216,72516,1,0,0:0:0:0:
240,188,72681,1,0,0:0:0:0:
204,212,72845,2,4,L|172:248,1,35.0000002980232
204,212,73175,2,4,L|232:252,1,35.0000002980232
304,260,73670,1,0,0:0:0:0:
340,240,73834,2,0,L|372:212,1,35.0000002980232
360,176,74164,1,0,0:0:0:0:
300,68,74494,1,8,0:0:0:0:
320,256,74823,1,0,0:0:0:0:
200,44,75153,1,8,0:0:0:0:
152,112,75483,2,8,L|124:144,1,35.0000002980232
156,168,75812,2,8,L|192:200,1,35.0000002980232
216,216,76142,1,2,0:0:0:0:
232,232,76225,1,2,0:0:0:0:
248,244,76307,1,2,0:0:0:0:
280,268,76472,1,4,0:0:0:0:
336,204,76801,5,0,0:0:0:0:
