osu file format v14

[General]
AudioFilename: Ichiban_Ushiro_no_Daimaou_-_Everyday_Sunshine_Line.mp3
AudioLeadIn: 0
PreviewTime: 59645
Countdown: 1
SampleSet: Soft
StackLeniency: 0.6
Mode: 0
LetterboxInBreaks: 1
WidescreenStoryboard: 1

[Editor]
Bookmarks: 59391,59703
DistanceSpacing: 1
BeatDivisor: 4
GridSize: 4
TimelineZoom: 1.099999

[Metadata]
Title:Everyday sunshine line!
TitleUnicode:Everyday sunshine line!
Artist:Natsuko Aso
ArtistUnicode:麻生夏子
Creator:P A N
Version:Normal
Source:いちばんうしろの大魔王
Tags:japanese anime ending ed demon king daimao light novel science fantasy harem artland p_a_n hj bunko soga keena pop jpop Ichiban Ushiro no Daimaou
BeatmapID:4042560
BeatmapSetID:174739

[Difficulty]
HPDrainRate:2.5
CircleSize:3
OverallDifficulty:4.5
ApproachRate:6
SliderMultiplier:1.1
SliderTickRate:1

[Events]
//Background and Video events
0,0,"5bd326e5d3fd9b1b6c5945c4974fe8df.jpg",0,0
//Break Periods
2,12736,16486
2,152516,161486
2,172736,178986
2,193986,202736
//Storyboard Layer 0 (Background)
//Storyboard Layer 1 (Fail)
//Storyboard Layer 2 (Pass)
//Storyboard Layer 3 (Foreground)
//Storyboard Layer 4 (Overlay)
//Storyboard Sound Samples

[TimingPoints]
1286,312.5,4,2,1,50,1,0
1286,-111.111111111111,4,2,1,50,0,0
2536,-111.111111111111,4,2,1,70,0,0
7536,-100,4,2,1,70,0,0
27536,-111.111111111111,4,2,1,50,0,0
37536,-100,4,2,1,60,0,0
55036,-100,4,2,1,70,0,0
60036,-100,4,2,1,80,0,1
69098,-100,4,2,1,80,0,0
70036,-100,4,2,1,80,0,1
78786,-100,4,2,1,70,0,1
80036,-100,4,2,1,70,0,0
89254,-100,4,2,1,80,0,0
90036,-111.111111111111,4,2,1,50,0,0
100036,-100,4,2,1,60,0,0
117536,-100,4,2,1,70,0,0
122536,-100,4,2,1,80,0,1
131598,-100,4,2,1,80,0,0
132536,-100,4,2,1,80,0,1
141286,-100,4,2,1,70,0,1
142536,-100,4,2,1,70,0,0
151754,-100,4,2,1,80,0,0
152536,-111.111111111111,4,2,1,50,0,0
162536,-100,4,2,1,60,0,0
181286,-100,4,2,1,80,0,0
182536,-100,4,2,2,80,0,0
192536,-100,4,2,1,30,0,0
193161,-100,4,2,1,50,0,0
193786,-100,4,2,1,80,0,0
203786,-111.111111111111,4,2,1,80,0,0
211286,-100,4,2,1,80,0,0
213786,-100,4,2,1,80,0,1
222848,-100,4,2,1,80,0,0
223786,-100,4,2,1,80,0,1
232536,-100,4,2,1,70,0,1
233629,-100,4,2,1,80,0,1
233786,-100,4,2,1,80,0,0
241286,-100,4,2,1,80,0,0
251129,-100,4,2,1,30,0,0

[Colours]
Combo1 : 249,192,60
Combo2 : 252,74,44
Combo3 : 122,230,106
Combo4 : 83,83,255

[HitObjects]
102,268,1598,6,0,P|91:220|105:162,2,98.9999969787599,2|2|2,0:0|0:0|0:0,0:0:0:0:
177,332,2536,2,0,L|286:323,1,98.9999969787599,12|2,0:1|0:0,0:0:0:0:
366,362,3161,1,2,0:0:0:0:
455,244,3629,2,0,P|464:207|453:147,1,98.9999969787599,2|2,0:0|0:0,0:0:0:0:
382,78,4254,2,0,B|334:68|334:68|265:82,1,98.9999969787599,2|0,0:0|0:0,0:0:0:0:
249,113,4723,2,0,L|191:107,1,49.4999984893799,8|8,0:0|0:1,0:0:0:0:
155,85,5036,5,10,0:0:0:0:
71,137,5348,2,0,P|59:183|80:249,1,98.9999969787599,2|2,0:0|0:0,0:0:0:0:
101,270,5817,1,2,0:0:0:0:
195,240,6129,2,0,B|246:235|246:235|299:254,1,98.9999969787599,2|0,0:0|0:0,0:0:0:0:
328,283,6597,1,2,0:0:0:0:
328,283,6754,2,0,P|405:295|466:245,1,148.49999546814,2|8,0:0|0:1,0:0:0:0:
493,151,7536,5,14,0:1:0:0:
437,55,7848,1,10,0:0:0:0:
329,30,8161,2,0,P|298:64|288:134,1,110,2|8,0:0|0:0,0:0:0:0:
308,175,8629,1,2,0:0:0:0:
266,277,8942,1,10,0:0:0:0:
166,324,9254,2,0,P|111:322|67:283,1,110,10|8,0:1|0:1,0:0:0:0:
32,247,9723,2,0,L|38:189,1,55,2|8,0:0|0:1,0:0:0:0:
23,138,10036,6,0,B|78:142|78:142|138:116,1,110,14|10,0:1|0:0,0:0:0:0:
203,39,10661,2,0,B|258:35|258:35|318:61,1,110,14|10,0:1|0:0,0:0:0:0:
388,132,11286,1,10,0:1:0:0:
388,241,11598,1,10,0:1:0:0:
306,315,11911,2,0,L|248:314,1,55,10|8,0:1|0:1,0:0:0:0:
201,337,12223,1,10,0:1:0:0:
117,265,12536,5,6,0:1:0:0:
431,245,17536,6,0,L|372:240,1,55,14|2,0:1|0:0,0:0:0:0:
327,265,17848,1,2,0:0:0:0:
232,321,18161,2,0,L|245:380,2,55,10|2|2,0:1|0:0|0:0,0:0:0:0:
183,294,18629,1,2,0:0:0:0:
165,184,18942,1,10,0:1:0:0:
165,184,19098,2,0,P|138:189|115:203,1,55,2|10,0:0|0:1,0:0:0:0:
73,239,19411,1,2,0:0:0:0:
12,147,19723,1,2,0:0:0:0:
68,52,20036,6,0,P|99:43|131:45,1,55,10|2,0:1|0:0,0:0:0:0:
174,61,20348,1,2,0:0:0:0:
232,155,20661,2,0,L|287:148,2,55,10|2|2,0:1|0:0|0:0,0:0:0:0:
179,171,21129,2,0,P|159:217|171:280,1,110,2|10,0:0|0:1,0:0:0:0:
163,329,21598,1,2,0:0:0:0:
163,329,21754,2,0,B|222:334|222:334|262:353|262:353|326:351,1,165,10|8,0:1|0:0,0:0:0:0:
433,349,22536,6,0,L|450:287,1,55,14|2,0:1|0:0,0:0:0:0:
490,261,22848,1,10,0:0:0:0:
477,151,23161,2,0,L|492:93,2,55,10|2|10,0:1|0:0|0:0,0:0:0:0:
426,171,23629,1,2,0:0:0:0:
338,104,23942,1,2,0:0:0:0:
338,104,24098,2,0,L|280:109,1,55,10|2,0:0|0:0,0:0:0:0:
234,83,24411,1,10,0:1:0:0:
125,66,24723,1,10,0:0:0:0:
49,148,25036,6,0,L|60:212,1,55,10|2,0:1|0:0,0:0:0:0:
50,256,25348,1,10,0:0:0:0:
86,359,25661,2,0,L|33:374,2,55,10|2|10,0:1|0:0|0:0,0:0:0:0:
140,366,26129,2,0,P|194:357|236:310,1,110,2|2,0:0|0:0,0:0:0:0:
245,265,26598,1,10,0:0:0:0:
245,265,26754,2,0,P|227:230|261:102,1,165,10|0,0:1|0:0,0:0:0:0:
331,53,27536,6,0,B|380:55|380:55|427:78,1,98.9999969787599,6|2,0:0|0:0,0:0:0:0:
474,163,28161,2,0,L|450:271,1,98.9999969787599,2|2,0:0|0:0,0:0:0:0:
381,329,28786,1,2,0:0:0:0:
289,291,29098,1,2,0:0:0:0:
289,291,29254,2,0,P|276:243|289:181,1,98.9999969787599,2|2,0:0|0:0,0:0:0:0:
312,155,29723,1,8,0:0:0:0:
289,58,30036,6,0,B|244:46|244:46|173:56,1,98.9999969787599,2|2,0:0|0:0,0:0:0:0:
114,114,30661,2,0,L|127:219,1,98.9999969787599,2|2,0:0|0:0,0:0:0:0:
189,288,31286,2,0,P|126:280|53:332,2,148.49999546814,2|2|10,0:0|0:0|0:0,0:0:0:0:
263,353,32536,2,0,P|335:358|394:316,2,148.49999546814,14|2|2,0:1|0:0|0:0,0:0:0:0:
189,288,33786,6,0,L|197:173,1,98.9999969787599,2|2,0:0|0:0,0:0:0:0:
223,93,34411,1,2,0:0:0:0:
312,50,34723,1,10,0:0:0:0:
408,70,35036,2,0,P|442:128|430:224,1,148.49999546814,10|2,0:0|0:0,0:0:0:0:
451,254,35661,2,0,P|386:234|316:274,1,148.49999546814,2|8,0:0|0:1,0:0:0:0:
302,317,36286,1,10,0:1:0:0:
216,366,36598,1,2,0:0:0:0:
124,328,36911,2,0,L|86:363,2,49.4999984893799,2|8|2,0:0|0:1|0:1,0:0:0:0:
137,218,37536,6,0,P|123:162|144:101,1,110,6|10,0:1|0:0,0:0:0:0:
221,40,38161,1,10,0:1:0:0:
330,38,38473,1,10,0:0:0:0:
428,86,38786,2,0,P|393:132|335:143,1,110,10|10,0:1|0:0,0:0:0:0:
291,127,39254,2,0,L|307:248,1,110,2|2,0:0|0:0,0:0:0:0:
287,288,39723,1,8,0:0:0:0:
378,349,40036,6,0,P|428:347|481:300,1,110,10|10,0:1|0:0,0:0:0:0:
510,206,40661,1,10,0:1:0:0:
475,101,40973,1,10,0:0:0:0:
376,52,41286,2,0,B|341:37|341:37|268:47,1,110,10|8,0:1|0:0,0:0:0:0:
242,94,41754,2,0,P|188:105|133:77,1,110,2|0,0:0|0:0,0:0:0:0:
99,45,42223,1,10,0:0:0:0:
39,137,42536,6,0,L|53:268,1,110,10|8,0:1|0:0,0:0:0:0:
90,284,43004,2,0,P|134:250|196:250,1,110,2|0,0:0|0:0,0:0:0:0:
238,265,43473,1,10,0:0:0:0:
317,341,43786,1,10,0:1:0:0:
425,327,44098,2,0,P|468:293|483:235,1,110,10|10,0:0|0:1,0:0:0:0:
483,131,44723,1,10,0:0:0:0:
418,41,45036,6,0,B|298:61|322:165|316:283|199:299,1,330,10|8,0:1|0:0,0:0:0:0:
197,332,46129,2,0,P|146:342|81:306,1,110,2|8,0:0|0:1,0:0:0:0:
52,283,46598,1,10,0:0:0:0:
21,177,46911,1,10,0:0:0:0:
58,73,47223,1,2,0:0:0:0:
158,28,47536,6,0,L|275:34,1,110,10|10,0:0|0:0,0:0:0:0:
362,90,48161,1,2,0:0:0:0:
362,90,48317,1,8,0:0:0:0:
406,190,48629,2,0,P|349:198|298:172,1,110,2|2,0:1|0:1,0:0:0:0:
259,142,49098,1,8,0:0:0:0:
259,142,49254,2,0,P|203:144|160:177,1,110,10|8,0:0|0:1,0:0:0:0:
133,223,49723,1,10,0:0:0:0:
170,326,50036,6,0,B|221:343|221:343|281:339,1,110,2|10,0:1|0:0,0:0:0:0:
386,326,50661,1,2,0:0:0:0:
386,326,50817,1,8,0:0:0:0:
455,240,51129,2,0,L|447:129,1,110,10|2,0:0|0:1,0:0:0:0:
452,75,51598,1,8,0:0:0:0:
452,75,51754,2,0,P|389:70|318:147,1,165,10|2,0:0|0:0,0:0:0:0:
269,236,52536,6,0,P|215:247|158:224,1,110,2|10,0:1|0:0,0:0:0:0:
84,153,53161,1,2,0:0:0:0:
84,153,53317,1,8,0:1:0:0:
139,58,53629,2,0,B|191:37|191:37|255:44,1,110,2|2,0:0|0:0,0:0:0:0:
294,66,54098,1,8,0:0:0:0:
294,66,54254,2,0,L|341:181,1,110,10|10,0:0|0:1,0:0:0:0:
383,196,54723,1,8,0:0:0:0:
383,306,55036,6,0,P|343:344|285:346,1,110,6|8,0:1|0:0,0:0:0:0:
237,360,55504,1,10,0:1:0:0:
237,360,55661,2,0,P|182:353|143:310,1,110,14|8,0:1|0:0,0:0:0:0:
113,271,56129,1,8,0:1:0:0:
113,271,56286,1,12,0:1:0:0:
36,191,56598,2,0,P|78:163|142:166,1,110,2|10,0:0|0:0,0:0:0:0:
228,223,57223,1,10,0:0:0:0:
306,146,57536,6,0,P|336:207|302:309,2,165,14|14|10,0:1|0:1|0:1,0:0:0:0:
321,93,58629,1,10,0:1:0:0:
198,340,59723,6,0,L|140:338,1,55,10|10,0:0|0:0,0:0:0:0:
87,338,60036,1,14,0:1:0:0:
50,236,60348,1,10,0:0:0:0:
98,136,60661,2,0,P|135:98|203:90,1,110,10|8,0:1|0:0,0:0:0:0:
236,114,61129,2,0,P|291:129|345:111,1,110,2|2,0:0|0:0,0:0:0:0:
435,59,61754,2,0,L|427:182,1,110,2|2,0:0|0:0,0:0:0:0:
456,215,62223,2,0,L|452:271,1,55,10|2,0:0|0:0,0:0:0:0:
469,322,62536,5,10,0:1:0:0:
368,367,62848,2,0,P|311:371|260:343,1,110,10|10,0:0|0:1,0:0:0:0:
232,303,63317,2,0,L|256:177,1,110,2|2,0:0|0:0,0:0:0:0:
229,87,63942,1,2,0:0:0:0:
135,29,64254,2,0,P|81:28|32:65,1,110,2|2,0:0|0:0,0:0:0:0:
12,108,64723,2,0,L|26:165,1,55,10|2,0:0|0:0,0:0:0:0:
12,215,65036,5,10,0:1:0:0:
57,315,65348,1,10,0:0:0:0:
164,338,65661,2,0,P|183:291|175:227,1,110,10|8,0:1|0:0,0:0:0:0:
148,186,66129,1,2,0:0:0:0:
186,82,66442,1,2,0:0:0:0:
287,38,66754,2,0,P|347:30|404:58,1,110,2|2,0:0|0:0,0:0:0:0:
436,81,67223,1,8,0:0:0:0:
474,184,67536,6,0,B|439:208|439:208|361:207,1,110,10|8,0:1|0:0,0:0:0:0:
324,178,68004,1,2,0:0:0:0:
324,178,68161,2,0,L|267:187,1,55,10|2,0:1|0:0,0:0:0:0:
216,171,68473,2,0,L|159:180,1,55,10|2,0:0|0:0,0:0:0:0:
107,188,68786,1,10,0:1:0:0:
68,290,69098,1,10,0:0:0:0:
152,360,69411,2,0,L|209:351,1,55,10|8,0:0|0:1,0:0:0:0:
260,367,69723,2,0,L|317:358,1,55,10|8,0:1|0:1,0:0:0:0:
369,350,70036,5,14,0:1:0:0:
447,273,70348,1,10,0:0:0:0:
466,164,70661,2,0,P|468:110|438:55,1,110,10|8,0:1|0:0,0:0:0:0:
396,32,71129,2,0,L|288:47,1,110,2|2,0:0|0:0,0:0:0:0:
208,124,71754,2,0,P|206:178|236:233,1,110,2|2,0:0|0:0,0:0:0:0:
274,260,72223,2,0,L|332:251,1,55,10|2,0:0|0:0,0:0:0:0:
378,273,72536,5,10,0:1:0:0:
316,364,72848,1,10,0:0:0:0:
205,366,73161,1,10,0:1:0:0:
205,366,73317,2,0,P|146:348|116:299,1,110,2|2,0:0|0:0,0:0:0:0:
87,204,73942,1,2,0:0:0:0:
99,94,74254,2,0,P|126:57|193:42,1,110,2|2,0:0|0:0,0:0:0:0:
237,60,74723,2,0,L|283:93,1,55,10|2,0:0|0:0,0:0:0:0:
336,98,75036,5,14,0:1:0:0:
444,80,75348,1,10,0:0:0:0:
508,169,75661,2,0,L|481:277,1,110,10|8,0:1|0:0,0:0:0:0:
445,317,76129,1,2,0:0:0:0:
338,344,76442,1,2,0:0:0:0:
248,280,76754,2,0,P|231:235|250:163,1,110,2|0,0:0|0:0,0:0:0:0:
278,133,77223,2,0,L|268:75,1,55,10|8,0:0|0:1,0:0:0:0:
224,45,77536,6,0,L|111:54,1,110,6|2,0:0|0:0,0:0:0:0:
46,139,78161,2,0,L|59:253,1,110,6|2,0:0|0:0,0:0:0:0:
120,339,78786,1,10,0:0:0:0:
192,256,79098,1,10,0:0:0:0:
256,345,79411,1,10,0:0:0:0:
327,261,79723,1,10,0:0:0:0:
384,354,80036,6,0,L|441:359,1,55,14|2,0:1|0:0,0:0:0:0:
486,332,80348,1,2,0:0:0:0:
476,222,80661,2,0,L|470:166,2,55,10|2|2,0:1|0:0|0:0,0:0:0:0:
429,251,81129,1,2,0:0:0:0:
344,179,81442,1,10,0:1:0:0:
344,179,81598,2,0,P|319:176|288:185,1,55,2|10,0:0|0:1,0:0:0:0:
244,214,81911,1,2,0:0:0:0:
196,313,82223,1,2,0:0:0:0:
88,338,82536,6,0,P|55:334|31:321,1,55,10|2,0:1|0:0,0:0:0:0:
1,281,82848,1,2,0:0:0:0:
7,171,83161,2,0,L|9:107,2,55,10|2|2,0:1|0:0|0:0,0:0:0:0:
55,197,83629,2,0,P|109:196|155:157,1,110,2|10,0:0|0:1,0:0:0:0:
175,112,84098,1,2,0:0:0:0:
175,112,84254,2,0,B|196:64|196:64|251:38|251:38|315:52,1,165,10|8,0:1|0:0,0:0:0:0:
410,30,85036,6,0,L|419:84,1,55,14|2,0:1|0:0,0:0:0:0:
453,126,85348,1,10,0:0:0:0:
443,235,85661,2,0,L|517:247,2,55,10|2|10,0:1|0:0|0:0,0:0:0:0:
399,201,86129,1,2,0:0:0:0:
293,168,86442,1,2,0:0:0:0:
293,168,86598,2,0,L|235:173,1,55,10|2,0:0|0:0,0:0:0:0:
195,207,86911,1,10,0:1:0:0:
159,311,87223,1,10,0:0:0:0:
247,376,87536,6,0,L|311:367,1,55,10|2,0:1|0:0,0:0:0:0:
354,383,87848,1,10,0:0:0:0:
454,338,88161,2,0,L|507:353,2,55,10|2|10,0:1|0:0|0:0,0:0:0:0:
415,298,88629,2,0,P|397:248|413:189,1,110,2|2,0:0|0:0,0:0:0:0:
450,156,89098,1,10,0:0:0:0:
450,156,89254,2,0,B|389:162|389:162|346:147|346:147|277:152,1,165,10|0,0:1|0:0,0:0:0:0:
213,85,90036,5,2,0:0:0:0:
116,105,90348,2,0,L|66:113,1,49.4999984893799,2|8,0:0|0:1,0:0:0:0:
33,149,90661,2,0,P|28:204|52:252,1,98.9999969787599,10|2,0:0|0:0,0:0:0:0:
110,318,91286,1,2,0:0:0:0:
208,328,91598,1,10,0:1:0:0:
208,328,91754,2,0,L|261:325,1,49.4999984893799,2|8,0:0|0:0,0:0:0:0:
304,308,92067,2,0,P|319:263|316:210,1,98.9999969787599,2|8,0:0|0:0,0:0:0:0:
296,166,92536,6,0,P|288:118|319:56,1,98.9999969787599,10|2,0:0|0:0,0:0:0:0:
398,38,93161,2,0,B|448:50|448:50|490:91,1,98.9999969787599,2|2,0:0|0:0,0:0:0:0:
442,174,93786,2,0,L|387:188,2,49.4999984893799,2|8|8,0:0|0:0|0:1,0:0:0:0:
483,200,94254,2,0,P|496:243|485:303,1,98.9999969787599,2|8,0:0|0:1,0:0:0:0:
464,339,94723,2,0,L|411:337,1,49.4999984893799,2|8,0:0|0:1,0:0:0:0:
366,350,95036,6,0,P|309:360|231:307,1,148.49999546814,14|2,0:1|0:0,0:0:0:0:
219,266,95661,1,8,0:0:0:0:
253,173,95973,2,0,P|271:130|266:70,1,98.9999969787599,2|2,0:0|0:0,0:0:0:0:
201,5,96598,1,2,0:0:0:0:
110,44,96911,2,0,P|92:87|97:147,1,98.9999969787599,10|2,0:0|0:0,0:0:0:0:
63,232,97536,6,0,P|130:232|184:296,1,148.49999546814,10|2,0:1|0:0,0:0:0:0:
183,338,98161,2,0,B|232:314|232:314|270:314|270:314|335:280,1,148.49999546814,10|8,0:0|0:0,0:0:0:0:
369,293,98786,1,8,0:1:0:0:
441,225,99098,1,10,0:1:0:0:
458,127,99411,2,0,L|513:116,2,49.4999984893799,10|8|10,0:1|0:1|0:1,0:0:0:0:
387,42,100036,6,0,P|338:17|276:22,1,110,14|10,0:1|0:0,0:0:0:0:
177,45,100661,1,10,0:1:0:0:
100,124,100973,1,10,0:0:0:0:
87,233,101286,2,0,P|108:292|160:316,1,110,10|10,0:1|0:0,0:0:0:0:
200,326,101754,2,0,L|282:244,1,110,2|2,0:0|0:0,0:0:0:0:
332,244,102223,1,8,0:0:0:0:
424,303,102536,6,0,P|443:254|430:193,1,110,10|10,0:1|0:0,0:0:0:0:
401,93,103161,1,10,0:1:0:0:
301,46,103473,1,10,0:0:0:0:
195,78,103786,2,0,P|178:126|196:192,1,110,10|8,0:1|0:0,0:0:0:0:
215,231,104254,2,0,L|100:227,1,110,2|0,0:0|0:0,0:0:0:0:
57,199,104723,1,10,0:0:0:0:
41,308,105036,6,0,P|95:348|148:342,1,110,10|8,0:1|0:0,0:0:0:0:
189,356,105504,2,0,P|229:320|283:317,1,110,2|0,0:0|0:0,0:0:0:0:
332,343,105973,1,10,0:0:0:0:
385,246,106286,1,10,0:1:0:0:
326,153,106598,2,0,B|272:145|272:145|220:164,1,110,10|10,0:0|0:1,0:0:0:0:
134,232,107223,1,10,0:0:0:0:
25,213,107536,6,0,B|0:143|48:93|112:104|112:104|126:41|178:15|246:52,1,330,10|8,0:1|0:0,0:0:0:0:
274,78,108629,2,0,P|330:97|386:83,1,110,2|8,0:0|0:1,0:0:0:0:
418,48,109098,1,10,0:0:0:0:
487,133,109411,1,10,0:0:0:0:
487,242,109723,1,2,0:0:0:0:
430,336,110036,6,0,L|310:328,1,110,10|10,0:0|0:0,0:0:0:0:
220,374,110661,1,2,0:0:0:0:
220,374,110817,1,8,0:0:0:0:
124,319,111129,2,0,P|94:278|99:198,1,110,2|2,0:1|0:1,0:0:0:0:
64,171,111598,1,8,0:0:0:0:
64,171,111754,2,0,B|120:183|120:183|177:172,1,110,10|8,0:0|0:1,0:0:0:0:
210,134,112223,1,10,0:0:0:0:
295,64,112536,6,0,B|351:52|351:52|408:63,1,110,2|10,0:1|0:0,0:0:0:0:
489,130,113161,1,2,0:0:0:0:
489,130,113317,1,8,0:0:0:0:
408,204,113629,2,0,B|352:216|352:216|295:205,1,110,10|2,0:0|0:1,0:0:0:0:
255,173,114098,1,8,0:0:0:0:
255,173,114254,2,0,P|271:227|226:332,1,165,10|2,0:0|0:0,0:0:0:0:
130,290,115036,6,0,P|114:236|129:171,1,110,2|10,0:1|0:0,0:0:0:0:
146,76,115661,1,2,0:0:0:0:
146,76,115817,1,8,0:1:0:0:
244,26,116129,2,0,L|361:31,1,110,2|2,0:0|0:0,0:0:0:0:
406,13,116598,1,8,0:0:0:0:
406,13,116754,2,0,P|456:30|488:95,1,110,10|10,0:0|0:1,0:0:0:0:
502,128,117223,1,8,0:0:0:0:
475,234,117536,6,0,B|424:244|424:244|357:226,1,110,6|8,0:1|0:0,0:0:0:0:
327,191,118004,1,10,0:1:0:0:
327,191,118161,2,0,B|276:181|276:181|209:199,1,110,14|8,0:1|0:0,0:0:0:0:
186,239,118629,1,8,0:1:0:0:
186,239,118786,1,12,0:1:0:0:
91,182,119098,2,0,P|74:238|89:298,1,110,2|10,0:0|0:0,0:0:0:0:
171,354,119723,1,10,0:0:0:0:
281,348,120036,6,0,B|346:342|346:342|383:357|383:357|446:348,2,165,14|14|10,0:1|0:1|0:1,0:0:0:0:
232,321,121129,1,10,0:1:0:0:
30,112,122223,6,0,L|95:108,1,55,10|10,0:0|0:0,0:0:0:0:
133,80,122536,1,14,0:1:0:0:
220,143,122848,1,10,0:0:0:0:
330,143,123161,2,0,P|382:132|417:83,1,110,10|8,0:1|0:0,0:0:0:0:
463,63,123629,2,0,L|482:180,1,110,2|2,0:0|0:0,0:0:0:0:
434,271,124254,2,0,L|320:289,1,110,2|2,0:0|0:0,0:0:0:0:
286,327,124723,2,0,P|258:334|227:332,1,55,10|2,0:0|0:0,0:0:0:0:
183,305,125036,5,10,0:1:0:0:
103,229,125348,2,0,P|87:174|110:107,1,110,10|10,0:0|0:1,0:0:0:0:
103,68,125817,2,0,P|148:98|214:93,1,110,2|2,0:0|0:0,0:0:0:0:
287,28,126442,1,2,0:0:0:0:
389,67,126754,2,0,B|397:120|397:120|379:188,1,110,2|2,0:0|0:0,0:0:0:0:
350,219,127223,2,0,L|356:281,1,55,10|2,0:0|0:0,0:0:0:0:
386,319,127536,5,10,0:1:0:0:
292,376,127848,1,10,0:0:0:0:
190,332,128161,2,0,P|173:285|184:218,1,110,10|8,0:1|0:0,0:0:0:0:
206,178,128629,1,2,0:0:0:0:
238,72,128942,1,2,0:0:0:0:
150,6,129254,2,0,P|97:5|54:38,1,110,2|2,0:0|0:0,0:0:0:0:
33,90,129723,1,8,0:0:0:0:
22,199,130036,6,0,L|42:320,1,110,10|8,0:1|0:0,0:0:0:0:
82,342,130504,1,2,0:0:0:0:
82,342,130661,2,0,P|111:351|148:348,1,55,10|2,0:1|0:0,0:0:0:0:
188,362,130973,2,0,P|213:345|235:315,1,55,10|2,0:0|0:0,0:0:0:0:
242,272,131286,1,10,0:1:0:0:
210,166,131598,1,10,0:0:0:0:
255,65,131911,2,0,P|284:60|314:65,1,55,10|8,0:0|0:1,0:0:0:0:
363,54,132223,2,0,P|385:73|400:99,1,55,10|8,0:1|0:1,0:0:0:0:
429,140,132536,5,14,0:1:0:0:
459,245,132848,1,10,0:0:0:0:
427,350,133161,2,0,P|369:368|321:357,1,110,10|8,0:1|0:0,0:0:0:0:
282,319,133629,2,0,L|296:210,1,110,2|2,0:0|0:0,0:0:0:0:
363,122,134254,2,0,P|313:97|252:108,1,110,2|2,0:0|0:0,0:0:0:0:
218,139,134723,2,0,L|163:133,1,55,10|2,0:0|0:0,0:0:0:0:
116,103,135036,5,10,0:1:0:0:
53,193,135348,1,10,0:0:0:0:
74,301,135661,1,10,0:1:0:0:
74,301,135817,2,0,P|109:336|168:343,1,110,2|2,0:0|0:0,0:0:0:0:
265,294,136442,1,2,0:0:0:0:
226,191,136754,2,0,P|191:156|132:149,1,110,2|2,0:0|0:0,0:0:0:0:
78,155,137223,2,0,L|33:122,1,55,10|2,0:0|0:0,0:0:0:0:
20,69,137536,5,14,0:1:0:0:
111,7,137848,1,10,0:0:0:0:
221,9,138161,2,0,P|270:19|321:71,1,110,10|8,0:1|0:0,0:0:0:0:
337,107,138629,1,2,0:0:0:0:
301,211,138942,1,2,0:0:0:0:
336,314,139254,2,0,P|392:328|446:302,1,110,2|0,0:0|0:0,0:0:0:0:
487,282,139723,2,0,P|495:253|495:223,1,55,10|8,0:0|0:1,0:0:0:0:
460,185,140036,6,0,L|347:194,1,110,6|2,0:0|0:0,0:0:0:0:
245,224,140661,2,0,L|132:215,1,110,6|2,0:0|0:0,0:0:0:0:
39,160,141286,1,10,0:0:0:0:
47,50,141598,1,10,0:0:0:0:
149,10,141911,1,10,0:0:0:0:
246,61,142223,1,10,0:0:0:0:
235,170,142536,6,0,L|292:175,1,55,6|2,0:1|0:0,0:0:0:0:
339,150,142848,1,2,0:0:0:0:
425,81,143161,2,0,L|419:25,2,55,10|2|2,0:1|0:0|0:0,0:0:0:0:
468,114,143629,1,2,0:0:0:0:
462,224,143942,1,10,0:1:0:0:
462,224,144098,2,0,P|437:221|406:230,1,55,2|10,0:0|0:1,0:0:0:0:
371,270,144411,1,2,0:0:0:0:
292,346,144723,1,2,0:0:0:0:
181,346,145036,6,0,P|148:342|124:329,1,55,10|2,0:1|0:0,0:0:0:0:
84,299,145348,1,2,0:0:0:0:
60,191,145661,2,0,L|1:199,2,55,10|2|2,0:1|0:0|0:0,0:0:0:0:
92,146,146129,2,0,P|139:125|201:140,1,110,2|10,0:0|0:1,0:0:0:0:
238,169,146598,1,2,0:0:0:0:
238,169,146754,2,0,B|278:198|323:176|360:147|417:181,1,165,10|8,0:1|0:0,0:0:0:0:
488,108,147536,6,0,P|501:132|504:159,1,55,14|2,0:1|0:0,0:0:0:0:
508,213,147848,1,10,0:0:0:0:
455,309,148161,2,0,L|473:360,2,55,10|2|10,0:1|0:0|0:0,0:0:0:0:
403,289,148629,1,2,0:0:0:0:
332,204,148942,1,2,0:0:0:0:
332,204,149098,2,0,L|314:153,1,55,10|2,0:0|0:0,0:0:0:0:
308,97,149411,1,10,0:1:0:0:
208,49,149723,1,10,0:0:0:0:
109,99,150036,6,0,L|100:154,1,55,10|2,0:1|0:0,0:0:0:0:
62,193,150348,1,10,0:0:0:0:
80,301,150661,2,0,L|71:361,2,55,10|2|10,0:1|0:0|0:0,0:0:0:0:
129,323,151129,2,0,P|180:335|240:312,1,110,2|2,0:0|0:0,0:0:0:0:
269,275,151598,1,10,0:0:0:0:
269,275,151754,2,0,B|251:229|274:195|274:195|249:156|270:94,1,165,10|0,0:1|0:0,0:0:0:0:
256,78,162536,6,0,L|190:85,2,55,2|2|10,0:0|0:0|0:0,0:0:0:0:
306,98,163004,1,2,0:0:0:0:
306,98,163161,1,2,0:0:0:0:
357,194,163473,2,0,L|423:201,2,55,10|2|10,0:0|0:0|0:1,0:0:0:0:
307,214,163941,1,2,0:0:0:0:
307,214,164098,1,10,0:0:0:0:
260,314,164411,2,0,L|194:321,1,55,2|10,0:0|0:1,0:0:0:0:
161,352,164723,1,10,0:0:0:0:
92,266,165036,6,0,L|36:275,2,55,10|2|10,0:1|0:0|0:0,0:0:0:0:
126,223,165504,1,2,0:0:0:0:
126,223,165661,1,2,0:0:0:0:
223,172,165973,2,0,L|279:181,2,55,10|2|10,0:0|0:0|0:1,0:0:0:0:
189,129,166441,1,2,0:0:0:0:
189,129,166598,1,10,0:0:0:0:
254,40,166911,2,0,L|310:49,1,55,2|10,0:0|0:1,0:0:0:0:
346,87,167223,2,0,L|402:96,1,55,10|2,0:0|0:0,0:0:0:0:
443,130,167536,6,0,L|453:68,2,55,14|2|10,0:1|0:0|0:0,0:0:0:0:
457,182,168004,1,2,0:0:0:0:
457,182,168161,1,2,0:0:0:0:
378,258,168473,2,0,L|388:320,2,55,10|2|10,0:0|0:0|0:1,0:0:0:0:
340,218,168941,1,2,0:0:0:0:
340,218,169098,1,10,0:0:0:0:
274,129,169411,2,0,L|284:67,2,55,2|10|10,0:0|0:1|0:0,0:0:0:0:
236,169,169879,1,2,0:0:0:0:
236,169,170036,5,10,0:1:0:0:
170,256,170348,2,0,L|180:318,1,55,8|2,0:0|0:1,0:0:0:0:
160,362,170661,1,2,0:1:0:0:
52,338,170973,2,0,L|40:276,1,55,10|2,0:0|0:0,0:0:0:0:
5,242,171286,2,0,L|21:126,1,110,10|10,0:1|0:0,0:0:0:0:
96,53,171911,2,0,L|160:60,1,55,2|8,0:0|0:1,0:0:0:0:
197,30,172223,1,10,0:0:0:0:
257,121,172536,5,14,0:1:0:0:
256,192,180036,12,12,182536,0:1:0:0:
386,79,183161,6,0,L|449:72,2,55,10|10|10,0:1|0:0|0:0,0:0:0:0:
333,63,183629,2,0,P|351:109|338:177,1,110,2|2,0:1|0:1,0:0:0:0:
326,220,184098,2,0,L|270:224,1,55,10|2,0:0|0:1,0:0:0:0:
228,258,184411,2,0,L|172:262,1,55,10|10,0:1|0:0,0:0:0:0:
118,265,184723,1,10,0:0:0:0:
74,163,185036,6,0,L|16:171,2,55,10|2|10,0:1|0:1|0:0,0:0:0:0:
103,116,185504,2,0,P|144:82|206:78,1,110,2|10,0:1|0:0,0:0:0:0:
247,102,185973,2,0,P|273:103|308:91,1,55,10|2,0:0|0:1,0:0:0:0:
346,64,186286,2,0,L|362:-5,2,55,10|2|10,0:1|0:1|0:0,0:0:0:0:
385,102,186754,2,0,B|414:136|414:136|405:263,1,165,2|8,0:1|0:0,0:0:0:0:
330,337,187536,6,0,L|269:331,1,55,10|2,0:1|0:1,0:0:0:0:
222,347,187848,1,10,0:0:0:0:
116,314,188161,2,0,P|110:350|118:386,2,55,10|10|10,0:1|0:0|0:0,0:0:0:0:
137,263,188629,2,0,P|82:252|47:202,1,110,2|2,0:1|0:1,0:0:0:0:
33,158,189098,1,10,0:0:0:0:
80,58,189411,2,0,L|55:6,2,55,10|10|10,0:1|0:0|0:0,0:0:0:0:
133,44,189879,6,0,P|187:34|240:62,1,110,2|2,0:1|0:1,0:0:0:0:
258,106,190348,2,0,L|251:172,1,55,10|2,0:0|0:1,0:0:0:0:
244,215,190661,2,0,L|199:247,2,55,10|10|10,0:1|0:0|0:0,0:0:0:0:
288,246,191129,2,0,P|348:263|441:205,1,165,2|8,0:1|0:0,0:0:0:0:
451,107,191911,2,0,L|405:74,1,55,10|8,0:1|0:0,0:0:0:0:
351,74,192223,1,10,0:0:0:0:
256,192,192536,12,8,193786,0:0:0:0:
193,296,203786,6,0,P|137:294|97:261,1,98.9999969787599,4|10,0:1|0:0,0:0:0:0:
175,201,204411,2,0,P|224:201|275:241,1,98.9999969787599,2|10,0:1|0:0,0:0:0:0:
292,268,204879,2,0,B|341:276|341:276|398:264,1,98.9999969787599,8|2,0:1|0:1,0:0:0:0:
471,210,205504,2,0,P|481:163|466:107,1,98.9999969787599,2|8,0:1|0:1,0:0:0:0:
429,84,205973,2,0,L|370:90,1,49.4999984893799,10|8,0:0|0:1,0:0:0:0:
334,68,206286,5,10,0:1:0:0:
248,118,206598,2,0,P|196:120|147:79,1,98.9999969787599,10|2,0:0|0:1,0:0:0:0:
128,54,207067,2,0,B|79:59|79:59|30:91,1,98.9999969787599,2|10,0:1|0:1,0:0:0:0:
23,184,207692,1,2,0:1:0:0:
72,269,208004,2,0,P|121:275|177:239,1,98.9999969787599,2|8,0:1|0:1,0:0:0:0:
233,182,208629,1,8,0:1:0:0:
233,182,208786,6,0,P|284:177|334:208,1,98.9999969787599,14|10,0:1|0:0,0:0:0:0:
410,249,209411,2,0,P|456:249|498:209,1,98.9999969787599,2|10,0:1|0:0,0:0:0:0:
506,167,209879,2,0,L|477:68,1,98.9999969787599,2|2,0:1|0:1,0:0:0:0:
386,33,210504,2,0,P|324:25|287:94,1,148.49999546814,2|10,0:1|0:0,0:0:0:0:
316,132,211129,1,8,0:1:0:0:
316,132,211286,6,0,P|331:186|316:249,1,110,12|2,0:1|0:1,0:0:0:0:
250,322,211911,2,0,B|196:337|196:337|134:323,1,110,14|2,0:1|0:1,0:0:0:0:
51,263,212536,1,14,0:1:0:0:
21,157,212848,1,10,0:1:0:0:
58,53,213161,1,14,0:1:0:0:
163,21,213473,2,0,L|222:27,1,55,10|10,0:0|0:0,0:0:0:0:
265,53,213786,5,14,0:1:0:0:
368,15,214098,1,10,0:0:0:0:
461,72,214411,2,0,P|478:121|462:180,1,110,10|8,0:1|0:0,0:0:0:0:
427,216,214879,2,0,P|410:265|426:324,1,110,2|2,0:0|0:0,0:0:0:0:
323,366,215504,2,0,P|270:371|216:336,1,110,2|2,0:0|0:0,0:0:0:0:
202,291,215973,2,0,L|209:229,1,55,10|2,0:0|0:0,0:0:0:0:
233,187,216286,5,10,0:1:0:0:
187,86,216598,2,0,P|130:82|79:110,1,110,10|10,0:0|0:1,0:0:0:0:
29,111,217067,2,0,B|13:146|13:146|29:238,1,110,2|2,0:0|0:0,0:0:0:0:
44,324,217692,1,2,0:0:0:0:
145,365,218004,2,0,P|191:362|243:316,1,110,2|2,0:0|0:0,0:0:0:0:
242,267,218473,2,0,L|225:212,1,55,10|2,0:0|0:0,0:0:0:0:
186,175,218786,5,10,0:1:0:0:
209,67,219098,1,10,0:0:0:0:
313,32,219411,2,0,P|367:28|421:62,1,110,10|8,0:1|0:0,0:0:0:0:
452,93,219879,1,2,0:0:0:0:
431,201,220192,1,2,0:0:0:0:
363,287,220504,2,0,P|309:291|255:257,1,110,2|2,0:0|0:0,0:0:0:0:
230,218,220973,1,8,0:0:0:0:
209,109,221286,6,0,B|164:85|164:85|95:85,1,110,10|8,0:1|0:0,0:0:0:0:
59,115,221754,1,2,0:0:0:0:
59,115,221911,2,0,L|71:180,1,55,10|2,0:1|0:0,0:0:0:0:
48,220,222223,2,0,L|60:285,1,55,10|2,0:0|0:0,0:0:0:0:
66,328,222536,1,10,0:1:0:0:
162,380,222848,1,10,0:0:0:0:
261,332,223161,2,0,L|270:277,1,55,10|8,0:0|0:1,0:0:0:0:
250,227,223473,2,0,L|259:172,1,55,10|8,0:1|0:1,0:0:0:0:
244,119,223786,5,14,0:1:0:0:
314,34,224098,1,10,0:0:0:0:
424,34,224411,2,0,P|470:57|496:112,1,110,10|8,0:1|0:0,0:0:0:0:
481,160,224879,2,0,L|368:150,1,110,2|2,0:0|0:0,0:0:0:0:
286,80,225504,2,0,P|235:80|189:116,1,110,2|2,0:0|0:0,0:0:0:0:
184,169,225973,2,0,L|206:226,1,55,10|2,0:0|0:0,0:0:0:0:
203,275,226286,5,10,0:1:0:0:
276,356,226598,1,10,0:0:0:0:
386,361,226911,1,10,0:1:0:0:
386,361,227067,2,0,P|438:347|471:305,1,110,2|2,0:0|0:0,0:0:0:0:
490,196,227692,1,2,0:0:0:0:
383,169,228004,2,0,P|330:182|297:224,1,110,2|2,0:0|0:0,0:0:0:0:
267,271,228473,2,0,L|200:265,1,55,10|2,0:0|0:0,0:0:0:0:
159,284,228786,5,14,0:1:0:0:
62,232,229098,1,10,0:0:0:0:
33,125,229411,2,0,P|48:70|106:34,1,110,10|8,0:1|0:0,0:0:0:0:
142,31,229879,1,2,0:0:0:0:
249,54,230192,1,2,0:0:0:0:
312,143,230504,2,0,L|306:269,1,110,2|0,0:0|0:0,0:0:0:0:
329,303,230973,2,0,P|358:307|389:305,1,55,10|8,0:0|0:1,0:0:0:0:
415,260,231286,6,0,L|421:134,1,110,6|2,0:0|0:0,0:0:0:0:
365,54,231911,2,0,P|314:33|258:42,1,110,6|2,0:0|0:0,0:0:0:0:
181,117,232536,1,10,0:0:0:0:
79,73,232848,1,10,0:0:0:0:
29,171,233161,1,10,0:0:0:0:
127,218,233473,1,10,0:0:0:0:
181,117,233786,6,0,L|238:122,1,55,14|2,0:1|0:0,0:0:0:0:
278,156,234098,1,2,0:0:0:0:
354,76,234411,2,0,L|348:20,2,55,10|2|2,0:1|0:0|0:0,0:0:0:0:
394,113,234879,1,2,0:0:0:0:
459,201,235192,1,10,0:1:0:0:
459,201,235348,2,0,L|467:272,1,55,2|10,0:0|0:1,0:0:0:0:
454,309,235661,1,2,0:0:0:0:
361,368,235973,1,2,0:0:0:0:
251,356,236286,6,0,P|226:347|203:327,1,55,10|2,0:1|0:0,0:0:0:0:
178,280,236598,1,2,0:0:0:0:
112,191,236911,2,0,P|86:192|51:185,2,55,10|2|2,0:1|0:0|0:0,0:0:0:0:
161,167,237379,2,0,P|215:168|261:207,1,110,2|10,0:0|0:1,0:0:0:0:
290,245,237848,1,2,0:0:0:0:
290,245,238004,2,0,P|345:271|396:188,1,165,10|8,0:1|0:0,0:0:0:0:
395,88,238786,6,0,L|332:96,1,55,14|2,0:1|0:0,0:0:0:0:
291,70,239098,1,10,0:0:0:0:
181,54,239411,2,0,L|162:-5,2,55,10|2|10,0:1|0:0|0:0,0:0:0:0:
148,98,239879,1,2,0:0:0:0:
85,188,240192,1,2,0:0:0:0:
85,188,240348,2,0,L|101:240,1,55,10|2,0:0|0:0,0:0:0:0:
88,294,240661,2,0,P|120:331|186:341,1,110,10|10,0:1|0:0,0:0:0:0:
254,263,241286,5,14,0:0:0:0:
254,263,241442,1,10,0:0:0:0:
351,313,241754,1,10,0:0:0:0:
351,313,241911,1,10,0:0:0:0:
342,203,242223,1,10,0:0:0:0:
342,203,242379,1,10,0:0:0:0:
423,128,242692,2,0,P|380:95|312:102,1,110,10|10,0:0|0:0,0:0:0:0:
273,113,243161,1,10,0:0:0:0:
180,54,243473,2,0,L|124:59,1,55,10|0,0:0|0:0,0:0:0:0:
81,92,243786,5,10,0:0:0:0:
81,92,243942,1,10,0:0:0:0:
3,165,244254,1,10,0:0:0:0:
3,165,244410,1,10,0:0:0:0:
108,198,244722,1,10,0:0:0:0:
108,198,244879,1,10,0:0:0:0:
158,295,245192,2,0,P|196:268|215:206,1,110,10|10,0:0|0:0,0:0:0:0:
258,174,245661,2,0,L|314:183,1,55,10|10,0:0|0:0,0:0:0:0:
364,167,245973,1,10,0:0:0:0:
419,261,246286,5,14,0:0:0:0:
419,261,246442,1,10,0:0:0:0:
363,355,246754,1,10,0:0:0:0:
363,355,246911,1,10,0:0:0:0:
255,377,247223,1,10,0:0:0:0:
255,377,247379,1,10,0:0:0:0:
176,300,247692,2,0,L|176:178,1,110,10|10,0:0|0:0,0:0:0:0:
176,134,248161,1,10,0:0:0:0:
149,27,248473,2,0,L|204:27,1,55,10|0,0:0|0:0,0:0:0:0:
255,7,248786,5,14,0:0:0:0:
255,7,248942,1,10,0:0:0:0:
363,29,249254,1,10,0:0:0:0:
363,29,249411,1,10,0:0:0:0:
419,123,249723,1,10,0:0:0:0:
419,123,249879,1,10,0:0:0:0:
417,233,250192,1,10,0:0:0:0:
417,233,250348,1,10,0:0:0:0:
417,233,250504,2,0,B|376:296|323:280|263:263|231:344,1,220,14|2,0:0|0:0,0:0:0:0:
