osu file format v14

[General]
AudioFilename: audio.mp3
AudioLeadIn: 0
PreviewTime: 723
Countdown: 0
SampleSet: Soft
StackLeniency: 0.7
Mode: 0
LetterboxInBreaks: 0
WidescreenStoryboard: 0

[Editor]
DistanceSpacing: 1
BeatDivisor: 4
GridSize: 32
TimelineZoom: 1.7

[Metadata]
Title:First Plot
TitleUnicode:ファーストプロット
Artist:Natsukawa Shiina
ArtistUnicode:夏川椎菜
Creator:Mordred
Version:Normal
Source:
Tags:logline ログライン japanese pop
BeatmapID:2469017
BeatmapSetID:1183671

[Difficulty]
HPDrainRate:3
CircleSize:3
OverallDifficulty:4
ApproachRate:5
SliderMultiplier:1.1
SliderTickRate:1

[Events]
//Background and Video events
0,0,"294762.jpg",0,0
//Break Periods
2,102368,111057
2,241923,245856
//Storyboard Layer 0 (Background)
//Storyboard Layer 1 (Fail)
//Storyboard Layer 2 (Pass)
//Storyboard Layer 3 (Foreground)
//Storyboard Layer 4 (Overlay)
//Storyboard Sound Samples

[TimingPoints]
835,444.444444444444,4,2,2,60,1,0
835,-100,4,2,2,60,0,0
7946,-100,4,2,1,60,0,0
13279,-100,4,2,1,70,0,0
14946,-100,4,2,1,5,0,0
15057,-100,4,2,1,70,0,0
16723,-100,4,2,1,5,0,0
16834,-100,4,2,1,70,0,0
23834,-100,4,2,1,5,0,0
23946,-100,4,2,1,70,0,0
27723,-100,4,2,1,60,0,0
39946,-100,4,2,1,50,0,0
40168,-100,4,2,1,55,0,0
40390,-100,4,2,1,60,0,0
40612,-100,4,2,1,65,0,0
41057,-100,4,2,1,70,0,0
41723,-100,4,2,1,60,0,0
56834,-100,4,2,1,60,0,0
66390,-100,4,2,1,70,0,0
71946,-100,4,2,1,80,0,1
72279,-100,4,2,1,5,0,1
72390,-100,4,2,1,80,0,1
86501,-100,4,2,1,5,0,1
86612,-100,4,2,1,80,0,1
92390,-100,4,2,3,80,0,1
92612,-100,4,2,1,80,0,1
98612,-100,4,2,1,70,0,0
100279,-100,4,2,1,5,0,0
100390,-100,4,2,1,70,0,0
102057,-100,4,2,1,5,0,0
102168,-100,4,2,1,70,0,0
107390,-100,4,2,1,5,0,0
107501,-100,4,2,1,70,0,0
109168,-100,4,2,1,5,0,0
109279,-100,4,2,1,70,0,0
113057,-100,4,2,1,60,0,0
125279,-100,4,2,1,50,0,0
125501,-100,4,2,1,55,0,0
125723,-100,4,2,1,60,0,0
125946,-100,4,2,1,65,0,0
126390,-100,4,2,1,60,0,0
127057,-100,4,2,1,60,0,0
141279,-100,4,2,1,60,0,0
151723,-100,4,2,1,70,0,0
157279,-100,4,2,1,80,0,1
157612,-100,4,2,1,5,0,1
157723,-100,4,2,1,80,0,1
171834,-100,4,2,1,5,0,1
171946,-100,4,2,1,80,0,1
177723,-100,4,2,3,80,0,1
177946,-100,4,2,1,80,0,1
183946,-100,4,2,1,70,0,0
187501,-100,4,2,1,60,0,0
194168,-100,4,2,1,60,0,0
194612,-100,4,2,3,70,0,0
199723,-100,4,2,1,70,0,0
201723,-100,4,2,1,70,0,0
210612,-100,4,2,1,50,0,0
211501,444.444444444444,4,2,1,80,1,1
211501,-100,4,2,1,80,0,1
211834,-100,4,2,1,5,0,1
211945,-100,4,2,1,80,0,1
217723,-100,4,2,3,80,0,1
217945,-100,4,2,1,80,0,1
218945,-100,4,2,1,5,0,1
219056,-100,4,2,1,80,0,1
226056,-100,4,2,1,5,0,1
226167,-100,4,2,1,80,0,1
231945,-100,4,2,3,80,0,1
232167,-100,4,2,1,80,0,1
238167,-100,4,2,1,70,0,0
241500,-100,4,2,1,65,0,0
241723,-100,4,2,1,60,0,0
247112,-100,4,2,1,20,0,0
247500,-100,4,2,1,30,0,0
247612,-100,4,2,1,40,0,0
247723,-100,4,2,1,50,0,0
247834,-100,4,2,1,60,0,0
247945,-100,4,2,1,70,0,0
248056,-100,4,2,1,75,0,0
248167,-100,4,2,1,80,0,0
248389,-100,4,2,1,70,0,0
248834,-100,4,2,1,70,0,0
250500,-100,4,2,1,5,0,0
250612,-100,4,2,1,70,0,0
252278,-100,4,2,1,5,0,0
252389,-100,4,2,1,70,0,0
257612,-100,4,2,1,5,0,0
257723,-100,4,2,1,70,0,0
259389,-100,4,2,1,5,0,0
259500,-100,4,2,1,70,0,0
264723,-100,4,2,1,5,0,0
264834,-100,4,2,1,70,0,0
266500,-100,4,2,1,5,0,0
266612,-100,4,2,1,70,0,0
271834,-100,4,2,1,5,0,0
271945,-100,4,2,1,70,0,0
273612,-100,4,2,1,5,0,0
273723,-100,4,2,1,70,0,0
277167,-100,4,2,1,5,0,0
277278,-100,4,2,1,70,0,0
281834,-100,4,2,1,5,0,0
281945,-100,4,2,1,50,0,0
282167,-100,4,2,1,60,0,0
282389,-100,4,2,1,70,0,0

[Colours]
Combo1 : 250,180,240
Combo2 : 110,190,225
Combo3 : 255,230,130
Combo4 : 150,230,140

[HitObjects]
31,319,7946,6,0,P|20:266|19:211,1,110,6|0,1:2|1:2,0:0:0:0:
63,110,8834,2,0,L|128:95,1,55,0|0,1:2|3:2,0:0:0:0:
159,131,9279,2,0,L|224:146,1,55,0|0,1:2|3:2,0:0:0:0:
265,128,9723,2,0,L|250:18,2,110,2|2|2,1:2|1:2|1:2,0:0:0:0:
369,164,11057,1,0,1:2:0:0:
474,193,11501,1,6,1:2:0:0:
64,32,12834,5,8,3:2:0:0:
64,31,13279,6,0,P|49:85|41:139,1,110,6|10,1:2|0:2,0:0:0:0:
72,245,14168,2,0,P|126:253|179:267,1,110,2|10,1:2|0:2,0:0:0:0:
224,368,15057,1,2,1:2:0:0:
334,380,15501,1,10,0:2:0:0:
400,291,15946,1,2,1:2:0:0:
356,190,16390,1,10,0:2:0:0:
400,89,16834,6,0,P|364:48|311:35,1,110,2|8,1:2|0:2,0:0:0:0:
265,65,17501,2,0,P|211:68|164:40,1,110,2|0,0:2|0:2,0:0:0:0:
110,51,18168,1,8,0:2:0:0:
93,159,18612,2,0,L|119:265,1,110,2|10,1:2|0:2,0:0:0:0:
211,326,19501,1,2,1:2:0:0:
290,250,19946,1,10,0:2:0:0:
228,158,20390,6,0,P|218:104|240:55,1,110,6|10,1:2|0:2,0:0:0:0:
342,11,21279,2,0,P|395:1|444:23,1,110,2|10,1:2|0:2,0:0:0:0:
511,111,22168,1,2,1:2:0:0:
440,195,22612,1,10,0:2:0:0:
501,286,23057,1,2,1:2:0:0:
453,384,23501,1,10,0:2:0:0:
393,294,23946,6,0,L|260:310,1,110,2|8,1:2|0:2,0:0:0:0:
255,355,24612,1,2,0:2:0:0:
255,355,24834,1,2,1:2:0:0:
164,291,25279,1,8,0:2:0:0:
72,351,25723,2,0,L|58:296,1,55,14|8,0:2|0:2,0:0:0:0:
12,267,26168,2,0,L|26:212,1,55,10|8,0:2|0:2,0:0:0:0:
72,183,26612,2,0,L|58:128,1,55,10|8,0:2|0:3,0:0:0:0:
11,98,27057,2,0,P|28:47|75:22,1,110,8|4,3:2|1:2,0:0:0:0:
128,37,27723,5,2,0:2:0:0:
167,145,28168,1,0,0:2:0:0:
167,145,28390,2,0,L|160:213,2,55,0|2|0,1:2|0:2|1:2,0:0:0:0:
202,102,29057,2,0,L|321:82,1,110,2|2,0:2|0:2,0:0:0:0:
341,38,29723,1,0,1:2:0:0:
341,38,29946,1,2,0:2:0:0:
490,106,30612,2,0,L|505:158,1,55,0|0,1:2|0:2,0:0:0:0:
468,200,31057,5,2,1:2:0:0:
495,306,31501,1,0,1:2:0:0:
411,378,31946,2,0,L|301:364,1,110,2|0,1:2|1:2,0:0:0:0:
263,325,32612,2,0,P|289:277|297:223,1,110,2|0,0:2|0:2,0:0:0:0:
263,180,33279,1,2,1:2:0:0:
316,83,33723,2,0,L|425:73,2,110,2|2|0,1:2|1:2|1:2,0:0:0:0:
262,70,34834,5,2,0:2:0:0:
262,70,35057,2,0,L|257:15,2,55,0|0|0,1:2|0:2|1:2,0:0:0:0:
216,100,35723,2,0,L|161:104,1,55,2|0,0:2|1:2,0:0:0:0:
111,81,36168,1,2,0:2:0:0:
24,148,36612,2,0,L|20:212,1,55,2|0,0:2|1:2,0:0:0:0:
39,254,37057,1,2,0:2:0:0:
166,357,37723,2,0,L|220:353,1,55,0|0,1:2|0:2,0:0:0:0:
261,316,38168,5,2,1:2:0:0:
197,226,38612,1,0,1:2:0:0:
238,124,39057,2,0,L|228:69,2,55,2|0|0,1:2|0:2|1:2,0:0:0:0:
283,163,39723,1,2,0:2:0:0:
283,163,39946,2,0,L|353:172,1,55,0|8,1:2|1:2,0:0:0:0:
382,137,40390,1,8,0:2:0:0:
382,137,40612,1,8,0:2:0:0:
477,192,41057,1,8,0:0:0:0:
492,244,41279,1,8,0:0:0:0:
506,296,41501,2,0,L|490:350,1,55,8|4,0:0|1:1,0:0:0:0:
437,364,41946,6,0,L|372:347,1,55,0|8,0:0|0:0,0:0:0:0:
330,361,42390,1,2,0:0:0:0:
266,271,42834,2,0,L|283:206,1,55,2|8,0:0|0:0,0:0:0:0:
322,183,43279,1,2,0:0:0:0:
299,75,43723,2,0,L|234:58,1,55,2|8,0:0|0:0,0:0:0:0:
192,72,44168,1,2,0:0:0:0:
36,17,44834,6,0,L|22:70,1,55,8|0,0:0|0:0,0:0:0:0:
50,117,45279,1,2,1:2:0:0:
2,216,45723,1,8,0:0:0:0:
37,320,46168,2,0,L|150:332,1,110,2|8,1:2|0:0,0:0:0:0:
185,369,46834,2,0,L|298:357,1,110,2|0,0:2|0:0,0:0:0:0:
330,315,47501,1,10,0:2:0:0:
252,237,47946,2,0,L|246:182,1,55,2|8,1:2|0:0,0:0:0:0:
287,146,48390,1,8,0:0:0:0:
287,146,48612,2,0,L|292:91,1,55,8|2,0:0|1:3,0:0:0:0:
383,28,49279,5,8,0:0:0:0:
466,99,49723,2,0,L|471:153,1,55,2|0,1:2|0:0,0:0:0:0:
508,195,50168,1,8,0:0:0:0:
508,195,50390,2,0,L|492:322,1,110,2|0,0:0|0:0,0:0:0:0:
455,342,51057,1,10,0:0:0:0:
356,292,51501,1,2,1:2:0:0:
267,357,51946,2,0,L|202:364,1,55,8|0,0:0|0:0,0:0:0:0:
161,383,52390,5,2,1:2:0:0:
95,294,52834,1,10,0:0:0:0:
165,209,53279,2,0,L|219:203,1,55,0|2,1:2|0:0,0:0:0:0:
278,213,53723,1,8,0:0:0:0:
278,213,53946,2,0,L|280:142,1,55,2|0,0:0|1:2,0:0:0:0:
266,48,54612,1,8,0:0:0:0:
160,80,55057,2,0,L|105:85,1,55,0|8,1:2|0:0,0:0:0:0:
71,128,55501,2,0,L|16:133,1,55,10|8,0:0|0:3,0:0:0:0:
1,185,55946,6,0,L|13:299,1,110,6|0,1:2|0:0,0:0:0:0:
47,336,56612,1,2,1:2:0:0:
151,302,57057,1,0,3:0:0:0:
237,368,57501,2,0,P|291:379|346:382,1,110,2|0,1:2|1:2,0:0:0:0:
450,347,58390,2,0,L|462:293,1,55,0|0,1:2|1:2,0:0:0:0:
417,261,58834,2,0,L|405:207,1,55,8|8,0:3|0:3,0:0:0:0:
422,154,59279,1,2,0:0:0:0:
422,154,59501,5,2,1:2:0:0:
511,89,59946,1,0,0:0:0:0:
446,0,60390,1,0,1:2:0:0:
357,65,60834,1,8,0:0:0:0:
255,25,61279,2,0,P|211:93|237:168,1,165,2|0,3:2|1:2,0:0:0:0:
287,209,62168,1,2,3:2:0:0:
287,209,62390,1,8,0:3:0:0:
287,209,62612,1,8,3:3:0:0:
379,148,63057,6,0,P|432:155|466:197,1,110,2|0,1:2|0:0,0:0:0:0:
442,246,63723,1,0,1:2:0:0:
485,348,64168,1,0,3:0:0:0:
379,377,64612,2,0,L|202:361,1,165,2|0,1:2|0:0,0:0:0:0:
161,378,65501,1,0,1:2:0:0:
93,290,65946,2,0,L|101:231,1,55,8|8,0:3|0:3,0:0:0:0:
67,191,66390,6,0,B|45:169|45:169|66:93,1,110,6|0,1:2|3:2,0:0:0:0:
121,77,67057,1,0,3:0:0:0:
121,77,67279,2,0,B|143:99|143:99|218:77,1,110,6|0,1:2|3:0,0:0:0:0:
260,41,67946,1,0,3:0:0:0:
260,41,68168,2,0,B|282:19|282:19|357:40,1,110,6|0,1:2|3:0,0:0:0:0:
372,93,68834,2,0,B|355:133|364:164|364:164|321:198|321:198|339:244|309:291,1,220,0|8,3:0|0:0,0:0:0:0:
280,332,69946,5,6,1:2:0:0:
383,383,70390,1,0,3:0:0:0:
383,383,70612,2,0,L|450:373,1,55,8|8,0:0|0:0,0:0:0:0:
492,382,71057,1,8,0:0:0:0:
511,273,71501,1,10,0:0:0:0:
445,184,71946,6,0,P|426:132|433:78,1,110,6|10,1:2|0:0,0:0:0:0:
354,1,72834,2,0,L|297:-5,1,55,2|2,3:2|1:2,0:0:0:0:
250,21,73279,2,0,L|193:15,1,55,10|0,0:0|1:2,0:0:0:0:
146,39,73723,2,0,L|157:148,1,110,2|8,1:2|0:0,0:0:0:0:
200,191,74390,1,2,3:2:0:0:
200,191,74612,2,0,L|205:245,1,55,2|2,3:2|1:2,0:0:0:0:
186,297,75057,1,10,0:0:0:0:
80,326,75501,6,0,L|68:216,1,110,2|8,1:2|0:0,0:0:0:0:
23,184,76168,1,2,3:2:0:0:
23,184,76390,2,0,L|28:129,1,55,2|2,3:2|1:2,0:0:0:0:
77,103,76834,2,0,L|82:48,1,55,10|2,0:2|1:2,0:0:0:0:
128,17,77279,1,2,1:2:0:0:
231,53,77723,2,0,L|305:48,1,55,14|2,0:2|3:2,0:0:0:0:
327,13,78168,1,2,3:2:0:0:
404,91,78612,1,10,0:2:0:0:
506,53,79057,6,0,P|518:107|525:162,1,110,6|10,1:2|0:2,0:0:0:0:
499,210,79723,2,0,P|445:198|390:191,1,110,2|2,3:2|1:2,0:0:0:0:
343,221,80390,1,10,0:2:0:0:
294,319,80834,2,0,L|303:376,2,55,2|0|8,1:2|1:2|0:2,0:0:0:0:
243,296,81501,1,2,3:2:0:0:
243,296,81723,2,0,L|234:241,1,55,2|2,3:2|1:2,0:0:0:0:
208,192,82168,1,10,0:2:0:0:
248,90,82612,6,0,P|228:40|178:21,1,110,2|8,1:2|0:2,0:0:0:0:
129,38,83279,1,2,3:2:0:0:
129,38,83501,2,0,L|68:53,1,55,2|2,3:2|1:2,0:0:0:0:
22,37,83946,2,0,L|7:98,1,55,10|2,0:2|1:2,0:0:0:0:
39,136,84390,1,14,1:2:0:0:
7,241,84834,1,10,1:2:0:0:
38,346,85279,2,0,L|92:352,1,55,14|8,0:2|0:3,0:0:0:0:
141,327,85723,2,0,L|195:320,1,55,14|8,0:2|0:2,0:0:0:0:
239,351,86168,6,0,P|293:365|348:369,1,110,6|10,1:2|0:2,0:0:0:0:
443,314,87057,2,0,L|454:260,1,55,2|2,3:2|1:2,0:0:0:0:
436,207,87501,1,10,0:2:0:0:
466,101,87946,2,0,L|535:90,2,55,2|0|8,1:2|1:2|0:2,0:0:0:0:
417,75,88612,1,2,3:2:0:0:
417,75,88834,2,0,L|362:65,1,55,2|2,3:2|1:2,0:0:0:0:
331,19,89279,1,10,0:2:0:0:
246,89,89723,6,0,P|237:143|234:198,1,110,2|8,1:2|0:2,0:0:0:0:
256,248,90390,1,2,3:2:0:0:
255,247,90612,2,0,P|260:275|263:302,1,55,2|2,3:2|1:2,0:0:0:0:
231,347,91057,2,0,P|203:351|176:354,1,55,10|2,0:2|1:2,0:0:0:0:
125,333,91501,2,0,L|108:216,1,110,2|14,1:2|0:2,0:0:0:0:
141,181,92168,1,10,0:2:0:0:
141,181,92390,1,10,0:3:0:0:
58,108,92834,1,10,0:2:0:0:
139,33,93279,6,0,P|190:16|244:23,1,110,6|14,1:2|0:2,0:0:0:0:
293,122,94168,2,0,L|300:176,1,55,6|2,3:2|1:2,0:0:0:0:
269,222,94612,2,0,L|276:276,1,55,14|2,0:2|1:2,0:0:0:0:
261,329,95057,1,6,1:2:0:0:
358,378,95501,1,14,0:2:0:0:
447,314,95946,2,0,L|501:319,2,55,6|0|12,3:2|1:2|0:2,0:0:0:0:
416,268,96612,1,2,0:2:0:0:
416,268,96834,5,6,1:2:0:0:
483,181,97279,2,0,L|494:114,1,55,10|8,0:2|0:2,0:0:0:0:
481,72,97723,2,0,L|410:59,1,55,10|10,0:2|0:2,0:0:0:0:
384,27,98168,1,14,1:2:0:0:
284,73,98612,1,6,1:2:0:0:
256,192,98834,12,6,102168,1:2:0:0:
12,297,112390,6,0,L|121:322,1,110,6|4,1:2|1:2,0:0:0:0:
171,304,113057,1,0,0:0:0:0:
171,304,113279,1,2,0:0:0:0:
264,361,113723,2,0,L|330:366,1,55,2|0,0:0|1:2,0:0:0:0:
365,336,114168,1,2,0:0:0:0:
364,335,114390,2,0,P|418:325|439:263,1,110,2|2,1:2|0:0,0:0:0:0:
472,233,115057,1,0,0:0:0:0:
472,233,115279,1,2,0:0:0:0:
507,71,115946,2,0,L|490:15,1,55,2|0,0:0|1:2,0:0:0:0:
438,1,116390,5,2,1:2:0:0:
356,74,116834,1,0,0:0:0:0:
252,36,117279,2,0,L|142:25,1,110,2|0,0:0|0:0,0:0:0:0:
105,65,117946,2,0,P|123:116|137:169,1,110,2|8,1:2|0:0,0:0:0:0:
119,226,118612,1,10,0:0:0:0:
119,226,118834,1,2,1:3:0:0:
119,226,119057,1,2,0:0:0:0:
280,384,119946,5,2,1:2:0:0:
280,384,120168,1,2,1:2:0:0:
348,236,120834,1,2,1:2:0:0:
348,236,121057,1,2,1:2:0:0:
449,365,121723,2,0,B|489:373|489:373|528:352,2,82.5,8|8|8,0:3|0:3|0:3,0:0:0:0:
395,377,122612,1,8,0:3:0:0:
306,311,123057,1,2,1:3:0:0:
215,372,123501,6,0,L|152:366,1,55,0|0,1:2|1:2,0:0:0:0:
106,380,123946,1,2,0:0:0:0:
42,290,124390,2,0,L|36:227,1,55,0|0,1:2|1:2,0:0:0:0:
0,193,124834,1,2,0:0:0:0:
49,94,125279,2,0,L|103:88,1,55,2|2,1:2|1:2,0:0:0:0:
145,124,125723,1,10,0:0:0:0:
145,124,125946,1,2,1:2:0:0:
227,51,126390,1,10,0:0:0:0:
279,34,126612,1,10,0:0:0:0:
331,17,126834,2,0,L|404:30,1,55,10|4,0:0|1:1,0:0:0:0:
454,112,127501,6,0,L|470:173,1,55,10|0,0:0|0:0,0:0:0:0:
452,218,127946,2,0,L|468:279,1,55,2|0,1:2|0:0,0:0:0:0:
503,310,128390,1,8,0:0:0:0:
503,310,128612,1,2,0:0:0:0:
415,377,129057,1,2,0:0:0:0:
308,346,129501,2,0,P|281:299|280:242,1,110,2|0,0:0|0:0,0:0:0:0:
318,205,130168,2,0,P|330:180|333:153,1,55,10|0,0:0|0:0,0:0:0:0:
367,110,130612,5,2,1:2:0:0:
304,19,131057,1,8,0:0:0:0:
224,94,131501,2,0,P|172:112|117:119,1,110,2|8,1:2|0:0,0:0:0:0:
75,84,132168,2,0,P|67:138|49:190,1,110,2|0,0:0|0:0,0:0:0:0:
3,220,132834,1,10,0:0:0:0:
30,326,133279,1,8,0:0:0:0:
30,326,133501,2,0,L|84:335,1,55,8|8,0:0|0:0,0:0:0:0:
125,372,133946,1,8,0:0:0:0:
125,372,134168,5,2,1:3:0:0:
226,329,134612,2,0,L|235:274,1,55,8|2,0:0|0:0,0:0:0:0:
197,234,135057,2,0,L|206:179,1,55,0|2,1:2|0:0,0:0:0:0:
181,130,135501,1,8,0:0:0:0:
181,130,135723,1,2,0:0:0:0:
211,27,136168,1,2,0:0:0:0:
211,27,136390,2,0,P|264:38|319:35,1,110,10|2,0:0|1:2,0:0:0:0:
424,1,137279,2,0,L|483:14,1,55,10|0,0:0|3:2,0:0:0:0:
506,59,137723,5,2,1:2:0:0:
469,162,138168,1,10,0:0:0:0:
505,265,138612,2,0,L|500:330,1,55,0|2,1:2|0:0,0:0:0:0:
458,354,139057,1,8,0:0:0:0:
458,354,139279,2,0,L|393:349,1,55,2|0,0:0|1:2,0:0:0:0:
296,377,139946,1,8,0:0:0:0:
243,280,140390,2,0,L|250:212,1,55,0|8,1:2|0:0,0:0:0:0:
288,187,140834,2,0,L|295:119,1,55,8|8,0:0|0:3,0:0:0:0:
333,93,141279,6,0,L|447:105,1,110,6|0,1:2|0:0,0:0:0:0:
492,80,141946,1,2,1:2:0:0:
510,188,142390,1,0,3:0:0:0:
440,273,142834,2,0,P|386:284|331:287,1,110,2|0,1:2|1:2,0:0:0:0:
254,366,143723,2,0,L|200:354,1,55,0|0,1:2|1:2,0:0:0:0:
146,366,144168,2,0,L|92:354,1,55,8|8,0:3|0:3,0:0:0:0:
41,365,144612,1,2,0:0:0:0:
41,365,144834,5,2,1:2:0:0:
3,261,145279,1,0,0:0:0:0:
79,182,145723,1,0,1:2:0:0:
31,82,146168,1,8,0:0:0:0:
124,24,146612,2,0,P|204:19|256:79,1,165,2|0,3:2|1:2,0:0:0:0:
252,141,147501,1,0,1:2:0:0:
252,141,147723,1,8,0:3:0:0:
252,141,147946,1,8,3:3:0:0:
164,207,148390,6,0,L|54:221,1,110,2|0,1:2|0:0,0:0:0:0:
17,262,149057,1,0,1:2:0:0:
74,355,149501,1,0,3:0:0:0:
169,299,149946,2,0,L|354:274,1,165,2|0,3:2|0:0,0:0:0:0:
379,306,150834,1,0,1:2:0:0:
478,258,151279,2,0,L|486:199,1,55,8|8,0:3|0:3,0:0:0:0:
460,154,151723,6,0,B|482:132|482:132|461:56,1,110,6|0,1:2|3:2,0:0:0:0:
411,48,152390,1,0,3:2:0:0:
411,48,152612,2,0,B|389:70|389:70|314:48,1,110,6|0,1:2|3:2,0:0:0:0:
266,31,153279,1,0,3:2:0:0:
266,31,153501,2,0,B|244:9|244:9|169:30,1,110,6|0,1:2|3:2,0:0:0:0:
142,79,154168,2,0,B|159:119|150:150|150:150|193:184|193:184|175:230|205:277,1,220,0|8,3:2|0:0,0:0:0:0:
238,314,155279,5,6,1:2:0:0:
154,384,155723,1,0,3:2:0:0:
154,384,155946,2,0,L|87:374,1,55,8|8,0:2|0:2,0:0:0:0:
44,370,156390,2,0,L|35:304,1,55,8|8,0:3|0:3,0:0:0:0:
1,272,156834,1,10,0:0:0:0:
79,198,157279,6,0,P|98:146|86:93,1,110,6|10,1:2|0:2,0:0:0:0:
151,4,158168,2,0,L|208:-2,1,55,2|2,3:2|1:2,0:0:0:0:
249,31,158612,2,0,L|306:25,1,55,10|0,0:2|1:2,0:0:0:0:
353,48,159057,2,0,L|342:157,1,110,2|8,1:2|0:0,0:0:0:0:
304,197,159723,1,2,3:2:0:0:
304,197,159946,2,0,L|299:251,1,55,2|0,3:2|1:2,0:0:0:0:
270,298,160390,1,10,0:0:0:0:
352,370,160834,6,0,L|462:358,1,110,2|8,1:2|0:0,0:0:0:0:
502,321,161501,1,2,3:2:0:0:
502,321,161723,2,0,L|497:266,1,55,2|2,3:2|1:2,0:0:0:0:
457,227,162168,2,0,L|452:172,1,55,10|2,0:0|1:2,0:0:0:0:
473,121,162612,1,2,1:2:0:0:
417,25,163057,2,0,L|343:20,1,55,14|2,0:2|3:2,0:0:0:0:
312,45,163501,1,10,0:2:0:0:
353,147,163946,1,10,0:2:0:0:
300,243,164390,6,0,P|246:255|191:262,1,110,6|10,1:2|0:0,0:0:0:0:
140,260,165057,1,2,3:2:0:0:
140,260,165279,2,0,L|122:182,1,55,2|2,3:2|1:2,0:0:0:0:
95,162,165723,1,10,0:0:0:0:
58,58,166168,2,0,L|1:49,2,55,2|0|8,1:2|1:2|0:0,0:0:0:0:
109,34,166834,1,2,3:2:0:0:
109,34,167057,2,0,L|163:25,1,55,2|2,3:2|1:2,0:0:0:0:
211,51,167501,1,10,0:2:0:0:
270,143,167946,6,0,P|250:193|200:212,1,110,2|8,1:2|0:2,0:0:0:0:
159,247,168612,1,2,3:2:0:0:
159,247,168834,2,0,L|144:308,1,55,2|2,3:2|1:2,0:0:0:0:
168,350,169279,2,0,L|229:365,1,55,10|2,0:2|1:2,0:0:0:0:
265,330,169723,1,14,1:2:0:0:
366,371,170168,1,10,1:2:0:0:
458,310,170612,2,0,L|452:256,1,55,14|8,0:2|0:3,0:0:0:0:
477,207,171057,2,0,L|484:153,1,55,14|8,0:2|0:2,0:0:0:0:
507,102,171501,6,0,P|453:88|398:84,1,110,6|10,1:2|0:2,0:0:0:0:
320,161,172390,2,0,L|313:215,1,55,2|2,3:2|1:2,0:0:0:0:
330,267,172834,1,10,0:0:0:0:
239,330,173279,2,0,L|246:384,2,55,2|0|8,1:2|1:2|0:2,0:0:0:0:
196,304,173946,1,2,3:2:0:0:
196,304,174168,2,0,L|141:294,1,55,2|2,3:2|1:2,0:0:0:0:
94,322,174612,1,10,0:0:0:0:
21,239,175057,6,0,P|12:185|9:130,1,110,2|8,1:2|0:0,0:0:0:0:
44,89,175723,1,2,1:2:0:0:
44,89,175946,2,0,P|72:84|99:81,1,55,2|2,1:2|1:2,0:0:0:0:
148,103,176390,2,0,P|176:98|203:95,1,55,10|2,0:0|1:2,0:0:0:0:
246,127,176834,2,0,L|230:235,1,110,2|14,1:2|0:0,0:0:0:0:
204,286,177501,1,2,3:2:0:0:
204,286,177723,1,10,0:3:0:0:
291,352,178168,1,10,0:0:0:0:
377,283,178612,6,0,P|431:285|481:264,1,110,6|14,1:2|0:0,0:0:0:0:
508,157,179501,2,0,L|501:103,1,55,6|2,3:2|1:2,0:0:0:0:
465,59,179946,2,0,L|411:66,1,55,14|2,0:0|1:2,0:0:0:0:
362,39,180390,1,6,1:2:0:0:
308,135,180834,1,14,0:0:0:0:
353,235,181279,2,0,L|407:240,2,55,6|0|12,1:2|1:2|0:0,0:0:0:0:
310,268,181946,1,2,0:0:0:0:
310,268,182168,5,6,1:2:0:0:
238,351,182612,2,0,L|171:362,1,55,8|8,0:0|0:0,0:0:0:0:
129,349,183057,2,0,L|116:278,1,55,10|10,0:0|0:0,0:0:0:0:
144,246,183501,1,14,1:2:0:0:
65,168,183946,5,6,1:2:0:0:
115,70,184390,2,0,B|100:33|100:33|59:19,2,82.5,8|8|0,0:0|0:0|1:2,0:0:0:0:
167,87,185279,1,8,3:2:0:0:
260,29,185723,1,0,1:2:0:0:
356,81,186168,2,0,L|421:83,1,55,8|8,0:2|0:0,0:0:0:0:
456,112,186612,2,0,L|454:177,1,55,0|8,1:2|0:2,0:0:0:0:
489,209,187057,2,0,L|487:274,1,55,0|8,1:2|0:2,0:0:0:0:
507,314,187501,5,6,1:2:0:0:
180,363,188834,1,0,1:2:0:0:
180,363,189057,1,6,1:2:0:0:
6,82,191057,1,2,1:2:0:0:
168,109,191723,1,2,1:2:0:0:
372,27,192612,1,6,1:2:0:0:
480,256,194168,5,8,0:0:0:0:
480,256,194612,6,0,P|458:304|400:317,1,110,6|10,1:2|0:3,0:0:0:0:
324,244,195501,1,8,0:3:0:0:
267,338,195946,2,0,L|200:351,1,55,8|4,0:3|0:3,0:0:0:0:
164,374,196390,1,10,0:3:0:0:
59,341,196834,1,10,0:3:0:0:
127,254,197279,1,8,0:3:0:0:
25,210,197723,2,0,L|39:147,1,55,8|4,0:3|0:3,0:0:0:0:
85,129,198168,6,0,P|117:145|195:123,2,110,10|10|8,0:3|0:3|0:3,0:0:0:0:
73,75,199279,2,0,L|87:12,1,55,6|10,0:3|0:2,0:0:0:0:
137,4,199723,2,0,L|264:22,1,110,6|0,1:2|1:2,0:0:0:0:
299,5,200390,1,10,0:0:0:0:
348,103,200834,1,10,0:0:0:0:
452,69,201279,1,10,0:0:0:0:
503,165,201723,6,0,P|510:220|514:275,1,110,6|10,1:2|0:0,0:0:0:0:
490,325,202390,1,0,0:0:0:0:
490,325,202612,2,0,L|424:341,1,55,2|2,1:2|0:0,0:0:0:0:
388,365,203057,1,8,0:0:0:0:
388,365,203279,2,0,P|338:342|285:353,1,110,2|2,0:0|0:0,0:0:0:0:
235,375,203946,2,0,L|181:367,1,55,10|2,0:0|0:0,0:0:0:0:
136,334,204390,1,2,1:2:0:0:
32,371,204834,1,8,0:0:0:0:
6,263,205279,6,0,P|20:225|105:209,1,110,2|8,1:2|0:0,0:0:0:0:
132,221,205946,1,2,0:0:0:0:
132,221,206168,1,2,1:2:0:0:
189,314,206612,1,8,0:0:0:0:
189,314,206834,2,0,L|309:321,1,110,6|8,1:2|0:0,0:0:0:0:
342,354,207501,2,0,L|406:340,1,55,8|10,0:0|0:0,0:0:0:0:
450,349,207946,2,0,L|459:273,1,55,8|8,0:0|0:0,0:0:0:0:
497,258,208390,1,8,0:0:0:0:
497,258,208612,5,6,1:2:0:0:
425,181,209057,1,8,0:0:0:0:
425,181,209279,2,0,L|416:126,1,55,8|0,0:0|1:2,0:0:0:0:
455,87,209723,2,0,L|446:32,1,55,8|0,0:0|1:2,0:0:0:0:
400,1,210168,2,0,L|345:9,1,55,8|8,0:0|0:3,0:0:0:0:
290,3,210612,1,2,0:0:0:0:
77,59,211501,6,0,P|96:111|84:164,1,110,6|10,1:2|0:0,0:0:0:0:
5,239,212389,2,0,L|11:296,1,55,2|2,3:2|1:2,0:0:0:0:
38,341,212834,1,10,0:0:0:0:
145,329,213278,2,0,P|131:272|171:214,1,110,2|8,1:2|0:0,0:0:0:0:
201,202,213945,1,2,3:2:0:0:
201,202,214167,2,0,L|213:126,1,55,2|2,3:2|1:2,0:0:0:0:
186,97,214612,1,10,0:0:0:0:
266,22,215056,6,0,L|400:13,1,110,2|8,1:2|0:0,0:0:0:0:
429,42,215723,1,2,3:2:0:0:
429,42,215945,2,0,L|424:97,1,55,2|2,3:2|1:2,0:0:0:0:
384,135,216389,2,0,L|389:190,1,55,10|2,0:0|1:2,0:0:0:0:
428,227,216834,1,2,1:2:0:0:
464,330,217278,2,0,L|390:335,1,55,14|10,0:0|0:0,0:0:0:0:
359,358,217723,1,10,0:3:0:0:
267,296,218167,1,10,0:0:0:0:
180,364,218612,6,0,P|126:352|71:345,1,110,6|10,1:2|0:0,0:0:0:0:
31,317,219278,1,2,0:0:0:0:
31,317,219501,2,0,L|17:247,1,55,2|2,3:2|1:2,0:0:0:0:
25,209,219945,1,10,0:0:0:0:
70,108,220389,2,0,L|61:51,2,55,2|0|8,1:2|1:2|0:0,0:0:0:0:
116,147,221056,1,2,3:2:0:0:
116,147,221278,2,0,L|170:156,1,55,2|2,3:2|1:2,0:0:0:0:
218,130,221723,1,10,0:0:0:0:
271,33,222167,6,0,P|320:11|369:33,1,110,2|8,1:2|0:0,0:0:0:0:
408,79,222834,1,2,3:2:0:0:
408,79,223056,2,0,L|423:140,1,55,2|2,3:2|1:2,0:0:0:0:
462,168,223501,2,0,L|477:229,1,55,10|2,0:0|1:2,0:0:0:0:
507,266,223945,1,14,1:2:0:0:
435,349,224389,1,10,0:0:0:0:
340,293,224834,2,0,L|334:239,1,55,14|8,0:0|0:3,0:0:0:0:
359,190,225278,2,0,L|366:136,1,55,14|8,0:0|0:0,0:0:0:0:
347,83,225723,6,0,P|293:97|238:101,1,110,6|10,1:2|0:0,0:0:0:0:
154,170,226612,2,0,L|161:224,1,55,2|2,3:2|1:2,0:0:0:0:
203,258,227056,1,10,0:0:0:0:
219,366,227500,2,0,L|273:373,2,55,2|0|8,1:2|1:2|0:0,0:0:0:0:
168,379,228167,1,2,3:2:0:0:
168,379,228389,2,0,L|113:369,1,55,2|2,3:2|1:2,0:0:0:0:
60,380,228834,1,10,0:0:0:0:
14,279,229278,6,0,P|5:225|2:170,1,110,2|8,1:2|0:0,0:0:0:0:
39,130,229945,1,2,3:2:0:0:
39,130,230167,2,0,P|67:135|94:138,1,55,2|2,3:2|1:2,0:0:0:0:
143,116,230612,2,0,P|171:121|198:124,1,55,10|2,0:0|1:2,0:0:0:0:
235,163,231056,2,0,L|251:271,1,110,2|14,1:2|0:0,0:0:0:0:
237,328,231723,1,10,0:0:0:0:
237,328,231945,1,10,0:3:0:0:
337,373,232389,1,10,0:0:0:0:
431,317,232834,6,0,P|452:266|450:212,1,110,6|14,1:2|0:0,0:0:0:0:
499,113,233723,2,0,L|490:57,1,55,6|2,3:2|1:2,0:0:0:0:
444,27,234167,2,0,L|390:20,1,55,14|2,0:0|1:2,0:0:0:0:
340,44,234612,1,6,1:2:0:0:
297,145,235056,1,14,0:0:0:0:
381,216,235500,2,0,L|435:211,2,55,6|0|12,3:2|1:2|0:0,0:0:0:0:
353,265,236167,1,2,0:0:0:0:
353,265,236389,5,6,1:2:0:0:
280,347,236834,2,0,L|213:336,1,55,8|8,0:0|0:0,0:0:0:0:
172,351,237278,2,0,L|159:280,1,55,10|10,0:0|0:0,0:0:0:0:
189,249,237723,1,14,1:2:0:0:
128,157,238167,6,0,P|112:124|102:38,2,110,6|8|0,1:2|0:0|1:2,0:0:0:0:
182,165,239278,2,0,L|253:172,1,55,2|10,0:0|0:0,0:0:0:0:
287,149,239723,2,0,P|275:202|267:257,1,110,2|0,0:0|0:0,0:0:0:0:
280,310,240389,1,10,0:0:0:0:
381,352,240834,1,2,1:2:0:0:
474,294,241278,1,10,0:0:0:0:
478,183,241723,5,2,0:0:0:0:
466,66,247056,6,0,P|422:42|394:218,1,330,14|10,0:0|0:0,0:0:0:0:
432,313,248834,6,0,P|381:336|328:347,1,110,6|10,1:2|0:0,0:0:0:0:
239,282,249723,1,2,1:2:0:0:
155,353,250167,1,10,0:0:0:0:
48,326,250612,2,0,P|26:281|20:208,1,110,2|10,1:2|0:2,0:0:0:0:
99,147,251500,1,2,1:2:0:0:
34,57,251945,1,10,0:2:0:0:
135,14,252389,6,0,L|244:27,1,110,2|8,1:2|0:0,0:0:0:0:
277,71,253056,2,0,L|264:180,1,110,2|0,0:0|0:0,0:0:0:0:
213,202,253723,1,10,0:2:0:0:
220,311,254167,1,2,1:2:0:0:
327,288,254612,1,10,0:0:0:0:
408,361,255056,1,2,1:2:0:0:
505,310,255500,1,10,0:0:0:0:
509,199,255945,6,0,L|490:88,1,110,6|10,1:2|0:0,0:0:0:0:
397,31,256834,2,0,P|348:56|294:64,1,110,2|10,1:2|0:0,0:0:0:0:
197,12,257723,1,2,1:2:0:0:
97,59,258167,1,10,0:2:0:0:
102,169,258612,1,2,1:2:0:0:
205,206,259056,1,10,0:2:0:0:
289,136,259500,6,0,P|341:117|395:121,1,110,2|8,1:2|0:0,0:0:0:0:
432,162,260167,1,2,0:0:0:0:
432,162,260389,2,0,L|447:289,1,110,2|8,1:2|0:0,0:0:0:0:
386,364,261278,2,0,L|326:360,1,55,6|8,1:2|0:0,0:0:0:0:
277,374,261723,2,0,L|217:370,1,55,8|8,0:0|0:0,0:0:0:0:
192,324,262167,1,10,0:0:0:0:
250,230,262612,1,4,0:3:0:0:
217,124,263056,6,0,P|167:102|114:111,1,110,6|10,1:2|0:0,0:0:0:0:
47,199,263945,2,0,L|41:309,1,110,2|10,1:2|0:0,0:0:0:0:
129,373,264834,1,2,1:2:0:0:
202,291,265278,1,10,0:0:0:0:
301,339,265723,1,2,1:2:0:0:
381,264,266167,1,10,0:0:0:0:
297,192,266612,6,0,P|277:141|291:89,1,110,2|8,1:2|0:0,0:0:0:0:
341,66,267278,2,0,P|393:80|443:60,1,110,2|0,0:0|0:0,0:0:0:0:
495,79,267945,1,8,0:0:0:0:
484,188,268389,2,0,L|507:310,1,110,2|10,1:2|0:0,0:0:0:0:
431,378,269278,1,2,1:2:0:0:
347,306,269723,1,10,0:0:0:0:
259,372,270167,6,0,L|137:357,1,110,6|10,1:2|0:0,0:0:0:0:
71,281,271056,1,2,1:2:0:0:
108,177,271500,1,10,0:0:0:0:
7,131,271945,2,0,P|-6:90|36:15,1,110,2|10,1:2|0:0,0:0:0:0:
118,73,272834,1,2,1:2:0:0:
216,23,273278,1,10,0:0:0:0:
277,112,273723,6,0,P|289:165|264:213,1,110,2|8,1:2|0:0,0:0:0:0:
241,265,274389,1,2,0:0:0:0:
241,265,274612,2,0,P|270:310|321:326,1,110,2|8,1:2|0:0,0:0:0:0:
429,304,275500,2,0,L|443:250,1,55,6|8,1:2|0:0,0:0:0:0:
485,215,275945,2,0,L|499:161,1,55,10|8,0:0|0:0,0:0:0:0:
464,119,276389,2,0,L|449:65,1,55,10|8,0:0|0:3,0:0:0:0:
404,33,276834,1,6,1:2:0:0:
309,88,277278,5,6,1:2:0:0:
256,192,277500,12,14,282389,0:0:0:0:
