osu file format v14

[General]
AudioFilename: audio.mp3
AudioLeadIn: 0
PreviewTime: 723
Countdown: 0
SampleSet: Soft
StackLeniency: 0.7
Mode: 0
LetterboxInBreaks: 0
WidescreenStoryboard: 0

[Editor]
DistanceSpacing: 0.75
BeatDivisor: 4
GridSize: 32
TimelineZoom: 2.8

[Metadata]
Title:First Plot
TitleUnicode:ファーストプロット
Artist:Natsukawa Shiina
ArtistUnicode:夏川椎菜
Creator:Mordred
Version:Insane
Source:
Tags:logline ログライン japanese pop
BeatmapID:2467609
BeatmapSetID:1183671

[Difficulty]
HPDrainRate:7
CircleSize:4
OverallDifficulty:8
ApproachRate:8.3
SliderMultiplier:1.4
SliderTickRate:1

[Events]
//Background and Video events
0,0,"294762.jpg",0,0
//Break Periods
2,241922,246130
//Storyboard Layer 0 (Background)
//Storyboard Layer 1 (Fail)
//Storyboard Layer 2 (Pass)
//Storyboard Layer 3 (Foreground)
//Storyboard Layer 4 (Overlay)
//Storyboard Sound Samples

[TimingPoints]
835,444.444444444444,4,2,2,60,1,0
835,-125,4,2,2,60,0,0
7946,-100,4,2,1,60,0,0
13279,-83.3333333333333,4,2,1,70,0,0
14946,-83.3333333333333,4,2,1,5,0,0
15057,-83.3333333333333,4,2,1,70,0,0
16723,-83.3333333333333,4,2,1,5,0,0
16834,-83.3333333333333,4,2,1,70,0,0
23834,-83.3333333333333,4,2,1,5,0,0
23946,-83.3333333333333,4,2,1,70,0,0
27723,-100,4,2,1,60,0,0
39946,-100,4,2,1,50,0,0
40168,-100,4,2,1,55,0,0
40390,-100,4,2,1,60,0,0
40612,-100,4,2,1,65,0,0
41057,-100,4,2,1,70,0,0
41723,-100,4,2,1,60,0,0
56834,-125,4,2,1,60,0,0
66390,-76.9230769230769,4,2,1,70,0,0
71946,-76.9230769230769,4,2,1,80,0,1
72279,-76.9230769230769,4,2,1,5,0,1
72390,-76.9230769230769,4,2,1,80,0,1
86501,-76.9230769230769,4,2,1,5,0,1
86612,-76.9230769230769,4,2,1,80,0,1
92390,-76.9230769230769,4,2,3,80,0,1
92612,-76.9230769230769,4,2,1,80,0,1
98612,-83.3333333333333,4,2,1,70,0,0
100279,-83.3333333333333,4,2,1,5,0,0
100390,-83.3333333333333,4,2,1,70,0,0
102057,-83.3333333333333,4,2,1,5,0,0
102168,-83.3333333333333,4,2,1,70,0,0
107390,-83.3333333333333,4,2,1,5,0,0
107501,-83.3333333333333,4,2,1,70,0,0
109168,-83.3333333333333,4,2,1,5,0,0
109279,-83.3333333333333,4,2,1,70,0,0
113057,-100,4,2,1,60,0,0
125279,-100,4,2,1,50,0,0
125501,-100,4,2,1,55,0,0
125723,-100,4,2,1,60,0,0
125946,-100,4,2,1,65,0,0
126390,-100,4,2,1,60,0,0
127057,-100,4,2,1,60,0,0
141279,-125,4,2,1,60,0,0
151723,-76.9230769230769,4,2,1,70,0,0
157279,-71.4285714285714,4,2,1,80,0,1
157612,-71.4285714285714,4,2,1,5,0,1
157723,-71.4285714285714,4,2,1,80,0,1
171834,-71.4285714285714,4,2,1,5,0,1
171946,-71.4285714285714,4,2,1,80,0,1
177723,-71.4285714285714,4,2,3,80,0,1
177946,-71.4285714285714,4,2,1,80,0,1
183946,-90.9090909090909,4,2,1,70,0,0
187501,-100,4,2,1,60,0,0
194168,-142.857142857143,4,2,1,60,0,0
194612,-100,4,2,3,70,0,0
199723,-83.3333333333333,4,2,1,70,0,0
201723,-83.3333333333333,4,2,1,70,0,0
210612,-166.666666666667,4,2,1,50,0,0
211501,444.444444444444,4,2,1,70,1,1
211501,-71.4285714285714,4,2,1,80,0,1
211834,-71.4285714285714,4,2,1,5,0,1
211945,-71.4285714285714,4,2,1,80,0,1
217723,-71.4285714285714,4,2,3,80,0,1
217945,-71.4285714285714,4,2,1,80,0,1
218945,-71.4285714285714,4,2,1,5,0,1
219056,-71.4285714285714,4,2,1,80,0,1
226056,-71.4285714285714,4,2,1,5,0,1
226167,-71.4285714285714,4,2,1,80,0,1
231945,-71.4285714285714,4,2,3,80,0,1
232167,-71.4285714285714,4,2,1,80,0,1
238167,-90.9090909090909,4,2,1,70,0,0
241500,-90.9090909090909,4,2,1,65,0,0
241723,-90.9090909090909,4,2,1,60,0,0
247112,-90.9090909090909,4,2,1,20,0,0
247500,-90.9090909090909,4,2,1,30,0,0
247612,-90.9090909090909,4,2,1,40,0,0
247723,-90.9090909090909,4,2,1,50,0,0
247834,-90.9090909090909,4,2,1,60,0,0
247945,-76.9230769230769,4,2,1,70,0,0
248056,-76.9230769230769,4,2,1,75,0,0
248167,-76.9230769230769,4,2,1,80,0,0
248389,-76.9230769230769,4,2,1,70,0,0
248834,-83.3333333333333,4,2,1,70,0,0
250500,-83.3333333333333,4,2,1,5,0,0
250612,-83.3333333333333,4,2,1,70,0,0
252278,-83.3333333333333,4,2,1,5,0,0
252389,-83.3333333333333,4,2,1,70,0,0
257612,-83.3333333333333,4,2,1,5,0,0
257723,-83.3333333333333,4,2,1,70,0,0
259389,-83.3333333333333,4,2,1,5,0,0
259500,-83.3333333333333,4,2,1,70,0,0
264723,-83.3333333333333,4,2,1,5,0,0
264834,-83.3333333333333,4,2,1,70,0,0
266500,-83.3333333333333,4,2,1,5,0,0
266612,-83.3333333333333,4,2,1,70,0,0
271834,-83.3333333333333,4,2,1,5,0,0
271945,-83.3333333333333,4,2,1,70,0,0
273612,-83.3333333333333,4,2,1,5,0,0
273723,-83.3333333333333,4,2,1,70,0,0
277167,-83.3333333333333,4,2,1,5,0,0
277278,-83.3333333333333,4,2,1,70,0,0
281834,-83.3333333333333,4,2,1,5,0,0
281945,-83.3333333333333,4,2,1,50,0,0
282167,-83.3333333333333,4,2,1,60,0,0
282389,-83.3333333333333,4,2,1,70,0,0

[Colours]
Combo1 : 250,180,240
Combo2 : 110,190,225
Combo3 : 255,230,130
Combo4 : 150,230,140

[HitObjects]
88,330,835,6,0,P|49:294|65:219,1,112,2|0,1:2|0:2,0:2:0:0:
178,139,1501,1,8,0:2:0:0:
178,139,1723,2,0,B|139:149|122:147,1,56,10|0,0:2|0:2,0:2:0:0:
320,224,2168,2,0,B|359:214|375:215,1,56,2|0,0:2|0:2,0:2:0:0:
291,110,2612,1,2,0:2:0:0:
206,252,2834,2,0,B|225:364,1,112,8|8,0:2|0:2,0:2:0:0:
480,384,3501,1,10,0:2:0:0:
494,308,3723,1,0,0:2:0:0:
508,232,3946,2,0,L|500:176,1,56,2|0,0:2|0:2,0:2:0:0:
275,48,4390,6,0,P|353:32|410:89,1,168,10|8,0:2|0:2,0:2:0:0:
199,89,5279,2,0,P|192:61|192:33,1,56,10|0,0:2|0:2,0:2:0:0:
331,118,5723,2,0,P|337:145|337:173,1,56,2|0,0:2|0:2,0:2:0:0:
288,320,6168,1,2,0:2:0:0:
288,320,6279,1,0,0:2:0:0:
288,320,6390,1,8,0:2:0:0:
239,222,6612,1,0,0:2:0:0:
386,271,6835,1,8,0:2:0:0:
239,222,7057,2,0,P|211:222|183:228,1,56,10|0,0:2|0:2,0:2:0:0:
0,352,7501,2,0,P|38:358|69:325,1,84,2|0,0:2|0:2,0:2:0:0:
75,256,7946,6,0,L|62:170,2,70,6|0|0,1:2|3:2|1:2,0:2:0:0:
192,352,8612,1,0,3:2:0:0:
192,352,8723,1,0,3:2:0:0:
192,352,8834,1,0,1:2:0:0:
288,288,9057,1,0,3:2:0:0:
383,352,9279,2,0,L|380:383,3,17.5,0|0|0|0,1:2|3:2|3:2|3:2,0:2:0:0:
453,331,9501,2,0,L|471:353,3,17.5,0|0|0|0,3:2|3:2|3:2|3:2,0:2:0:0:
496,273,9723,6,0,P|503:238|507:203,1,70,2|0,1:2|0:2,0:2:0:0:
480,64,10168,1,2,1:2:0:0:
448,77,10279,1,0,3:2:0:0:
413,82,10390,1,0,3:2:0:0:
378,78,10501,1,0,3:2:0:0:
346,64,10612,2,0,P|333:52|324:38,2,35,2|0|0,1:2|3:2|3:2,0:2:0:0:
491,202,11057,2,0,L|513:198,6,17.5,0|0|0|0|0|0|0,1:2|3:2|3:2|3:2|3:2|3:2|3:2,0:2:0:0:
439,255,11501,5,6,1:2:0:0:
73,129,12834,1,8,3:2:0:0:
73,129,12946,1,2,3:2:0:0:
73,129,13057,1,2,3:2:0:0:
73,129,13168,1,2,3:2:0:0:
73,128,13279,6,0,P|60:169|55:210,1,83.9999974365235,6|0,1:2|0:2,0:2:0:0:
192,64,13723,2,0,P|233:69|273:81,1,83.9999974365235,10|0,0:2|0:2,0:2:0:0:
326,306,14168,2,0,P|331:264|343:224,1,83.9999974365235,2|0,1:2|0:2,0:2:0:0:
512,50,14612,2,0,P|530:106|484:143,1,125.999996154785,10|0,0:2|0:2,0:2:0:0:
409,155,15057,6,0,L|326:137,1,83.9999974365235,2|0,1:2|0:2,0:2:0:0:
156,276,15501,2,0,L|239:258,1,83.9999974365235,10|0,0:2|0:2,0:2:0:0:
309,108,15946,2,0,L|226:90,1,83.9999974365235,2|0,1:2|0:2,0:2:0:0:
0,192,16390,2,0,P|25:246|85:251,1,125.999996154785,10|0,0:2|0:2,0:2:0:0:
129,192,16834,6,0,L|164:27,1,167.999994873047,2|8,1:2|0:2,0:2:0:0:
417,206,17501,2,0,P|341:232|281:178,1,167.999994873047,2|0,0:2|0:2,0:2:0:0:
480,32,18168,2,0,L|497:114,1,83.9999974365235,8|0,0:2|0:2,0:2:0:0:
448,288,18612,5,2,1:2:0:0:
448,288,18834,1,0,0:2:0:0:
281,178,19057,1,10,0:2:0:0:
281,178,19279,1,0,0:2:0:0:
419,149,19501,1,2,1:2:0:0:
309,316,19723,1,8,0:2:0:0:
142,206,19946,1,10,0:2:0:0:
137,185,20057,1,8,0:3:0:0:
133,164,20168,1,4,0:3:0:0:
129,143,20279,1,4,0:3:0:0:
124,122,20390,6,0,P|82:117|42:105,1,83.9999974365235,6|0,1:2|0:2,0:2:0:0:
388,262,20834,2,0,P|430:267|470:279,1,83.9999974365235,10|0,0:2|0:2,0:2:0:0:
314,30,21279,2,0,P|302:70|298:112,1,83.9999974365235,2|0,1:2|0:2,0:2:0:0:
197,352,21723,2,0,P|209:312|214:271,1,83.9999974365235,10|0,0:2|0:2,0:2:0:0:
0,96,22168,6,0,L|83:83,1,83.9999974365235,2|0,1:2|0:2,0:2:0:0:
288,192,22612,2,0,L|204:179,1,83.9999974365235,10|0,0:2|0:2,0:2:0:0:
384,0,23057,2,0,L|397:83,1,83.9999974365235,2|0,1:2|0:2,0:2:0:0:
512,335,23501,2,0,L|492:210,1,125.999996154785,10|0,0:2|0:2,0:2:0:0:
472,142,23946,6,0,P|394:121|339:179,1,167.999994873047,2|8,1:2|0:2,0:2:0:0:
85,317,24612,1,2,0:0:0:0:
85,317,24834,2,0,P|162:338|217:280,1,167.999994873047,2|8,1:2|0:2,0:2:0:0:
246,31,25501,5,0,3:2:0:0:
246,31,25612,1,0,3:2:0:0:
246,31,25723,1,14,0:2:0:0:
310,319,25946,1,8,0:2:0:0:
362,89,26168,1,10,0:2:0:0:
310,319,26391,1,8,0:2:0:0:
148,71,26612,1,10,0:2:0:0:
416,240,26834,1,8,0:3:0:0:
148,71,27057,2,0,P|71:91|49:169,1,167.999994873047,8|4,3:2|1:2,3:2:0:0:
96,256,27723,6,0,L|164:269,1,70,2|0,0:2|1:2,0:2:0:0:
256,224,28168,1,0,0:2:0:0:
341,281,28390,1,0,1:2:0:0:
250,326,28612,1,2,0:2:0:0:
165,269,28834,1,0,1:2:0:0:
335,383,29057,6,0,L|403:370,1,70,2|0,0:2|1:2,0:2:0:0:
494,293,29501,1,2,0:2:0:0:
503,203,29723,1,0,1:2:0:0:
512,113,29946,2,0,L|499:45,2,70,2|0|0,0:2|1:2|0:2,0:2:0:0:
503,203,30612,1,0,1:2:0:0:
494,293,30834,1,0,0:2:0:0:
351,95,31057,6,0,P|319:84|284:79,1,70,2|0,1:2|0:2,0:2:0:0:
95,127,31501,2,0,P|130:133|163:144,1,70,0|0,1:2|0:2,0:2:0:0:
297,355,31946,2,0,L|280:217,1,140,2|0,1:2|1:2,0:2:0:0:
131,368,32612,2,0,P|99:379|64:384,1,70,2|0,0:2|1:2,0:2:0:0:
0,320,33057,1,0,0:2:0:0:
96,160,33279,2,0,L|104:229,1,70,2|0,1:2|0:2,0:2:0:0:
214,314,33723,5,2,1:2:0:0:
214,314,33946,1,2,0:2:0:0:
252,187,34168,1,2,1:2:0:0:
343,353,34390,1,2,0:3:0:0:
380,225,34612,1,0,1:2:0:0:
298,271,34834,5,2,0:2:0:0:
298,271,35057,2,0,L|228:278,2,70,0|0|0,1:2|0:2|1:2,0:2:0:0:
252,187,35723,1,2,0:2:0:0:
343,355,35946,1,0,1:2:0:0:
153,350,36168,2,0,L|84:336,1,70,2|0,0:2|1:2,0:2:0:0:
0,192,36612,5,2,0:2:0:0:
84,336,36834,1,0,1:2:0:0:
215,271,37057,2,0,L|228:202,2,70,2|0|0,0:2|1:2|0:2,0:2:0:0:
343,355,37723,5,0,1:2:0:0:
320,224,37946,1,0,0:2:0:0:
297,93,38168,2,0,P|234:85|222:6,2,140,2|0|2,1:2|1:2|1:2,0:2:0:0:
387,41,39279,1,0,0:2:0:0:
478,93,39501,1,0,1:2:0:0:
479,198,39723,1,2,0:2:0:0:
297,93,39946,5,0,1:2:0:0:
261,317,40168,1,8,1:2:0:0:
388,146,40390,1,8,0:2:0:0:
107,67,40612,1,8,0:2:0:0:
107,67,41057,5,8,0:0:0:0:
388,146,41279,1,8,0:0:0:0:
180,350,41501,1,8,0:0:0:0:
226,188,41723,5,4,1:1:0:0:
154,239,41946,1,0,0:0:0:0:
67,224,42168,1,8,0:0:0:0:
17,152,42390,2,0,P|10:117|11:82,1,70,2|0,0:0|1:0,0:0:0:0:
57,8,42834,5,2,0:0:0:0:
124,157,43057,1,8,0:0:0:0:
272,90,43279,2,0,P|307:83|342:80,1,70,2|0,0:0|1:0,0:0:0:0:
438,116,43723,1,2,0:0:0:0:
341,80,43946,1,8,0:0:0:0:
362,180,44168,2,0,P|381:209|404:236,2,70,2|0|0,0:0|1:0|0:0,0:0:0:0:
345,84,44834,1,8,0:0:0:0:
438,116,45057,1,0,0:0:0:0:
297,235,45279,6,0,P|262:231|227:225,1,70,2|0,1:2|0:0,0:0:0:0:
416,352,45723,2,0,P|381:348|346:342,1,70,8|0,0:0|0:0,0:0:0:0:
95,348,46168,2,0,L|234:328,1,140,2|8,1:2|0:0,0:0:0:0:
297,235,46834,2,0,L|306:166,1,70,2|0,0:2|1:0,0:0:0:0:
242,72,47279,1,0,0:0:0:0:
192,240,47501,2,0,L|122:249,1,70,10|0,0:2|0:0,0:0:0:0:
60,115,47946,5,2,1:2:0:0:
181,116,48168,1,8,0:0:0:0:
0,221,48390,1,8,0:0:0:0:
0,10,48612,1,8,0:0:0:0:
0,10,48723,1,8,0:0:0:0:
0,10,48834,1,2,1:3:0:0:
60,115,49057,5,2,0:0:0:0:
181,116,49279,2,0,P|193:83|196:48,1,70,8|0,0:0|0:0,0:0:0:0:
60,115,49723,2,0,P|59:149|69:183,1,70,2|0,1:2|0:0,0:0:0:0:
128,256,50168,1,8,0:0:0:0:
0,334,50390,2,0,L|76:326,1,70,2|0,0:0|1:0,0:0:0:0:
128,256,50834,1,0,0:0:0:0:
324,326,51057,2,0,P|259:346|199:314,1,140,10|2,0:0|1:2,0:0:0:0:
416,160,51946,5,8,0:0:0:0:
448,256,52168,1,0,0:0:0:0:
512,128,52390,2,0,L|521:51,1,70,2|0,1:2|0:0,0:0:0:0:
320,192,52834,2,0,L|303:331,1,140,10|0,0:0|1:2,0:0:0:0:
201,374,53501,1,2,0:0:0:0:
91,360,53723,1,8,0:0:0:0:
2,292,53946,1,2,0:0:0:0:
147,209,54168,5,0,1:2:0:0:
201,374,54390,1,0,0:0:0:0:
366,320,54612,1,8,0:0:0:0:
312,155,54834,1,0,0:0:0:0:
139,302,55057,5,0,1:2:0:0:
373,226,55279,1,8,0:0:0:0:
294,381,55501,1,10,0:0:0:0:
294,381,55612,1,8,0:0:0:0:
294,381,55723,1,8,0:3:0:0:
218,147,55946,1,6,1:2:0:0:
218,147,56168,1,0,3:2:0:0:
512,128,56612,5,2,1:2:0:0:
480,32,56834,2,0,L|424:23,1,56,0|0,1:2|3:0,0:0:0:0:
408,37,57168,1,0,3:0:0:0:
394,52,57279,1,8,3:2:0:0:
365,22,57390,1,0,3:0:0:0:
325,12,57501,1,2,1:2:0:0:
285,23,57612,1,0,3:0:0:0:
257,54,57723,1,0,3:0:0:0:
245,166,57946,1,0,1:2:0:0:
245,166,58390,1,0,1:2:0:0:
280,269,58612,5,0,1:2:0:0:
173,247,58834,1,8,0:3:0:0:
66,225,59057,1,8,0:3:0:0:
245,166,59279,1,2,0:0:0:0:
208,350,59501,1,2,1:2:0:0:
208,350,59723,1,0,3:2:0:0:
480,288,60167,5,0,1:2:0:0:
480,288,60389,2,0,L|422:299,1,56,0|0,1:2|3:2,0:0:0:0:
424,298,60723,1,0,3:2:0:0:
424,298,60833,1,8,0:0:0:0:
288,256,61056,1,0,1:2:0:0:
335,352,61279,1,2,3:2:0:0:
384,209,61501,1,0,1:2:0:0:
384,209,61946,1,0,1:2:0:0:
288,256,62168,1,2,3:2:0:0:
337,113,62390,1,8,0:3:0:0:
192,303,62612,2,0,L|188:336,5,18.6666666666667,8|0|0|0|0|0,3:3|3:0|3:0|3:0|3:0|3:0,0:0:0:0:
139,374,63057,6,0,L|83:379,1,56,2|0,1:2|3:2,0:0:0:0:
0,192,63723,1,0,1:2:0:0:
64,256,63946,2,0,L|119:250,1,56,0|0,1:2|3:0,0:0:0:0:
139,258,64279,1,0,3:2:0:0:
158,266,64390,1,8,3:2:0:0:
188,237,64501,1,0,3:0:0:0:
198,197,64612,1,2,1:2:0:0:
187,157,64723,1,0,3:0:0:0:
156,129,64834,1,0,3:0:0:0:
192,32,65057,1,0,1:2:0:0:
192,32,65501,1,0,1:2:0:0:
280,100,65723,5,0,1:2:0:0:
416,0,65946,1,8,0:3:0:0:
456,236,66168,1,8,0:3:0:0:
320,16,66390,6,0,L|125:2,1,181.999991668702,6|0,1:2|3:2,0:0:0:0:
163,52,66946,1,0,3:0:0:0:
149,106,67057,1,0,3:0:0:0:
103,139,67168,1,0,3:0:0:0:
48,134,67279,2,0,B|11:180|11:180|48:307,1,181.999991668702,6|0,1:2|3:0,0:0:0:0:
85,262,67835,1,0,3:0:0:0:
140,262,67946,1,0,3:0:0:0:
184,297,68057,1,0,3:0:0:0:
194,351,68168,2,0,B|239:388|239:388|367:351,1,181.999991668702,6|0,1:2|3:2,0:0:0:0:
383,361,68723,1,0,3:2:0:0:
408,367,68834,1,0,3:0:0:0:
433,334,68946,1,8,0:0:0:0:
451,294,69057,1,8,0:0:0:0:
469,254,69168,1,8,0:0:0:0:
487,214,69279,1,8,0:0:0:0:
428,220,69390,1,8,0:0:0:0:
369,227,69501,1,8,0:0:0:0:
310,233,69612,1,8,0:0:0:0:
251,240,69723,1,8,0:0:0:0:
472,58,69946,6,0,B|521:107|521:107|487:215,1,181.999991668702,6|0,1:2|3:0,0:0:0:0:
487,214,70501,1,0,3:2:0:0:
487,214,70612,1,8,0:0:0:0:
320,128,70834,1,8,0:0:0:0:
160,320,71057,1,8,0:0:0:0:
32,32,71501,1,10,0:0:0:0:
32,32,71612,1,2,3:2:0:0:
32,32,71723,1,2,3:2:0:0:
32,32,71834,1,2,3:2:0:0:
31,32,71946,6,0,P|0:89|30:148,1,136.499993751526,6|0,1:2|0:0,0:0:0:0:
96,178,72390,2,0,L|195:166,1,90.9999958343508,10|0,0:0|3:0,0:0:0:0:
203,152,72723,1,8,0:0:0:0:
220,137,72834,1,2,3:2:0:0:
320,256,73057,1,2,1:2:0:0:
315,39,73279,1,10,0:0:0:0:
218,297,73501,1,0,1:2:0:0:
121,21,73723,2,0,L|31:10,2,90.9999958343508,2|0|8,1:2|1:2|0:0,0:0:0:0:
318,148,74390,5,2,3:2:0:0:
340,153,74501,1,8,0:0:0:0:
362,158,74612,1,2,3:2:0:0:
315,39,74834,1,2,1:2:0:0:
409,277,75057,2,0,B|455:290|455:290|505:268,1,90.9999958343508,10|0,0:0|0:0,0:0:0:0:
256,384,75501,2,0,B|213:326|213:326|253:223,1,181.999991668702,2|8,1:2|0:0,0:0:0:0:
140,27,76168,5,2,3:2:0:0:
145,49,76279,1,8,0:0:0:0:
150,71,76390,1,2,3:2:0:0:
44,27,76612,1,2,1:2:0:0:
246,71,76834,1,10,0:2:0:0:
0,229,77057,1,2,1:2:0:0:
202,273,77279,2,0,L|309:256,1,90.9999958343508,2|0,1:2|1:2,0:2:0:0:
448,32,77723,5,14,0:2:0:0:
512,256,77946,1,2,3:2:0:0:
506,278,78057,1,8,0:2:0:0:
500,300,78168,2,0,L|410:285,1,90.9999958343508,2|0,3:2|1:2,0:2:0:0:
192,128,78612,1,10,0:2:0:0:
186,105,78723,1,8,0:3:0:0:
180,82,78834,1,4,0:3:0:0:
174,59,78946,1,4,0:3:0:0:
167,36,79057,6,0,B|105:12|105:12|3:103,1,181.999991668702,6|10,1:2|0:2,0:2:0:0:
123,250,79723,1,2,3:2:0:0:
117,227,79834,1,8,0:2:0:0:
111,204,79945,1,0,3:2:0:0:
48,336,80168,1,2,1:2:0:0:
176,112,80390,1,10,0:2:0:0:
205,369,80612,1,0,1:2:0:0:
31,179,80834,2,0,L|18:87,2,90.9999958343508,2|0|8,1:2|1:2|0:2,0:2:0:0:
284,231,81501,5,2,3:2:0:0:
306,226,81612,1,8,0:2:0:0:
328,221,81723,1,2,3:2:0:0:
205,369,81946,1,2,1:2:0:0:
421,266,82168,2,0,L|433:175,1,90.9999958343508,10|0,0:2|0:2,0:2:0:0:
112,384,82612,2,0,L|137:203,1,181.999991668702,2|8,1:2|0:2,0:2:0:0:
366,135,83279,5,2,3:2:0:0:
371,157,83390,1,8,0:2:0:0:
375,179,83501,1,2,3:2:0:0:
268,311,83723,1,2,1:2:0:0:
137,204,83945,1,10,0:2:0:0:
244,73,84168,1,2,1:2:0:0:
395,304,84390,5,14,1:2:0:0:
116,78,84612,1,10,1:2:0:0:
142,331,84834,1,10,1:2:0:0:
369,53,85057,1,10,1:2:0:0:
120,337,85279,1,14,0:2:0:0:
98,344,85390,1,8,0:2:0:0:
76,351,85501,2,0,L|19:342,1,45.4999979171754,8|8,0:3|0:3,0:2:0:0:
0,192,85723,1,14,0:2:0:0:
19,139,85834,1,8,0:2:0:0:
65,107,85945,1,8,0:2:0:0:
121,108,86056,1,8,0:2:0:0:
166,142,86168,6,0,L|187:276,1,136.499993751526,6|0,1:2|0:2,0:2:0:0:
230,335,86612,2,0,L|337:351,1,90.9999958343508,10|0,0:2|3:2,0:2:0:0:
341,341,86946,1,8,0:2:0:0:
362,333,87057,1,2,3:2:0:0:
512,384,87279,1,2,1:2:0:0:
480,192,87501,1,10,0:2:0:0:
230,335,87723,1,0,1:2:0:0:
480,192,87946,2,0,L|494:102,2,90.9999958343508,2|0|8,1:2|1:2|0:2,0:2:0:0:
256,32,88612,5,2,3:2:0:0:
234,37,88723,1,8,0:2:0:0:
212,41,88834,1,2,3:2:0:0:
352,0,89057,1,2,1:2:0:0:
109,80,89279,2,0,B|90:123|90:123|116:185,1,90.9999958343508,10|0,0:2|0:2,0:2:0:0:
389,151,89723,2,0,L|199:121,1,181.999991668702,2|8,1:2|0:2,0:2:0:0:
0,320,90390,5,2,3:2:0:0:
22,316,90501,1,8,0:2:0:0:
44,311,90612,1,2,3:2:0:0:
107,163,90834,1,2,1:2:0:0:
192,374,91057,1,10,0:2:0:0:
318,78,91279,1,2,1:2:0:0:
403,289,91501,2,0,L|492:302,1,90.9999958343508,2|0,1:2|1:2,0:2:0:0:
318,78,91946,5,14,0:2:0:0:
107,163,92168,1,10,0:2:0:0:
84,158,92279,1,8,0:2:0:0:
61,153,92390,2,0,L|51:108,1,45.4999979171754,10|8,0:3|0:3,0:2:0:0:
160,0,92612,2,0,L|170:45,1,45.4999979171754,4|4,0:3|0:3,0:2:0:0:
275,159,92834,1,10,0:2:0:0:
329,172,92946,1,8,0:2:0:0:
380,148,93056,1,8,0:3:0:0:
406,99,93167,1,4,0:3:0:0:
396,43,93279,6,0,P|353:30|308:25,1,90.9999958343508,6|0,1:2|0:2,0:2:0:0:
32,288,93723,2,0,P|75:274|120:269,1,90.9999958343508,14|0,0:2|3:2,0:2:0:0:
140,281,94057,1,8,0:2:0:0:
159,292,94168,1,6,3:2:0:0:
308,25,94390,1,2,1:2:0:0:
345,329,94612,1,14,0:2:0:0:
137,105,94834,1,2,1:2:0:0:
437,163,95057,2,0,P|483:148|520:120,1,90.9999958343508,6|0,1:2|1:2,0:2:0:0:
137,105,95501,6,0,P|91:120|54:148,1,90.9999958343508,14|0,0:2|3:2,0:2:0:0:
51,167,95834,1,8,0:2:0:0:
45,189,95946,1,6,3:2:0:0:
128,0,96168,1,0,1:2:0:0:
251,167,96390,1,12,0:2:0:0:
137,105,96612,1,2,0:2:0:0:
3,338,96834,6,0,L|183:315,1,181.999991668702,6|10,1:2|0:2,0:2:0:0:
252,84,97501,1,8,0:2:0:0:
484,152,97724,1,10,0:2:0:0:
416,384,97946,1,10,0:2:0:0:
416,384,98057,1,8,0:2:0:0:
416,384,98168,2,0,L|408:339,1,45.4999979171754,14|8,1:2|0:2,0:2:0:0:
342,279,98390,2,0,L|334:234,1,45.4999979171754,8|8,0:2|0:2,0:2:0:0:
428,42,98612,6,0,P|389:57|348:66,1,83.9999974365235,6|0,1:2|0:2,0:2:0:0:
140,10,99057,2,0,P|155:48|164:89,1,83.9999974365235,10|0,0:2|0:2,0:2:0:0:
107,297,99501,2,0,P|145:281|186:272,1,83.9999974365235,2|0,1:2|0:2,0:2:0:0:
396,330,99946,2,0,P|363:278|382:220,1,125.999996154785,10|0,0:2|0:2,0:2:0:0:
450,186,100390,6,0,L|533:175,1,83.9999974365235,2|0,1:2|0:0,0:0:0:0:
320,384,100834,2,0,L|236:373,1,83.9999974365235,10|0,0:0|0:0,0:0:0:0:
32,128,101279,2,0,L|42:211,1,83.9999974365235,2|0,1:2|0:0,0:0:0:0:
288,304,101723,2,0,L|272:178,1,125.999996154785,10|0,0:0|0:0,0:0:0:0:
318,121,102168,6,0,B|372:144|372:144|473:103,1,167.999994873047,2|8,1:2|0:0,0:0:0:0:
187,110,102834,2,0,B|133:87|133:87|32:128,1,167.999994873047,2|0,0:0|0:0,0:0:0:0:
64,320,103501,2,0,L|147:330,1,83.9999974365235,8|0,0:0|0:0,0:0:0:0:
384,256,103946,5,2,1:2:0:0:
384,256,104168,1,0,0:0:0:0:
228,174,104390,1,10,0:0:0:0:
228,174,104612,1,0,0:0:0:0:
147,330,104834,1,2,1:2:0:0:
384,256,105057,1,8,0:0:0:0:
309,18,105279,1,10,0:0:0:0:
309,18,105390,1,8,0:3:0:0:
309,18,105501,1,4,0:3:0:0:
309,18,105612,1,4,0:3:0:0:
309,18,105723,6,0,P|347:33|388:42,1,83.9999974365235,6|0,1:2|0:2,0:2:0:0:
463,280,106168,2,0,P|425:264|384:256,1,83.9999974365235,10|0,0:2|0:2,0:2:0:0:
137,384,106612,2,0,P|152:345|161:304,1,83.9999974365235,2|0,1:2|0:2,0:2:0:0:
28,116,107057,2,0,P|1:169|36:217,1,125.999996154785,10|0,0:0|0:0,0:0:0:0:
108,237,107501,6,0,L|191:225,1,83.9999974365235,2|0,1:2|0:0,0:0:0:0:
389,43,107946,2,0,L|377:126,1,83.9999974365235,10|0,0:0|0:0,0:0:0:0:
453,363,108390,2,0,L|464:279,1,83.9999974365235,2|0,1:2|0:0,0:0:0:0:
294,84,108834,2,0,L|169:102,1,125.999996154785,10|0,0:0|0:0,0:0:0:0:
112,153,109279,6,0,P|46:124|50:29,1,167.999994873047,2|8,1:2|0:0,0:0:0:0:
384,0,109946,1,2,0:0:0:0:
384,0,110168,2,0,P|450:29|446:124,1,167.999994873047,2|8,1:2|0:0,0:0:0:0:
384,227,110834,5,0,3:2:0:0:
384,227,110946,1,0,3:2:0:0:
384,227,111057,1,6,1:2:0:0:
512,291,111279,1,8,1:2:0:0:
376,85,111501,1,8,0:0:0:0:
265,306,111723,1,8,0:0:0:0:
44,195,111946,1,8,0:0:0:0:
38,153,112057,1,8,0:0:0:0:
32,111,112168,1,8,0:3:0:0:
26,70,112279,1,4,0:3:0:0:
20,28,112390,2,0,B|68:0|68:0|199:33,1,167.999994873047,6|4,1:2|1:2,0:0:0:0:
224,128,113057,5,0,0:0:0:0:
287,37,113279,2,0,P|322:30|357:27,1,70,2|0,0:0|0:0,0:0:0:0:
404,128,113723,1,2,0:0:0:0:
467,36,113946,1,0,1:2:0:0:
357,28,114168,1,2,0:0:0:0:
453,227,114390,6,0,P|448:262|441:296,1,70,2|0,1:2|1:2,0:0:0:0:
352,384,114834,1,2,0:0:0:0:
252,371,115057,1,0,0:0:0:0:
152,358,115279,2,0,L|77:368,2,70,2|0|0,0:0|0:0|1:2,0:0:0:0:
252,371,115946,1,2,0:0:0:0:
352,384,116169,1,0,1:2:0:0:
505,307,116390,6,0,P|527:242|497:182,2,140,2|0|2,1:2|0:0|0:0,0:0:0:0:
409,311,117501,1,0,1:2:0:0:
409,311,117723,1,0,0:0:0:0:
352,383,117946,2,0,P|317:381|283:372,1,70,2|0,1:2|1:2,0:0:0:0:
160,384,118390,5,8,0:0:0:0:
409,311,118612,1,10,0:0:0:0:
283,372,118834,1,2,1:3:0:0:
222,132,119279,1,2,0:0:0:0:
222,132,119946,5,2,1:2:0:0:
264,276,120168,1,2,1:2:0:0:
264,276,120834,5,2,1:2:0:0:
160,384,121056,1,2,1:2:0:0:
160,384,121723,6,0,L|64:367,1,70,8|8,0:3|0:3,0:0:0:0:
60,351,122057,2,0,L|18:358,2,35,8|0|8,0:3|1:2|0:3,0:0:0:0:
67,315,122390,2,0,L|54:246,1,70,8|8,0:3|0:3,0:0:0:0:
26,223,122723,2,0,L|38:154,1,70,8|8,0:3|0:3,0:0:0:0:
18,121,123057,1,2,1:3:0:0:
256,352,123501,5,0,1:2:0:0:
256,352,123723,1,0,1:2:0:0:
384,320,123946,1,2,0:0:0:0:
30,227,124390,5,0,1:2:0:0:
30,227,124612,1,0,1:2:0:0:
158,195,124835,1,2,0:0:0:0:
413,192,125279,5,2,1:2:0:0:
177,328,125501,1,2,1:2:0:0:
177,55,125723,1,10,0:0:0:0:
256,192,125946,1,2,1:2:0:0:
256,192,126390,5,10,0:0:0:0:
64,160,126612,1,10,0:0:0:0:
448,224,126834,1,10,0:0:0:0:
256,192,127057,5,4,1:1:0:0:
241,276,127279,1,0,0:0:0:0:
225,360,127501,2,0,P|192:368|157:372,1,70,10|0,0:0|0:0,0:0:0:0:
53,307,127946,2,0,P|87:299|122:295,1,70,2|0,1:2|0:0,0:0:0:0:
175,222,128390,1,8,0:0:0:0:
308,331,128612,2,0,P|341:339|376:343,1,70,2|0,0:0|1:2,0:0:0:0:
480,288,129057,2,0,P|488:254|492:220,1,70,2|8,0:0|0:0,0:0:0:0:
384,128,129501,2,0,P|376:161|372:196,2,70,2|0|0,0:0|1:2|0:0,0:0:0:0:
377,13,130168,1,10,0:0:0:0:
480,64,130390,1,0,0:0:0:0:
281,77,130612,6,0,P|246:71|213:61,1,70,2|0,1:2|0:0,0:0:0:0:
371,196,131057,2,0,P|336:190|303:180,1,70,8|0,0:0|0:0,0:0:0:0:
63,177,131501,2,0,L|201:159,1,140,2|8,1:2|0:0,0:0:0:0:
8,26,132168,2,0,L|0:96,1,70,2|0,0:0|1:2,0:0:0:0:
63,177,132612,1,0,0:0:0:0:
160,32,132834,2,0,L|229:40,1,70,10|0,0:0|0:0,0:0:0:0:
384,128,133279,5,8,0:0:0:0:
352,16,133501,1,8,0:0:0:0:
302,212,133723,1,8,0:0:0:0:
497,157,133946,1,8,0:0:0:0:
384,128,134168,5,2,1:3:0:0:
415,241,134390,2,0,P|409:275|397:308,1,70,2|8,0:0|0:0,0:0:0:0:
303,384,134834,2,0,P|290:351|285:316,1,70,2|0,0:0|1:2,0:0:0:0:
302,212,135279,1,2,0:0:0:0:
184,333,135501,1,8,0:0:0:0:
21,292,135723,2,0,P|11:258|6:223,1,70,2|0,0:0|1:2,0:0:0:0:
32,112,136168,1,2,0:0:0:0:
210,247,136390,2,0,L|348:266,1,140,10|2,0:0|1:2,0:0:0:0:
480,64,137279,5,10,0:0:0:0:
416,128,137501,1,0,3:2:0:0:
416,128,137612,1,8,0:0:0:0:
416,128,137723,2,0,L|346:118,1,70,2|0,1:2|0:0,0:0:0:0:
53,190,138168,2,0,L|70:329,1,140,10|0,0:0|1:2,0:0:0:0:
172,372,138835,1,2,0:0:0:0:
282,358,139057,1,8,0:0:0:0:
371,290,139280,1,2,0:0:0:0:
226,207,139502,5,0,1:2:0:0:
172,372,139724,1,0,0:0:0:0:
7,318,139946,1,8,0:0:0:0:
61,153,140168,1,0,0:0:0:0:
233,300,140390,5,0,1:2:0:0:
0,224,140612,1,8,0:0:0:0:
78,379,140834,1,8,0:0:0:0:
78,379,140946,1,8,0:0:0:0:
78,379,141057,1,8,0:3:0:0:
154,145,141279,1,6,1:2:0:0:
154,145,141501,1,0,3:2:0:0:
512,256,141946,5,2,1:2:0:0:
480,352,142168,2,0,L|424:361,1,56,0|0,1:2|3:0,0:0:0:0:
404,356,142501,1,0,3:0:0:0:
381,349,142613,1,8,3:2:0:0:
360,311,142724,1,0,3:0:0:0:
320,301,142835,1,2,1:2:0:0:
280,312,142946,1,0,3:0:0:0:
252,343,143057,1,0,3:0:0:0:
138,313,143280,1,0,1:2:0:0:
138,313,143724,1,0,1:2:0:0:
0,353,143946,5,0,1:2:0:0:
34,214,144168,1,8,0:3:0:0:
274,273,144390,1,8,0:3:0:0:
138,313,144612,1,2,0:0:0:0:
68,75,144834,1,2,1:2:0:0:
68,75,145057,1,0,3:2:0:0:
451,264,145501,5,0,1:2:0:0:
451,264,145723,2,0,L|510:251,1,56,0|0,1:2|3:0,0:0:0:0:
505,251,146057,1,0,3:0:0:0:
505,251,146168,1,8,0:0:0:0:
476,170,146390,1,0,1:2:0:0:
426,358,146612,1,2,3:2:0:0:
426,358,146834,1,0,1:2:0:0:
64,320,147279,5,0,1:2:0:0:
64,320,147501,1,0,1:2:0:0:
160,384,147723,1,8,0:3:0:0:
72,205,147946,2,0,L|66:171,5,18.6666666666667,8|0|0|0|0|0,3:3|3:0|3:0|3:0|3:0|3:0,0:0:0:0:
7,147,148390,6,0,L|19:76,1,56,2|0,1:2|0:0,0:0:0:0:
192,0,149057,1,0,1:2:0:0:
278,47,149280,2,0,L|333:53,1,56,0|0,1:2|3:0,0:0:0:0:
346,69,149612,1,0,3:0:0:0:
356,87,149723,1,8,3:2:0:0:
384,56,149834,1,0,3:0:0:0:
423,45,149945,1,2,3:2:0:0:
465,56,150056,1,0,3:0:0:0:
494,85,150167,1,0,3:0:0:0:
464,192,150390,1,0,1:2:0:0:
464,192,150834,1,0,1:2:0:0:
512,288,151057,5,0,1:2:0:0:
416,96,151279,1,8,0:3:0:0:
298,276,151501,1,8,0:3:0:0:
32,192,151723,6,0,B|7:136|7:136|59:27,1,181.999991668702,6|0,1:2|3:2,0:0:0:0:
87,72,152279,1,0,3:2:0:0:
135,97,152390,1,0,3:2:0:0:
189,95,152501,1,0,3:2:0:0:
234,66,152612,2,0,B|284:30|284:30|401:59,1,181.999991668702,6|0,1:2|3:2,0:0:0:0:
355,86,153168,1,0,3:2:0:0:
337,137,153279,1,0,3:2:0:0:
356,187,153390,1,0,3:2:0:0:
403,213,153501,2,0,P|447:262|384:346,1,181.999991668702,6|0,1:2|3:2,0:0:0:0:
373,358,154057,1,0,3:0:0:0:
355,369,154168,1,0,3:2:0:0:
318,366,154279,1,8,0:0:0:0:
272,362,154390,1,8,0:0:0:0:
226,358,154501,1,8,0:0:0:0:
180,355,154612,1,8,0:0:0:0:
172,296,154723,1,8,0:0:0:0:
164,237,154834,1,8,0:0:0:0:
157,178,154945,1,8,0:0:0:0:
149,120,155056,1,8,0:0:0:0:
96,384,155279,6,0,L|72:203,1,181.999991668702,6|0,1:2|3:2,0:0:0:0:
0,135,155834,1,0,3:2:0:0:
0,135,155946,2,0,L|45:129,1,45.4999979171754,8|0,0:2|3:0,0:0:0:0:
160,224,156168,2,0,L|205:218,1,45.4999979171754,8|0,0:2|3:0,0:0:0:0:
458,162,156390,1,8,0:3:0:0:
478,110,156501,1,8,0:3:0:0:
453,62,156612,1,8,0:3:0:0:
399,50,156723,1,8,0:3:0:0:
356,84,156834,1,10,0:0:0:0:
317,145,156946,1,10,0:0:0:0:
250,172,157056,1,10,0:0:0:0:
180,153,157168,1,10,0:0:0:0:
135,97,157279,6,0,L|-10:75,1,146.999995513916,6|0,1:2|0:0,0:0:0:0:
0,150,157723,2,0,L|101:164,1,97.9999970092774,10|0,0:2|3:0,0:0:0:0:
112,183,158057,1,8,0:0:0:0:
127,202,158168,1,2,3:2:0:0:
243,48,158390,1,2,1:2:0:0:
235,358,158612,1,10,0:2:0:0:
423,111,158834,1,0,1:2:0:0:
419,302,159057,2,0,L|516:315,2,97.9999970092774,2|0|8,1:2|1:0|0:0,0:0:0:0:
224,160,159723,5,2,3:2:0:0:
218,136,159834,1,8,0:0:0:0:
211,112,159946,1,2,3:2:0:0:
322,231,160168,1,0,1:2:0:0:
113,41,160390,2,0,B|66:31|66:31|20:50,1,97.9999970092774,10|0,0:0|0:0,0:0:0:0:
288,0,160834,2,0,B|383:-11|383:-11|471:34,1,195.999994018555,2|8,1:2|0:0,0:0:0:0:
512,224,161501,5,2,3:2:0:0:
507,248,161612,1,8,0:0:0:0:
502,272,161723,1,2,3:2:0:0:
352,320,161946,1,2,1:2:0:0:
448,128,162168,1,10,0:0:0:0:
512,383,162390,1,2,1:2:0:0:
288,96,162612,2,0,L|190:82,1,97.9999970092774,2|0,1:2|1:2,0:0:0:0:
0,288,163057,5,14,0:2:0:0:
32,64,163279,1,2,3:2:0:0:
44,42,163390,1,8,0:0:0:0:
56,20,163501,2,0,L|69:117,1,97.9999970092774,10|0,0:2|1:2,0:0:0:0:
192,320,163946,1,10,0:2:0:0:
219,327,164057,1,8,0:3:0:0:
247,334,164168,1,4,0:3:0:0:
274,341,164280,1,4,0:3:0:0:
301,348,164390,6,0,B|376:326|376:326|410:336|410:336|487:307,1,195.999994018555,6|10,1:2|0:0,0:0:0:0:
512,96,165057,1,2,3:2:0:0:
507,72,165168,1,8,0:0:0:0:
502,48,165279,1,2,3:2:0:0:
407,256,165501,1,2,1:2:0:0:
320,32,165723,1,10,0:0:0:0:
512,209,165946,1,0,1:2:0:0:
295,13,166168,2,0,L|197:-1,2,97.9999970092774,2|0|8,1:2|1:2|0:0,0:0:0:0:
407,256,166834,5,2,3:2:0:0:
414,278,166946,1,8,0:0:0:0:
421,301,167057,1,2,3:2:0:0:
512,192,167279,1,2,1:2:0:0:
336,384,167501,2,0,L|238:370,1,97.9999970092774,10|0,0:2|0:2,0:0:0:0:
512,192,167946,2,0,L|317:164,1,195.999994018555,2|8,1:2|0:2,0:0:0:0:
146,249,168612,5,2,3:2:0:0:
141,227,168723,1,8,0:2:0:0:
137,205,168834,1,2,3:2:0:0:
244,73,169056,1,2,1:2:0:0:
375,180,169278,1,10,0:2:0:0:
268,311,169501,1,2,1:2:0:0:
117,80,169723,5,14,1:2:0:0:
396,306,169945,1,10,1:2:0:0:
370,53,170167,1,10,1:2:0:0:
143,331,170390,1,10,1:2:0:0:
392,47,170612,1,14,0:2:0:0:
414,40,170723,1,8,0:2:0:0:
436,33,170834,2,0,L|493:42,1,48.9999985046387,8|8,0:3|0:3,0:2:0:0:
512,192,171056,1,14,0:2:0:0:
493,245,171167,1,8,0:2:0:0:
447,277,171278,1,8,0:2:0:0:
391,276,171389,1,8,0:2:0:0:
346,242,171501,6,0,L|322:94,1,146.999995513916,6|0,1:2|0:2,0:2:0:0:
275,42,171945,2,0,L|178:27,1,97.9999970092774,10|0,0:2|3:2,0:2:0:0:
157,34,172279,1,8,0:2:0:0:
136,42,172390,1,2,3:2:0:0:
32,192,172612,1,2,1:2:0:0:
0,0,172834,1,10,0:0:0:0:
128,256,173057,1,0,1:2:0:0:
275,42,173279,2,0,L|372:27,2,97.9999970092774,2|0|8,1:2|1:2|0:2,0:2:0:0:
128,256,173946,5,2,3:2:0:0:
124,280,174057,1,8,0:0:0:0:
120,304,174168,1,2,3:2:0:0:
31,190,174390,1,2,1:2:0:0:
216,368,174612,2,0,B|259:381|259:381|309:363,1,97.9999970092774,10|0,0:0|0:0,0:0:0:0:
0,384,175057,2,0,L|31:190,1,195.999994018555,2|8,1:2|0:0,0:0:0:0:
192,32,175723,5,2,1:2:0:0:
216,28,175834,1,8,0:0:0:0:
240,24,175946,1,2,1:2:0:0:
64,0,176168,1,2,1:2:0:0:
160,160,176390,1,10,0:0:0:0:
320,0,176612,1,2,1:2:0:0:
384,256,176834,2,0,L|371:359,1,97.9999970092774,2|0,1:2|1:2,0:0:0:0:
128,384,177279,5,14,0:0:0:0:
319,172,177501,1,2,3:2:0:0:
342,164,177612,1,8,0:0:0:0:
365,156,177723,2,0,L|422:164,1,48.9999985046387,10|8,0:3|0:3,0:0:0:0:
512,48,177946,2,0,L|463:41,1,48.9999985046387,4|4,0:3|0:3,0:0:0:0:
242,5,178168,1,10,0:0:0:0:
184,12,178279,1,8,0:0:0:0:
125,20,178390,1,8,0:3:0:0:
67,27,178501,1,4,0:3:0:0:
9,35,178612,6,0,P|-4:83|-4:144,1,97.9999970092774,6|0,1:2|0:0,0:0:0:0:
256,320,179057,2,0,P|254:271|241:224,1,97.9999970092774,14|0,0:0|3:0,0:0:0:0:
219,213,179390,1,8,0:0:0:0:
196,202,179501,1,6,3:2:0:0:
0,320,179723,1,2,1:2:0:0:
128,64,179946,1,14,0:0:0:0:
336,256,180168,1,2,1:2:0:0:
512,32,180390,6,0,L|415:16,1,97.9999970092774,6|0,1:2|1:0,0:0:0:0:
99,186,180834,2,0,L|196:202,1,97.9999970092774,14|0,0:0|3:0,0:0:0:0:
218,192,181168,1,8,0:0:0:0:
240,182,181279,1,6,1:2:0:0:
50,253,181501,1,0,1:2:0:0:
176,112,181723,1,12,0:0:0:0:
235,291,181946,1,2,0:0:0:0:
512,160,182168,6,0,L|317:139,1,195.999994018555,6|8,1:2|0:0,0:0:0:0:
96,320,182834,1,8,0:0:0:0:
168,43,183057,1,10,0:0:0:0:
273,310,183279,1,10,0:0:0:0:
273,310,183390,1,8,0:0:0:0:
273,310,183501,2,0,L|321:315,1,48.9999985046387,14|8,1:2|0:0,0:0:0:0:
375,373,183723,2,0,L|423:378,1,48.9999985046387,8|8,0:0|0:0,0:0:0:0:
512,224,183946,6,0,L|358:206,1,154.000004699707,6|8,1:2|0:0,0:0:0:0:
224,96,184612,1,0,3:2:0:0:
224,96,184723,1,8,0:0:0:0:
224,96,184834,1,0,3:2:0:0:
236,219,185057,1,0,1:2:0:0:
347,84,185280,1,8,3:2:0:0:
359,207,185501,5,0,1:2:0:0:
292,152,185723,1,0,1:2:0:0:
224,96,185946,1,0,1:2:0:0:
113,231,186168,1,8,0:2:0:0:
248,342,186390,2,0,L|298:356,2,38.5000011749268,8|8|0,0:0|0:0|1:2,0:0:0:0:
236,219,186834,1,8,0:2:0:0:
236,219,186946,1,8,0:0:0:0:
236,219,187057,1,0,1:2:0:0:
125,354,187279,1,8,0:2:0:0:
125,354,187390,1,8,0:0:0:0:
125,354,187501,1,6,1:2:0:0:
512,256,188834,5,0,1:2:0:0:
512,256,189057,1,6,1:2:0:0:
0,128,191057,5,2,1:2:0:0:
256,192,191723,1,2,1:2:0:0:
512,256,192390,1,0,0:2:0:0:
512,256,192501,1,0,0:0:0:0:
512,256,192612,1,6,1:2:0:0:
64,320,194168,6,0,L|55:271,1,48.9999985046387,8|0,0:0|0:0,0:0:0:0:
64,160,194612,5,6,1:2:0:0:
64,160,194723,1,2,0:0:0:0:
64,160,194834,1,2,0:0:0:0:
160,224,195057,1,10,0:3:0:0:
256,160,195279,1,6,0:3:0:0:
256,160,195390,1,2,0:0:0:0:
352,224,195612,1,2,0:2:0:0:
352,224,195723,1,6,0:3:0:0:
448,160,195946,1,8,0:3:0:0:
352,96,196168,2,0,L|348:65,2,23.3333333333333,4|4|4,0:3|0:3|0:3,0:0:0:0:
395,13,196390,5,10,0:3:0:0:
395,13,196501,1,2,0:0:0:0:
395,13,196612,1,6,0:3:0:0:
272,0,196834,1,10,0:3:0:0:
159,50,197057,1,6,0:3:0:0:
159,50,197168,1,2,0:0:0:0:
36,37,197390,1,2,0:0:0:0:
36,37,197501,1,6,0:3:0:0:
0,152,197723,2,0,L|11:222,1,70,8|4,0:3|0:3,0:0:0:0:
22,234,198057,1,4,0:3:0:0:
34,246,198168,5,10,0:3:0:0:
160,192,198390,1,6,0:3:0:0:
143,328,198612,1,10,0:3:0:0:
269,274,198834,2,0,L|358:265,1,70,6|8,0:3|0:3,0:0:0:0:
447,352,199279,1,6,0:3:0:0:
466,215,199501,1,10,0:2:0:0:
256,384,199723,6,0,L|58:364,1,167.999994873047,6|0,1:2|1:2,0:0:0:0:
0,256,200390,1,10,0:0:0:0:
128,96,200612,1,8,0:0:0:0:
192,304,200834,1,10,0:0:0:0:
352,288,201057,1,0,1:2:0:0:
28,154,201279,1,10,0:0:0:0:
28,154,201390,1,8,0:0:0:0:
28,154,201501,1,8,0:0:0:0:
28,154,201612,1,8,0:0:0:0:
27,153,201723,6,0,P|18:111|19:67,1,83.9999974365235,6|0,1:2|0:0,0:0:0:0:
183,221,202168,2,0,P|183:262|192:304,1,83.9999974365235,10|0,0:0|0:0,0:0:0:0:
384,352,202612,2,0,L|412:357,2,20.9999993591309,2|0|0,1:2|0:0|0:0,0:0:0:0:
279,384,202834,2,0,L|296:293,1,83.9999974365235,2|8,0:0|0:0,0:0:0:0:
512,95,203279,6,0,P|471:106|429:109,1,83.9999974365235,2|0,0:0|1:2,0:0:0:0:
288,64,203723,1,2,0:0:0:0:
192,192,203946,1,10,0:0:0:0:
27,153,204168,1,2,0:0:0:0:
27,153,204279,1,2,0:0:0:0:
27,153,204390,2,0,P|18:111|19:67,2,83.9999974365235,2|0|8,1:2|0:0|0:0,0:0:0:0:
0,256,205057,1,2,0:0:0:0:
131,113,205279,6,0,B|173:110|197:96|197:96|230:107|230:107|249:93|316:85,1,167.999994873047,2|8,1:2|0:0,0:0:0:0:
350,207,205946,1,2,0:0:0:0:
477,187,206168,1,2,1:2:0:0:
498,60,206390,1,0,0:0:0:0:
384,0,206612,1,8,0:0:0:0:
350,207,206834,6,0,L|359:247,1,41.9999987182618,6|0,1:2|0:0,0:0:0:0:
466,338,207057,2,0,L|382:327,1,83.9999974365235,2|8,0:0|0:0,0:0:0:0:
256,384,207501,1,8,0:0:0:0:
96,320,207723,1,10,0:0:0:0:
303,158,207946,1,8,0:0:0:0:
256,384,208168,1,8,0:0:0:0:
143,94,208390,1,8,0:0:0:0:
398,333,208612,6,0,B|429:298|429:298|410:218,1,125.999996154785,6|8,1:2|0:0,0:0:0:0:
394,207,209057,1,8,0:0:0:0:
512,64,209279,1,8,0:0:0:0:
512,64,209501,1,0,1:2:0:0:
256,0,209723,1,8,0:0:0:0:
256,0,209946,1,0,1:2:0:0:
175,220,210168,1,8,0:0:0:0:
166,251,210279,1,8,0:0:0:0:
157,282,210390,2,0,L|115:286,1,41.9999987182618,8|4,0:3|0:3,0:0:0:0:
16,192,210612,6,0,L|11:150,1,41.9999987182618,2|0,0:0|0:0,0:0:0:0:
89,163,211057,2,0,L|84:121,1,41.9999987182618,2|0,0:0|0:0,0:0:0:0:
192,32,211501,6,0,B|242:8|242:8|340:35,1,146.999995513916,6|0,1:2|0:0,0:0:0:0:
369,98,211945,2,0,L|380:199,1,97.9999970092774,10|0,0:0|3:0,0:0:0:0:
392,215,212278,1,8,0:0:0:0:
405,235,212389,1,2,3:2:0:0:
480,32,212612,1,2,1:2:0:0:
256,160,212834,1,10,0:0:0:0:
512,288,213056,1,0,1:0:0:0:
224,384,213278,2,0,L|109:367,2,97.9999970092774,2|0|8,1:2|1:2|0:0,0:0:0:0:
384,224,213945,5,2,3:2:0:0:
390,200,214056,1,8,0:0:0:0:
396,176,214167,1,2,3:2:0:0:
512,288,214389,1,2,1:2:0:0:
255,160,214612,2,0,B|212:144|212:144|158:169,1,97.9999970092774,10|0,0:0|0:0,0:0:0:0:
462,384,215056,2,0,L|487:189,1,195.999994018555,2|8,1:2|0:0,0:0:0:0:
320,32,215723,5,2,3:2:0:0:
326,55,215834,1,8,0:0:0:0:
332,78,215945,1,2,3:2:0:0:
433,15,216167,1,2,1:2:0:0:
207,49,216389,1,10,0:0:0:0:
467,241,216612,1,2,1:2:0:0:
241,275,216834,2,0,L|144:259,1,97.9999970092774,2|0,1:2|1:2,0:0:0:0:
0,64,217278,5,14,0:0:0:0:
32,288,217501,1,10,0:0:0:0:
39,311,217612,1,8,0:0:0:0:
47,334,217723,2,0,L|95:341,1,48.9999985046387,10|8,0:3|0:3,0:0:0:0:
224,384,217945,2,0,L|272:376,1,48.9999985046387,4|4,0:3|0:3,0:0:0:0:
405,382,218167,1,10,0:0:0:0:
458,351,218278,1,8,0:0:0:0:
487,299,218389,1,8,0:3:0:0:
485,238,218500,1,4,0:3:0:0:
453,188,218612,6,0,L|307:169,1,146.999995513916,6|0,1:2|0:0,0:0:0:0:
248,124,219056,2,0,L|235:26,1,97.9999970092774,10|2,0:0|3:2,0:0:0:0:
211,21,219389,1,8,0:0:0:0:
186,15,219501,1,2,3:2:0:0:
384,0,219723,1,2,1:2:0:0:
288,256,219945,1,10,0:0:0:0:
480,96,220167,1,0,1:2:0:0:
161,9,220389,2,0,L|63:21,2,97.9999970092774,2|0|8,1:2|1:2|0:0,0:0:0:0:
384,176,221056,5,2,3:2:0:0:
390,199,221167,1,8,0:0:0:0:
396,222,221278,1,2,3:2:0:0:
300,302,221501,1,2,1:2:0:0:
480,96,221723,2,0,L|493:-1,1,97.9999970092774,10|0,0:0|0:0,0:0:0:0:
300,302,222167,2,0,L|326:107,1,195.999994018555,2|8,1:2|0:0,0:0:0:0:
128,0,222834,5,2,3:2:0:0:
130,24,222945,1,8,0:0:0:0:
133,48,223056,1,2,3:2:0:0:
229,77,223278,1,2,1:2:0:0:
326,108,223501,1,10,0:0:0:0:
423,139,223723,1,2,1:2:0:0:
73,241,223945,5,14,1:2:0:0:
512,170,224167,1,10,0:0:0:0:
305,9,224389,1,10,0:0:0:0:
192,352,224612,1,10,0:0:0:0:
11,123,224834,5,14,0:0:0:0:
5,99,224945,1,8,0:0:0:0:
0,75,225056,2,0,L|11:27,1,48.9999985046387,8|8,0:3|0:3,0:0:0:0:
305,9,225278,1,14,0:0:0:0:
332,62,225389,1,8,0:0:0:0:
320,121,225500,1,8,0:0:0:0:
273,159,225611,1,8,0:0:0:0:
213,159,225723,6,0,L|58:121,1,146.999995513916,6|0,1:2|0:0,0:0:0:0:
118,59,226167,2,0,L|213:82,1,97.9999970092774,10|2,0:0|3:2,0:0:0:0:
236,73,226501,1,8,0:0:0:0:
258,64,226612,1,2,3:2:0:0:
320,224,226834,1,2,1:2:0:0:
448,0,227056,1,10,0:0:0:0:
512,288,227278,1,0,1:2:0:0:
360,95,227500,2,0,L|339:0,2,97.9999970092774,2|0|8,1:2|1:2|0:0,0:0:0:0:
416,256,228167,5,2,3:2:0:0:
409,279,228278,1,8,0:0:0:0:
402,302,228389,1,2,3:2:0:0:
512,192,228612,1,2,1:2:0:0:
306,366,228834,2,0,B|256:377|256:377|217:350,1,97.9999970092774,10|0,0:0|0:0,0:0:0:0:
475,384,229278,2,0,L|512:192,1,195.999994018555,2|8,1:2|0:0,0:0:0:0:
352,32,229945,5,2,3:2:0:0:
328,26,230056,1,8,0:0:0:0:
304,20,230167,1,2,3:2:0:0:
192,96,230389,1,2,1:2:0:0:
433,112,230612,1,10,0:0:0:0:
80,172,230834,1,2,1:2:0:0:
352,320,231056,2,0,L|333:224,1,97.9999970092774,2|0,1:2|1:2,0:0:0:0:
224,0,231500,5,14,0:0:0:0:
128,288,231723,1,10,0:0:0:0:
105,297,231834,1,8,0:0:0:0:
82,306,231945,2,0,L|22:297,1,48.9999985046387,10|8,0:3|0:3,0:0:0:0:
0,192,232167,2,0,L|48:199,1,48.9999985046387,4|4,0:3|0:3,0:0:0:0:
292,152,232389,1,10,0:0:0:0:
329,105,232500,1,8,0:0:0:0:
326,45,232611,1,8,0:3:0:0:
284,3,232722,1,4,0:3:0:0:
224,0,232834,6,0,L|126:11,1,97.9999970092774,6|0,1:2|0:0,0:0:0:0:
0,313,233278,2,0,L|97:301,1,97.9999970092774,14|0,0:0|3:2,0:0:0:0:
113,283,233612,1,8,0:0:0:0:
129,264,233723,1,6,3:2:0:0:
480,320,233945,1,2,1:2:0:0:
223,88,234167,1,14,0:0:0:0:
480,320,234389,1,2,1:2:0:0:
119,163,234612,6,0,L|100:66,1,97.9999970092774,6|0,1:2|1:0,0:0:0:0:
416,0,235056,2,0,L|397:96,1,97.9999970092774,14|0,0:0|3:0,0:0:0:0:
407,118,235389,1,8,0:0:0:0:
417,140,235500,1,6,3:2:0:0:
512,32,235723,1,0,1:2:0:0:
288,96,235945,1,12,0:0:0:0:
427,162,236167,1,2,0:0:0:0:
149,30,236389,6,0,B|99:79|99:79|135:199,1,195.999994018555,6|8,1:2|0:0,0:0:0:0:
393,374,237056,1,8,0:0:0:0:
416,64,237278,1,10,0:0:0:0:
142,207,237500,1,10,0:0:0:0:
142,207,237612,1,8,0:0:0:0:
142,207,237723,2,0,L|190:211,1,48.9999985046387,14|8,1:2|0:0,0:0:0:0:
272,272,237945,2,0,L|320:276,1,48.9999985046387,8|8,0:0|0:0,0:0:0:0:
479,224,238167,6,0,P|497:149|503:72,2,154.000004699707,6|8|0,1:2|0:0|1:2,0:0:0:0:
256,352,239278,5,2,0:0:0:0:
224,192,239500,1,10,0:0:0:0:
192,32,239723,2,0,P|154:22|116:16,2,77.0000023498536,2|0|0,0:0|1:2|0:0,0:0:0:0:
384,0,240389,6,0,P|374:37|368:75,1,77.0000023498536,10|0,0:0|0:0,0:0:0:0:
416,192,240834,2,0,P|425:229|431:267,1,77.0000023498536,2|0,1:2|0:0,0:0:0:0:
367,355,241278,1,10,0:0:0:0:
344,372,241389,1,8,0:0:0:0:
317,383,241500,1,8,0:3:0:0:
288,384,241611,1,4,0:3:0:0:
261,376,241722,1,2,0:0:0:0:
48,253,246834,5,2,0:0:0:0:
192,352,247056,2,0,L|194:380,14,19.2500005874634,14|0|0|0|0|0|0|0|0|0|0|0|0|0|0,0:0|3:0|3:0|3:0|3:0|3:0|3:0|3:0|3:0|3:0|3:0|3:0|3:0|3:0|3:0,0:0:0:0:
274,283,247945,2,0,L|275:266,9,15.1666659723918,0|0|0|0|0|0|0|0|0|0,3:0|3:0|3:0|3:0|3:0|3:0|3:0|3:0|3:0|3:0,0:0:0:0:
352,373,248389,1,10,0:0:0:0:
352,373,248500,1,2,3:2:0:0:
352,373,248612,1,2,3:2:0:0:
352,373,248723,1,2,3:2:0:0:
351,373,248834,6,0,L|436:385,1,83.9999974365235,6|0,1:2|0:0,0:0:0:0:
181,259,249278,2,0,L|97:247,1,83.9999974365235,10|0,0:0|0:0,0:0:0:0:
391,21,249723,2,0,L|403:105,1,83.9999974365235,2|0,1:2|0:0,0:0:0:0:
351,373,250167,2,0,L|333:248,1,125.999996154785,10|0,0:0|0:0,0:0:0:0:
377,187,250612,6,0,P|418:182|458:170,1,83.9999974365235,2|0,1:2|0:2,0:2:0:0:
236,360,251056,2,0,P|194:356|154:344,1,83.9999974365235,10|0,0:2|0:2,0:2:0:0:
0,128,251500,2,0,P|4:170|16:210,1,83.9999974365235,2|0,1:2|0:2,0:2:0:0:
211,273,251945,2,0,P|205:210|187:150,1,125.999996154785,10|0,0:2|0:2,0:2:0:0:
217,81,252389,6,0,L|383:56,1,167.999994873047,2|8,1:2|0:0,0:0:0:0:
416,352,253056,2,0,P|343:317|341:237,1,167.999994873047,2|0,0:0|0:0,0:0:0:0:
479,161,253723,2,0,P|474:202|462:243,1,83.9999974365235,10|0,0:2|0:2,0:2:0:0:
261,330,254167,5,2,1:2:0:0:
261,330,254389,1,0,0:0:0:0:
288,176,254612,1,10,0:0:0:0:
288,176,254834,1,0,0:0:0:0:
415,357,255056,1,2,1:2:0:0:
107,303,255278,1,8,0:0:0:0:
315,22,255500,1,10,0:0:0:0:
340,17,255612,1,8,0:3:0:0:
364,12,255723,1,4,0:3:0:0:
388,8,255834,1,4,0:3:0:0:
412,4,255945,6,0,L|514:21,1,83.9999974365235,6|0,1:2|0:0,0:0:0:0:
160,160,256389,2,0,L|77:146,1,83.9999974365235,10|0,0:0|0:0,0:0:0:0:
412,316,256834,2,0,L|494:329,1,83.9999974365235,2|0,1:2|0:0,0:0:0:0:
192,384,257278,2,0,L|212:259,1,125.999996154785,10|0,0:0|0:0,0:0:0:0:
269,212,257723,6,0,P|310:207|350:195,1,83.9999974365235,2|0,1:2|0:2,0:2:0:0:
495,18,258167,2,0,P|482:58|477:99,1,83.9999974365235,10|0,0:2|0:2,0:2:0:0:
495,330,258612,2,0,P|489:288|477:248,1,83.9999974365235,2|0,1:2|0:2,0:2:0:0:
286,124,259056,2,0,P|223:116|162:99,1,125.999996154785,10|0,0:2|0:2,0:2:0:0:
96,130,259500,6,0,B|60:175|60:175|90:281,1,167.999994873047,2|8,1:2|0:0,0:0:0:0:
416,130,260167,1,2,0:0:0:0:
416,130,260389,2,0,B|452:175|452:175|422:281,1,167.999994873047,2|8,1:2|0:0,0:0:0:0:
256,192,261056,5,0,3:2:0:0:
256,192,261167,1,0,3:2:0:0:
256,192,261278,1,6,1:2:0:0:
315,356,261500,1,8,0:0:0:0:
84,161,261722,1,8,0:0:0:0:
368,58,261945,1,8,0:0:0:0:
143,325,262167,5,10,0:0:0:0:
115,334,262278,1,8,0:0:0:0:
86,342,262389,2,0,L|30:331,1,41.9999987182618,8|8,0:3|0:3,0:0:0:0:
0,118,262612,1,4,0:3:0:0:
39,84,262723,1,4,0:3:0:0:
90,76,262834,1,4,0:3:0:0:
138,96,262945,1,4,0:3:0:0:
168,138,263056,6,0,L|249:153,1,83.9999974365235,6|0,1:2|0:0,0:0:0:0:
480,32,263500,2,0,L|464:113,1,83.9999974365235,10|0,0:0|0:0,0:0:0:0:
352,352,263945,2,0,L|367:270,1,83.9999974365235,2|0,1:2|0:0,0:0:0:0:
232,58,264389,2,0,L|108:33,1,125.999996154785,10|0,0:0|0:0,0:0:0:0:
43,71,264834,6,0,P|33:111|27:153,1,83.9999974365235,2|0,1:2|0:0,0:0:0:0:
192,384,265278,2,0,P|182:343|176:301,1,83.9999974365235,10|0,0:0|0:0,0:0:0:0:
341,71,265723,2,0,P|331:111|325:153,1,83.9999974365235,2|0,1:2|0:0,0:0:0:0:
448,384,266167,2,0,P|496:347|488:288,1,125.999996154785,10|0,0:0|0:0,0:0:0:0:
427,244,266612,6,0,L|245:225,1,167.999994873047,2|8,1:2|0:0,0:0:0:0:
58,48,267278,2,0,P|136:35|176:104,1,167.999994873047,2|0,0:0|0:0,0:0:0:0:
79,253,267945,2,0,P|80:211|85:169,1,83.9999974365235,8|0,0:0|0:0,0:0:0:0:
267,39,268389,1,2,1:2:0:0:
267,39,268612,1,0,0:0:0:0:
416,96,268834,1,10,0:0:0:0:
416,96,269057,1,0,0:0:0:0:
210,188,269278,1,2,1:2:0:0:
508,302,269500,1,8,0:0:0:0:
153,337,269723,1,10,0:0:0:0:
125,326,269834,1,8,0:3:0:0:
97,315,269945,1,4,0:3:0:0:
69,304,270056,1,4,0:3:0:0:
41,293,270167,6,0,L|19:211,1,83.9999974365235,6|0,1:2|0:0,0:0:0:0:
192,0,270612,2,0,L|170:81,1,83.9999974365235,10|0,0:0|0:0,0:0:0:0:
256,352,271056,2,0,L|337:373,1,83.9999974365235,2|0,1:2|0:0,0:0:0:0:
512,224,271500,2,0,L|390:191,1,125.999996154785,10|0,0:0|0:0,0:0:0:0:
339,136,271945,6,0,P|329:95|323:53,1,83.9999974365235,2|0,1:2|0:0,0:0:0:0:
512,302,272389,2,0,P|506:343|496:384,1,83.9999974365235,10|0,0:0|0:0,0:0:0:0:
256,384,272834,2,0,P|262:342|272:301,1,83.9999974365235,2|0,1:2|0:0,0:0:0:0:
191,70,273278,2,0,P|133:49|79:77,1,125.999996154785,10|0,0:0|0:0,0:0:0:0:
46,144,273723,6,0,L|64:328,1,167.999994873047,2|8,1:2|0:0,0:0:0:0:
282,178,274389,1,2,0:0:0:0:
282,178,274612,2,0,P|359:156|423:205,1,167.999994873047,2|8,1:2|0:0,0:0:0:0:
480,352,275278,5,0,3:0:0:0:
480,352,275389,1,0,3:0:0:0:
480,352,275500,1,6,1:2:0:0:
338,258,275723,1,8,0:0:0:0:
476,75,275945,1,10,0:0:0:0:
378,352,276167,1,8,0:0:0:0:
160,128,276389,1,10,0:0:0:0:
160,128,276500,1,8,0:0:0:0:
160,128,276612,2,0,L|118:122,1,41.9999987182618,8|4,0:3|0:3,0:0:0:0:
0,240,276834,2,0,L|124:222,1,125.999996154785,6|0,1:2|0:0,0:0:0:0:
201,259,277278,5,6,1:2:0:0:
256,192,277389,12,0,281834,0:0:0:0:
256,192,281945,5,10,0:0:0:0:
32,128,282167,1,10,0:0:0:0:
480,256,282389,2,0,L|509:347,1,83.9999974365235,14|0,0:0|0:0,0:0:0:0:
