osu file format v14

[General]
AudioFilename: audio.mp3
AudioLeadIn: 0
PreviewTime: 723
Countdown: 0
SampleSet: Soft
StackLeniency: 0.7
Mode: 0
LetterboxInBreaks: 0
WidescreenStoryboard: 0

[Editor]
DistanceSpacing: 0.75
BeatDivisor: 4
GridSize: 32
TimelineZoom: 2.3

[Metadata]
Title:First Plot
TitleUnicode:ファーストプロット
Artist:Natsukawa Shiina
ArtistUnicode:夏川椎菜
Creator:Mordred
Version:Hard
Source:
Tags:logline ログライン japanese pop
BeatmapID:2472687
BeatmapSetID:1183671

[Difficulty]
HPDrainRate:5
CircleSize:4
OverallDifficulty:6
ApproachRate:7
SliderMultiplier:1.4
SliderTickRate:1

[Events]
//Background and Video events
0,0,"294762.jpg",0,0
//Break Periods
2,102368,110157
2,241923,245934
//Storyboard Layer 0 (Background)
//Storyboard Layer 1 (Fail)
//Storyboard Layer 2 (Pass)
//Storyboard Layer 3 (Foreground)
//Storyboard Layer 4 (Overlay)
//Storyboard Sound Samples

[TimingPoints]
835,444.444444444444,4,2,2,60,1,0
835,-125,4,2,2,60,0,0
7946,-100,4,2,1,60,0,0
13279,-83.3333333333333,4,2,1,70,0,0
14946,-83.3333333333333,4,2,1,5,0,0
15057,-83.3333333333333,4,2,1,70,0,0
16723,-83.3333333333333,4,2,1,5,0,0
16834,-83.3333333333333,4,2,1,70,0,0
23834,-83.3333333333333,4,2,1,5,0,0
23946,-83.3333333333333,4,2,1,70,0,0
27723,-100,4,2,1,60,0,0
39946,-100,4,2,1,50,0,0
40168,-100,4,2,1,55,0,0
40390,-100,4,2,1,60,0,0
40612,-100,4,2,1,65,0,0
41057,-100,4,2,1,70,0,0
41723,-100,4,2,1,60,0,0
56834,-125,4,2,1,60,0,0
66390,-76.9230769230769,4,2,1,70,0,0
71946,-76.9230769230769,4,2,1,80,0,1
72279,-76.9230769230769,4,2,1,5,0,1
72390,-76.9230769230769,4,2,1,80,0,1
86501,-76.9230769230769,4,2,1,5,0,1
86612,-76.9230769230769,4,2,1,80,0,1
92390,-76.9230769230769,4,2,3,80,0,1
92612,-76.9230769230769,4,2,1,80,0,1
98501,-76.9230769230769,4,2,1,5,0,1
98612,-83.3333333333333,4,2,1,70,0,0
100279,-83.3333333333333,4,2,1,5,0,0
100390,-83.3333333333333,4,2,1,70,0,0
102057,-83.3333333333333,4,2,1,5,0,0
102168,-83.3333333333333,4,2,1,70,0,0
107390,-83.3333333333333,4,2,1,5,0,0
107501,-83.3333333333333,4,2,1,70,0,0
109168,-83.3333333333333,4,2,1,5,0,0
109279,-83.3333333333333,4,2,1,70,0,0
113057,-100,4,2,1,60,0,0
125279,-100,4,2,1,50,0,0
125501,-100,4,2,1,55,0,0
125723,-100,4,2,1,60,0,0
125946,-100,4,2,1,65,0,0
126390,-100,4,2,1,60,0,0
127057,-100,4,2,1,60,0,0
141279,-125,4,2,1,60,0,0
151723,-76.9230769230769,4,2,1,70,0,0
157168,-76.9230769230769,4,2,1,5,0,0
157279,-71.4285714285714,4,2,1,80,0,1
157612,-71.4285714285714,4,2,1,5,0,1
157723,-71.4285714285714,4,2,1,80,0,1
171834,-71.4285714285714,4,2,1,5,0,1
171946,-71.4285714285714,4,2,1,80,0,1
177723,-71.4285714285714,4,2,3,80,0,1
177946,-71.4285714285714,4,2,1,80,0,1
183946,-90.9090909090909,4,2,1,70,0,0
187501,-100,4,2,1,60,0,0
194168,-142.857142857143,4,2,1,60,0,0
194612,-100,4,2,3,70,0,0
199723,-83.3333333333333,4,2,1,70,0,0
201612,-83.3333333333333,4,2,1,5,0,0
201723,-83.3333333333333,4,2,1,70,0,0
210612,-166.666666666667,4,2,1,50,0,0
211501,444.444444444444,4,2,1,80,1,1
211501,-71.4285714285714,4,2,1,80,0,1
211834,-71.4285714285714,4,2,1,5,0,1
211945,-71.4285714285714,4,2,1,80,0,1
217723,-71.4285714285714,4,2,3,80,0,1
217945,-71.4285714285714,4,2,1,80,0,1
218945,-71.4285714285714,4,2,1,5,0,1
219056,-71.4285714285714,4,2,1,80,0,1
226056,-71.4285714285714,4,2,1,5,0,1
226167,-71.4285714285714,4,2,1,80,0,1
231945,-71.4285714285714,4,2,3,80,0,1
232167,-71.4285714285714,4,2,1,80,0,1
238167,-90.9090909090909,4,2,1,70,0,0
241500,-90.9090909090909,4,2,1,65,0,0
241723,-90.9090909090909,4,2,1,60,0,0
247112,-90.9090909090909,4,2,1,20,0,0
247500,-90.9090909090909,4,2,1,30,0,0
247612,-90.9090909090909,4,2,1,40,0,0
247723,-90.9090909090909,4,2,1,50,0,0
247834,-90.9090909090909,4,2,1,60,0,0
247945,-76.9230769230769,4,2,1,70,0,0
248056,-76.9230769230769,4,2,1,75,0,0
248167,-76.9230769230769,4,2,1,80,0,0
248389,-76.9230769230769,4,2,1,70,0,0
248723,-76.9230769230769,4,2,1,5,0,0
248834,-83.3333333333333,4,2,1,70,0,0
250500,-83.3333333333333,4,2,1,5,0,0
250612,-83.3333333333333,4,2,1,70,0,0
252278,-83.3333333333333,4,2,1,5,0,0
252389,-83.3333333333333,4,2,1,70,0,0
257612,-83.3333333333333,4,2,1,5,0,0
257723,-83.3333333333333,4,2,1,70,0,0
259389,-83.3333333333333,4,2,1,5,0,0
259500,-83.3333333333333,4,2,1,70,0,0
264723,-83.3333333333333,4,2,1,5,0,0
264834,-83.3333333333333,4,2,1,70,0,0
266500,-83.3333333333333,4,2,1,5,0,0
266612,-83.3333333333333,4,2,1,70,0,0
271834,-83.3333333333333,4,2,1,5,0,0
271945,-83.3333333333333,4,2,1,70,0,0
273612,-83.3333333333333,4,2,1,5,0,0
273723,-83.3333333333333,4,2,1,70,0,0
277167,-83.3333333333333,4,2,1,5,0,0
277278,-83.3333333333333,4,2,1,70,0,0
280834,-83.3333333333333,4,2,1,5,0,0
281945,-83.3333333333333,4,2,1,50,0,0
282167,-83.3333333333333,4,2,1,60,0,0
282389,-83.3333333333333,4,2,1,70,0,0

[Colours]
Combo1 : 250,180,240
Combo2 : 110,190,225
Combo3 : 255,230,130
Combo4 : 150,230,140

[HitObjects]
13,127,835,6,0,P|45:101|123:129,1,112,2|0,1:2|0:2,0:0:0:0:
160,182,1501,1,8,0:2:0:0:
160,182,1723,2,0,L|154:237,1,56,10|0,0:2|0:2,0:0:0:0:
195,305,2168,2,0,L|250:310,1,56,2|0,0:2|0:2,0:0:0:0:
317,361,2612,1,2,0:2:0:0:
317,361,2834,2,0,L|432:350,1,112,8|8,0:2|0:2,0:0:0:0:
482,293,3501,2,0,L|488:238,1,56,10|0,0:2|0:2,0:0:0:0:
453,166,3946,1,2,0:2:0:0:
489,13,4390,6,0,P|411:39|335:9,1,168,10|8,0:2|0:2,0:0:0:0:
256,8,5279,2,0,L|200:21,1,56,10|0,0:2|0:2,0:0:0:0:
164,89,5723,2,0,L|177:145,1,56,2|0,0:2|0:2,0:0:0:0:
244,192,6168,1,2,0:2:0:0:
244,192,6390,1,8,0:2:0:0:
310,149,6612,2,0,P|337:142|364:138,1,56,0|8,0:2|0:2,0:0:0:0:
431,180,7057,2,0,L|452:305,1,112,10|2,0:2|0:2,0:0:0:0:
272,374,7946,6,0,P|231:319|164:313,1,140,6|0,1:2|1:2,0:0:0:0:
78,360,8612,1,0,3:2:0:0:
78,360,8723,1,0,3:2:0:0:
78,360,8834,1,0,1:2:0:0:
15,284,9057,1,0,3:2:0:0:
65,200,9279,2,0,L|94:195,6,17.5,0|0|0|0|0|0|0,1:2|3:2|3:2|3:2|3:2|3:2|0:0,0:0:0:0:
26,177,9723,6,0,P|15:143|12:108,1,70,2|0,1:2|0:2,0:0:0:0:
81,39,10168,1,2,1:2:0:0:
97,33,10279,1,0,3:2:0:0:
113,27,10390,1,0,3:2:0:0:
129,21,10501,1,0,3:2:0:0:
145,15,10612,2,0,L|179:19,2,35,2|0|0,1:2|3:2|3:2,0:0:0:0:
238,98,11057,2,0,L|243:130,8,17.5,0|0|0|0|0|0|0|0|6,1:2|3:2|3:2|3:2|3:2|3:2|3:2|0:0|1:2,0:0:0:0:
448,32,12834,5,8,3:2:0:0:
448,32,13279,6,0,P|460:72|469:113,1,83.9999974365235,6|0,1:2|0:2,0:0:0:0:
428,223,13723,2,0,P|386:231|346:244,1,83.9999974365235,10|0,0:2|0:2,0:0:0:0:
271,334,14168,2,0,P|229:325|189:312,1,83.9999974365235,2|0,1:2|0:2,0:0:0:0:
176,195,14612,2,0,P|167:153|154:113,1,83.9999974365235,10|0,0:2|0:0,0:0:0:0:
0,51,15057,6,0,L|83:62,1,83.9999974365235,2|0,1:2|0:2,0:0:0:0:
183,0,15501,2,0,L|266:11,1,83.9999974365235,10|0,0:2|0:2,0:0:0:0:
351,92,15946,2,0,P|360:132|364:174,1,83.9999974365235,2|0,1:2|0:2,0:0:0:0:
262,231,16390,2,0,P|256:291|298:335,1,125.999996154785,10|0,0:2|0:2,0:0:0:0:
329,371,16834,6,0,L|162:350,1,167.999994873047,2|8,1:2|0:2,0:0:0:0:
16,384,17501,2,0,P|75:330|58:251,1,167.999994873047,2|0,0:2|0:2,0:0:0:0:
2,147,18168,2,0,P|5:105|18:65,1,83.9999974365235,8|0,0:2|0:2,0:0:0:0:
116,0,18612,6,0,P|155:17|196:25,1,83.9999974365235,2|0,1:2|0:2,0:0:0:0:
285,102,19057,2,0,P|246:118|205:126,1,83.9999974365235,10|0,0:2|0:2,0:0:0:0:
127,214,19501,1,2,1:2:0:0:
127,214,19723,1,8,0:2:0:0:
220,285,19946,1,10,0:2:0:0:
224,305,20057,1,8,0:3:0:0:
228,325,20168,1,4,0:3:0:0:
233,345,20279,1,4,0:3:0:0:
238,365,20390,6,0,L|333:381,1,83.9999974365235,6|0,1:2|0:2,0:0:0:0:
426,327,20834,2,0,L|441:244,1,83.9999974365235,10|0,0:2|0:2,0:0:0:0:
507,146,21279,2,0,L|491:63,1,83.9999974365235,2|0,1:2|0:2,0:0:0:0:
388,7,21723,2,0,L|292:23,1,83.9999974365235,10|0,0:2|0:2,0:0:0:0:
177,115,22168,6,0,L|260:130,1,83.9999974365235,2|0,1:2|0:2,0:0:0:0:
321,230,22612,2,0,L|335:312,1,83.9999974365235,10|0,0:2|0:2,0:0:0:0:
235,376,23057,2,0,L|152:361,1,83.9999974365235,2|0,1:2|0:2,0:0:0:0:
58,290,23501,2,0,L|36:165,1,125.999996154785,10|0,0:2|0:2,0:0:0:0:
2,130,23946,6,0,P|77:157|136:103,1,167.999994873047,2|8,1:2|0:2,0:0:0:0:
243,34,24612,1,2,0:2:0:0:
243,34,24834,2,0,P|302:87|377:60,1,167.999994873047,2|8,1:2|0:2,0:0:0:0:
489,139,25501,5,0,3:2:0:0:
489,139,25612,1,0,3:0:0:0:
489,139,25723,1,14,0:2:0:0:
505,240,25946,1,8,0:2:0:0:
414,287,26168,1,10,0:2:0:0:
342,215,26390,1,8,0:2:0:0:
251,262,26612,1,10,0:2:0:0:
268,364,26834,1,8,0:3:0:0:
165,381,27057,2,0,L|-7:356,1,167.999994873047,8|4,3:2|1:2,0:0:0:0:
60,271,27723,6,0,P|73:238|70:203,1,70,2|0,0:2|1:2,0:0:0:0:
16,130,28168,1,0,0:2:0:0:
16,130,28390,1,0,1:2:0:0:
70,56,28612,1,2,0:2:0:0:
157,85,28834,1,0,1:2:0:0:
156,176,29057,2,0,L|310:194,1,140,2|2,0:2|0:2,0:0:0:0:
374,147,29723,1,0,1:2:0:0:
451,195,29946,2,0,L|464:269,2,70,2|0|0,0:2|1:2|0:2,0:0:0:0:
506,123,30612,1,0,1:2:0:0:
506,123,30834,1,0,0:2:0:0:
482,34,31057,6,0,P|448:23|414:18,1,70,2|0,1:2|0:2,0:0:0:0:
344,76,31501,2,0,P|310:86|276:91,1,70,0|0,1:2|0:2,0:0:0:0:
199,40,31946,2,0,P|132:25|77:65,1,140,2|0,1:2|1:2,0:0:0:0:
41,149,32612,2,0,L|54:225,1,70,2|0,0:2|1:2,0:0:0:0:
22,304,33057,1,0,0:2:0:0:
88,365,33279,2,0,L|164:375,1,70,2|0,1:2|0:2,0:0:0:0:
237,328,33723,1,2,1:2:0:0:
237,328,33946,1,2,0:2:0:0:
193,253,34168,1,2,1:2:0:0:
193,253,34390,2,0,P|183:219|181:182,1,70,2|0,0:3|1:2,0:0:0:0:
240,115,34834,5,2,0:2:0:0:
179,46,35057,2,0,L|109:39,2,70,0|0|0,1:2|0:2|1:2,0:0:0:0:
269,27,35723,1,2,0:2:0:0:
330,96,35946,1,0,1:2:0:0:
420,78,36168,2,0,P|455:83|488:95,1,70,2|0,0:2|1:2,0:0:0:0:
463,183,36612,1,2,0:2:0:0:
499,266,36834,1,0,1:2:0:0:
475,354,37057,2,0,L|335:367,1,140,2|0,0:2|0:2,0:0:0:0:
265,309,37723,1,0,1:2:0:0:
265,309,37946,1,0,0:2:0:0:
335,251,38168,6,0,P|359:187|330:126,2,140,2|0|2,1:2|1:2|1:2,0:0:0:0:
265,309,39279,1,0,0:2:0:0:
187,262,39501,1,0,1:2:0:0:
106,305,39723,1,2,0:2:0:0:
24,263,39946,6,0,L|11:189,1,70,0|8,1:2|1:2,0:0:0:0:
48,110,40390,1,8,0:2:0:0:
192,160,40612,1,8,0:2:0:0:
192,160,41057,1,8,0:0:0:0:
272,48,41279,1,8,0:0:0:0:
329,174,41501,1,8,0:0:0:0:
454,116,41723,6,0,P|499:169|506:237,1,140,4|8,1:1|0:0,0:0:0:0:
465,327,42390,2,0,L|395:334,1,70,2|0,0:0|1:0,0:0:0:0:
315,290,42834,1,2,0:0:0:0:
249,353,43057,1,8,0:0:0:0:
158,354,43279,2,0,P|123:349|89:339,1,70,2|0,0:0|1:0,0:0:0:0:
75,249,43723,1,2,0:0:0:0:
75,249,43946,1,8,0:0:0:0:
10,184,44168,2,0,P|0:150|-1:115,2,70,2|0|0,0:0|1:0|0:0,0:0:0:0:
75,249,44834,1,8,0:0:0:0:
75,249,45057,1,0,0:0:0:0:
156,209,45279,6,0,L|225:201,1,70,2|0,1:2|0:0,0:0:0:0:
302,249,45724,2,0,L|371:241,1,70,8|0,0:0|0:0,0:0:0:0:
458,266,46168,2,0,L|480:127,1,140,2|8,1:2|0:0,0:0:0:0:
442,43,46834,2,0,P|408:52|373:53,1,70,2|0,0:2|1:0,0:0:0:0:
287,22,47279,1,0,0:0:0:0:
236,97,47501,2,0,P|237:131|245:165,1,70,10|0,0:2|0:0,0:0:0:0:
315,224,47946,1,2,1:2:0:0:
419,163,48168,1,8,0:0:0:0:
480,267,48390,1,8,0:0:0:0:
383,335,48612,1,8,0:0:0:0:
383,335,48723,1,8,0:0:0:0:
383,335,48834,6,0,L|293:323,1,70,2|2,1:3|0:0,0:0:0:0:
231,364,49279,2,0,L|141:352,1,70,8|0,0:0|0:0,0:0:0:0:
100,294,49723,1,2,1:2:0:0:
100,294,49946,1,0,0:0:0:0:
139,217,50168,1,8,0:0:0:0:
225,231,50390,2,0,P|278:230|329:141,1,140,2|0,0:0|0:0,0:0:0:0:
297,80,51057,2,0,L|228:66,1,70,10|0,0:0|0:0,0:0:0:0:
156,11,51501,2,0,L|87:24,1,70,2|0,1:2|0:0,0:0:0:0:
36,100,51946,1,8,0:0:0:0:
96,168,52168,1,0,0:0:0:0:
31,230,52390,6,0,P|19:264|14:298,1,70,2|0,1:2|0:0,0:0:0:0:
65,374,52834,2,0,L|204:365,1,140,10|0,0:0|1:2,0:0:0:0:
258,291,53501,1,2,0:0:0:0:
334,339,53723,1,8,0:0:0:0:
421,313,53946,1,2,0:0:0:0:
406,223,54168,6,0,P|409:188|422:155,1,70,0|0,1:2|0:0,0:0:0:0:
512,100,54612,1,8,0:0:0:0:
512,100,54834,1,0,0:0:0:0:
418,52,55057,1,0,1:2:0:0:
329,108,55279,1,8,0:0:0:0:
235,60,55501,1,10,0:0:0:0:
235,60,55612,1,8,0:0:0:0:
235,60,55723,1,8,0:3:0:0:
151,124,55946,5,6,1:2:0:0:
151,124,56168,1,0,3:2:0:0:
321,245,56612,1,2,1:2:0:0:
321,245,56834,2,0,L|311:315,1,56,0|0,1:2|3:0,0:0:0:0:
254,360,57279,2,0,L|217:362,3,28,8|0|2|0,3:2|3:0|1:2|3:0,0:0:0:0:
190,350,57723,1,0,3:0:0:0:
190,350,57946,1,0,1:2:0:0:
25,381,58390,1,0,1:2:0:0:
4,299,58612,1,0,1:2:0:0:
56,234,58834,1,8,0:3:0:0:
56,234,59057,1,8,0:3:0:0:
14,161,59279,1,2,0:0:0:0:
60,90,59501,6,0,L|134:79,1,56,2|0,1:2|3:2,0:0:0:0:
288,0,60168,1,0,1:2:0:0:
288,0,60390,2,0,L|362:11,1,56,0|0,1:2|3:2,0:0:0:0:
409,60,60834,2,0,L|414:87,3,28,8|0|0|0,0:0|0:0|1:2|0:0,0:0:0:0:
445,123,61279,1,2,3:2:0:0:
445,123,61501,1,0,1:2:0:0:
486,285,61946,1,0,1:2:0:0:
404,306,62168,1,2,3:2:0:0:
339,254,62390,1,8,0:3:0:0:
339,254,62612,2,0,L|283:260,1,56,8|0,3:3|3:0,0:0:0:0:
218,214,63057,5,2,1:2:0:0:
218,214,63279,1,0,3:2:0:0:
342,100,63723,1,0,1:2:0:0:
342,100,63946,2,0,L|333:44,1,56,0|0,1:2|3:0,0:0:0:0:
255,12,64390,2,0,L|223:17,3,28,8|0|2|0,3:2|3:0|1:2|3:0,0:0:0:0:
189,15,64834,1,0,3:0:0:0:
189,15,65057,1,0,1:2:0:0:
25,4,65501,1,0,1:2:0:0:
25,4,65723,1,0,1:2:0:0:
68,76,65946,1,8,0:3:0:0:
12,139,66168,1,8,0:3:0:0:
50,215,66390,6,0,B|20:267|20:267|75:375,1,181.999991668702,6|0,1:2|3:2,0:0:0:0:
102,369,66946,1,0,3:0:0:0:
128,363,67057,1,0,3:0:0:0:
154,357,67168,1,0,3:0:0:0:
180,351,67279,2,0,L|389:373,1,181.999991668702,6|0,1:2|3:0,0:0:0:0:
384,357,67834,1,0,3:0:0:0:
408,344,67946,1,0,3:0:0:0:
432,331,68057,1,0,3:0:0:0:
456,318,68168,2,0,B|428:256|428:256|463:144,1,181.999991668702,6|0,1:2|3:2,0:0:0:0:
432,48,68834,1,0,3:2:0:0:
432,48,68946,1,0,3:2:0:0:
432,48,69057,2,0,L|384:37,1,45.4999979171754,8|8,0:0|0:0,0:0:0:0:
357,74,69279,1,8,0:0:0:0:
357,74,69390,1,8,0:0:0:0:
357,74,69501,1,8,0:0:0:0:
357,74,69612,1,8,0:0:0:0:
357,74,69723,1,8,0:0:0:0:
379,171,69946,6,0,B|312:195|312:195|299:235|299:235|235:261,1,181.999991668702,6|0,1:2|3:0,0:0:0:0:
147,353,70612,1,8,0:0:0:0:
55,264,70834,1,8,0:0:0:0:
144,172,71057,1,8,0:0:0:0:
320,352,71501,1,10,0:0:0:0:
320,352,71612,1,2,3:2:0:0:
320,352,71723,1,2,3:2:0:0:
320,352,71834,1,2,3:2:0:0:
320,352,71946,6,0,P|386:362|452:344,1,136.499993751526,6|0,1:2|0:0,0:0:0:0:
498,287,72390,2,0,L|508:193,1,90.9999958343508,10|0,0:0|3:0,0:0:0:0:
496,176,72723,1,8,0:0:0:0:
485,156,72834,1,2,3:2:0:0:
371,189,73057,1,2,1:2:0:0:
325,79,73279,2,0,P|282:62|238:52,1,90.9999958343508,10|0,0:0|1:2,0:0:0:0:
132,171,73723,6,0,P|177:161|219:145,2,90.9999958343508,2|0|8,1:2|1:2|0:0,0:0:0:0:
19,137,74390,1,2,3:2:0:0:
19,137,74501,1,8,0:0:0:0:
19,137,74612,1,2,3:2:0:0:
10,254,74834,1,2,1:2:0:0:
117,304,75057,2,0,L|223:292,1,90.9999958343508,10|0,0:0|0:0,0:0:0:0:
352,384,75501,6,0,P|372:295|401:209,1,181.999991668702,2|8,1:2|0:0,0:0:0:0:
483,123,76168,1,2,3:2:0:0:
483,123,76279,1,8,0:0:0:0:
483,123,76390,1,2,3:2:0:0:
427,19,76612,1,2,1:2:0:0:
311,41,76834,1,10,0:2:0:0:
296,158,77057,1,2,1:2:0:0:
180,179,77279,6,0,P|168:223|161:268,1,90.9999958343508,2|0,1:2|1:2,0:0:0:0:
89,363,77723,1,14,0:2:0:0:
21,277,77946,1,2,3:2:0:0:
21,277,78057,1,8,0:2:0:0:
21,277,78168,2,0,L|6:181,1,90.9999958343508,2|0,3:2|1:2,0:0:0:0:
30,71,78612,1,10,0:2:0:0:
53,57,78723,1,8,0:3:0:0:
76,43,78834,1,4,0:3:0:0:
100,30,78946,1,4,0:3:0:0:
124,17,79057,6,0,L|222:25,1,90.9999958343508,6|0,1:2|0:0,0:0:0:0:
274,126,79501,1,10,0:2:0:0:
372,58,79723,1,2,3:2:0:0:
372,58,79834,1,8,0:2:0:0:
372,58,79946,1,0,3:2:0:0:
470,123,80168,1,2,1:2:0:0:
427,233,80390,2,0,P|448:273|461:316,1,90.9999958343508,10|0,0:2|1:2,0:0:0:0:
309,383,80834,6,0,P|322:340|344:300,2,90.9999958343508,2|0|8,1:2|1:2|0:2,0:0:0:0:
198,384,81501,1,2,3:2:0:0:
198,384,81612,1,8,0:2:0:0:
198,384,81723,1,2,3:2:0:0:
140,280,81946,1,2,1:2:0:0:
230,203,82168,2,0,L|319:221,1,90.9999958343508,10|0,0:2|0:2,0:0:0:0:
471,143,82612,6,0,L|293:106,1,181.999991668702,2|8,1:2|0:2,0:0:0:0:
226,7,83279,1,2,3:2:0:0:
226,7,83390,1,8,0:2:0:0:
226,7,83501,1,2,3:2:0:0:
158,103,83723,1,2,1:2:0:0:
225,200,83946,2,0,P|238:243|248:287,1,90.9999958343508,10|2,0:2|1:2,0:0:0:0:
135,366,84390,5,14,1:2:0:0:
12,307,84612,1,10,1:2:0:0:
3,171,84835,1,10,1:2:0:0:
115,95,85057,1,10,1:2:0:0:
237,156,85279,2,0,L|295:165,3,45.4999979171754,14|8|8|8,0:2|0:2|0:3|0:3,0:0:0:0:
304,191,85723,1,14,0:2:0:0:
326,187,85834,1,8,0:2:0:0:
348,184,85946,1,8,0:2:0:0:
370,181,86057,1,8,0:2:0:0:
392,178,86168,6,0,B|423:139|423:139|408:50,1,136.499993751526,6|0,1:2|0:2,0:0:0:0:
344,18,86612,2,0,L|234:8,1,90.9999958343508,10|0,0:2|3:2,0:0:0:0:
234,23,86946,1,8,0:2:0:0:
215,36,87057,1,2,3:2:0:0:
100,9,87279,1,2,1:2:0:0:
11,87,87501,2,0,L|-1:177,1,90.9999958343508,10|0,0:2|1:2,0:0:0:0:
108,282,87946,6,0,L|96:192,2,90.9999958343508,2|0|8,1:2|1:2|0:2,0:0:0:0:
191,366,88612,1,2,3:2:0:0:
191,366,88723,1,8,0:2:0:0:
191,366,88834,1,2,3:2:0:0:
300,319,89057,1,2,1:2:0:0:
212,239,89279,2,0,L|199:148,1,90.9999958343508,10|0,0:2|0:2,0:0:0:0:
127,32,89723,6,0,P|217:48|308:51,1,181.999991668702,2|8,1:2|0:2,0:0:0:0:
427,18,90390,1,2,3:2:0:0:
427,18,90501,1,8,0:2:0:0:
427,18,90612,1,2,3:2:0:0:
502,96,90834,1,2,1:2:0:0:
447,201,91057,1,10,0:2:0:0:
487,311,91279,1,2,1:2:0:0:
389,378,91501,6,0,L|291:362,1,90.9999958343508,2|0,1:2|1:2,0:0:0:0:
214,280,91946,1,14,0:2:0:0:
306,205,92168,1,10,0:2:0:0:
306,205,92279,1,8,0:2:0:0:
306,204,92390,2,0,P|317:160|324:115,1,90.9999958343508,10|4,0:3|0:3,0:0:0:0:
312,96,92723,1,4,0:3:0:0:
300,76,92834,1,10,0:2:0:0:
288,55,92946,1,8,0:2:0:0:
277,35,93057,1,8,0:3:0:0:
161,8,93279,6,0,L|71:22,1,90.9999958343508,6|0,1:2|0:2,0:0:0:0:
15,147,93723,2,0,L|104:132,1,90.9999958343508,14|0,0:2|3:2,0:0:0:0:
124,143,94057,1,8,0:2:0:0:
144,153,94168,1,6,3:2:0:0:
241,72,94390,1,2,1:2:0:0:
348,139,94612,1,14,0:2:0:0:
318,262,94834,1,2,1:2:0:0:
424,329,95057,6,0,P|469:336|515:335,1,90.9999958343508,6|0,1:2|1:2,0:0:0:0:
318,262,95501,2,0,P|272:260|227:268,1,90.9999958343508,14|0,0:2|3:2,0:0:0:0:
217,288,95834,1,8,0:2:0:0:
206,308,95946,1,6,3:2:0:0:
103,366,96168,1,0,1:2:0:0:
17,286,96390,1,12,0:2:0:0:
67,180,96612,1,2,0:2:0:0:
17,74,96834,6,0,B|56:38|56:38|192:62,1,181.999991668702,6|10,1:2|0:2,0:0:0:0:
285,137,97501,1,8,0:2:0:0:
386,59,97723,1,10,0:2:0:0:
491,130,97946,1,10,0:2:0:0:
491,130,98057,1,8,0:2:0:0:
491,130,98168,2,0,L|505:268,1,136.499993751526,14|0,1:2|0:2,0:0:0:0:
490,299,98612,5,6,1:2:0:0:
256,192,98723,12,6,102168,1:2:0:0:
48,309,111057,6,0,P|28:272|29:230,1,83.9999974365235,6|8,1:2|1:2,0:0:0:0:
76,123,111501,1,8,0:0:0:0:
179,179,111723,1,8,0:0:0:0:
288,135,111946,1,8,0:0:0:0:
312,141,112057,1,8,0:0:0:0:
336,147,112168,1,8,0:3:0:0:
360,153,112279,1,4,0:3:0:0:
384,159,112390,2,0,B|350:213|350:213|387:326,1,167.999994873047,6|4,1:2|1:2,0:0:0:0:
467,361,113057,5,0,0:0:0:0:
467,361,113279,2,0,L|480:292,1,70,2|0,0:0|0:0,0:0:0:0:
461,196,113723,1,2,0:0:0:0:
461,196,113946,1,0,1:2:0:0:
508,110,114168,1,2,0:0:0:0:
475,17,114390,2,0,L|321:4,1,140,2|2,1:2|0:0,0:0:0:0:
248,50,115057,1,0,0:0:0:0:
304,130,115279,2,0,P|317:198|325:284,1,140,2|0,0:0|1:2,0:0:0:0:
263,345,115946,1,2,0:0:0:0:
263,345,116168,1,0,1:2:0:0:
194,274,116390,6,0,P|160:265|125:260,1,70,2|0,1:2|0:0,0:0:0:0:
39,306,116834,2,0,P|33:271|25:237,1,70,0|0,0:0|0:0,0:0:0:0:
0,142,117279,2,0,L|137:165,1,140,2|0,0:0|0:0,0:0:0:0:
227,123,117946,1,2,1:2:0:0:
227,123,118168,1,0,1:2:0:0:
295,195,118390,1,8,0:0:0:0:
248,282,118612,1,10,0:0:0:0:
316,354,118834,1,2,1:3:0:0:
512,160,119279,1,2,0:0:0:0:
160,32,119946,5,2,1:2:0:0:
160,32,120168,1,2,1:2:0:0:
81,317,120834,5,2,1:2:0:0:
81,317,121057,1,2,1:2:0:0:
0,96,121723,6,0,L|69:103,1,70,8|8,0:3|0:3,0:0:0:0:
96,144,122057,2,0,L|165:136,1,70,8|8,0:3|0:3,0:0:0:0:
192,96,122390,2,0,L|261:103,1,70,8|8,0:3|0:3,0:0:0:0:
288,144,122723,2,0,L|357:136,1,70,8|8,0:3|0:3,0:0:0:0:
390,99,123057,1,2,1:3:0:0:
512,256,123501,5,0,1:2:0:0:
512,256,123723,1,0,1:2:0:0:
499,353,123946,1,2,0:0:0:0:
320,224,124390,5,0,1:2:0:0:
320,224,124612,1,0,1:2:0:0:
333,321,124835,1,2,0:0:0:0:
128,384,125279,5,2,1:2:0:0:
128,384,125501,1,2,1:2:0:0:
191,309,125723,1,10,0:0:0:0:
125,235,125946,1,2,1:2:0:0:
320,32,126390,5,10,0:0:0:0:
240,111,126612,1,10,0:0:0:0:
161,31,126834,1,10,0:0:0:0:
74,101,127057,2,0,P|58:170|48:239,1,140,4|10,1:1|0:0,0:0:0:0:
82,324,127723,1,0,0:0:0:0:
167,295,127946,2,0,P|202:289|237:287,1,70,2|0,1:2|0:0,0:0:0:0:
287,211,128390,1,8,0:0:0:0:
213,157,128612,6,0,P|201:123|198:89,1,70,2|0,0:0|1:2,0:0:0:0:
250,13,129057,2,0,P|283:1|317:-1,1,70,2|8,0:0|0:0,0:0:0:0:
394,47,129501,2,0,P|427:58|461:61,2,70,2|0|0,0:0|1:2|0:0,0:0:0:0:
315,90,130168,1,10,0:0:0:0:
315,90,130390,1,0,0:0:0:0:
387,145,130612,2,0,L|407:221,1,70,2|0,1:2|0:0,0:0:0:0:
372,298,131057,2,0,L|296:318,1,70,8|0,0:0|0:0,0:0:0:0:
229,264,131501,2,0,L|193:128,1,140,2|8,1:2|0:0,0:0:0:0:
130,62,132168,6,0,L|54:82,1,70,2|0,0:0|1:2,0:0:0:0:
17,158,132612,1,0,0:0:0:0:
65,234,132834,2,0,L|75:306,1,70,10|0,0:0|0:0,0:0:0:0:
150,354,133279,1,8,0:0:0:0:
176,239,133501,1,8,0:0:0:0:
291,265,133724,1,8,0:0:0:0:
265,380,133946,1,8,0:0:0:0:
150,354,134168,6,0,L|80:360,1,70,2|2,1:3|0:0,0:0:0:0:
8,304,134612,2,0,L|1:234,1,70,8|2,0:0|0:0,0:0:0:0:
37,150,135057,1,0,1:2:0:0:
37,150,135279,1,2,0:0:0:0:
122,180,135501,1,8,0:0:0:0:
198,130,135723,2,0,P|264:140|284:207,1,140,2|2,0:0|0:0,0:0:0:0:
238,281,136390,2,0,P|243:315|256:348,1,70,10|0,0:0|0:0,0:0:0:0:
340,382,136834,1,2,1:2:0:0:
512,320,137279,5,10,0:0:0:0:
459,259,137501,1,0,3:2:0:0:
459,259,137612,1,8,0:0:0:0:
459,259,137723,2,0,L|453:177,1,70,2|0,1:2|0:0,0:0:0:0:
503,112,138168,2,0,P|488:46|424:26,1,140,10|0,0:0|1:2,0:0:0:0:
360,91,138834,1,2,0:0:0:0:
293,28,139057,1,8,0:0:0:0:
214,72,139279,1,2,0:0:0:0:
136,24,139501,6,0,P|101:30|69:44,1,70,0|0,1:2|0:0,0:0:0:0:
12,134,139946,1,8,0:0:0:0:
12,134,140168,1,0,0:0:0:0:
91,202,140391,1,0,1:2:0:0:
44,296,140613,1,8,0:0:0:0:
102,384,140834,1,8,0:0:0:0:
102,384,140946,1,8,0:0:0:0:
102,384,141057,1,8,0:3:0:0:
149,290,141279,5,6,1:2:0:0:
149,290,141501,1,0,3:2:0:0:
305,364,141946,1,2,1:2:0:0:
305,364,142168,2,0,L|375:374,1,56,0|0,1:2|3:0,0:0:0:0:
432,328,142613,2,0,L|437:291,3,28,8|0|2|0,0:2|3:0|1:2|3:0,0:0:0:0:
467,272,143057,1,0,3:0:0:0:
467,272,143280,1,0,1:2:0:0:
500,107,143724,1,0,1:2:0:0:
418,86,143946,1,0,1:2:0:0:
353,138,144168,1,8,0:3:0:0:
353,138,144391,1,8,0:3:0:0:
280,96,144613,1,2,0:0:0:0:
209,142,144835,6,0,L|198:216,1,56,2|0,1:2|3:2,0:3:0:0:
265,357,145502,1,0,1:2:0:0:
265,357,145724,2,0,L|191:368,1,56,0|0,1:2|3:0,0:0:0:0:
128,342,146168,2,0,L|123:315,3,28,8|0|0|0,3:2|3:2|1:2|3:2,0:0:0:0:
92,293,146613,1,2,3:2:0:0:
92,293,146835,1,0,1:2:0:0:
22,140,147280,1,0,1:2:0:0:
104,119,147502,1,0,1:2:0:0:
169,171,147724,1,8,0:3:0:0:
169,171,147946,2,0,L|225:165,1,56,8|0,3:3|3:0,0:0:0:0:
271,96,148391,5,2,1:2:0:0:
271,96,148613,1,0,0:0:0:0:
438,62,149057,1,0,1:2:0:0:
438,62,149280,2,0,L|447:118,1,56,0|0,1:2|3:0,0:0:0:0:
491,188,149723,2,0,L|486:220,3,28,8|0|2|0,3:2|3:0|3:2|3:0,0:0:0:0:
506,258,150168,1,0,3:0:0:0:
506,258,150391,1,0,1:2:0:0:
331,372,150835,1,0,1:2:0:0:
331,372,151057,1,0,1:2:0:0:
261,323,151280,1,8,0:3:0:0:
189,367,151502,1,8,0:3:0:0:
113,319,151724,6,0,B|83:267|83:267|138:159,1,181.999991668702,6|0,1:2|3:2,0:0:0:0:
165,165,152280,1,0,3:2:0:0:
191,171,152391,1,0,3:2:0:0:
217,177,152502,1,0,3:2:0:0:
243,183,152613,2,0,L|452:161,1,181.999991668702,6|0,1:2|3:2,0:0:0:0:
438,141,153168,1,0,3:2:0:0:
453,118,153279,1,0,3:2:0:0:
468,95,153390,1,0,3:2:0:0:
483,72,153501,2,0,L|302:91,1,181.999991668702,6|0,1:2|3:2,0:0:0:0:
202,42,154168,1,0,3:2:0:0:
202,42,154279,1,0,3:2:0:0:
202,42,154390,2,0,L|147:36,1,45.4999979171754,8|8,0:2|0:0,0:0:0:0:
139,75,154612,1,8,0:0:0:0:
139,75,154723,1,8,0:0:0:0:
139,75,154834,1,8,0:0:0:0:
139,75,154946,1,8,0:0:0:0:
139,75,155057,1,8,0:0:0:0:
47,34,155279,6,0,B|5:78|5:78|41:193,1,181.999991668702,6|0,1:2|3:2,0:0:0:0:
165,224,155946,1,8,0:2:0:0:
152,350,156168,1,8,0:2:0:0:
274,383,156390,1,8,0:3:0:0:
294,374,156501,1,8,0:3:0:0:
315,365,156612,1,8,0:3:0:0:
336,356,156723,1,8,0:3:0:0:
356,346,156834,2,0,L|387:213,1,136.499993751526,10|0,0:0|0:0,0:0:0:0:
438,183,157279,6,0,B|397:209|397:209|304:175,1,146.999995513916,6|0,1:2|0:0,0:0:0:0:
255,120,157723,2,0,L|241:19,1,97.9999970092774,10|0,0:2|3:0,0:0:0:0:
217,18,158057,1,8,0:0:0:0:
192,14,158168,1,2,3:2:0:0:
77,70,158390,1,2,1:2:0:0:
133,185,158612,2,0,L|111:284,1,97.9999970092774,10|0,0:2|1:2,0:0:0:0:
256,352,159057,6,0,L|151:361,2,97.9999970092774,2|0|8,1:2|1:0|0:0,0:0:0:0:
368,287,159723,1,2,3:2:0:0:
368,287,159834,1,8,0:0:0:0:
368,287,159946,1,2,3:2:0:0:
296,181,160168,1,0,1:2:0:0:
179,232,160390,2,0,L|76:218,1,97.9999970092774,10|0,0:0|0:0,0:0:0:0:
0,82,160834,6,0,P|70:18|162:39,1,195.999994018555,2|8,1:2|0:0,0:0:0:0:
223,161,161501,1,2,3:2:0:0:
223,161,161612,1,8,0:0:0:0:
223,161,161723,1,2,3:2:0:0:
302,61,161946,1,2,1:2:0:0:
422,106,162168,1,10,0:0:0:0:
417,235,162390,1,2,1:2:0:0:
293,271,162612,6,0,P|244:280|196:280,1,97.9999970092774,2|0,1:2|1:2,0:0:0:0:
94,202,163057,1,14,0:2:0:0:
16,303,163279,1,2,3:2:0:0:
16,303,163390,1,8,0:0:0:0:
16,303,163501,2,0,L|112:319,1,97.9999970092774,10|0,0:2|1:2,0:0:0:0:
226,377,163946,1,10,0:2:0:0:
252,370,164057,1,8,0:3:0:0:
278,364,164168,1,4,0:3:0:0:
304,356,164280,1,4,0:3:0:0:
330,348,164390,6,0,L|360:204,1,146.999995513916,6|0,1:2|0:0,0:0:0:0:
428,175,164834,2,0,L|448:79,1,97.9999970092774,10|2,0:0|3:2,0:0:0:0:
433,59,165168,1,8,0:0:0:0:
417,39,165279,1,2,3:2:0:0:
308,105,165501,1,2,1:2:0:0:
199,38,165723,2,0,P|152:23|103:18,1,97.9999970092774,10|0,0:0|1:2,0:0:0:0:
32,160,166168,6,0,P|27:111|12:64,2,97.9999970092774,2|0|8,1:2|1:2|0:0,0:0:0:0:
7,290,166834,1,2,3:2:0:0:
7,290,166946,1,8,0:0:0:0:
6,289,167057,2,0,P|52:308|100:318,1,97.9999970092774,2|2,3:2|1:2,0:0:0:0:
212,378,167501,2,0,P|257:359|305:349,1,97.9999970092774,10|0,0:2|0:2,0:0:0:0:
480,384,167946,6,0,L|513:185,1,195.999994018555,2|8,1:2|0:2,0:0:0:0:
476,68,168612,1,2,3:2:0:0:
476,68,168723,1,8,0:2:0:0:
476,68,168834,1,2,3:2:0:0:
364,129,169057,1,2,1:2:0:0:
290,25,169279,2,0,L|189:15,1,97.9999970092774,10|2,0:2|1:2,0:0:0:0:
61,81,169723,5,14,1:2:0:0:
16,210,169945,1,10,1:2:0:0:
106,312,170168,1,10,1:2:0:0:
239,287,170390,1,10,1:2:0:0:
282,157,170612,2,0,L|339:148,3,48.9999985046387,14|8|8|8,0:2|0:0|0:3|0:3,0:0:0:0:
357,122,171057,1,14,0:2:0:0:
379,126,171168,1,8,0:2:0:0:
401,129,171279,1,8,0:2:0:0:
423,132,171390,1,8,0:2:0:0:
445,135,171501,6,0,B|483:174|483:174|465:264,1,146.999995513916,6|0,1:2|0:2,0:0:0:0:
414,318,171946,2,0,L|315:330,1,97.9999970092774,10|0,0:2|3:2,0:0:0:0:
295,317,172279,1,8,0:2:0:0:
273,304,172390,1,2,3:2:0:0:
331,191,172612,1,2,1:2:0:0:
249,93,172834,2,0,L|152:75,1,97.9999970092774,10|0,0:0|1:2,0:0:0:0:
32,192,173279,6,0,L|129:174,2,97.9999970092774,2|0|8,1:2|1:2|0:2,0:0:0:0:
2,322,173946,1,2,3:2:0:0:
2,322,174057,1,8,0:0:0:0:
2,322,174168,1,2,3:2:0:0:
132,352,174390,1,2,1:2:0:0:
213,253,174612,2,0,L|311:242,1,97.9999970092774,10|0,0:0|0:0,0:0:0:0:
448,352,175057,6,0,P|470:260|504:164,1,195.999994018555,2|8,1:2|0:0,0:0:0:0:
479,39,175723,1,2,1:2:0:0:
479,39,175834,1,8,0:0:0:0:
479,39,175946,1,2,1:2:0:0:
379,118,176168,1,2,1:2:0:0:
269,52,176390,1,10,0:0:0:0:
203,162,176612,1,2,1:2:0:0:
312,227,176834,6,0,P|326:275|332:323,1,97.9999970092774,2|0,1:2|1:2,0:0:0:0:
219,383,177279,1,14,0:0:0:0:
103,355,177501,1,2,3:2:0:0:
103,355,177612,1,8,0:0:0:0:
103,355,177723,2,0,P|89:307|83:259,1,97.9999970092774,10|4,0:3|0:3,0:0:0:0:
70,238,178057,1,4,0:3:0:0:
56,217,178168,1,10,0:0:0:0:
42,196,178279,1,8,0:0:0:0:
28,175,178390,1,8,0:3:0:0:
70,65,178612,6,0,L|167:51,1,97.9999970092774,6|0,1:2|0:0,0:0:0:0:
320,160,179057,2,0,L|222:146,1,97.9999970092774,14|0,0:0|3:0,0:0:0:0:
203,162,179390,1,8,0:0:0:0:
184,177,179501,1,6,3:2:0:0:
56,174,179723,1,2,1:2:0:0:
14,295,179946,1,14,0:0:0:0:
117,373,180168,1,2,1:2:0:0:
224,300,180390,6,0,L|321:313,1,97.9999970092774,6|0,1:2|1:0,0:0:0:0:
480,224,180834,2,0,L|382:210,1,97.9999970092774,14|0,0:0|3:0,0:0:0:0:
371,188,181168,1,8,0:0:0:0:
359,166,181279,1,6,1:2:0:0:
256,197,181501,1,0,1:2:0:0:
195,109,181723,1,12,0:0:0:0:
260,24,181946,1,2,0:0:0:0:
361,60,182168,6,0,L|152:41,1,195.999994018555,6|8,1:2|0:0,0:0:0:0:
50,96,182834,1,8,0:0:0:0:
130,194,183057,1,10,0:0:0:0:
25,262,183279,1,10,0:0:0:0:
25,262,183390,1,8,0:0:0:0:
24,262,183501,2,0,P|29:310|47:365,1,97.9999970092774,14|8,1:2|0:0,0:0:0:0:
149,384,183946,6,0,L|324:368,1,154.000004699707,6|8,1:2|0:0,0:0:0:0:
367,286,184612,1,0,3:2:0:0:
367,286,184723,1,8,0:0:0:0:
367,286,184834,1,0,3:2:0:0:
466,328,185057,1,0,1:2:0:0:
505,227,185279,2,0,L|487:136,1,77.0000023498536,8|0,3:2|1:2,0:0:0:0:
509,45,185723,1,0,1:2:0:0:
509,45,185946,1,0,1:2:0:0:
409,86,186168,1,8,0:2:0:0:
310,43,186390,2,0,L|319:-1,2,38.5000011749268,8|8|0,0:0|0:0|1:2,0:0:0:0:
212,89,186834,1,8,0:2:0:0:
212,89,186946,1,8,0:0:0:0:
212,89,187057,1,0,1:2:0:0:
111,50,187279,1,8,0:2:0:0:
111,50,187390,1,8,0:0:0:0:
111,50,187501,1,6,1:2:0:0:
0,320,188834,5,0,1:2:0:0:
0,320,189057,1,6,1:2:0:0:
224,384,191057,5,2,1:2:0:0:
256,192,191723,1,2,1:2:0:0:
288,0,192390,1,0,0:2:0:0:
288,0,192501,1,0,0:0:0:0:
288,0,192612,1,6,1:2:0:0:
512,320,194168,6,0,L|458:311,1,48.9999985046387,8|0,0:0|0:0,0:0:0:0:
375,353,194612,5,6,1:2:0:0:
375,353,194723,1,2,0:0:0:0:
375,353,194834,1,2,0:0:0:0:
290,302,195057,1,10,0:3:0:0:
209,358,195279,1,6,0:3:0:0:
194,367,195390,2,0,L|124:355,1,70,2|2,0:0|0:2,0:0:0:0:
107,360,195723,1,6,0:3:0:0:
32,285,195946,1,8,0:3:0:0:
68,183,196168,2,0,L|100:187,2,23.3333333333333,4|4|4,0:3|0:3|0:3,0:0:0:0:
35,147,196390,5,10,0:3:0:0:
35,147,196501,1,2,0:0:0:0:
35,147,196612,1,6,0:3:0:0:
96,70,196834,1,10,0:3:0:0:
180,120,197057,1,6,0:3:0:0:
193,109,197168,2,0,L|270:99,1,70,2|2,0:0|0:0,0:0:0:0:
277,90,197501,1,6,0:3:0:0:
322,176,197723,2,0,L|309:266,1,70,8|4,0:3|0:3,0:0:0:0:
318,261,198057,1,4,0:3:0:0:
325,277,198168,5,10,0:3:0:0:
368,363,198390,1,6,0:3:0:0:
465,349,198612,1,10,0:3:0:0:
482,252,198834,2,0,L|470:174,1,70,6|8,0:3|0:3,0:0:0:0:
385,134,199279,1,6,0:3:0:0:
427,45,199501,1,10,0:2:0:0:
338,3,199723,6,0,B|272:9|272:9|251:33|251:33|176:42,1,167.999994873047,6|0,1:2|1:2,0:0:0:0:
121,132,200390,1,10,0:0:0:0:
207,197,200612,1,8,0:0:0:0:
110,244,200834,1,10,0:0:0:0:
110,244,201057,1,0,1:2:0:0:
24,176,201279,2,0,L|-1:53,1,125.999996154785,10|8,0:0|0:0,0:0:0:0:
22,15,201723,6,0,P|60:31|101:38,1,83.9999974365235,6|0,1:2|0:0,0:0:0:0:
182,112,202168,2,0,P|220:95|261:88,1,83.9999974365235,10|0,0:0|0:0,0:0:0:0:
359,135,202612,1,2,1:2:0:0:
463,103,202834,2,0,P|480:64|483:22,1,83.9999974365235,2|8,0:0|0:0,0:0:0:0:
359,135,203279,2,0,P|362:176|378:215,1,83.9999974365235,2|0,0:0|1:2,0:0:0:0:
479,256,203723,1,2,0:0:0:0:
455,363,203946,1,10,0:0:0:0:
346,374,204168,1,2,0:0:0:0:
346,374,204279,1,2,0:0:0:0:
346,374,204390,2,0,L|262:363,1,83.9999974365235,2|0,1:2|0:0,0:0:0:0:
199,274,204834,2,0,L|210:190,1,83.9999974365235,8|2,0:0|0:0,0:0:0:0:
286,111,205279,6,0,P|261:37|183:39,1,167.999994873047,2|8,1:2|0:0,0:0:0:0:
76,12,205946,1,2,0:0:0:0:
76,12,206168,2,0,L|97:178,1,167.999994873047,2|8,1:2|0:0,0:0:0:0:
22,257,206834,1,6,1:2:0:0:
76,352,207057,2,0,L|179:363,1,83.9999974365235,2|8,0:0|0:0,0:0:0:0:
260,319,207501,1,8,0:0:0:0:
348,382,207723,1,10,0:0:0:0:
436,318,207946,1,8,0:0:0:0:
403,215,208168,1,8,0:0:0:0:
294,214,208390,1,8,0:0:0:0:
261,111,208612,6,0,B|213:90|213:90|108:140,1,167.999994873047,6|8,1:2|0:0,0:0:0:0:
96,252,209279,1,8,0:0:0:0:
96,252,209501,1,0,1:2:0:0:
7,197,209723,1,8,0:0:0:0:
7,197,209946,1,0,1:2:0:0:
15,88,210168,1,8,0:0:0:0:
23,73,210279,1,8,0:0:0:0:
31,58,210390,1,8,0:3:0:0:
39,43,210501,1,4,0:3:0:0:
47,28,210612,1,2,0:0:0:0:
448,64,211501,6,0,B|481:104|481:104|461:197,1,146.999995513916,6|0,1:2|0:0,0:0:0:0:
401,239,211945,2,0,L|296:246,1,97.9999970092774,10|0,0:0|3:0,0:0:0:0:
289,265,212278,1,8,0:0:0:0:
275,285,212389,1,2,3:2:0:0:
162,345,212612,1,2,1:2:0:0:
52,279,212834,2,0,P|35:233|26:184,1,97.9999970092774,10|0,0:0|1:0,0:0:0:0:
144,48,213278,6,0,P|135:96|118:142,2,97.9999970092774,2|0|8,1:2|1:2|0:0,0:0:0:0:
270,7,213945,1,2,3:2:0:0:
270,7,214056,1,8,0:0:0:0:
270,7,214167,1,2,3:2:0:0:
334,116,214389,1,2,1:2:0:0:
234,196,214612,2,0,P|217:249|210:299,1,97.9999970092774,10|0,0:0|0:0,0:0:0:0:
353,380,215056,6,0,P|442:359|447:268,1,195.999994018555,2|8,1:2|0:0,0:0:0:0:
496,154,215723,1,2,3:2:0:0:
496,154,215834,1,8,0:0:0:0:
496,154,215945,1,2,3:2:0:0:
400,70,216167,1,2,1:2:0:0:
291,136,216389,1,10,0:0:0:0:
321,261,216611,1,2,1:2:0:0:
212,327,216834,6,0,P|142:342|96:344,1,97.9999970092774,2|0,1:2|1:2,0:0:0:0:
8,275,217278,1,14,0:0:0:0:
95,182,217501,1,10,0:0:0:0:
95,182,217612,1,8,0:0:0:0:
95,182,217723,2,0,L|78:83,1,97.9999970092774,10|4,0:3|0:3,0:0:0:0:
182,12,218167,1,10,0:0:0:0:
205,18,218278,1,8,0:0:0:0:
228,24,218389,1,8,0:3:0:0:
251,30,218501,1,4,0:3:0:0:
274,36,218612,6,0,L|298:180,1,146.999995513916,6|0,1:2|0:0,0:0:0:0:
263,245,219056,2,0,L|285:375,1,97.9999970092774,10|2,0:0|3:2,0:0:0:0:
299,355,219389,1,8,0:0:0:0:
318,369,219501,1,2,3:2:0:0:
380,258,219723,1,2,1:2:0:0:
497,306,219945,2,0,P|514:261|520:212,1,97.9999970092774,10|0,0:0|1:2,0:0:0:0:
412,87,220389,6,0,P|417:135|435:181,2,97.9999970092774,2|0|8,1:2|1:2|0:0,0:0:0:0:
312,6,221056,1,2,3:2:0:0:
312,6,221167,1,8,0:0:0:0:
312,6,221278,1,2,3:2:0:0:
213,87,221501,1,2,1:2:0:0:
304,174,221723,2,0,P|317:221|327:269,1,97.9999970092774,10|0,0:0|0:0,0:0:0:0:
204,372,222167,6,0,P|110:374|52:299,1,195.999994018555,2|8,1:2|0:0,0:0:0:0:
112,192,222834,1,2,3:2:0:0:
112,192,222945,1,8,0:0:0:0:
112,192,223056,1,2,3:2:0:0:
15,109,223278,1,2,1:2:0:0:
103,17,223501,2,0,L|213:4,1,97.9999970092774,10|2,0:0|1:2,0:0:0:0:
314,97,223945,5,14,1:2:0:0:
226,214,224167,1,10,0:0:0:0:
311,335,224389,1,10,0:0:0:0:
453,292,224612,1,10,0:0:0:0:
456,144,224834,2,0,L|443:86,3,48.9999985046387,14|8|8|8,0:0|0:0|0:3|0:3,0:0:0:0:
449,60,225278,1,14,0:0:0:0:
427,64,225389,1,8,0:0:0:0:
405,67,225500,1,8,0:0:0:0:
383,70,225611,1,8,0:0:0:0:
361,73,225723,6,0,L|206:56,1,146.999995513916,6|0,1:2|0:0,0:0:0:0:
154,98,226167,2,0,L|143:195,1,97.9999970092774,10|2,0:0|3:2,0:0:0:0:
158,214,226501,1,8,0:0:0:0:
172,233,226612,1,2,3:2:0:0:
144,357,226834,1,2,1:2:0:0:
20,329,227056,2,0,P|6:282|2:233,1,97.9999970092774,10|0,0:0|1:2,0:0:0:0:
96,90,227500,6,0,P|47:85|0:72,2,97.9999970092774,2|0|8,1:2|1:2|0:0,0:0:0:0:
212,37,228167,1,2,3:2:0:0:
212,37,228278,1,8,0:0:0:0:
212,37,228389,1,2,3:2:0:0:
315,111,228612,1,2,1:2:0:0:
435,72,228834,2,0,P|479:94|514:129,1,97.9999970092774,10|0,0:0|0:0,0:0:0:0:
509,296,229278,6,0,L|314:268,1,195.999994018555,2|8,1:2|0:0,0:0:0:0:
215,204,229945,1,2,3:2:0:0:
215,204,230056,1,8,0:0:0:0:
215,204,230167,1,2,3:2:0:0:
268,88,230389,1,2,1:2:0:0:
175,2,230612,1,10,0:0:0:0:
65,64,230834,1,2,1:2:0:0:
89,188,231056,6,0,L|113:288,1,97.9999970092774,2|0,1:2|1:2,0:0:0:0:
203,372,231500,1,14,0:0:0:0:
299,287,231723,1,10,0:0:0:0:
299,287,231834,1,8,0:0:0:0:
299,287,231945,2,0,L|277:191,1,97.9999970092774,10|4,0:3|0:3,0:0:0:0:
261,172,232278,1,4,0:3:0:0:
245,153,232389,1,10,0:0:0:0:
229,134,232500,1,8,0:0:0:0:
212,115,232612,1,8,0:3:0:0:
293,16,232834,6,0,P|340:4|389:1,1,97.9999970092774,6|0,1:2|0:0,0:0:0:0:
512,128,233278,2,0,P|464:115|415:112,1,97.9999970092774,14|0,0:0|3:2,0:0:0:0:
400,132,233612,1,8,0:0:0:0:
384,151,233723,1,6,3:2:0:0:
469,244,233945,1,2,1:2:0:0:
407,354,234167,1,14,0:0:0:0:
284,330,234389,1,2,1:2:0:0:
160,354,234612,6,0,P|112:351|66:334,1,97.9999970092774,6|0,1:2|1:0,0:0:0:0:
0,176,235056,2,0,P|48:178|94:195,1,97.9999970092774,14|0,0:0|3:0,0:0:0:0:
107,216,235389,1,8,0:0:0:0:
119,236,235500,1,6,3:2:0:0:
225,255,235723,1,0,1:2:0:0:
276,161,235945,1,12,0:0:0:0:
203,84,236167,1,2,0:0:0:0:
108,130,236389,6,0,L|302:103,1,195.999994018555,6|8,1:2|0:0,0:0:0:0:
383,5,237056,1,8,0:0:0:0:
501,51,237278,1,10,0:0:0:0:
501,185,237500,1,10,0:0:0:0:
501,185,237612,1,8,0:0:0:0:
501,185,237723,2,0,L|513:282,1,97.9999970092774,14|8,1:2|0:0,0:0:0:0:
357,371,238167,6,0,P|429:358|509:389,2,154.000004699707,6|8|0,1:2|0:0|1:2,0:0:0:0:
272,316,239278,1,2,0:0:0:0:
258,216,239500,1,10,0:0:0:0:
244,116,239723,2,0,L|265:30,2,77.0000023498536,2|0|0,0:0|1:2|0:0,0:0:0:0:
154,159,240389,2,0,P|118:173|80:179,1,77.0000023498536,10|0,0:0|0:0,0:0:0:0:
27,264,240834,2,0,P|32:302|47:337,1,77.0000023498536,2|0,1:2|0:0,0:0:0:0:
135,383,241278,1,10,0:0:0:0:
153,379,241389,1,8,0:0:0:0:
171,375,241500,1,8,0:3:0:0:
189,371,241612,1,4,0:3:0:0:
207,367,241723,1,2,0:0:0:0:
48,131,246834,5,2,0:0:0:0:
123,65,247056,2,0,L|125:37,14,19.2500005874634,14|0|0|0|0|0|0|0|0|0|0|0|0|0|0,0:0|3:0|3:0|3:0|3:0|3:0|3:0|3:0|3:0|3:0|3:0|3:0|3:0|3:0|3:0,0:0:0:0:
157,113,247945,2,0,L|158:130,9,15.1666659723918,0|0|0|0|0|0|0|0|0|0,3:0|3:0|3:0|3:0|3:0|3:0|3:0|3:0|3:0|3:0,0:0:0:0:
201,87,248389,2,0,L|347:62,1,136.499993751526,10|8,0:0|3:2,0:0:0:0:
375,46,248834,6,0,P|364:86|360:128,1,83.9999974365235,6|0,1:2|0:0,0:0:0:0:
455,196,249278,2,0,P|465:236|469:278,1,83.9999974365235,10|0,0:0|0:0,0:0:0:0:
396,370,249723,2,0,L|312:357,1,83.9999974365235,2|0,1:2|0:0,0:0:0:0:
197,378,250167,2,0,L|113:365,1,83.9999974365235,10|0,0:0|0:0,0:0:0:0:
0,256,250612,6,0,L|83:268,1,83.9999974365235,2|0,1:2|0:2,0:0:0:0:
187,213,251056,2,0,P|199:173|197:131,1,83.9999974365235,10|0,0:2|0:2,0:0:0:0:
276,44,251500,2,0,P|315:31|357:33,1,83.9999974365235,2|0,1:2|0:2,0:0:0:0:
462,88,251945,2,0,L|486:223,1,125.999996154785,10|0,0:2|0:2,0:0:0:0:
512,253,252389,6,0,P|434:231|375:286,1,167.999994873047,2|8,1:2|0:0,0:0:0:0:
289,384,253056,2,0,P|338:320|310:244,1,167.999994873047,2|0,0:0|0:0,0:0:0:0:
209,183,253723,2,0,L|112:179,1,83.9999974365235,10|0,0:2|0:2,0:0:0:0:
11,150,254167,2,0,P|-3:110|0:69,1,83.9999974365235,2|0,1:2|0:0,0:0:0:0:
108,22,254612,2,0,P|147:36|188:32,1,83.9999974365235,10|0,0:0|0:0,0:0:0:0:
304,0,255056,1,2,1:2:0:0:
304,0,255278,1,8,0:0:0:0:
385,84,255500,1,10,0:0:0:0:
381,104,255611,1,8,0:3:0:0:
377,124,255722,1,4,0:3:0:0:
372,144,255833,1,4,0:3:0:0:
367,163,255944,6,0,P|326:176|285:180,1,83.9999974365235,6|0,1:2|0:0,0:0:0:0:
187,114,256389,2,0,P|146:101|105:97,1,83.9999974365235,10|0,0:0|0:0,0:0:0:0:
13,172,256834,2,0,L|-1:254,1,83.9999974365235,2|0,1:2|0:0,0:0:0:0:
55,357,257278,2,0,L|137:371,1,83.9999974365235,10|0,0:0|0:0,0:0:0:0:
313,314,257723,6,0,L|231:300,1,83.9999974365235,2|0,1:2|0:2,0:0:0:0:
132,235,258167,2,0,L|117:152,1,83.9999974365235,10|0,0:2|0:2,0:0:0:0:
74,42,258612,2,0,L|156:56,1,83.9999974365235,2|0,1:2|0:2,0:0:0:0:
240,138,259056,2,0,L|364:116,1,125.999996154785,10|0,0:2|0:2,0:0:0:0:
399,76,259500,6,0,P|384:153|451:196,1,167.999994873047,2|8,1:2|0:0,0:0:0:0:
509,299,260167,1,2,0:0:0:0:
411,363,260389,2,0,P|350:311|280:347,1,167.999994873047,2|8,1:2|0:0,3:0:0:0:
173,324,261056,5,0,3:2:0:0:
173,324,261167,1,0,3:2:0:0:
173,324,261278,1,6,1:2:0:0:
248,233,261500,1,8,0:0:0:0:
185,134,261723,1,8,0:0:0:0:
72,164,261945,1,8,0:0:0:0:
73,288,262167,1,10,0:0:0:0:
73,288,262278,1,8,0:0:0:0:
73,288,262389,1,8,0:3:0:0:
173,324,262612,2,0,L|223:328,3,41.9999987182618,4|4|4|4,0:3|0:3|0:3|0:3,0:0:0:0:
250,366,263056,6,0,P|259:325|274:286,1,83.9999974365235,6|0,1:2|0:0,0:0:0:0:
383,242,263500,2,0,P|373:201|358:162,1,83.9999974365235,10|0,0:0|0:0,0:0:0:0:
243,133,263945,2,0,P|204:148|163:157,1,83.9999974365235,2|0,1:2|0:0,0:0:0:0:
45,158,264389,2,0,P|29:119|20:78,1,83.9999974365235,10|0,0:0|0:0,0:0:0:0:
110,1,264834,6,0,L|193:8,1,83.9999974365235,2|0,1:2|0:0,0:0:0:0:
287,78,265278,2,0,L|370:70,1,83.9999974365235,10|0,0:0|0:0,0:0:0:0:
476,122,265723,2,0,L|483:205,1,83.9999974365235,2|0,1:2|0:0,0:0:0:0:
465,321,266167,2,0,L|339:332,1,125.999996154785,10|0,0:0|0:0,0:0:0:0:
299,376,266612,6,0,P|330:301|286:233,1,167.999994873047,2|8,1:2|0:0,0:0:0:0:
170,215,267278,2,0,L|337:199,1,167.999994873047,2|0,0:0|0:0,0:0:0:0:
440,142,267945,2,0,L|447:58,1,83.9999974365235,8|0,0:0|0:0,0:0:0:0:
337,16,268389,6,0,P|297:29|255:36,1,83.9999974365235,2|0,1:2|0:0,0:0:0:0:
141,7,268834,2,0,P|99:13|59:27,1,83.9999974365235,10|0,0:0|0:0,0:0:0:0:
12,134,269278,1,2,1:2:0:0:
12,134,269500,1,8,0:0:0:0:
76,232,269723,1,10,0:0:0:0:
78,252,269834,1,8,0:3:0:0:
80,272,269945,1,4,0:3:0:0:
82,292,270056,1,4,0:3:0:0:
84,312,270167,6,0,L|166:327,1,83.9999974365235,6|0,1:2|0:0,0:0:0:0:
270,383,270612,2,0,L|352:368,1,83.9999974365235,10|0,0:0|0:0,0:0:0:0:
441,290,271056,2,0,L|456:208,1,83.9999974365235,2|0,1:2|0:0,0:0:0:0:
511,103,271500,2,0,L|429:88,1,83.9999974365235,10|0,0:0|0:0,0:0:0:0:
286,10,271945,6,0,P|302:49|313:90,1,83.9999974365235,2|0,1:2|0:0,0:0:0:0:
374,190,272389,2,0,P|358:228|347:269,1,83.9999974365235,10|0,0:0|0:0,0:0:0:0:
265,353,272834,2,0,P|226:368|185:379,1,83.9999974365235,2|0,1:2|0:0,0:0:0:0:
77,331,273278,2,0,L|47:208,1,125.999996154785,10|0,0:0|0:0,0:0:0:0:
0,171,273723,6,0,P|77:193|137:139,1,167.999994873047,2|8,1:2|0:0,0:0:0:0:
164,25,274389,1,2,0:0:0:0:
248,107,274612,2,0,L|414:125,1,167.999994873047,2|8,1:2|0:0,0:0:0:0:
501,205,275278,5,0,3:0:0:0:
501,205,275389,1,0,3:0:0:0:
501,205,275500,1,6,1:2:0:0:
493,322,275723,1,8,0:0:0:0:
380,351,275945,1,10,0:0:0:0:
318,253,276167,1,8,0:0:0:0:
393,164,276389,1,10,0:0:0:0:
397,143,276500,1,8,0:0:0:0:
401,122,276612,1,8,0:3:0:0:
405,101,276723,1,4,0:3:0:0:
410,80,276834,2,0,B|278:98,1,125.999996154785,6|0,1:2|0:0,0:0:0:0:
251,86,277278,5,6,1:2:0:0:
256,192,277389,12,0,280834,0:0:0:0:
229,238,281945,5,10,0:0:0:0:
229,145,282167,1,10,0:0:0:0:
309,192,282389,1,14,0:0:0:0:
