osu file format v14

[General]
AudioFilename: audio.mp3
AudioLeadIn: 0
PreviewTime: 203820
Countdown: 0
SampleSet: Soft
StackLeniency: 0.5
Mode: 0
LetterboxInBreaks: 0
WidescreenStoryboard: 0

[Editor]
Bookmarks: 8112,21697,39810,57923,66980,100942,107735,125848,134904,171131,189244,205134,214103,223159,259386,275190,302359
DistanceSpacing: 0.7
BeatDivisor: 8
GridSize: 4
TimelineZoom: 3.399999

[Metadata]
Title:Marigold
TitleUnicode:マリーゴールド
Artist:Natsuiro Matsuri
ArtistUnicode:夏色まつり
Creator:Ayucchi
Version:Bittersweet
Source:
Tags:frozz japanese pop hololive ホロライブ 夏まつch channel seiso idol vtuber virtual youtuber cover aimyon あいみょん full version
BeatmapID:2435698
BeatmapSetID:1167380

[Difficulty]
HPDrainRate:5
CircleSize:4.5
OverallDifficulty:8.5
ApproachRate:9
SliderMultiplier:2.7
SliderTickRate:1

[Events]
//Background and Video events
0,0,"77154007_p0.png",0,0
//Break Periods
//Storyboard Layer 0 (Background)
//Storyboard Layer 1 (Fail)
//Storyboard Layer 2 (Pass)
//Storyboard Layer 3 (Foreground)
//Storyboard Layer 4 (Overlay)
//Storyboard Sound Samples

[TimingPoints]
1320,566.037735849057,4,2,1,30,1,0
1320,-200,4,2,1,30,0,0
1390,-200,4,2,1,5,0,0
2169,-200,4,2,1,30,0,0
3654,-200,4,2,1,5,0,0
4433,-200,4,2,1,30,0,0
5919,-200,4,2,1,5,0,0
6697,-200,4,2,1,30,0,0
7546,-200,4,2,1,40,0,0
8041,-200,4,2,1,5,0,0
8112,-100,4,2,1,55,0,0
16532,-100,4,2,1,5,0,0
16603,-100,4,2,1,55,0,0
21697,-125,4,2,1,40,0,0
55659,-111.111111111111,4,2,1,40,0,0
57923,-100,4,2,1,50,0,0
59268,-100,4,2,1,5,0,0
59338,-100,4,2,1,50,0,0
64362,-100,4,2,1,5,0,0
64433,-100,4,2,1,50,0,0
66980,-83.3333333333333,4,2,1,70,0,1
67192,-83.3333333333333,4,2,1,5,0,1
67263,-83.3333333333333,4,2,1,70,0,1
67475,-83.3333333333333,4,2,1,5,0,1
67546,-83.3333333333333,4,2,1,70,0,1
68607,-83.3333333333333,4,2,1,5,0,1
68678,-83.3333333333333,4,2,1,70,0,1
69739,-83.3333333333333,4,2,1,5,0,1
69810,-83.3333333333333,4,2,1,70,0,1
70022,-83.3333333333333,4,2,1,5,0,1
70093,-83.3333333333333,4,2,1,70,0,1
71154,-83.3333333333333,4,2,1,5,0,1
71225,-83.3333333333333,4,2,1,70,0,1
71720,-83.3333333333333,4,2,1,5,0,1
71791,-83.3333333333333,4,2,1,70,0,1
72003,-83.3333333333333,4,2,1,5,0,1
72074,-83.3333333333333,4,2,1,70,0,1
72286,-83.3333333333333,4,2,1,5,0,1
72357,-83.3333333333333,4,2,1,70,0,1
73136,-83.3333333333333,4,2,1,5,0,1
73206,-83.3333333333333,4,2,1,70,0,1
73985,-83.3333333333333,4,2,1,5,0,1
74055,-83.3333333333333,4,2,1,70,0,1
74268,-83.3333333333333,4,2,1,5,0,1
74338,-83.3333333333333,4,2,1,70,0,1
74551,-83.3333333333333,4,2,1,5,0,1
74621,-83.3333333333333,4,2,1,70,0,1
75400,-83.3333333333333,4,2,1,5,0,1
75470,-83.3333333333333,4,2,1,70,0,1
75683,-83.3333333333333,4,2,1,5,0,1
75753,-83.3333333333333,4,2,1,70,0,1
76249,-83.3333333333333,4,2,1,5,0,1
76320,-83.3333333333333,4,2,1,70,0,1
76815,-83.3333333333333,4,2,1,5,0,1
76886,-83.3333333333333,4,2,1,70,0,1
77664,-83.3333333333333,4,2,1,5,0,1
77735,-83.3333333333333,4,2,1,70,0,1
77947,-83.3333333333333,4,2,1,5,0,1
78018,-83.3333333333333,4,2,1,70,0,1
78796,-83.3333333333333,4,2,1,5,0,1
78867,-83.3333333333333,4,2,1,70,0,1
79079,-83.3333333333333,4,2,1,5,0,1
79150,-83.3333333333333,4,2,1,70,0,1
79928,-83.3333333333333,4,2,1,5,0,1
79999,-83.3333333333333,4,2,1,70,0,1
80211,-83.3333333333333,4,2,1,5,0,1
80282,-83.3333333333333,4,2,1,70,0,1
81060,-83.3333333333333,4,2,1,5,0,1
81131,-83.3333333333333,4,2,1,70,0,1
81343,-83.3333333333333,4,2,1,5,0,1
81414,-83.3333333333333,4,2,1,70,0,1
82192,-83.3333333333333,4,2,1,5,0,1
82263,-83.3333333333333,4,2,1,70,0,1
82475,-83.3333333333333,4,2,1,5,0,1
82546,-83.3333333333333,4,2,1,70,0,1
83324,-83.3333333333333,4,2,1,5,0,1
83395,-83.3333333333333,4,2,1,70,0,1
83607,-83.3333333333333,4,2,1,5,0,1
83678,-83.3333333333333,4,2,1,70,0,1
85305,-83.3333333333333,4,2,1,5,0,1
85376,-83.3333333333333,4,2,1,70,0,1
85588,-83.3333333333333,4,2,1,5,0,1
85659,-83.3333333333333,4,2,1,70,0,1
87003,-83.3333333333333,4,2,1,5,0,1
87074,-83.3333333333333,4,2,1,70,0,1
87570,-83.3333333333333,4,2,1,5,0,1
87640,-83.3333333333333,4,2,1,70,0,1
87853,-83.3333333333333,4,2,1,5,0,1
87923,-83.3333333333333,4,2,1,70,0,1
88136,-83.3333333333333,4,2,1,5,0,1
88206,-83.3333333333333,4,2,1,70,0,1
88985,-83.3333333333333,4,2,1,5,0,1
89055,-83.3333333333333,4,2,1,70,0,1
89268,-83.3333333333333,4,2,1,5,0,1
89338,-83.3333333333333,4,2,1,70,0,1
89834,-83.3333333333333,4,2,1,5,0,1
89904,-83.3333333333333,4,2,1,70,0,1
90400,-83.3333333333333,4,2,1,5,0,1
90470,-83.3333333333333,4,2,1,70,0,1
91249,-83.3333333333333,4,2,1,5,0,1
91320,-83.3333333333333,4,2,1,70,0,1
91532,-83.3333333333333,4,2,1,5,0,1
91603,-83.3333333333333,4,2,1,70,0,1
92098,-83.3333333333333,4,2,1,5,0,1
92169,-83.3333333333333,4,2,1,70,0,1
92381,-83.3333333333333,4,2,1,5,0,1
92452,-83.3333333333333,4,2,1,70,0,1
92664,-83.3333333333333,4,2,1,5,0,1
92735,-83.3333333333333,4,2,1,70,0,1
93513,-83.3333333333333,4,2,1,5,0,1
93584,-83.3333333333333,4,2,1,70,0,1
93796,-83.3333333333333,4,2,1,5,0,1
93867,-83.3333333333333,4,2,1,70,0,1
94362,-83.3333333333333,4,2,1,5,0,1
94433,-83.3333333333333,4,2,1,70,0,1
94645,-83.3333333333333,4,2,1,5,0,1
94716,-83.3333333333333,4,2,1,70,0,1
94928,-83.3333333333333,4,2,1,5,0,1
94999,-83.3333333333333,4,2,1,70,0,1
95777,-83.3333333333333,4,2,1,5,0,1
95848,-83.3333333333333,4,2,1,70,0,1
96060,-83.3333333333333,4,2,1,5,0,1
96131,-83.3333333333333,4,2,1,70,0,1
96909,-83.3333333333333,4,2,1,5,0,1
96980,-83.3333333333333,4,2,1,70,0,1
97192,-83.3333333333333,4,2,1,5,0,1
97263,-83.3333333333333,4,2,1,70,0,1
98041,-83.3333333333333,4,2,1,5,0,1
98112,-83.3333333333333,4,2,1,70,0,1
98324,-83.3333333333333,4,2,1,5,0,1
98395,-83.3333333333333,4,2,1,70,0,1
99173,-83.3333333333333,4,2,1,5,0,1
99244,-83.3333333333333,4,2,1,70,0,1
100942,-250,4,2,1,55,0,0
102499,-100,4,2,1,55,0,0
105470,-250,4,2,1,55,0,0
106320,-250,4,2,1,5,0,0
106461,-100,4,2,1,55,0,0
107664,-100,4,2,1,5,0,0
107735,-125,4,2,1,40,0,0
125848,-100,4,2,1,50,0,0
127192,-100,4,2,1,5,0,0
127263,-100,4,2,1,50,0,0
134904,-83.3333333333333,4,2,1,70,0,1
135117,-83.3333333333333,4,2,1,5,0,1
135187,-83.3333333333333,4,2,1,70,0,1
135400,-83.3333333333333,4,2,1,5,0,1
135470,-83.3333333333333,4,2,1,70,0,1
136532,-83.3333333333333,4,2,1,5,0,1
136602,-83.3333333333333,4,2,1,70,0,1
136815,-83.3333333333333,4,2,1,5,0,1
136885,-83.3333333333333,4,2,1,70,0,1
137664,-83.3333333333333,4,2,1,5,0,1
137734,-83.3333333333333,4,2,1,70,0,1
137947,-83.3333333333333,4,2,1,5,0,1
138017,-83.3333333333333,4,2,1,70,0,1
138796,-83.3333333333333,4,2,1,5,0,1
138866,-83.3333333333333,4,2,1,70,0,1
139079,-83.3333333333333,4,2,1,5,0,1
139149,-83.3333333333333,4,2,1,70,0,1
139645,-83.3333333333333,4,2,1,5,0,1
139715,-83.3333333333333,4,2,1,70,0,1
140211,-83.3333333333333,4,2,1,5,0,1
140281,-83.3333333333333,4,2,1,70,0,1
141060,-83.3333333333333,4,2,1,5,0,1
141130,-83.3333333333333,4,2,1,70,0,1
141343,-83.3333333333333,4,2,1,5,0,1
141413,-83.3333333333333,4,2,1,70,0,1
142192,-83.3333333333333,4,2,1,5,0,1
142262,-83.3333333333333,4,2,1,70,0,1
142475,-83.3333333333333,4,2,1,5,0,1
142545,-83.3333333333333,4,2,1,70,0,1
143324,-83.3333333333333,4,2,1,5,0,1
143394,-83.3333333333333,4,2,1,70,0,1
143607,-83.3333333333333,4,2,1,5,0,1
143677,-83.3333333333333,4,2,1,70,0,1
144739,-83.3333333333333,4,2,1,5,0,1
144809,-83.3333333333333,4,2,1,70,0,1
145588,-83.3333333333333,4,2,1,5,0,1
145658,-83.3333333333333,4,2,1,70,0,1
145871,-83.3333333333333,4,2,1,5,0,1
145941,-83.3333333333333,4,2,1,70,0,1
146720,-83.3333333333333,4,2,1,5,0,1
146790,-83.3333333333333,4,2,1,70,0,1
147003,-83.3333333333333,4,2,1,5,0,1
147073,-83.3333333333333,4,2,1,70,0,1
147853,-83.3333333333333,4,2,1,5,0,1
147923,-83.3333333333333,4,2,1,70,0,1
148136,-83.3333333333333,4,2,1,5,0,1
148206,-83.3333333333333,4,2,1,70,0,1
148985,-83.3333333333333,4,2,1,5,0,1
149055,-83.3333333333333,4,2,1,70,0,1
149268,-83.3333333333333,4,2,1,5,0,1
149338,-83.3333333333333,4,2,1,70,0,1
150117,-83.3333333333333,4,2,1,5,0,1
150187,-83.3333333333333,4,2,1,70,0,1
150400,-83.3333333333333,4,2,1,5,0,1
150470,-83.3333333333333,4,2,1,70,0,1
151249,-83.3333333333333,4,2,1,5,0,1
151319,-83.3333333333333,4,2,1,70,0,1
151532,-83.3333333333333,4,2,1,5,0,1
151602,-83.3333333333333,4,2,1,70,0,1
152664,-83.3333333333333,4,2,1,5,0,1
152734,-83.3333333333333,4,2,1,70,0,1
153230,-83.3333333333333,4,2,1,5,0,1
153300,-83.3333333333333,4,2,1,70,0,1
153513,-83.3333333333333,4,2,1,5,0,1
153583,-83.3333333333333,4,2,1,70,0,1
154645,-83.3333333333333,4,2,1,5,0,1
154715,-83.3333333333333,4,2,1,70,0,1
154928,-83.3333333333333,4,2,1,5,0,1
154998,-83.3333333333333,4,2,1,70,0,1
155777,-83.3333333333333,4,2,1,5,0,1
155847,-83.3333333333333,4,2,1,70,0,1
156060,-83.3333333333333,4,2,1,5,0,1
156130,-83.3333333333333,4,2,1,70,0,1
156909,-83.3333333333333,4,2,1,5,0,1
156979,-83.3333333333333,4,2,1,70,0,1
157192,-83.3333333333333,4,2,1,5,0,1
157262,-83.3333333333333,4,2,1,70,0,1
157758,-83.3333333333333,4,2,1,5,0,1
157828,-83.3333333333333,4,2,1,70,0,1
158324,-83.3333333333333,4,2,1,5,0,1
158394,-83.3333333333333,4,2,1,70,0,1
159173,-83.3333333333333,4,2,1,5,0,1
159243,-83.3333333333333,4,2,1,70,0,1
159456,-83.3333333333333,4,2,1,5,0,1
159526,-83.3333333333333,4,2,1,70,0,1
160305,-83.3333333333333,4,2,1,5,0,1
160375,-83.3333333333333,4,2,1,70,0,1
160588,-83.3333333333333,4,2,1,5,0,1
160658,-83.3333333333333,4,2,1,70,0,1
161437,-83.3333333333333,4,2,1,5,0,1
161507,-83.3333333333333,4,2,1,70,0,1
162853,-83.3333333333333,4,2,1,5,0,1
162923,-83.3333333333333,4,2,1,70,0,1
163702,-83.3333333333333,4,2,1,5,0,1
163772,-83.3333333333333,4,2,1,70,0,1
163985,-83.3333333333333,4,2,1,5,0,1
164055,-83.3333333333333,4,2,1,70,0,1
164834,-83.3333333333333,4,2,1,5,0,1
164904,-83.3333333333333,4,2,1,70,0,1
165117,-83.3333333333333,4,2,1,5,0,1
165187,-83.3333333333333,4,2,1,70,0,1
165966,-83.3333333333333,4,2,1,5,0,1
166036,-83.3333333333333,4,2,1,70,0,1
166249,-83.3333333333333,4,2,1,5,0,1
166319,-83.3333333333333,4,2,1,70,0,1
167098,-83.3333333333333,4,2,1,5,0,1
167168,-83.3333333333333,4,2,1,70,0,1
167381,-83.3333333333333,4,2,1,5,0,1
167451,-83.3333333333333,4,2,1,70,0,1
168230,-83.3333333333333,4,2,1,5,0,1
168300,-83.3333333333333,4,2,1,70,0,1
168513,-83.3333333333333,4,2,1,5,0,1
168583,-83.3333333333333,4,2,1,70,0,1
168867,-250,4,2,1,55,0,0
170423,-100,4,2,1,55,0,0
171131,-100,4,2,1,55,0,0
189244,-100,4,2,1,55,0,0
189456,-100,4,2,1,5,0,0
189527,-100,4,2,1,55,0,0
189739,-100,4,2,1,5,0,0
189810,-100,4,2,1,55,0,0
190871,-100,4,2,1,5,0,0
190942,-100,4,2,1,55,0,0
191154,-100,4,2,1,5,0,0
191225,-100,4,2,1,55,0,0
192003,-100,4,2,1,5,0,0
192074,-100,4,2,1,55,0,0
193136,-100,4,2,1,5,0,0
193207,-100,4,2,1,55,0,0
193419,-100,4,2,1,5,0,0
193490,-100,4,2,1,55,0,0
193985,-100,4,2,1,5,0,0
194056,-100,4,2,1,55,0,0
194268,-100,4,2,1,5,0,0
194339,-100,4,2,1,55,0,0
195400,-100,4,2,1,5,0,0
195471,-100,4,2,1,55,0,0
195683,-100,4,2,1,5,0,0
195754,-100,4,2,1,55,0,0
196532,-100,4,2,1,5,0,0
196603,-100,4,2,1,55,0,0
197664,-100,4,2,1,5,0,0
197735,-100,4,2,1,55,0,0
197947,-100,4,2,1,5,0,0
198018,-100,4,2,1,55,0,0
198796,-100,4,2,1,5,0,0
198867,-100,4,2,1,55,0,0
201060,-100,4,2,1,5,0,0
201131,-100,4,2,1,55,0,0
202192,-100,4,2,1,5,0,0
202263,-100,4,2,1,55,0,0
202475,-100,4,2,1,5,0,0
202546,-100,4,2,1,55,0,0
203324,-100,4,2,1,5,0,0
203395,-100,4,2,1,55,0,0
203607,-100,4,2,1,5,0,0
203678,-100,4,2,1,55,0,0
205134,566.037735849057,4,2,1,30,1,0
205134,-250,4,2,1,30,0,0
205700,-250,4,2,1,5,0,0
206266,495.867768595041,4,2,1,30,1,0
206514,594.059405940594,4,2,1,30,1,0
206811,550.45871559633,4,2,1,30,1,0
206811,-250,4,2,1,30,0,0
207911,-250,4,2,1,5,0,0
208187,530.973451327434,4,2,1,30,1,0
208452,606.060606060606,4,2,1,30,1,0
208755,545.454545454546,4,2,1,30,1,0
208755,-250,4,2,1,30,0,0
209300,594.059405940594,4,2,1,30,1,0
209374,-125,4,2,1,30,0,0
209894,535.714285714286,4,2,1,30,1,0
209894,-250,4,2,1,30,0,0
210362,-250,4,2,1,5,0,0
210429,571.428571428571,4,2,1,30,1,0
210429,-250,4,2,1,30,0,0
211000,508.474576271186,4,2,1,30,1,0
211254,600,4,2,1,30,1,0
211554,566.037735849057,4,2,1,30,1,0
211837,540.540540540541,4,2,1,30,1,0
211837,-250,4,2,1,30,0,0
212377,-250,4,2,1,5,0,0
212647,666.666666666667,4,2,1,30,1,0
212980,631.578947368421,4,2,1,30,1,0
212980,-166.666666666667,4,2,1,30,0,0
213611,-166.666666666667,4,2,1,5,0,0
213769,666.666666666667,4,2,1,30,1,0
214103,566.037735849057,4,2,1,40,1,0
214103,-125,4,2,1,40,0,0
218631,-100,4,2,1,40,0,0
220895,-250,4,2,1,40,0,0
222027,-125,4,2,1,40,0,0
222593,-100,4,2,1,40,0,0
223159,-83.3333333333333,4,2,1,70,0,1
223371,-83.3333333333333,4,2,1,5,0,1
223442,-83.3333333333333,4,2,1,70,0,1
223654,-83.3333333333333,4,2,1,5,0,1
223725,-83.3333333333333,4,2,1,70,0,1
224786,-83.3333333333333,4,2,1,5,0,1
224857,-83.3333333333333,4,2,1,70,0,1
225069,-83.3333333333333,4,2,1,5,0,1
225140,-83.3333333333333,4,2,1,70,0,1
225919,-83.3333333333333,4,2,1,5,0,1
225990,-83.3333333333333,4,2,1,70,0,1
226202,-83.3333333333333,4,2,1,5,0,1
226273,-83.3333333333333,4,2,1,70,0,1
227051,-83.3333333333333,4,2,1,5,0,1
227122,-83.3333333333333,4,2,1,70,0,1
227334,-83.3333333333333,4,2,1,5,0,1
227405,-83.3333333333333,4,2,1,70,0,1
227900,-83.3333333333333,4,2,1,5,0,1
227971,-83.3333333333333,4,2,1,70,0,1
228466,-83.3333333333333,4,2,1,5,0,1
228537,-83.3333333333333,4,2,1,70,0,1
229315,-83.3333333333333,4,2,1,5,0,1
229386,-83.3333333333333,4,2,1,70,0,1
229598,-83.3333333333333,4,2,1,5,0,1
229669,-83.3333333333333,4,2,1,70,0,1
230447,-83.3333333333333,4,2,1,5,0,1
230518,-83.3333333333333,4,2,1,70,0,1
230730,-83.3333333333333,4,2,1,5,0,1
230801,-83.3333333333333,4,2,1,70,0,1
231579,-83.3333333333333,4,2,1,5,0,1
231650,-83.3333333333333,4,2,1,70,0,1
231862,-83.3333333333333,4,2,1,5,0,1
231933,-83.3333333333333,4,2,1,70,0,1
232428,-83.3333333333333,4,2,1,5,0,1
232499,-83.3333333333333,4,2,1,70,0,1
232711,-83.3333333333333,4,2,1,5,0,1
232782,-83.3333333333333,4,2,1,70,0,1
232994,-83.3333333333333,4,2,1,5,0,1
233065,-83.3333333333333,4,2,1,70,0,1
233843,-83.3333333333333,4,2,1,5,0,1
233914,-83.3333333333333,4,2,1,70,0,1
234126,-83.3333333333333,4,2,1,5,0,1
234197,-83.3333333333333,4,2,1,70,0,1
234975,-83.3333333333333,4,2,1,5,0,1
235046,-83.3333333333333,4,2,1,70,0,1
235258,-83.3333333333333,4,2,1,5,0,1
235329,-83.3333333333333,4,2,1,70,0,1
236107,-83.3333333333333,4,2,1,5,0,1
236178,-83.3333333333333,4,2,1,70,0,1
236390,-83.3333333333333,4,2,1,5,0,1
236461,-83.3333333333333,4,2,1,70,0,1
237239,-83.3333333333333,4,2,1,5,0,1
237310,-83.3333333333333,4,2,1,70,0,1
237522,-83.3333333333333,4,2,1,5,0,1
237593,-83.3333333333333,4,2,1,70,0,1
238371,-83.3333333333333,4,2,1,5,0,1
238442,-83.3333333333333,4,2,1,70,0,1
238654,-83.3333333333333,4,2,1,5,0,1
238725,-83.3333333333333,4,2,1,70,0,1
239503,-83.3333333333333,4,2,1,5,0,1
239574,-83.3333333333333,4,2,1,70,0,1
239786,-83.3333333333333,4,2,1,5,0,1
239857,-83.3333333333333,4,2,1,70,0,1
240069,-83.3333333333333,4,2,1,5,0,1
240140,-83.3333333333333,4,2,1,70,0,1
240353,-83.3333333333333,4,2,1,5,0,1
240424,-83.3333333333333,4,2,1,70,0,1
241485,-83.3333333333333,4,2,1,5,0,1
241556,-83.3333333333333,4,2,1,70,0,1
241768,-83.3333333333333,4,2,1,5,0,1
241839,-83.3333333333333,4,2,1,70,0,1
242900,-83.3333333333333,4,2,1,5,0,1
242971,-83.3333333333333,4,2,1,70,0,1
243183,-83.3333333333333,4,2,1,5,0,1
243254,-83.3333333333333,4,2,1,70,0,1
244032,-83.3333333333333,4,2,1,5,0,1
244103,-83.3333333333333,4,2,1,70,0,1
244315,-83.3333333333333,4,2,1,5,0,1
244386,-83.3333333333333,4,2,1,70,0,1
245164,-83.3333333333333,4,2,1,5,0,1
245235,-83.3333333333333,4,2,1,70,0,1
245447,-83.3333333333333,4,2,1,5,0,1
245518,-83.3333333333333,4,2,1,70,0,1
246013,-83.3333333333333,4,2,1,5,0,1
246084,-83.3333333333333,4,2,1,70,0,1
246296,-83.3333333333333,4,2,1,5,0,1
246367,-83.3333333333333,4,2,1,70,0,1
246579,-83.3333333333333,4,2,1,5,0,1
246650,-83.3333333333333,4,2,1,70,0,1
247428,-83.3333333333333,4,2,1,5,0,1
247499,-83.3333333333333,4,2,1,70,0,1
247711,-83.3333333333333,4,2,1,5,0,1
247782,-83.3333333333333,4,2,1,70,0,1
248560,-83.3333333333333,4,2,1,5,0,1
248631,-83.3333333333333,4,2,1,70,0,1
248843,-83.3333333333333,4,2,1,5,0,1
248914,-83.3333333333333,4,2,1,70,0,1
249692,-83.3333333333333,4,2,1,5,0,1
249763,-83.3333333333333,4,2,1,70,0,1
249975,-83.3333333333333,4,2,1,5,0,1
250046,-83.3333333333333,4,2,1,70,0,1
250824,-83.3333333333333,4,2,1,5,0,1
250895,-83.3333333333333,4,2,1,70,0,1
251107,-83.3333333333333,4,2,1,5,0,1
251178,-83.3333333333333,4,2,1,70,0,1
251956,-83.3333333333333,4,2,1,5,0,1
252027,-83.3333333333333,4,2,1,70,0,1
252239,-83.3333333333333,4,2,1,5,0,1
252310,-83.3333333333333,4,2,1,70,0,1
253088,-83.3333333333333,4,2,1,5,0,1
253159,-83.3333333333333,4,2,1,70,0,1
254220,-83.3333333333333,4,2,1,5,0,1
254291,-83.3333333333333,4,2,1,70,0,1
254503,-83.3333333333333,4,2,1,5,0,1
254574,-83.3333333333333,4,2,1,70,0,1
255353,-83.3333333333333,4,2,1,5,0,1
255424,-83.3333333333333,4,2,1,70,0,1
255636,-83.3333333333333,4,2,1,5,0,1
255707,-83.3333333333333,4,2,1,70,0,1
256485,-83.3333333333333,4,2,1,5,0,1
256556,-83.3333333333333,4,2,1,70,0,1
256768,-83.3333333333333,4,2,1,5,0,1
256839,-83.3333333333333,4,2,1,70,0,1
257617,-83.3333333333333,4,2,1,5,0,1
257688,-83.3333333333333,4,2,1,70,0,1
257900,-83.3333333333333,4,2,1,5,0,1
257971,-83.3333333333333,4,2,1,70,0,1
259386,564.440263405456,4,2,1,40,1,0
259386,-83.3333333333333,4,2,1,70,0,1
259597,-83.3333333333333,4,2,1,5,0,1
259668,520.381613183001,4,2,1,70,1,1
259668,-83.3333333333333,4,2,1,70,0,1
259863,-83.3333333333333,4,2,1,5,0,1
259929,604.229607250755,4,2,1,70,1,1
259929,-83.3333333333333,4,2,1,70,0,1
260155,-83.3333333333333,4,2,1,5,0,1
260232,564.440263405456,4,2,1,70,1,1
260232,-83.3333333333333,4,2,1,70,0,1
261008,-83.3333333333333,4,2,1,5,0,1
261078,-83.3333333333333,4,2,1,70,0,1
261290,-83.3333333333333,4,2,1,5,0,1
261360,-83.3333333333333,4,2,1,70,0,1
261643,564.440263405456,4,2,1,70,1,1
261643,-83.3333333333333,4,2,1,70,0,1
262136,-83.3333333333333,4,2,1,5,0,1
262206,-83.3333333333333,4,2,1,70,0,1
262419,-83.3333333333333,4,2,1,5,0,1
262489,-83.3333333333333,4,2,1,70,0,1
263265,-83.3333333333333,4,2,1,5,0,1
263335,-83.3333333333333,4,2,1,70,0,1
263547,-83.3333333333333,4,2,1,5,0,1
263617,-83.3333333333333,4,2,1,70,0,1
264112,-83.3333333333333,4,2,1,5,0,1
264182,-83.3333333333333,4,2,1,70,0,1
264394,-83.3333333333333,4,2,1,5,0,1
264464,-83.3333333333333,4,2,1,70,0,1
264676,-83.3333333333333,4,2,1,5,0,1
264746,-83.3333333333333,4,2,1,70,0,1
265523,-83.3333333333333,4,2,1,5,0,1
265593,-83.3333333333333,4,2,1,70,0,1
265805,-83.3333333333333,4,2,1,5,0,1
265875,-83.3333333333333,4,2,1,70,0,1
266652,-83.3333333333333,4,2,1,5,0,1
266722,-83.3333333333333,4,2,1,70,0,1
266934,-83.3333333333333,4,2,1,5,0,1
267004,-83.3333333333333,4,2,1,70,0,1
267781,-83.3333333333333,4,2,1,5,0,1
267851,-83.3333333333333,4,2,1,70,0,1
268204,-83.3333333333333,4,2,1,5,0,1
268274,-83.3333333333333,4,2,1,70,0,1
268627,-83.3333333333333,4,2,1,5,0,1
268697,-83.3333333333333,4,2,1,70,0,1
268910,-83.3333333333333,4,2,1,5,0,1
268980,-83.3333333333333,4,2,1,70,0,1
269192,-83.3333333333333,4,2,1,5,0,1
269262,-83.3333333333333,4,2,1,70,0,1
270039,-83.3333333333333,4,2,1,5,0,1
270109,-83.3333333333333,4,2,1,70,0,1
270462,-83.3333333333333,4,2,1,5,0,1
270532,-83.3333333333333,4,2,1,70,0,1
270885,-83.3333333333333,4,2,1,5,0,1
270955,-83.3333333333333,4,2,1,70,0,1
271167,-83.3333333333333,4,2,1,5,0,1
271237,-83.3333333333333,4,2,1,70,0,1
271450,-83.3333333333333,4,2,1,5,0,1
271520,-83.3333333333333,4,2,1,70,0,1
272296,-83.3333333333333,4,2,1,5,0,1
272366,-83.3333333333333,4,2,1,70,0,1
272579,-83.3333333333333,4,2,1,5,0,1
272649,-83.3333333333333,4,2,1,70,0,1
273425,-83.3333333333333,4,2,1,5,0,1
273495,-83.3333333333333,4,2,1,70,0,1
273707,-83.3333333333333,4,2,1,5,0,1
273777,-83.3333333333333,4,2,1,70,0,1
274554,-83.3333333333333,4,2,1,5,0,1
274624,-83.3333333333333,4,2,1,70,0,1
275190,566.037735849057,4,2,1,40,1,0
275190,-250,4,2,1,55,0,0
276888,-100,4,2,1,55,0,0
291072,566.037735849057,4,2,1,55,1,0
291072,-100,4,2,72,55,0,0
291142,-100,4,2,1,10,0,0
302359,-100,4,2,1,5,0,0

[Colours]
Combo1 : 181,101,29
Combo2 : 131,105,83
Combo3 : 255,179,71

[HitObjects]
57,88,1320,6,0,B|170:84|95:158|237:138,1,168.75,2|0,0:0|0:0,0:0:0:0:
283,118,2169,2,0,P|308:172|277:247,2,135,2|2|2,0:0|0:0|0:0,0:0:0:0:
122,321,3584,6,0,P|236:311|297:319,1,168.75,2|0,0:0|0:0,0:0:0:0:
357,360,4433,2,0,P|404:318|362:261,2,135,2|2|2,0:0|0:0|0:0,0:0:0:0:
410,142,5848,6,0,B|318:131|366:217|254:199,1,168.75,2|0,0:0|0:0,0:0:0:0:
243,287,6697,2,0,P|187:250|122:235,1,135,2|2,0:0|0:0,0:0:0:0:
101,122,7546,6,0,P|156:101|202:147,1,118.125,2|0,0:0|0:0,0:0:0:0:
200,158,8112,6,0,P|193:242|199:314,2,135,6|0|8,1:2|1:2|0:0,0:0:0:0:
399,334,8961,2,0,P|365:329|323:331,1,67.5,0|8,1:2|0:0,0:0:0:0:
458,280,9244,1,0,1:2:0:0:
458,280,9386,1,8,0:0:0:0:
507,165,9527,6,0,B|472:159|447:186|457:194|433:219|370:206,2,135,0|8|8,1:2|0:0|0:3,0:0:0:0:
507,165,10235,1,4,0:3:0:0:
333,145,10376,6,0,P|266:157|182:156,1,135,0|0,1:2|1:2,0:0:0:0:
46,80,10942,2,0,P|107:56|150:116,1,135,8|0,0:0|1:2,0:0:0:0:
149,100,11367,1,8,0:0:0:0:
129,294,11508,6,0,P|150:302|198:305,1,67.5,0|8,1:2|0:0,0:0:0:0:
210,230,11791,2,0,P|189:222|141:219,1,67.5,0|0,1:2|0:0,0:0:0:0:
330,368,12074,2,0,P|335:303|266:280,1,135,8|0,0:0|1:2,0:0:0:0:
279,276,12499,1,8,0:0:0:0:
223,140,12640,6,0,P|278:173|350:187,2,135,0|0|8,1:2|1:2|0:0,0:0:0:0:
66,245,13489,2,0,P|63:283|76:329,1,67.5,0|8,1:2|0:0,0:0:0:0:
21,187,13772,1,0,1:2:0:0:
21,187,13913,1,8,0:0:0:0:
26,68,14055,6,0,B|71:55|95:83|85:90|115:119|156:104,2,135,0|8|8,1:2|0:0|0:3,0:0:0:0:
26,68,14763,1,4,0:3:0:0:
268,21,14904,6,0,P|336:40|417:41,1,135,6|0,1:2|1:2,0:0:0:0:
194,41,15470,1,8,0:0:0:0:
435,110,15753,6,0,B|392:106|373:131|382:141|358:171|306:162,1,135,0|0,1:2|0:0,0:0:0:0:
351,339,16320,2,0,P|354:286|382:237,1,101.25,0|0,1:2|0:0,0:0:0:0:
399,225,16603,5,8,0:0:0:0:
437,292,16744,1,8,0:3:0:0:
280,230,16886,5,12,0:3:0:0:
318,163,17027,1,4,0:3:0:0:
341,361,17169,6,0,P|282:341|201:343,2,135,6|0|8,1:2|1:2|0:0,0:0:0:0:
140,310,18018,1,0,1:2:0:0:
140,310,18159,1,8,0:0:0:0:
106,177,18301,6,0,P|169:185|177:256,2,135,0|0|8,1:2|1:2|0:0,0:0:0:0:
228,109,19150,1,0,1:2:0:0:
48,109,19433,6,0,B|93:117|115:89|106:81|131:56|175:64,2,135,0|0|8,1:2|1:2|0:0,0:0:0:0:
237,117,20282,2,0,P|243:78|265:40,1,67.5,0|8,1:2|0:0,0:0:0:0:
372,28,20565,5,0,1:2:0:0:
372,28,20706,1,8,0:0:0:0:
447,65,20848,2,0,P|363:73|311:92,1,135,0|8,1:2|0:0,0:0:0:0:
448,201,21414,1,8,0:0:0:0:
501,135,21555,1,8,0:0:0:0:
448,201,21697,6,0,P|428:256|430:318,1,108,6|2,1:2|1:2,0:0:0:0:
308,142,22263,2,0,P|327:192|328:245,1,108,10|0,0:0|0:0,0:0:0:0:
198,357,22829,6,0,P|223:338|268:323,1,54,0|10,1:2|0:0,0:0:0:0:
131,313,23112,1,0,1:2:0:0:
236,146,23395,6,0,B|172:145|200:182|126:178,1,108,10|0,0:0|0:0,0:0:0:0:
14,285,23961,6,0,P|56:243|127:260,1,108,2|2,1:2|1:2,0:0:0:0:
33,77,24527,2,0,P|83:97|142:104,1,108,8|0,0:0|1:2,0:0:0:0:
194,166,24952,6,0,L|199:212,2,27,8|8|0,0:0|0:0|1:2,0:0:0:0:
242,77,25235,1,8,0:0:0:0:
340,100,25376,1,0,1:2:0:0:
257,336,25659,6,0,P|250:284|273:204,1,108,10|0,0:0|1:2,0:0:0:0:
260,229,26084,1,10,0:0:0:0:
478,296,26225,6,0,B|451:292|424:311|435:323|412:341|369:331,1,108,2|0,1:2|1:2,0:0:0:0:
158,263,26791,2,0,P|214:250|260:229,1,108,10|2,0:0|1:2,0:0:0:0:
339,263,27216,6,0,L|317:297,2,27,8|8|2,0:0|0:0|1:2,0:0:0:0:
328,147,27499,1,8,0:0:0:0:
441,123,27640,1,2,1:2:0:0:
245,74,27923,6,0,P|187:84|126:115,1,108,10|2,0:0|1:2,0:0:0:0:
142,104,28348,1,8,0:0:0:0:
21,13,28489,6,0,P|72:13|70:76,2,108,2|0|8,1:2|1:2|0:0,0:0:0:0:
97,145,29338,5,0,1:2:0:0:
27,125,29480,2,0,P|14:121|-8:124,2,27,8|8|0,0:0|0:0|1:2,0:0:0:0:
145,205,29763,5,8,0:0:0:0:
87,256,29904,2,0,P|103:307|102:361,1,108,0|8,1:2|0:0,0:0:0:0:
294,280,30470,5,8,0:3:0:0:
294,280,30612,1,4,0:3:0:0:
214,182,30753,6,0,B|290:173|245:220|339:202,2,108,2|0|8,1:2|1:2|0:0,0:0:0:0:
249,26,31603,5,2,1:2:0:0:
309,131,31744,2,0,P|306:114|310:88,2,27,8|8|0,0:0|0:0|1:2,0:0:0:0:
408,87,32027,1,8,0:0:0:0:
494,155,32169,1,2,1:2:0:0:
356,15,32452,6,0,P|308:26|228:23,1,108,8|2,0:0|1:2,0:0:0:0:
249,26,32876,1,8,0:0:0:0:
69,51,33018,5,2,1:2:0:0:
141,96,33159,1,8,0:0:0:0:
141,96,33230,1,8,0:0:0:0:
141,96,33301,2,0,P|123:147|121:211,1,108,0|8,1:2|0:0,0:0:0:0:
56,370,33867,5,2,1:2:0:0:
117,317,34008,2,0,P|112:299|116:277,2,27,8|8|0,0:0|0:0|1:2,0:0:0:0:
227,368,34291,1,8,0:0:0:0:
309,278,34433,1,2,1:2:0:0:
119,200,34716,6,0,P|165:217|231:217,1,108,8|2,0:0|1:2,0:0:0:0:
223,218,35140,1,8,0:0:0:0:
396,98,35282,6,0,B|333:97|370:142|279:135,2,108,2|0|8,1:2|1:2|0:0,0:0:0:0:
413,335,36131,5,2,1:2:0:0:
495,314,36272,2,0,P|498:297|492:277,2,27,8|8|0,0:0|0:0|1:2,0:0:0:0:
340,225,36555,5,8,0:0:0:0:
423,254,36697,2,0,P|424:197|454:137,1,108,2|8,1:2|0:0,0:0:0:0:
336,31,37263,5,2,1:2:0:0:
336,31,37404,1,8,0:0:0:0:
262,94,37546,6,0,B|327:89|300:138|390:129,2,108,2|0|8,1:2|1:2|0:0,0:0:0:0:
139,161,38395,5,2,1:2:0:0:
183,95,38536,2,0,L|189:47,2,27,8|8|0,0:0|0:0|1:2,0:0:0:0:
57,76,38820,1,8,0:0:0:0:
12,191,38961,2,0,P|27:220|26:268,1,54,0|0,1:2|0:0,0:0:0:0:
1,363,39244,5,8,0:0:0:0:
146,270,39386,1,8,0:0:0:0:
68,312,39527,5,8,0:3:0:0:
86,340,39669,1,4,0:3:0:0:
238,272,39810,6,0,P|294:270|358:292,1,108,6|2,1:2|1:2,0:0:0:0:
343,284,40235,1,0,0:0:0:0:
428,195,40376,2,0,P|418:218|415:251,2,54,10|2|0,0:0|0:0|1:2,0:0:0:0:
503,46,40942,5,0,1:2:0:0:
427,92,41084,1,10,0:0:0:0:
349,42,41225,2,0,P|318:38|283:49,1,54,0|2,1:2|0:0,0:0:0:0:
192,88,41508,2,0,B|259:86|221:133|319:117,1,108,8|0,0:0|1:2,0:0:0:0:
291,120,41933,1,10,0:0:0:0:
135,10,42074,6,0,P|123:45|120:77,1,54,2|0,1:2|0:0,0:0:0:0:
30,50,42357,2,0,P|42:85|45:117,1,54,2|0,1:2|0:0,0:0:0:0:
168,163,42640,2,0,P|115:179|69:220,1,108,8|0,0:0|1:2,0:0:0:0:
62,292,43065,5,8,0:0:0:0:
62,292,43136,1,8,0:0:0:0:
62,292,43206,1,0,1:2:0:0:
163,367,43348,1,8,0:0:0:0:
268,300,43489,2,0,P|278:325|283:351,1,54,0|0,1:2|0:0,0:0:0:0:
419,384,43772,6,0,P|425:355|441:321,1,54,10|0,0:0|0:0,0:0:0:0:
364,272,44055,1,2,1:2:0:0:
364,272,44197,1,8,0:0:0:0:
503,172,44338,6,0,B|478:170|456:182|462:192|436:210|396:197,2,108,2|2|8,1:2|1:2|0:0,0:0:0:0:
311,110,45187,5,2,1:2:0:0:
409,124,45329,2,0,P|419:112|429:85,2,27,8|8|2,0:0|0:0|1:2,0:0:0:0:
319,23,45612,1,8,0:0:0:0:
222,82,45753,2,0,P|211:113|213:157,1,54,2|0,1:2|0:0,0:0:0:0:
141,212,46036,6,0,P|138:185|128:160,1,54,10|0,0:0|0:0,0:0:0:0:
65,113,46320,1,2,1:2:0:0:
65,113,46461,1,8,0:0:0:0:
234,207,46603,6,0,P|212:256|207:321,2,108,2|0|8,1:2|1:2|0:0,0:0:0:0:
54,358,47452,5,0,1:2:0:0:
124,314,47593,1,8,0:0:0:0:
124,314,47664,1,8,0:0:0:0:
124,314,47735,1,0,1:2:0:0:
236,379,47876,1,8,0:0:0:0:
331,286,48018,2,0,P|360:288|400:310,1,54,0|0,1:2|0:0,0:0:0:0:
508,198,48301,6,0,P|482:207|456:209,1,54,8|8,0:0|0:0,0:0:0:0:
376,178,48584,1,8,0:3:0:0:
376,178,48725,1,4,0:3:0:0:
458,384,48867,6,0,P|476:332|431:265,2,108,2|0|8,1:2|1:2|0:0,0:0:0:0:
300,297,49716,1,2,1:2:0:0:
374,249,49857,2,0,P|373:230|367:202,2,27,8|8|0,0:0|0:0|1:2,0:0:0:0:
299,375,50140,1,8,0:0:0:0:
175,302,50282,2,0,P|169:276|146:243,1,54,2|0,1:2|0:0,0:0:0:0:
249,141,50565,6,0,P|235:164|229:190,1,54,8|0,0:0|0:0,0:0:0:0:
151,173,50848,1,2,1:2:0:0:
151,173,50989,1,8,0:0:0:0:
51,354,51131,5,2,1:2:0:0:
112,309,51272,1,8,0:0:0:0:
112,309,51343,1,8,0:0:0:0:
112,309,51414,2,0,P|124:337|120:380,1,54,0|0,1:2|0:0,0:0:0:0:
43,218,51697,6,0,P|49:156|23:102,1,108,8|2,0:0|1:2,0:0:0:0:
88,57,52121,2,0,P|87:41|96:16,2,27,8|8|0,0:0|0:0|1:2,0:0:0:0:
192,114,52404,1,8,0:0:0:0:
281,33,52546,2,0,P|304:42|347:43,1,54,2|0,1:2|0:0,0:0:0:0:
443,128,52829,6,0,P|416:130|390:139,1,54,8|0,0:0|0:0,0:0:0:0:
342,204,53112,1,2,1:2:0:0:
342,204,53253,1,8,0:0:0:0:
333,44,53395,6,0,B|266:43|303:85|219:84,2,108,2|0|8,1:2|1:2|0:0,0:0:0:0:
140,25,54244,5,2,1:2:0:0:
230,11,54386,1,8,0:0:0:0:
230,11,54456,1,8,0:0:0:0:
230,11,54527,1,0,1:2:0:0:
156,110,54669,1,8,0:0:0:0:
41,45,54810,2,0,P|52:68|57:104,1,54,2|0,1:2|0:0,0:0:0:0:
100,248,55093,6,0,P|104:221|116:197,1,54,8|0,0:0|0:0,0:0:0:0:
38,172,55376,1,2,1:2:0:0:
38,172,55518,1,8,0:0:0:0:
3,310,55659,6,0,B|38:293|65:311|55:322|85:340|116:324,2,121.499996292114,6|0|8,1:2|1:2|0:0,0:0:0:0:
192,367,56508,1,2,1:2:0:0:
192,367,56650,1,8,0:0:0:0:
272,273,56791,6,0,P|278:239|273:197,1,60.7499981460572,2|8,1:2|0:0,0:0:0:0:
334,343,57074,1,0,1:2:0:0:
334,343,57216,1,0,1:2:0:0:
495,214,57357,5,8,0:0:0:0:
366,262,57499,1,8,0:0:0:0:
350,146,57640,5,8,0:3:0:0:
428,163,57782,1,4,0:3:0:0:
501,60,57923,6,0,P|463:63|428:80,1,67.5,6|0,1:2|0:0,0:0:0:0:
318,23,58206,2,0,P|286:10|253:8,1,67.5,2|0,1:2|0:0,0:0:0:0:
109,9,58489,6,0,P|124:41|124:102,1,67.5,10|0,0:0|0:0,0:0:0:0:
207,172,58772,2,0,P|211:138|226:108,1,67.5,10|0,0:3|0:0,0:0:0:0:
43,151,59055,6,0,P|75:187|59:264,1,101.25,2|0,1:2|0:0,0:0:0:0:
62,264,59338,6,0,B|139:243|119:307|200:282,1,135,2|8,1:2|0:0,0:0:0:0:
189,285,59763,1,0,0:0:0:0:
350,304,59904,2,0,P|335:341|332:384,1,67.5,2|8,1:2|0:0,0:0:0:0:
263,191,60187,6,0,P|276:222|282:256,1,67.5,2|0,1:2|0:0,0:0:0:0:
434,319,60470,2,0,P|454:288|429:239,1,67.5,2|0,1:2|0:0,0:0:0:0:
376,136,60753,6,0,P|362:166|357:200,1,67.5,10|0,0:0|0:0,0:0:0:0:
312,76,61036,1,2,1:2:0:0:
237,120,61178,1,0,0:0:0:0:
151,23,61320,6,0,P|118:38|67:33,1,67.5,2|0,1:2|0:0,0:0:0:0:
159,124,61603,2,0,P|192:125|222:139,1,67.5,2|0,1:2|0:0,0:0:0:0:
48,212,61886,6,0,P|36:184|68:148,1,67.5,10|0,0:0|0:0,0:0:0:0:
173,229,62169,1,2,1:2:0:0:
100,282,62310,1,8,0:0:0:0:
220,359,62452,6,0,B|304:360|252:303|354:314,2,135,2|0|8,1:2|1:2|0:0,0:0:0:0:
409,368,63301,5,2,1:2:0:0:
409,368,63442,1,0,0:0:0:0:
457,306,63584,2,0,P|460:269|487:232,1,67.5,0|0,1:2|0:0,0:0:0:0:
364,159,63867,2,0,P|380:188|381:221,1,67.5,2|0,1:2|0:0,0:0:0:0:
465,131,64150,6,0,P|459:71|480:18,1,101.25,10|0,0:0|0:0,0:0:0:0:
489,17,64433,1,2,1:2:0:0:
344,73,64574,1,8,0:0:0:0:
207,36,64716,6,0,B|124:24|160:91|60:65,1,135,0|0,1:2|1:2,0:0:0:0:
82,69,65140,1,0,0:0:0:0:
178,174,65282,2,0,P|179:140|191:108,1,67.5,8|0,0:0|0:0,0:0:0:0:
51,196,65565,2,0,P|70:222|81:254,1,67.5,0|0,1:2|0:0,0:0:0:0:
165,363,65848,5,10,1:2:0:0:
219,241,65989,1,8,0:0:0:0:
339,287,66131,5,10,0:0:0:0:
293,146,66272,1,10,0:0:0:0:
248,323,66414,5,8,0:0:0:0:
263,347,66555,1,8,0:0:0:0:
382,362,66697,1,10,0:3:0:0:
432,255,66838,1,6,0:3:0:0:
293,146,66980,6,0,P|247:183|173:183,1,121.499996292114,6|0,1:2|0:0,0:0:0:0:
136,130,67263,2,0,P|74:123|63:187,1,121.499996292114,0|0,1:2|0:0,0:0:0:0:
83,238,67546,2,0,P|75:293|72:340,1,80.9999975280763,8|0,0:0|0:0,0:0:0:0:
23,71,67829,5,0,1:2:0:0:
136,130,67970,1,8,0:0:0:0:
156,128,68041,1,8,0:0:0:0:
172,115,68112,1,2,1:2:0:0:
219,18,68253,5,8,0:0:0:0:
317,94,68395,2,0,P|307:154|319:219,1,121.499996292114,2|0,1:2|0:0,0:0:0:0:
343,280,68678,2,0,P|310:300|282:274,1,80.9999975280763,10|0,0:0|0:0,0:0:0:0:
383,62,68961,2,0,P|430:60|459:100,1,80.9999975280763,2|8,1:2|0:0,0:0:0:0:
414,246,69244,5,2,1:2:0:0:
317,94,69386,1,8,0:0:0:0:
260,154,69527,6,0,B|186:167|221:116|132:124,1,121.499996292114,0|0,1:2|0:0,0:0:0:0:
80,160,69810,2,0,P|35:128|60:63,1,121.499996292114,8|0,0:0|0:0,0:0:0:0:
110,30,70093,5,2,1:2:0:0:
147,199,70235,1,8,0:0:0:0:
142,218,70305,1,8,0:0:0:0:
128,232,70376,1,2,1:2:0:0:
8,155,70518,5,8,0:0:0:0:
72,284,70659,2,0,P|89:318|92:379,1,80.9999975280763,2|0,1:2|0:0,0:0:0:0:
222,250,70942,6,0,P|278:233|337:275,1,121.499996292114,10|0,0:0|0:0,0:0:0:0:
344,333,71225,2,0,P|378:322|400:271,1,80.9999975280763,2|8,1:2|0:0,0:0:0:0:
293,95,71508,6,0,B|368:91|327:134|408:126,1,121.499996292114,2|0,1:2|0:0,0:0:0:0:
461,75,71791,2,0,P|509:122|489:187,1,121.499996292114,2|0,1:2|0:0,0:0:0:0:
444,219,72074,2,0,P|435:277|459:348,1,121.499996292114,8|0,0:0|0:0,0:0:0:0:
395,384,72357,5,2,1:2:0:0:
329,239,72499,1,8,0:0:0:0:
310,229,72570,1,8,0:0:0:0:
290,234,72640,1,0,1:2:0:0:
134,284,72782,5,8,0:0:0:0:
233,384,72923,2,0,P|215:316|230:249,1,121.499996292114,2|0,1:2|0:0,0:0:0:0:
229,193,73206,2,0,P|199:171|166:193,1,80.9999975280763,10|0,0:0|0:0,0:0:0:0:
141,367,73489,2,0,P|101:372|64:357,1,80.9999975280763,2|8,1:2|0:0,0:0:0:0:
0,178,73772,6,0,B|77:184|38:138|110:140,1,121.499996292114,2|0,1:2|0:0,0:0:0:0:
166,192,74055,2,0,P|185:134|151:77,1,121.499996292114,0|0,1:2|0:0,0:0:0:0:
95,44,74338,2,0,P|155:51|217:37,1,121.499996292114,8|0,0:0|0:0,0:0:0:0:
277,3,74621,5,2,1:2:0:0:
269,148,74763,1,8,0:0:0:0:
277,166,74834,1,8,0:0:0:0:
295,174,74904,1,2,1:2:0:0:
464,109,75046,5,8,0:0:0:0:
374,161,75187,2,0,P|363:225|367:285,1,121.499996292114,0|0,1:2|0:0,0:0:0:0:
411,344,75470,2,0,P|359:379|307:355,1,121.499996292114,8|0,0:0|0:0,0:0:0:0:
287,282,75753,5,10,0:0:0:0:
481,331,75895,1,10,0:0:0:0:
236,343,76036,6,0,P|186:344|108:363,1,121.499996292114,2|0,1:2|0:0,0:0:0:0:
54,325,76320,2,0,P|37:293|69:249,1,80.9999975280763,2|2,1:2|0:0,0:0:0:0:
194,193,76603,2,0,P|210:128|192:73,1,121.499996292114,8|0,0:0|0:0,0:0:0:0:
132,39,76886,5,2,1:2:0:0:
79,179,77027,1,10,0:0:0:0:
96,188,77098,1,8,0:0:0:0:
116,188,77169,1,0,1:2:0:0:
249,128,77310,5,8,0:0:0:0:
252,288,77452,2,0,P|265:232|304:182,1,121.499996292114,2|0,1:2|0:0,0:0:0:0:
367,229,77735,2,0,B|440:235|405:187|487:195,1,121.499996292114,10|0,0:0|0:0,0:0:0:0:
512,257,78018,2,0,P|519:300|490:340,1,80.9999975280763,2|8,1:2|0:0,0:0:0:0:
375,155,78301,2,0,P|378:112|389:67,1,80.9999975280763,2|8,1:2|0:0,0:0:0:0:
421,309,78584,6,0,P|396:358|321:322,1,121.499996292114,2|0,1:2|0:0,0:0:0:0:
286,297,78867,2,0,B|204:296|256:336|145:331,1,121.499996292114,10|0,0:0|0:0,0:0:0:0:
104,368,79150,5,2,1:2:0:0:
179,259,79291,1,10,0:0:0:0:
185,239,79362,1,8,0:0:0:0:
179,219,79433,1,0,1:2:0:0:
15,190,79574,5,8,0:0:0:0:
100,87,79716,2,0,P|93:160|116:225,1,121.499996292114,2|0,1:2|0:0,0:0:0:0:
179,219,79999,2,0,B|249:204|234:256|303:235,1,121.499996292114,8|0,0:0|0:0,0:0:0:0:
337,181,80282,2,0,P|316:149|278:173,1,80.9999975280763,2|8,1:2|0:0,0:0:0:0:
290,364,80565,6,0,P|329:371|386:352,1,80.9999975280763,2|0,1:2|0:0,0:0:0:0:
492,221,80848,2,0,P|439:228|372:246,1,121.499996292114,2|0,1:2|0:0,0:0:0:0:
294,237,81131,2,0,P|283:186|345:192,1,121.499996292114,10|0,0:0|0:0,0:0:0:0:
373,245,81414,5,2,1:2:0:0:
478,150,81555,1,10,0:0:0:0:
489,133,81626,1,8,0:0:0:0:
489,111,81697,1,0,1:2:0:0:
315,50,81838,5,8,0:0:0:0:
490,37,81980,2,0,B|421:42|454:80|377:81,1,121.499996292114,2|0,1:2|0:0,0:0:0:0:
315,50,82263,2,0,P|258:36|237:99,1,121.499996292114,10|0,0:0|0:0,0:0:0:0:
281,140,82546,2,0,P|286:191|277:242,1,80.9999975280763,2|8,1:2|0:0,0:0:0:0:
177,19,82829,5,2,1:2:0:0:
133,205,82970,1,8,0:0:0:0:
115,53,83112,6,0,P|201:70|242:89,1,121.499996292114,2|0,1:2|0:0,0:0:0:0:
281,140,83395,2,0,P|263:186|199:173,1,121.499996292114,10|0,0:0|0:0,0:0:0:0:
133,205,83678,2,0,P|139:248|129:307,1,80.9999975280763,2|8,1:2|0:0,0:0:0:0:
50,81,83961,5,10,0:0:0:0:
201,176,84103,1,8,0:0:0:0:
73,335,84244,5,8,0:3:0:0:
63,160,84386,1,4,0:3:0:0:
299,77,84527,5,10,0:0:0:0:
265,245,84669,1,8,0:0:0:0:
246,250,84739,1,8,0:0:0:0:
226,246,84810,1,10,0:0:0:0:
63,160,84952,1,8,0:0:0:0:
166,346,85093,6,0,P|215:324|284:327,1,121.499996292114,6|0,1:2|0:0,0:0:0:0:
342,365,85376,2,0,P|385:325|356:277,1,121.499996292114,0|0,1:2|0:0,0:0:0:0:
293,244,85659,2,0,P|297:197|331:157,1,80.9999975280763,8|0,0:0|0:0,0:0:0:0:
463,58,85942,5,0,1:2:0:0:
420,190,86084,1,8,0:0:0:0:
403,201,86154,1,8,0:0:0:0:
383,202,86225,1,2,1:2:0:0:
326,22,86367,5,8,0:0:0:0:
245,136,86508,2,0,P|208:144|164:141,1,80.9999975280763,2|2,1:2|0:0,0:0:0:0:
14,337,86791,6,0,P|24:277|90:281,1,121.499996292114,8|0,0:0|0:0,0:0:0:0:
146,291,87074,2,0,P|161:235|144:190,1,80.9999975280763,2|8,1:2|0:0,0:0:0:0:
9,47,87357,6,0,B|80:45|45:92|130:82,1,121.499996292114,2|0,1:2|0:0,0:0:0:0:
165,141,87640,2,0,P|209:106|188:54,1,121.499996292114,0|0,1:2|0:0,0:0:0:0:
144,0,87923,2,0,P|208:23|286:22,1,121.499996292114,8|0,0:0|0:0,0:0:0:0:
326,1,88206,5,2,1:2:0:0:
279,150,88348,1,8,0:0:0:0:
291,165,88418,1,8,0:0:0:0:
309,173,88489,1,2,1:2:0:0:
485,117,88631,5,8,0:0:0:0:
398,229,88772,2,0,P|340:238|273:279,1,121.499996292114,2|0,1:2|0:0,0:0:0:0:
295,343,89055,2,0,B|227:356|252:305|165:323,1,121.499996292114,10|0,0:0|0:0,0:0:0:0:
130,376,89338,2,0,P|108:346|110:299,1,80.9999975280763,2|8,1:2|0:0,0:0:0:0:
151,59,89621,6,0,P|171:120|173:192,1,121.499996292114,2|0,1:2|0:0,0:0:0:0:
124,231,89904,2,0,P|92:210|117:167,1,80.9999975280763,2|2,1:2|0:0,0:0:0:0:
244,86,90187,2,0,B|317:83|287:125|371:116,1,121.499996292114,8|0,0:0|0:0,0:0:0:0:
414,69,90470,5,2,1:2:0:0:
255,161,90612,1,10,0:0:0:0:
259,181,90682,1,8,0:0:0:0:
276,194,90753,1,0,1:2:0:0:
460,159,90895,5,8,0:0:0:0:
342,225,91036,2,0,P|332:294|351:359,1,121.499996292114,2|0,1:2|0:0,0:0:0:0:
409,371,91320,2,0,P|464:360|457:294,1,121.499996292114,10|0,0:0|0:0,0:0:0:0:
409,260,91603,5,2,1:2:0:0:
237,373,91744,1,8,0:0:0:0:
342,225,91886,6,0,B|270:226|307:264|219:260,1,121.499996292114,2|0,1:2|0:0,0:0:0:0:
178,317,92169,2,0,P|125:284|133:227,1,121.499996292114,0|0,1:2|0:0,0:0:0:0:
192,194,92452,2,0,P|182:132|165:76,1,121.499996292114,8|0,0:0|0:0,0:0:0:0:
103,41,92735,5,2,1:2:0:0:
30,183,92876,1,8,0:0:0:0:
41,199,92947,1,8,0:0:0:0:
60,205,93018,1,2,1:2:0:0:
221,120,93159,5,8,0:0:0:0:
129,231,93301,2,0,P|127:288|178:317,1,121.499996292114,0|0,1:2|0:0,0:0:0:0:
240,279,93584,2,0,B|307:276|281:324|355:319,1,121.499996292114,8|0,0:0|0:0,0:0:0:0:
413,276,93867,5,10,0:0:0:0:
331,73,94008,1,10,0:0:0:0:
346,247,94150,6,0,P|358:182|388:108,1,121.499996292114,2|0,1:2|0:0,0:0:0:0:
444,103,94433,2,0,P|445:48|389:34,1,121.499996292114,2|0,1:2|0:0,0:0:0:0:
331,73,94716,2,0,B|262:60|289:110|204:90,1,121.499996292114,8|0,0:0|0:0,0:0:0:0:
159,44,94999,5,2,1:2:0:0:
49,152,95140,1,10,0:0:0:0:
50,172,95211,1,8,0:0:0:0:
65,184,95282,1,0,1:2:0:0:
222,168,95423,5,8,0:0:0:0:
38,251,95565,2,0,B|102:279|87:224|165:263,1,121.499996292114,2|0,1:2|0:0,0:0:0:0:
226,239,95848,2,0,P|256:299|222:370,1,121.499996292114,10|0,0:0|0:0,0:0:0:0:
182,384,96131,2,0,P|151:356|179:322,1,80.9999975280763,2|8,1:2|0:0,0:0:0:0:
402,279,96414,6,0,P|441:289|473:325,1,80.9999975280763,2|8,1:2|0:0,0:0:0:0:
460,159,96697,2,0,B|394:160|427:212|338:202,1,121.499996292114,2|0,1:2|0:0,0:0:0:0:
299,266,96980,2,0,P|268:215|283:158,1,121.499996292114,10|0,0:0|0:0,0:0:0:0:
354,127,97263,5,2,1:2:0:0:
197,23,97404,1,10,0:0:0:0:
184,39,97475,1,8,0:0:0:0:
183,59,97546,1,0,1:2:0:0:
134,257,97687,5,8,0:0:0:0:
244,98,97829,2,0,P|181:92|94:103,1,121.499996292114,2|0,1:2|0:0,0:0:0:0:
54,76,98112,2,0,P|8:117|49:185,1,121.499996292114,8|0,0:0|0:0,0:0:0:0:
89,201,98395,5,2,1:2:0:0:
25,362,98536,1,8,0:0:0:0:
134,257,98678,6,0,P|171:255|223:260,1,80.9999975280763,0|8,1:2|0:0,0:0:0:0:
353,117,98961,2,0,P|283:137|303:196,1,121.499996292114,2|0,1:2|0:0,0:0:0:0:
340,224,99244,2,0,P|339:261|330:315,1,80.9999975280763,10|2,0:0|0:0,0:0:0:0:
428,125,99527,5,0,1:2:0:0:
447,296,99669,1,10,0:0:0:0:
433,309,99739,1,8,0:0:0:0:
412,310,99810,1,0,1:2:0:0:
202,168,99952,2,0,P|248:170|311:179,1,80.9999975280763,8|2,0:0|1:2,0:0:0:0:
187,352,100235,5,8,0:0:0:0:
133,207,100376,1,8,0:0:0:0:
188,57,100518,1,8,0:0:0:0:
350,247,100659,2,0,P|310:252|270:253,1,80.9999975280763,10|4,0:3|0:3,0:0:0:0:
49,301,100942,6,0,B|23:338|-24:317|-29:271|-8:232|54:229|102:276|82:288|132:299|177:274,1,270,6|2,1:2|1:2,0:0:0:0:
235,234,102499,5,8,0:0:0:0:
235,234,102570,1,8,0:0:0:0:
235,234,102640,1,10,0:0:0:0:
310,277,102782,1,8,0:3:0:0:
302,367,102923,1,6,0:3:0:0:
302,367,103206,6,0,P|371:350|438:358,2,135,2|0|8,1:2|1:2|0:0,0:0:0:0:
437,217,104055,6,0,P|440:249|450:289,1,67.5,0|0,1:2|0:0,0:0:0:0:
339,198,104338,2,0,P|346:165|350:131,1,67.5,0|0,1:2|0:0,0:0:0:0:
419,88,104621,1,0,1:2:0:0:
257,143,104904,5,8,0:0:0:0:
257,143,105046,1,8,0:0:0:0:
134,53,105187,5,8,0:0:0:0:
134,53,105329,1,8,0:0:0:0:
262,66,105470,6,0,B|218:59|186:95|199:106|171:140|100:122,1,162,6|0,1:2|0:0,0:0:0:0:
52,96,106461,6,0,P|47:75|54:52,2,33.75,8|8|0,0:0|0:0|1:2,0:0:0:0:
30,172,106744,1,8,0:0:0:0:
30,172,106886,1,0,1:2:0:0:
143,243,107027,6,0,P|148:222|141:199,2,33.75,8|8|0,0:0|0:0|1:2,0:0:0:0:
31,366,107310,1,8,0:0:0:0:
81,315,107452,6,2,P|130:313|189:349,1,101.25,10|0,0:0|0:0,0:2:0:0:
187,366,107735,6,0,P|240:369|270:327,1,108,6|2,1:2|1:2,0:0:0:0:
269,328,108159,1,0,0:0:0:0:
428,321,108301,2,0,P|433:364|434:394,1,54,8|2,0:0|0:0,0:0:0:0:
328,270,108584,2,0,P|329:243|333:216,1,54,0|2,1:2|0:0,0:0:0:0:
470,201,108867,5,0,1:2:0:0:
352,145,109008,1,8,0:0:0:0:
378,33,109150,2,0,P|411:32|445:35,1,54,2|0,1:2|0:0,0:0:0:0:
277,164,109433,6,0,B|214:167|249:200|169:204,1,108,10|2,0:0|1:2,0:0:0:0:
179,203,109857,1,10,0:0:0:0:
65,83,109999,6,0,P|35:126|77:194,2,108,2|0|8,1:2|1:2|0:0,0:0:0:0:
108,225,110848,5,0,1:2:0:0:
57,283,110989,1,8,0:0:0:0:
57,283,111060,1,8,0:0:0:0:
57,283,111131,1,0,1:2:0:0:
146,361,111272,1,8,0:0:0:0:
255,310,111414,2,0,P|262:278|261:244,1,54,2|0,1:2|0:0,0:0:0:0:
382,192,111697,6,0,P|383:218|389:245,1,54,10|0,0:0|0:0,0:0:0:0:
455,294,111980,1,2,1:2:0:0:
455,294,112121,1,8,0:0:0:0:
321,144,112263,6,0,P|267:141|215:126,1,108,2|2,1:2|1:2,0:0:0:0:
215,126,112687,1,2,0:0:0:0:
45,30,112829,2,0,P|79:30|113:37,1,54,8|0,0:0|0:0,0:0:0:0:
172,53,113112,5,2,1:2:0:0:
135,142,113253,2,0,P|130:125|129:105,2,27,10|8|0,0:0|0:0|1:2,0:0:0:0:
198,238,113536,1,8,0:0:0:0:
122,337,113678,2,0,P|88:343|41:342,1,54,2|2,1:2|0:0,0:0:0:0:
251,290,113961,6,0,P|277:295|304:296,1,54,8|0,0:0|0:0,0:0:0:0:
364,244,114244,1,2,1:2:0:0:
364,244,114386,1,10,0:0:0:0:
450,369,114527,6,0,P|434:317|444:259,2,108,2|0|8,1:2|1:2|0:0,0:0:0:0:
413,190,115376,5,0,1:2:0:0:
461,123,115518,1,8,0:0:0:0:
461,123,115588,1,8,0:0:0:0:
461,123,115659,1,0,1:2:0:0:
334,181,115801,1,8,0:0:0:0:
267,79,115942,2,0,P|266:51|274:18,1,54,0|0,1:2|0:0,0:0:0:0:
158,108,116225,6,0,P|163:134|162:161,1,54,8|8,0:0|0:0,0:0:0:0:
102,214,116508,1,10,0:3:0:0:
102,214,116650,1,6,0:3:0:0:
16,54,116791,6,0,B|82:72|62:16|158:55,2,108,2|0|8,1:2|1:2|0:0,0:0:0:0:
158,108,117640,5,2,1:2:0:0:
206,48,117782,2,0,P|202:30|203:9,2,27,8|8|0,0:0|0:0|1:2,0:0:0:0:
302,119,118065,1,8,0:0:0:0:
424,45,118206,2,0,P|420:78|430:116,1,54,2|0,1:2|0:0,0:0:0:0:
354,236,118489,6,0,P|357:209|353:182,1,54,8|0,0:0|0:0,0:0:0:0:
306,123,118772,1,2,1:2:0:0:
306,123,118914,1,8,0:0:0:0:
294,280,119055,5,2,1:2:0:0:
362,326,119197,1,8,0:0:0:0:
362,326,119268,1,8,0:0:0:0:
362,326,119338,2,0,P|343:348|305:360,1,54,0|0,1:2|0:0,0:0:0:0:
128,290,119621,6,0,B|194:285|161:329|243:318,1,108,8|2,0:0|1:2,0:0:0:0:
225,246,120046,6,0,P|230:232|231:202,2,27,8|8|0,0:0|0:0|1:2,0:0:0:0:
129,362,120329,1,8,0:0:0:0:
28,289,120470,2,0,P|28:257|19:227,1,54,2|0,1:2|0:0,0:0:0:0:
169,124,120753,6,0,P|163:150|163:177,1,54,8|0,0:0|0:0,0:0:0:0:
235,224,121036,1,2,1:2:0:0:
235,224,121178,1,8,0:0:0:0:
172,47,121320,6,0,B|241:53|213:85|273:81,2,108,2|0|8,1:2|1:2|0:0,0:0:0:0:
344,62,122169,5,2,1:2:0:0:
333,143,122310,1,8,0:0:0:0:
333,143,122381,1,8,0:0:0:0:
333,143,122452,1,0,1:2:0:0:
449,118,122593,1,8,0:0:0:0:
494,235,122735,2,0,P|491:265|501:306,1,54,2|0,1:2|0:0,0:0:0:0:
374,367,123018,6,0,P|377:340|374:313,1,54,8|0,0:0|0:0,0:0:0:0:
323,262,123301,1,2,1:2:0:0:
323,262,123442,1,8,0:0:0:0:
162,343,123584,6,0,B|230:339|196:307|276:302,2,108,6|0|8,1:2|1:2|0:0,0:0:0:0:
31,241,124433,2,0,P|32:268|26:313,1,54,2|8,1:2|0:0,0:0:0:0:
81,356,124716,5,2,1:2:0:0:
162,268,124857,1,8,0:0:0:0:
275,227,124999,5,8,0:0:0:0:
105,177,125140,1,8,0:0:0:0:
248,100,125282,6,0,P|241:135|250:177,1,54,8|8,0:3|0:3,0:0:0:0:
199,40,125565,1,4,0:3:0:0:
199,40,125706,1,4,0:3:0:0:
327,168,125848,6,0,P|356:177|413:183,1,67.5,6|0,1:2|0:0,0:0:0:0:
479,265,126131,2,0,P|445:269|413:279,1,67.5,2|0,1:2|0:0,0:0:0:0:
296,350,126414,6,0,P|301:309|296:260,1,67.5,10|0,0:0|0:0,0:0:0:0:
213,153,126697,2,0,P|208:186|209:220,1,67.5,10|0,0:3|0:0,0:0:0:0:
64,346,126980,6,0,P|60:289|98:272,1,101.25,2|0,1:2|0:0,0:0:0:0:
122,275,127263,6,0,P|127:215|108:122,1,135,2|8,1:2|0:0,0:0:0:0:
114,141,127687,1,8,0:3:0:0:
186,23,127829,5,6,0:3:0:0:
186,23,127970,1,4,0:3:0:0:
62,61,128112,6,0,P|97:61|145:75,1,67.5,2|0,1:2|0:0,0:0:0:0:
282,150,128395,2,0,P|247:150|199:164,1,67.5,2|0,1:2|0:0,0:0:0:0:
379,51,128678,6,0,P|403:83|377:121,1,67.5,10|0,0:0|0:0,0:0:0:0:
362,185,128961,1,10,0:3:0:0:
215,157,129103,1,8,0:0:0:0:
215,157,129173,1,8,0:0:0:0:
215,157,129244,6,0,P|213:192|196:243,1,67.5,2|8,1:2|0:0,0:0:0:0:
321,315,129527,2,0,P|312:282|311:248,1,67.5,2|0,1:2|0:0,0:0:0:0:
450,153,129810,6,0,P|467:188|429:209,1,67.5,8|0,0:0|0:0,0:0:0:0:
362,185,130093,1,10,0:3:0:0:
443,285,130235,1,4,0:3:0:0:
321,315,130376,6,0,B|231:312|278:358|169:351,2,135,2|0|8,1:2|1:2|0:0,0:0:0:0:
130,306,131225,5,2,1:2:0:0:
188,246,131367,2,0,P|200:264|203:297,2,33.75,8|8|0,0:0|0:0|1:2,0:0:0:0:
91,184,131650,1,8,0:0:0:0:
1,260,131791,2,0,P|4:292|-6:346,1,67.5,2|0,1:2|0:0,0:0:0:0:
170,169,132074,6,0,P|165:135|168:102,1,67.5,10|8,0:0|0:0,0:0:0:0:
98,47,132357,1,2,1:2:0:0:
98,47,132499,1,8,0:0:0:0:
246,167,132640,6,0,P|281:175|340:167,1,67.5,6|0,1:2|0:0,0:0:0:0:
423,135,132923,2,0,P|415:170|423:229,1,67.5,8|0,0:0|0:0,0:0:0:0:
455,312,133206,2,0,P|420:304|361:312,1,67.5,8|0,0:0|0:0,0:0:0:0:
278,344,133489,2,0,P|286:309|278:250,1,67.5,8|0,0:0|0:0,0:0:0:0:
199,105,133772,5,10,0:0:0:0:
199,105,134338,5,2,1:2:0:0:
38,36,134621,1,10,0:3:0:0:
38,36,134763,1,6,0:3:0:0:
31,192,134904,6,0,B|104:199|76:146|160:156,1,121.499996292114,6|0,1:2|0:0,0:0:0:0:
215,178,135187,2,0,P|240:237|195:289,1,121.499996292114,0|0,1:2|0:0,0:0:0:0:
144,304,135470,2,0,P|142:333|176:368,1,80.9999975280763,8|0,0:0|0:0,0:0:0:0:
314,192,135753,5,0,1:2:0:0:
261,345,135895,1,8,0:0:0:0:
278,354,135966,1,8,0:0:0:0:
297,356,136036,1,2,1:2:0:0:
444,187,136178,5,8,0:0:0:0:
369,354,136320,2,0,P|383:295|377:228,1,121.499996292114,2|0,1:2|0:0,0:0:0:0:
314,192,136603,2,0,P|336:134|406:171,1,121.499996292114,10|0,0:0|0:0,0:0:0:0:
444,187,136886,5,2,1:2:0:0:
333,20,137027,1,8,0:0:0:0:
454,112,137169,6,0,P|456:69|476:12,1,80.9999975280763,2|8,1:2|0:0,0:0:0:0:
289,81,137452,2,0,B|216:81|259:135|150:125,1,121.499996292114,0|0,1:2|0:0,0:0:0:0:
115,98,137735,2,0,P|76:144|102:195,1,121.499996292114,8|0,0:0|0:0,0:0:0:0:
173,199,138018,5,2,1:2:0:0:
90,328,138159,1,8,0:0:0:0:
101,345,138230,1,8,0:0:0:0:
120,349,138301,1,2,1:2:0:0:
302,205,138442,5,8,0:0:0:0:
221,359,138584,2,0,P|223:289|242:227,1,121.499996292114,2|0,1:2|0:0,0:0:0:0:
302,205,138867,2,0,B|369:203|348:263|431:250,1,121.499996292114,10|0,0:0|0:0,0:0:0:0:
475,216,139150,5,2,1:2:0:0:
396,367,139291,1,8,0:0:0:0:
414,179,139433,6,0,P|412:119|436:37,1,121.499996292114,2|0,1:2|0:0,0:0:0:0:
374,10,139716,2,0,P|339:28|358:73,1,80.9999975280763,2|2,1:2|0:0,0:0:0:0:
475,216,139999,2,0,P|477:276|453:358,1,121.499996292114,8|0,0:0|0:0,0:0:0:0:
396,367,140282,5,2,1:2:0:0:
253,289,140423,1,10,0:0:0:0:
248,269,140494,1,8,0:0:0:0:
257,251,140565,1,0,1:2:0:0:
414,179,140706,5,8,0:0:0:0:
322,322,140848,2,0,P|256:326|173:350,1,121.499996292114,2|0,1:2|0:0,0:0:0:0:
146,384,141131,2,0,P|101:352|119:284,1,121.499996292114,10|0,0:0|0:0,0:0:0:0:
166,249,141414,2,0,P|158:216|90:192,1,80.9999975280763,2|8,1:2|0:0,0:0:0:0:
8,88,141697,5,2,1:2:0:0:
182,136,141838,1,8,0:0:0:0:
5,161,141980,6,0,B|79:160|43:116|131:116,1,121.499996292114,0|0,1:2|0:0,0:0:0:0:
182,136,142263,2,0,P|221:90|184:33,1,121.499996292114,8|0,0:0|0:0,0:0:0:0:
125,41,142546,5,2,1:2:0:0:
309,19,142687,1,8,0:0:0:0:
325,30,142758,1,8,0:0:0:0:
335,49,142829,1,2,1:2:0:0:
255,173,142970,5,8,0:0:0:0:
413,45,143112,2,0,P|394:105|396:175,1,121.499996292114,0|0,1:2|0:0,0:0:0:0:
464,187,143395,2,0,P|476:239|412:261,1,121.499996292114,8|0,0:0|0:0,0:0:0:0:
357,226,143678,5,10,0:0:0:0:
213,362,143820,1,10,0:0:0:0:
355,303,143961,6,0,P|315:288|259:284,1,80.9999975280763,2|0,1:2|0:0,0:0:0:0:
146,339,144244,2,0,P|123:304|149:273,1,80.9999975280763,2|2,1:2|0:0,0:0:0:0:
206,121,144527,6,0,P|214:183|208:270,1,121.499996292114,8|0,0:0|0:0,0:0:0:0:
142,275,144810,5,2,1:2:0:0:
34,137,144952,1,10,0:0:0:0:
26,155,145022,1,8,0:0:0:0:
29,174,145093,1,0,1:2:0:0:
206,121,145235,5,8,0:0:0:0:
34,62,145376,2,0,P|98:69|176:61,1,121.499996292114,2|0,1:2|0:0,0:0:0:0:
203,13,145659,2,0,P|257:16|257:79,1,121.499996292114,10|0,0:0|0:0,0:0:0:0:
206,121,145942,2,0,P|205:162|227:205,1,80.9999975280763,2|8,1:2|0:0,0:0:0:0:
390,84,146225,6,0,P|369:39|326:70,1,80.9999975280763,2|0,1:2|0:0,0:0:0:0:
213,270,146508,2,0,B|287:272|259:227|325:231,1,121.499996292114,2|0,1:2|0:0,0:0:0:0:
390,254,146791,2,0,P|418:302|372:360,1,121.499996292114,10|0,0:0|0:0,0:0:0:0:
318,342,147074,5,2,1:2:0:0:
487,272,147216,1,10,0:0:0:0:
494,253,147287,1,8,0:0:0:0:
490,233,147357,1,0,1:2:0:0:
323,230,147499,5,8,0:0:0:0:
457,166,147640,2,0,P|458:91|474:38,1,121.499996292114,2|0,1:2|0:0,0:0:0:0:
410,11,147923,2,0,B|338:10|370:55|292:50,1,121.499996292114,8|0,0:0|0:0,0:0:0:0:
231,88,148206,2,0,P|220:51|239:3,1,80.9999975280763,2|8,1:2|0:0,0:0:0:0:
52,110,148489,6,0,P|63:145|56:223,1,80.9999975280763,2|8,1:2|0:0,0:0:0:0:
287,150,148772,2,0,B|215:149|252:191|155:186,1,121.499996292114,2|0,1:2|0:0,0:0:0:0:
121,234,149055,2,0,P|111:281|185:297,1,121.499996292114,10|0,0:0|0:0,0:0:0:0:
234,278,149338,5,2,1:2:0:0:
359,172,149480,1,8,0:0:0:0:
366,153,149551,1,8,0:0:0:0:
360,133,149621,1,2,1:2:0:0:
185,113,149763,5,8,0:0:0:0:
305,219,149904,2,0,P|283:286|289:342,1,121.499996292114,2|0,1:2|0:0,0:0:0:0:
337,384,150187,2,0,B|412:382|371:335|461:342,1,121.499996292114,10|0,0:0|0:0,0:0:0:0:
507,303,150470,2,0,P|496:272|448:276,1,80.9999975280763,2|8,1:2|0:0,0:0:0:0:
287,335,150753,5,2,1:2:0:0:
100,246,150895,1,8,0:0:0:0:
232,379,151036,6,0,P|180:364|96:365,1,121.499996292114,2|0,1:2|0:0,0:0:0:0:
54,317,151320,2,0,P|42:271|120:264,1,121.499996292114,10|0,0:0|0:0,0:0:0:0:
161,286,151603,5,2,1:2:0:0:
100,96,151744,1,8,0:0:0:0:
273,113,151886,5,2,1:2:0:0:
100,246,152027,1,8,0:0:0:0:
299,182,152169,6,0,P|343:182|386:195,1,80.9999975280763,8|8,0:0|0:3,0:0:0:0:
213,65,152452,2,0,B|149:57|161:108|85:94,1,121.499996292114,10|0,0:3|0:0,0:0:0:0:
29,61,152735,5,6,0:3:0:0:
100,246,152876,1,4,0:3:0:0:
273,113,153018,6,0,P|336:99|413:100,1,121.499996292114,6|0,1:2|0:0,0:0:0:0:
463,71,153301,2,0,P|498:119|458:179,1,121.499996292114,0|0,1:2|0:0,0:0:0:0:
404,189,153584,2,0,P|391:247|396:295,1,80.9999975280763,8|0,0:0|0:0,0:0:0:0:
287,33,153867,5,0,1:2:0:0:
321,230,154008,1,8,0:0:0:0:
307,245,154079,1,8,0:0:0:0:
286,248,154150,1,2,1:2:0:0:
175,181,154291,5,8,0:0:0:0:
300,324,154433,2,0,B|223:326|253:292|182:294,1,121.499996292114,2|0,1:2|0:0,0:0:0:0:
139,353,154716,2,0,P|136:295|102:208,1,121.499996292114,8|0,0:0|0:0,0:0:0:0:
50,211,154999,2,0,P|23:242|46:267,1,80.9999975280763,2|8,1:2|0:0,0:0:0:0:
175,181,155282,5,2,1:2:0:0:
18,100,155423,1,8,0:0:0:0:
182,107,155565,6,0,B|255:106|216:158|310:149,1,121.499996292114,0|0,1:2|0:0,0:0:0:0:
360,109,155848,2,0,P|398:155|352:206,1,121.499996292114,8|0,0:0|0:0,0:0:0:0:
300,222,156131,5,2,1:2:0:0:
292,72,156272,1,8,0:0:0:0:
305,56,156343,1,8,0:0:0:0:
323,46,156414,1,2,1:2:0:0:
481,150,156555,5,8,0:0:0:0:
381,0,156697,2,0,P|321:12|242:-1,1,121.499996292114,2|0,1:2|0:0,0:0:0:0:
193,37,156980,2,0,P|169:95|205:154,1,121.499996292114,10|0,0:0|0:0,0:0:0:0:
268,154,157263,5,2,1:2:0:0:
116,233,157404,1,8,0:0:0:0:
300,222,157546,6,0,P|237:235|173:266,1,121.499996292114,2|0,1:2|0:0,0:0:0:0:
116,233,157829,2,0,P|100:282|132:307,1,80.9999975280763,2|2,1:2|0:0,0:0:0:0:
327,288,158112,2,0,B|398:283|372:335|442:328,1,121.499996292114,8|0,0:0|0:0,0:0:0:0:
494,282,158395,5,2,1:2:0:0:
300,222,158536,1,10,0:0:0:0:
298,200,158607,1,8,0:0:0:0:
311,185,158678,1,0,1:2:0:0:
484,175,158820,5,8,0:0:0:0:
336,111,158961,2,0,B|268:98|283:143|216:118,1,121.499996292114,2|0,1:2|0:0,0:0:0:0:
156,82,159244,2,0,P|119:125|140:191,1,121.499996292114,10|0,0:0|0:0,0:0:0:0:
206,192,159527,5,2,1:2:0:0:
80,37,159669,1,8,0:0:0:0:
161,252,159810,6,0,P|154:303|133:354,1,80.9999975280763,2|8,1:2|0:0,0:0:0:0:
317,183,160093,2,0,B|386:179|365:233|428:227,1,121.499996292114,0|0,1:2|0:0,0:0:0:0:
492,199,160376,2,0,P|517:253|479:326,1,121.499996292114,8|0,0:0|0:0,0:0:0:0:
438,346,160659,5,2,1:2:0:0:
258,276,160801,1,8,0:0:0:0:
255,256,160871,1,8,0:0:0:0:
263,237,160942,1,2,1:2:0:0:
430,153,161084,5,8,0:0:0:0:
292,68,161225,2,0,P|317:118|308:205,1,121.499996292114,0|0,1:2|0:0,0:0:0:0:
263,237,161508,5,8,0:0:0:0:
74,192,161650,1,8,0:0:0:0:
225,95,161791,5,10,0:3:0:0:
189,311,161933,1,6,0:3:0:0:
28,136,162074,6,0,P|27:98|54:65,1,80.9999975280763,6|8,1:2|0:0,0:0:0:0:
126,264,162357,2,0,P|83:267|35:280,1,80.9999975280763,2|2,1:2|0:0,0:0:0:0:
242,362,162640,2,0,B|312:371|291:315|366:323,1,121.499996292114,8|0,0:0|0:0,0:0:0:0:
415,366,162923,5,2,1:2:0:0:
491,249,163065,1,10,0:0:0:0:
497,229,163136,1,8,0:0:0:0:
491,212,163206,1,0,1:2:0:0:
311,256,163348,5,8,0:0:0:0:
426,171,163489,2,0,P|417:108|445:52,1,121.499996292114,2|0,1:2|0:0,0:0:0:0:
383,13,163772,2,0,B|315:12|343:57|260:52,1,121.499996292114,10|0,0:0|0:0,0:0:0:0:
209,92,164055,2,0,P|184:68|207:27,1,80.9999975280763,2|8,1:2|0:0,0:0:0:0:
317,175,164338,6,0,P|310:208|312:263,1,80.9999975280763,2|8,1:2|0:0,0:0:0:0:
201,29,164621,2,0,B|140:31|160:86|88:80,1,121.499996292114,2|0,1:2|0:0,0:0:0:0:
26,59,164904,2,0,P|0:112|33:171,1,121.499996292114,10|0,0:0|0:0,0:0:0:0:
98,154,165187,5,2,1:2:0:0:
186,279,165329,1,10,0:0:0:0:
172,294,165400,1,8,0:0:0:0:
153,301,165470,1,0,1:2:0:0:
0,237,165612,5,10,0:0:0:0:
103,357,165753,2,0,P|155:343|234:351,1,121.499996292114,2|0,1:2|0:0,0:0:0:0:
288,384,166036,2,0,P|333:349|303:289,1,121.499996292114,8|0,0:0|0:0,0:0:0:0:
245,273,166320,2,0,P|253:218|285:186,1,80.9999975280763,2|8,1:2|0:0,0:0:0:0:
485,126,166603,5,0,1:2:0:0:
276,106,166744,1,8,0:0:0:0:
447,185,166886,6,0,B|373:186|417:229|327:227,1,121.499996292114,2|0,1:2|0:0,0:0:0:0:
267,198,167169,2,0,P|238:156|284:106,1,121.499996292114,10|0,0:0|0:0,0:0:0:0:
347,119,167452,5,0,1:2:0:0:
216,47,167593,1,10,0:0:0:0:
210,27,167664,1,8,0:0:0:0:
216,7,167735,1,0,1:2:0:0:
267,198,167876,5,8,0:0:0:0:
159,94,168018,2,0,P|91:105|33:99,1,121.499996292114,2|0,1:2|0:0,0:0:0:0:
0,163,168301,2,0,P|-21:211|36:241,1,121.499996292114,8|0,0:0|0:0,0:0:0:0:
92,208,168584,5,2,1:2:0:0:
239,367,168725,1,8,0:0:0:0:
0,316,168867,6,0,B|37:337|87:326|67:314|115:267|177:270|198:309|193:355|146:376|120:339,1,270,6|2,1:2|1:2,0:0:0:0:
247,375,170423,1,8,0:0:0:0:
247,375,170494,1,8,0:0:0:0:
247,375,170565,5,10,0:0:0:0:
294,279,170706,1,8,0:0:0:0:
386,331,170848,5,10,0:0:0:0:
319,193,170989,1,8,0:0:0:0:
455,127,171131,6,0,B|380:143|410:81|325:90,2,135,6|0|8,1:2|1:2|0:0,0:0:0:0:
273,41,171980,5,8,0:3:0:0:
273,41,172121,1,4,0:3:0:0:
200,71,172263,6,0,P|184:105|190:151,1,67.5,2|0,1:2|0:0,0:0:0:0:
88,87,172546,2,0,P|87:53|72:23,1,67.5,0|0,1:2|0:0,0:0:0:0:
0,235,172829,6,0,P|62:199|143:192,1,135,10|8,0:0|0:3,0:0:0:0:
123,190,173253,1,4,0:3:0:0:
294,279,173395,6,0,B|211:278|255:331|144:320,2,135,2|0|8,1:2|1:2|0:0,0:0:0:0:
475,367,174244,5,8,0:3:0:0:
475,367,174386,1,4,0:3:0:0:
377,361,174527,6,0,P|377:325|346:274,1,67.5,0|0,1:2|0:0,0:0:0:0:
466,217,174810,2,0,P|453:248|454:281,1,67.5,2|0,1:2|0:0,0:0:0:0:
284,171,175093,6,0,P|342:145|388:206,1,135,10|10,0:0|0:3,0:0:0:0:
387,189,175518,1,4,0:3:0:0:
475,45,175659,6,0,P|421:62|316:66,2,135,0|2|10,1:2|1:2|0:0,0:0:0:0:
281,21,176508,5,10,0:3:0:0:
281,21,176649,1,2,0:3:0:0:
215,92,176791,6,0,P|167:93|114:78,1,67.5,0|0,1:2|0:0,0:0:0:0:
41,191,177074,2,0,P|74:186|108:188,1,67.5,2|0,1:2|0:0,0:0:0:0:
164,340,177357,6,0,P|181:274|217:208,1,135,8|10,0:0|0:3,0:0:0:0:
211,215,177782,1,4,0:3:0:0:
293,88,177923,6,0,P|294:122|314:169,1,67.5,2|0,1:2|0:0,0:0:0:0:
383,272,178206,2,0,P|384:238|404:191,1,67.5,2|0,1:2|0:0,0:0:0:0:
494,100,178489,6,0,P|474:75|443:105,1,67.5,10|0,0:0|0:0,0:0:0:0:
458,163,178772,1,10,0:3:0:0:
458,163,178914,1,4,0:3:0:0:
308,280,179055,6,0,B|390:278|354:333|441:327,1,135,6|0,1:2|1:2,0:0:0:0:
428,327,179480,1,4,0:3:0:0:
263,350,179621,6,0,P|192:337|102:340,1,135,10|0,0:0|1:2,0:0:0:0:
129,336,180046,1,8,0:0:0:0:
48,198,180187,6,0,P|-5:251|29:316,2,135,6|0|8,1:2|1:2|0:0,0:0:0:0:
62,371,181036,5,10,0:3:0:0:
62,371,181178,1,4,0:3:0:0:
112,244,181320,6,0,P|177:232|257:229,1,135,0|2,1:2|1:2,0:0:0:0:
392,74,181886,2,0,P|327:86|247:89,1,135,8|10,0:0|0:3,0:0:0:0:
258,89,182310,1,4,0:3:0:0:
65,76,182452,6,0,B|136:72|114:134|197:125,2,135,0|2|8,1:2|1:2|0:0,0:0:0:0:
216,27,183301,5,10,0:3:0:0:
216,27,183442,1,4,0:3:0:0:
258,89,183584,6,0,P|295:95|339:94,1,67.5,0|0,1:2|0:0,0:0:0:0:
401,183,183867,2,0,P|367:183|334:189,1,67.5,2|0,1:2|0:0,0:0:0:0:
480,19,184150,6,0,P|423:68|451:125,1,135,10|10,0:0|0:3,0:0:0:0:
439,116,184574,1,4,0:3:0:0:
499,248,184716,6,0,B|427:239|456:293|371:285,2,135,0|0|8,1:2|1:2|0:0,0:0:0:0:
318,346,185565,5,10,0:3:0:0:
318,346,185706,1,4,0:3:0:0:
234,288,185848,6,0,P|235:255|250:225,1,67.5,2|0,1:2|0:0,0:0:0:0:
111,157,186131,2,0,P|126:186|126:220,1,67.5,2|0,1:2|0:0,0:0:0:0:
23,346,186414,6,0,P|96:312|170:301,1,135,10|8,0:0|0:3,0:0:0:0:
149,302,186838,1,4,0:3:0:0:
18,208,186980,6,0,P|41:155|120:167,2,135,2|0|10,1:2|1:2|0:0,0:0:0:0:
149,302,187829,5,2,1:2:0:0:
196,157,188112,5,0,1:2:0:0:
184,127,188254,1,8,0:0:0:0:
290,138,188395,5,10,0:0:0:0:
260,208,188536,1,8,0:0:0:0:
358,298,188678,5,2,1:2:0:0:
345,203,188820,1,8,0:0:0:0:
489,122,188961,5,10,0:0:0:0:
438,240,189103,1,8,0:0:0:0:
361,81,189244,6,0,P|318:56|252:72,1,101.25,6|0,1:2|0:0,0:0:0:0:
260,83,189527,2,0,P|217:108|151:92,1,101.25,0|0,1:2|0:0,0:0:0:0:
152,88,189810,2,0,P|150:53|159:19,1,67.5,8|0,0:0|0:0,0:0:0:0:
33,71,190093,5,0,1:2:0:0:
89,140,190235,1,8,0:0:0:0:
89,140,190305,1,8,0:0:0:0:
89,140,190376,1,0,1:2:0:0:
26,273,190518,5,8,0:0:0:0:
88,322,190659,2,0,B|151:311|129:356|197:346,1,101.25,0|0,1:2|0:0,0:0:0:0:
200,341,190942,2,0,P|239:303|205:256,1,101.25,8|0,0:0|0:0,0:0:0:0:
209,253,191225,2,0,P|216:207|237:178,1,67.5,0|8,1:2|0:0,0:0:0:0:
425,73,191508,6,0,P|439:103|442:136,1,67.5,0|8,1:2|0:0,0:0:0:0:
386,268,191791,2,0,P|380:217|367:161,1,101.25,0|0,1:2|0:0,0:0:0:0:
360,150,192074,2,0,P|332:132|316:169,1,67.5,8|0,0:0|0:0,0:0:0:0:
316,297,192357,5,0,1:2:0:0:
365,365,192499,1,8,0:0:0:0:
365,365,192570,1,8,0:0:0:0:
365,365,192640,1,0,1:2:0:0:
239,239,192782,5,8,0:0:0:0:
193,299,192923,2,0,B|131:302|165:334|79:337,1,101.25,0|0,1:2|0:0,0:0:0:0:
80,323,193206,2,0,P|95:268|89:215,1,101.25,8|0,0:0|0:0,0:0:0:0:
80,209,193489,2,0,P|53:197|2:197,1,67.5,0|8,1:2|0:0,0:0:0:0:
5,65,193772,6,0,B|68:65|40:105|117:101,1,101.25,0|0,1:2|0:0,0:0:0:0:
113,104,194055,2,0,P|120:50|175:41,1,101.25,0|0,1:2|0:0,0:0:0:0:
172,47,194338,2,0,P|201:53|246:53,1,67.5,8|0,0:0|0:0,0:0:0:0:
371,21,194621,5,0,1:2:0:0:
320,94,194763,1,8,0:0:0:0:
320,94,194834,1,8,0:0:0:0:
320,94,194905,1,0,1:2:0:0:
429,200,195046,5,8,0:0:0:0:
424,128,195187,2,0,B|364:134|392:166|310:171,1,101.25,0|0,1:2|0:0,0:0:0:0:
315,175,195470,2,0,P|296:223|332:267,1,101.25,8|0,0:0|0:0,0:0:0:0:
337,268,195753,2,0,P|342:305|335:358,1,67.5,0|8,1:2|0:0,0:0:0:0:
452,277,196036,6,0,P|450:243|455:210,1,67.5,0|8,1:2|0:0,0:0:0:0:
498,82,196320,2,0,P|460:102|387:104,1,101.25,0|0,1:2|0:0,0:0:0:0:
378,107,196603,2,0,P|365:75|391:30,1,67.5,8|0,0:0|0:0,0:0:0:0:
267,115,196886,5,0,1:2:0:0:
207,72,197027,1,8,0:0:0:0:
207,72,197098,1,8,0:0:0:0:
207,72,197169,1,0,1:2:0:0:
106,183,197310,5,8,0:0:0:0:
137,114,197452,2,0,B|77:119|110:153|33:151,1,101.25,0|0,1:2|0:0,0:0:0:0:
28,159,197735,2,0,P|10:208|41:256,1,101.25,8|0,0:0|0:0,0:0:0:0:
49,265,198018,5,8,0:0:0:0:
184,197,198159,1,8,0:0:0:0:
106,310,198301,6,0,P|114:341|107:382,1,67.5,6|8,1:2|0:0,0:0:0:0:
226,256,198584,2,0,B|286:256|267:288|326:285,1,101.25,0|0,1:2|0:0,0:0:0:0:
338,282,198867,2,0,P|335:327|352:369,1,67.5,8|0,0:0|0:0,0:0:0:0:
466,192,199150,5,0,1:2:0:0:
466,192,199291,2,0,P|485:200|494:208,2,33.75,8|8|0,0:0|0:0|1:2,0:0:0:0:
414,252,199574,1,8,0:0:0:0:
375,121,199716,5,0,1:2:0:0:
375,121,199857,2,0,P|356:129|347:137,2,33.75,8|8|8,0:0|0:0|0:0,0:0:0:0:
275,57,200140,5,8,0:3:0:0:
212,101,200282,1,4,0:3:0:0:
144,59,200423,1,4,0:3:0:0:
48,74,200565,6,0,P|73:117|78:151,1,67.5,0|8,1:2|0:0,0:0:0:0:
22,255,200848,2,0,B|83:256|56:212|135:219,1,101.25,0|0,1:2|0:0,0:0:0:0:
141,230,201131,2,0,P|155:260|141:305,1,67.5,14|0,0:0|0:0,0:0:0:0:
255,360,201414,5,0,1:2:0:0:
306,288,201555,1,8,0:0:0:0:
306,288,201626,1,8,0:0:0:0:
306,288,201697,1,0,1:2:0:0:
213,185,201838,5,8,0:0:0:0:
151,129,201980,2,0,B|214:129|185:162|270:157,1,101.25,0|0,1:2|0:0,0:0:0:0:
264,148,202263,2,0,P|287:97|254:47,1,101.25,8|0,0:0|0:0,0:0:0:0:
246,39,202546,2,0,P|213:43|148:44,1,67.5,8|0,0:0|1:2,0:0:0:0:
375,113,202829,6,0,P|408:114|442:118,1,67.5,0|8,1:2|0:0,0:0:0:0:
494,257,203112,2,0,P|444:252|426:301,1,101.25,0|0,1:2|0:0,0:0:0:0:
429,312,203395,2,0,B|370:311|400:342|326:345,1,101.25,8|0,0:0|0:0,0:0:0:0:
310,337,203678,2,0,P|311:299|325:257,1,67.5,0|8,1:2|0:0,0:0:0:0:
194,156,203961,6,0,P|202:188|202:222,1,67.5,2|8,1:2|0:0,0:0:0:0:
116,343,204244,2,0,P|89:321|107:304,1,67.5,2|2,1:2|0:0,0:0:0:0:
235,304,204527,5,8,0:0:0:0:
286,206,204669,1,8,0:0:0:0:
194,156,204810,5,10,0:3:0:0:
184,131,204952,1,6,0:3:0:0:
310,43,205134,6,0,B|286:93|331:142|331:142|395:114|391:50,1,216,2|2,0:0|0:0,0:0:0:0:
479,117,206513,5,2,0:0:0:0:
433,211,206811,1,2,0:0:0:0:
492,305,207086,1,2,0:0:0:0:
368,258,207361,6,0,B|281:253|321:315|213:313,1,162,2|2,0:0|0:0,0:0:0:0:
92,270,208452,1,2,0:0:0:0:
174,189,208755,2,0,P|171:226|174:256,2,54,2|2|2,0:0|0:0|0:0,0:0:0:0:
271,128,209448,6,0,L|302:134,2,27,2|2|2,0:0|0:0|0:0,0:0:0:0:
191,49,209894,6,0,P|148:63|97:65,1,94.5,2|0,0:0|0:0,0:0:0:0:
103,69,210429,2,0,P|60:107|78:157,1,108,2|2,0:0|0:0,0:0:0:0:
193,181,211254,1,2,0:0:0:0:
168,298,211554,5,2,0:0:0:0:
242,342,211695,1,2,0:0:0:0:
242,342,211766,1,2,0:0:0:0:
242,342,211837,2,0,P|305:294|387:275,1,162,2|2,0:0|0:0,0:0:0:0:
485,146,212980,6,0,B|408:139|427:212|337:198,1,161.999995056153,2|0,0:0|0:0,0:0:0:0:
240,97,213769,5,2,0:0:0:0:
240,97,213935,1,2,0:0:0:0:
182,187,214103,6,0,P|117:180|63:185,2,108,6|2|0,1:2|1:2|1:2,0:0:0:0:
100,307,214952,1,2,1:2:0:0:
100,307,215093,1,2,0:0:0:0:
237,329,215235,6,0,P|267:278|217:223,2,108,0|2|2,1:2|1:2|1:2,0:0:0:0:
335,195,216084,1,2,1:2:0:0:
335,195,216225,1,0,0:0:0:0:
404,332,216367,6,0,P|415:260|446:212,1,108,2|2,1:2|1:2,0:0:0:0:
308,92,216933,2,0,P|330:140|335:194,1,108,2|2,1:2|1:2,0:0:0:0:
505,97,217499,6,0,B|436:96|483:142|390:141,1,108,0|2,1:2|1:2,0:0:0:0:
241,173,218065,2,0,P|236:208|240:249,1,54,0|0,1:2|0:0,0:0:0:0:
292,297,218348,1,2,1:2:0:0:
292,297,218489,1,2,0:0:0:0:
145,209,218631,6,0,P|108:218|62:219,1,67.5,2|0,1:2|0:0,0:0:0:0:
3,314,218914,2,0,P|36:316|69:324,1,67.5,2|0,1:2|0:0,0:0:0:0:
200,349,219197,6,0,P|206:267|242:221,1,135,10|2,0:0|1:2,0:0:0:0:
235,226,219621,1,2,0:0:0:0:
189,86,219763,6,0,P|199:117|196:168,1,67.5,0|0,1:2|0:0,0:0:0:0:
294,103,220046,2,0,P|294:69|304:37,1,67.5,2|0,1:2|0:0,0:0:0:0:
99,22,220329,2,0,P|79:46|117:65,1,67.5,10|0,0:0|0:0,0:0:0:0:
182,7,220612,1,2,1:2:0:0:
182,7,220753,1,0,0:0:0:0:
0,84,220895,6,0,P|75:94|149:139,1,162,2|2,1:2|0:0,0:0:0:0:
147,138,221886,1,0,0:0:0:0:
263,115,222027,6,0,P|235:156|227:217,1,108,2|0,0:0|1:2,0:0:0:0:
226,212,222452,1,0,0:0:0:0:
119,286,222593,6,0,B|199:282|169:332|261:326,1,135,10|0,0:0|1:2,0:0:0:0:
243,326,223018,1,0,1:2:0:0:
413,300,223159,6,0,P|391:252|437:190,1,121.499996292114,6|0,1:2|0:0,0:0:0:0:
497,204,223442,2,0,P|515:142|486:88,1,121.499996292114,0|0,1:2|0:0,0:0:0:0:
422,67,223725,2,0,P|379:76|328:80,1,80.9999975280763,8|0,0:0|0:0,0:0:0:0:
201,25,224008,5,0,1:2:0:0:
299,145,224150,1,8,0:0:0:0:
304,164,224220,1,8,0:0:0:0:
297,183,224291,1,2,1:2:0:0:
150,79,224433,5,8,0:0:0:0:
225,202,224574,2,0,B|155:199|193:249|100:242,1,121.499996292114,2|0,1:2|0:0,0:0:0:0:
48,272,224857,2,0,P|9:232|43:158,1,121.499996292114,8|0,0:0|0:0,0:0:0:0:
91,150,225140,2,0,P|78:104|45:43,1,80.9999975280763,2|8,1:2|0:0,0:0:0:0:
223,274,225423,6,0,P|276:277|335:288,1,80.9999975280763,2|8,1:2|0:0,0:0:0:0:
507,358,225706,2,0,P|528:308|479:271,1,121.499996292114,0|0,1:2|0:0,0:0:0:0:
417,304,225989,2,0,B|347:310|375:359|298:358,1,121.499996292114,8|0,0:0|0:0,0:0:0:0:
239,347,226272,5,2,1:2:0:0:
266,161,226414,1,8,0:0:0:0:
259,141,226485,1,8,0:0:0:0:
242,130,226555,1,2,1:2:0:0:
307,280,226697,5,8,0:0:0:0:
181,171,226838,2,0,B|123:172|140:221|68:220,1,121.499996292114,2|0,1:2|0:0,0:0:0:0:
4,196,227121,2,0,P|-8:140|40:93,1,121.499996292114,10|0,0:0|0:0,0:0:0:0:
83,43,227404,2,0,P|122:49|171:51,1,80.9999975280763,2|8,1:2|0:0,0:0:0:0:
332,22,227687,6,0,P|303:82|293:152,1,121.499996292114,2|0,1:2|0:0,0:0:0:0:
352,192,227970,2,0,P|381:179|357:138,1,80.9999975280763,2|2,1:2|0:0,0:0:0:0:
237,277,228253,2,0,B|308:274|280:324|379:310,1,121.499996292114,8|0,0:0|0:0,0:0:0:0:
409,270,228536,5,2,1:2:0:0:
241,348,228678,1,10,0:0:0:0:
221,354,228749,1,8,0:0:0:0:
210,370,228819,1,0,1:2:0:0:
216,176,228961,5,8,0:0:0:0:
45,301,229103,2,0,P|120:291|171:301,1,121.499996292114,2|0,1:2|0:0,0:0:0:0:
237,277,229386,2,0,P|252:213|202:173,1,121.499996292114,10|0,0:0|0:0,0:0:0:0:
145,177,229669,2,0,P|130:137|157:127,1,80.9999975280763,2|8,1:2|0:0,0:0:0:0:
363,179,229952,6,0,P|371:223|371:268,1,80.9999975280763,2|0,1:2|0:0,0:0:0:0:
486,126,230235,2,0,P|457:72|387:76,1,121.499996292114,0|0,1:2|0:0,0:0:0:0:
340,106,230518,2,0,B|274:104|298:153|221:139,1,121.499996292114,8|0,0:0|0:0,0:0:0:0:
165,95,230801,5,2,1:2:0:0:
108,242,230942,1,8,0:0:0:0:
89,249,231013,1,8,0:0:0:0:
68,245,231084,1,2,1:2:0:0:
11,113,231225,5,8,0:0:0:0:
161,181,231367,2,0,P|149:236|168:312,1,121.499996292114,0|0,1:2|0:0,0:0:0:0:
217,349,231650,2,0,P|282:322|250:262,1,121.499996292114,8|0,0:0|0:0,0:0:0:0:
222,233,231933,5,10,0:0:0:0:
384,356,232074,1,10,0:0:0:0:
291,208,232216,6,0,B|363:216|333:163|417:172,1,121.499996292114,2|0,1:2|0:0,0:0:0:0:
470,196,232499,2,0,P|499:139|451:90,1,121.499996292114,2|0,1:2|0:0,0:0:0:0:
400,71,232782,2,0,P|343:86|254:91,1,121.499996292114,8|0,0:0|0:0,0:0:0:0:
224,46,233065,5,2,1:2:0:0:
89,128,233206,1,10,0:0:0:0:
68,125,233277,1,8,0:0:0:0:
50,115,233348,1,0,1:2:0:0:
239,156,233489,5,8,0:0:0:0:
86,198,233631,2,0,P|102:264|86:318,1,121.499996292114,2|0,1:2|0:0,0:0:0:0:
129,374,233914,2,0,B|198:368|172:328|241:317,1,121.499996292114,10|0,0:0|0:0,0:0:0:0:
307,338,234197,2,0,P|309:372|265:376,1,80.9999975280763,2|8,1:2|0:0,0:0:0:0:
300,197,234480,6,0,P|351:207|394:207,1,80.9999975280763,2|8,1:2|0:0,0:0:0:0:
225,117,234763,2,0,B|162:125|198:166|97:166,1,121.499996292114,2|0,1:2|0:0,0:0:0:0:
48,141,235046,2,0,P|17:93|59:42,1,121.499996292114,10|0,0:0|0:0,0:0:0:0:
123,52,235329,5,2,1:2:0:0:
239,191,235470,1,10,0:0:0:0:
259,194,235541,1,8,0:0:0:0:
278,185,235612,1,0,1:2:0:0:
357,33,235753,5,8,0:0:0:0:
467,151,235895,2,0,P|452:228|452:290,1,121.499996292114,2|0,1:2|0:0,0:0:0:0:
382,217,236178,2,0,B|325:219|342:271|263:261,1,121.499996292114,8|0,0:0|0:0,0:0:0:0:
204,249,236461,2,0,P|205:210|239:191,1,80.9999975280763,2|8,1:2|0:0,0:0:0:0:
171,363,236744,6,0,P|106:367|64:378,1,80.9999975280763,0|8,1:2|0:0,0:0:0:0:
8,258,237027,2,0,P|-19:209|33:174,1,121.499996292114,2|0,1:2|0:0,0:0:0:0:
93,202,237310,2,0,P|102:136|86:62,1,121.499996292114,10|0,0:0|0:0,0:0:0:0:
40,34,237593,5,2,1:2:0:0:
142,146,237735,1,8,0:0:0:0:
161,138,237806,1,8,0:0:0:0:
175,123,237876,1,2,1:2:0:0:
231,9,238018,5,8,0:0:0:0:
206,195,238159,2,0,B|276:190|242:237|337:224,1,121.499996292114,0|0,1:2|0:0,0:0:0:0:
371,175,238442,2,0,P|357:240|366:326,1,121.499996292114,8|0,0:0|0:0,0:0:0:0:
385,363,238725,5,2,1:2:0:0:
254,286,238867,1,8,0:0:0:0:
430,305,239008,6,0,P|466:311|514:335,1,80.9999975280763,0|8,1:2|0:0,0:0:0:0:
266,360,239291,2,0,B|188:364|224:324|135:328,1,121.499996292114,2|0,1:2|0:0,0:0:0:0:
84,361,239574,6,0,P|49:310|83:258,1,121.499996292114,10|0,0:0|0:0,0:0:0:0:
173,137,239857,6,0,P|155:208|146:266,1,121.499996292114,2|0,1:2|0:0,0:0:0:0:
25,208,240140,6,0,P|14:148|-1:89,1,121.499996292114,10|0,0:0|0:0,0:0:0:0:
48,30,240423,5,0,1:2:0:0:
262,33,240565,1,8,0:0:0:0:
277,46,240636,1,8,0:0:0:0:
277,66,240706,2,0,P|331:57|388:54,1,80.9999975280763,8|8,0:0|0:0,0:0:0:0:
124,15,240989,5,8,0:3:0:0:
268,144,241131,1,4,0:3:0:0:
452,25,241272,6,0,P|430:95|438:168,1,121.499996292114,6|0,1:2|0:0,0:0:0:0:
485,203,241555,2,0,P|475:254|402:250,1,121.499996292114,0|0,1:2|0:0,0:0:0:0:
361,210,241838,2,0,P|325:226|256:253,1,80.9999975280763,8|0,0:0|0:0,0:0:0:0:
136,358,242121,5,0,1:2:0:0:
214,227,242263,1,8,0:0:0:0:
214,206,242334,1,8,0:0:0:0:
206,187,242404,1,2,1:2:0:0:
46,217,242546,5,8,0:0:0:0:
197,115,242687,2,0,B|261:101|245:166|330:130,1,121.499996292114,2|0,1:2|0:0,0:0:0:0:
375,100,242970,2,0,P|391:45|330:17,1,121.499996292114,8|0,0:0|0:0,0:0:0:0:
274,32,243253,2,0,P|230:37|184:37,1,80.9999975280763,2|8,1:2|0:0,0:0:0:0:
74,118,243536,6,0,P|59:76|90:71,1,80.9999975280763,2|8,1:2|0:0,0:0:0:0:
206,187,243819,2,0,P|142:191|66:215,1,121.499996292114,0|0,1:2|0:0,0:0:0:0:
37,262,244103,2,0,P|49:319|103:316,1,121.499996292114,8|0,0:0|0:0,0:0:0:0:
154,269,244386,5,2,1:2:0:0:
290,348,244527,1,8,0:0:0:0:
307,338,244598,1,8,0:0:0:0:
327,334,244669,1,2,1:2:0:0:
206,187,244810,5,8,0:0:0:0:
361,271,244952,2,0,P|391:224|358:166,1,121.499996292114,2|0,1:2|0:0,0:0:0:0:
290,182,245235,2,0,P|281:128|294:45,1,121.499996292114,10|0,0:0|0:0,0:0:0:0:
356,23,245518,2,0,P|385:50|343:68,1,80.9999975280763,2|8,1:2|0:0,0:0:0:0:
128,88,245801,6,0,B|205:88|165:132|249:119,1,121.499996292114,2|0,1:2|0:0,0:0:0:0:
288,62,246084,2,0,P|280:122|290:182,1,121.499996292114,2|0,1:2|0:0,0:0:0:0:
364,169,246367,2,0,P|391:221|361:271,1,121.499996292114,8|0,0:0|0:0,0:0:0:0:
287,263,246650,5,2,1:2:0:0:
423,217,246791,1,8,0:0:0:0:
442,213,246862,1,8,0:0:0:0:
462,215,246933,1,2,1:2:0:0:
419,384,247074,5,8,0:0:0:0:
263,335,247216,2,0,P|217:322|115:326,1,121.499996292114,2|0,1:2|0:0,0:0:0:0:
83,362,247499,2,0,P|43:330|92:269,1,121.499996292114,10|0,0:0|0:0,0:0:0:0:
134,248,247782,2,0,P|137:202|150:159,1,80.9999975280763,2|8,1:2|0:0,0:0:0:0:
28,30,248065,6,0,P|38:69|40:109,1,80.9999975280763,2|8,1:2|0:0,0:0:0:0:
165,39,248348,2,0,B|238:36|203:82|283:73,1,121.499996292114,0|0,1:2|0:0,0:0:0:0:
343,42,248631,2,0,P|378:90|342:149,1,121.499996292114,8|0,0:0|0:0,0:0:0:0:
286,176,248914,5,2,1:2:0:0:
463,138,249055,1,8,0:0:0:0:
471,119,249126,1,8,0:0:0:0:
465,99,249197,1,2,1:2:0:0:
492,283,249338,5,8,0:0:0:0:
350,213,249480,2,0,P|270:224|223:236,1,121.499996292114,0|0,1:2|0:0,0:0:0:0:
177,284,249763,2,0,P|178:344|245:364,1,121.499996292114,8|0,0:0|0:0,0:0:0:0:
290,326,250046,5,10,0:0:0:0:
179,181,250187,1,10,0:0:0:0:
353,288,250329,6,0,P|391:292|448:308,1,80.9999975280763,6|8,1:2|0:0,0:0:0:0:
227,368,250612,2,0,B|161:373|176:333|107:349,1,121.499996292114,2|0,1:2|0:0,0:0:0:0:
44,382,250895,2,0,P|8:346|35:285,1,121.499996292114,8|0,0:0|0:0,0:0:0:0:
101,271,251178,5,2,1:2:0:0:
97,113,251319,1,10,0:0:0:0:
78,105,251390,1,8,0:0:0:0:
57,105,251461,1,0,1:2:0:0:
183,214,251603,5,8,0:0:0:0:
106,38,251744,2,0,B|176:38|146:93|237:89,1,121.499996292114,2|0,1:2|0:0,0:0:0:0:
247,154,252027,2,0,P|247:80|291:33,1,121.499996292114,10|0,0:0|0:0,0:0:0:0:
344,75,252310,2,0,P|385:87|435:88,1,80.9999975280763,2|8,1:2|0:0,0:0:0:0:
500,240,252593,6,0,P|459:242|420:254,1,80.9999975280763,2|8,1:2|0:0,0:0:0:0:
266,365,252876,2,0,P|234:304|293:277,1,121.499996292114,2|0,1:2|0:0,0:0:0:0:
335,294,253159,2,0,P|344:245|320:145,1,121.499996292114,10|0,0:0|0:0,0:0:0:0:
274,137,253442,5,2,1:2:0:0:
201,316,253584,1,10,0:0:0:0:
184,327,253654,1,8,0:0:0:0:
163,324,253725,1,0,1:2:0:0:
94,164,253867,5,10,0:0:0:0:
83,348,254008,2,0,P|83:284|51:218,1,121.499996292114,2|0,1:2|0:0,0:0:0:0:
94,164,254291,2,0,P|138:125|183:173,1,121.499996292114,8|0,0:0|0:0,0:0:0:0:
162,231,254574,2,0,P|218:231|263:250,1,80.9999975280763,2|8,1:2|0:0,0:0:0:0:
345,93,254857,6,0,P|305:102|265:100,1,80.9999975280763,0|8,1:2|0:0,0:0:0:0:
412,269,255140,2,0,P|409:195|436:136,1,121.499996292114,2|0,1:2|0:0,0:0:0:0:
463,90,255423,2,0,P|436:31|378:49,1,121.499996292114,10|0,0:0|0:0,0:0:0:0:
345,93,255706,5,0,1:2:0:0:
327,246,255848,1,10,0:0:0:0:
324,265,255919,1,8,0:0:0:0:
312,282,255989,1,0,1:2:0:0:
483,185,256131,5,8,0:0:0:0:
371,331,256272,2,0,P|309:322|224:347,1,121.499996292114,2|0,1:2|0:0,0:0:0:0:
193,379,256555,2,0,P|144:344|179:280,1,121.499996292114,8|0,0:0|0:0,0:0:0:0:
227,258,256838,5,2,1:2:0:0:
67,353,256980,1,8,0:0:0:0:
168,215,257121,6,0,P|169:164|186:113,1,80.9999975280763,0|8,1:2|0:0,0:0:0:0:
17,18,257404,2,0,P|33:78|0:146,1,121.499996292114,2|0,1:2|0:0,0:0:0:0:
52,197,257687,2,0,B|113:179|102:234|172:212,1,121.499996292114,10|0,0:0|0:0,0:0:0:0:
241,186,257970,5,2,1:2:0:0:
280,311,258112,1,8,0:0:0:0:
337,195,258253,5,10,0:0:0:0:
322,235,258395,1,8,0:0:0:0:
415,147,258536,5,10,0:0:0:0:
397,119,258678,1,8,0:0:0:0:
505,97,258819,5,10,0:3:0:0:
460,246,258961,1,8,0:3:0:0:
309,109,259103,6,0,P|271:114|221:109,1,80.9999975280763,6|4,0:3|0:3,0:0:0:0:
72,38,259386,6,0,P|112:79|75:134,1,121.499996292114,6|0,1:2|0:0,0:0:0:0:
5,135,259668,2,0,P|33:206|40:263,1,121.499996292114,0|0,1:2|0:0,0:0:0:0:
36,324,259929,2,0,B|107:324|78:278|152:282,1,121.499996292114,8|0,0:0|0:0,0:0:0:0:
201,339,260232,5,0,1:2:0:0:
281,288,260373,1,8,0:0:0:0:
281,288,260443,1,8,0:0:0:0:
281,288,260514,1,0,1:2:0:0:
169,177,260655,5,8,0:0:0:0:
215,238,260796,2,0,P|273:245|360:232,1,121.499996292114,0|0,1:2|0:0,0:0:0:0:
395,287,261078,2,0,P|372:247|392:172,1,121.499996292114,8|0,0:0|0:0,0:0:0:0:
425,113,261360,2,0,P|461:123|459:161,1,80.9999975280763,0|8,1:2|0:0,0:0:0:0:
277,118,261643,6,0,P|271:71|275:25,1,80.9999975280763,0|8,1:2|0:0,0:0:0:0:
76,130,261925,2,0,B|145:125|118:183|204:167,1,121.499996292114,0|0,1:2|0:0,0:0:0:0:
258,194,262207,2,0,P|279:235|227:282,1,121.499996292114,8|0,0:0|0:0,0:0:0:0:
158,249,262489,5,0,1:2:0:0:
124,324,262630,1,8,0:0:0:0:
124,324,262701,1,8,0:0:0:0:
124,324,262771,1,0,1:2:0:0:
284,333,262912,5,8,0:0:0:0:
231,281,263054,2,0,P|291:294|381:299,1,121.499996292114,2|0,1:2|0:0,0:0:0:0:
420,271,263336,2,0,P|453:219|397:175,1,121.499996292114,10|0,0:0|0:0,0:0:0:0:
347,172,263618,5,2,1:2:0:0:
459,73,263759,1,8,0:0:0:0:
326,101,263900,6,0,B|264:109|301:156|211:160,1,121.499996292114,2|0,1:2|0:0,0:0:0:0:
158,172,264182,2,0,P|122:131|168:59,1,121.499996292114,0|0,1:2|0:0,0:0:0:0:
182,16,264465,2,0,P|89:49|41:51,1,121.499996292114,8|0,0:0|0:0,0:0:0:0:
3,94,264747,5,0,1:2:0:0:
52,164,264888,1,8,0:0:0:0:
52,164,264959,1,8,0:0:0:0:
52,164,265029,1,0,1:2:0:0:
3,296,265170,5,8,0:0:0:0:
59,243,265311,2,0,P|115:254|123:322,1,121.499996292114,0|0,1:2|0:0,0:0:0:0:
71,353,265594,2,0,B|137:324|122:385|195:343,1,121.499996292114,8|0,0:0|0:0,0:0:0:0:
242,301,265876,2,0,P|260:330|262:382,1,80.9999975280763,2|8,1:2|0:0,0:0:0:0:
381,289,266158,6,0,P|382:248|402:214,1,80.9999975280763,0|8,1:2|0:0,0:0:0:0:
342,90,266440,2,0,B|271:93|310:137|215:139,1,121.499996292114,0|0,1:2|0:0,0:0:0:0:
158,125,266722,2,0,P|126:79|156:16,1,121.499996292114,8|0,0:0|0:0,0:0:0:0:
222,16,267005,5,2,1:2:0:0:
279,78,267146,1,8,0:0:0:0:
279,78,267216,1,8,0:0:0:0:
279,78,267287,1,0,1:2:0:0:
422,22,267428,5,8,0:0:0:0:
370,76,267569,2,0,P|349:130|346:204,1,121.499996292114,2|0,1:2|0:0,0:0:0:0:
404,243,267851,1,10,0:0:0:0:
350,347,267992,6,0,P|318:289|271:313,1,121.499996292114,2|0,1:2|0:0,0:0:0:0:
234,361,268275,1,10,0:0:0:0:
145,306,268416,6,0,P|159:223|135:169,1,121.499996292114,6|0,1:2|0:0,0:0:0:0:
72,200,268698,2,0,P|36:170|84:108,1,121.499996292114,2|0,1:2|0:0,0:0:0:0:
125,72,268980,2,0,B|196:69|166:120|242:106,1,121.499996292114,8|0,0:0|0:0,0:0:0:0:
291,59,269262,5,2,1:2:0:0:
357,121,269404,1,8,0:0:0:0:
357,121,269474,1,8,0:0:0:0:
357,121,269545,1,0,1:2:0:0:
236,220,269686,5,8,0:0:0:0:
298,175,269827,2,0,P|272:230|279:302,1,121.499996292114,2|0,1:2|0:0,0:0:0:0:
332,341,270109,1,10,0:0:0:0:
176,261,270250,6,0,B|109:256|129:310|55:296,1,121.499996292114,2|0,1:2|0:0,0:0:0:0:
70,224,270532,1,10,0:0:0:0:
274,289,270674,6,0,P|341:299|403:278,1,121.499996292114,0|0,1:2|0:0,0:0:0:0:
441,234,270956,2,0,P|457:184|402:167,1,121.499996292114,2|0,1:2|0:0,0:0:0:0:
329,201,271238,2,0,P|332:125|346:67,1,121.499996292114,8|0,0:0|0:0,0:0:0:0:
281,34,271520,5,0,1:2:0:0:
223,106,271661,1,8,0:0:0:0:
223,106,271732,1,8,0:0:0:0:
223,106,271802,1,0,1:2:0:0:
108,58,271944,5,8,0:0:0:0:
138,135,272085,2,0,P|92:90|35:132,1,121.499996292114,2|0,1:2|0:0,0:0:0:0:
17,180,272367,2,0,B|91:182|47:236|150:236,1,121.499996292114,10|0,0:0|0:0,0:0:0:0:
193,196,272649,5,2,1:2:0:0:
90,322,272790,1,8,0:0:0:0:
240,258,272931,6,0,P|283:258|346:276,1,80.9999975280763,2|8,1:2|0:0,0:0:0:0:
448,216,273214,2,0,P|476:166|439:123,1,121.499996292114,0|0,1:2|0:0,0:0:0:0:
373,96,273496,2,0,B|298:87|340:141|240:126,1,121.499996292114,8|0,0:0|0:0,0:0:0:0:
195,82,273778,5,0,1:2:0:0:
155,149,273919,1,8,0:0:0:0:
155,149,273990,1,8,0:0:0:0:
155,149,274060,1,0,1:2:0:0:
242,270,274201,5,8,0:0:0:0:
215,201,274342,2,0,P|153:183|90:241,1,121.499996292114,0|0,1:2|0:0,0:0:0:0:
76,282,274625,5,8,0:0:0:0:
33,166,274766,1,8,0:0:0:0:
153,349,274907,5,8,0:3:0:0:
215,201,275048,1,4,0:3:0:0:
338,347,275190,6,0,B|312:384|265:363|260:317|281:278|343:275|391:322|371:334|421:345|466:320,1,270,6|0,1:2|1:2,0:0:0:0:
479,195,276888,6,0,P|440:204|398:223,1,67.5,8|0,0:0|0:0,0:0:0:0:
372,123,277171,2,0,P|333:114|291:95,1,67.5,0|0,1:2|0:0,0:0:0:0:
184,37,277454,6,0,P|205:104|189:169,2,135,6|0|8,1:2|1:2|0:0,0:0:0:0:
49,139,278303,5,0,1:2:0:0:
116,172,278444,2,0,P|116:195|109:220,2,33.75,8|8|0,0:0|0:0|1:2,0:0:0:0:
6,309,278727,5,8,0:0:0:0:
46,245,278869,2,0,B|120:235|90:294|172:283,2,135,0|8|0,1:2|0:0|1:2,0:0:0:0:
46,245,279576,1,8,0:0:0:0:
105,373,279718,6,0,P|142:361|201:361,1,67.5,0|8,1:2|0:0,0:0:0:0:
233,270,280001,2,0,P|270:282|329:282,1,67.5,0|0,1:2|0:0,0:0:0:0:
403,365,280284,6,0,P|447:315|388:267,1,135,8|0,0:0|1:2,0:0:0:0:
354,215,280708,2,0,P|332:218|309:216,2,33.75,8|8|0,0:0|0:0|1:2,0:0:0:0:
433,147,280991,5,8,0:0:0:0:
370,101,281133,2,0,P|378:58|411:26,1,67.5,0|0,1:2|0:0,0:0:0:0:
226,4,281416,6,0,P|244:32|247:65,1,67.5,8|0,0:0|0:0,0:0:0:0:
196,123,281699,1,0,1:2:0:0:
196,123,281840,1,8,0:0:0:0:
16,28,281982,6,0,B|84:15|67:79|145:63,2,135,0|0|8,1:2|1:2|0:0,0:0:0:0:
18,168,282831,5,0,1:2:0:0:
74,119,282973,2,0,P|77:99|74:62,2,33.75,8|8|0,0:0|0:0|1:2,0:0:0:0:
86,244,283256,5,8,0:0:0:0:
144,291,283397,2,0,P|193:256|143:187,2,135,0|8|0,1:2|0:0|1:2,0:0:0:0:
144,291,284105,1,8,0:0:0:0:
271,190,284246,6,0,P|311:201|347:206,1,67.5,6|0,1:2|0:0,0:0:0:0:
434,302,284529,2,0,P|400:307|368:317,1,67.5,0|0,1:2|0:0,0:0:0:0:
469,182,284812,6,0,P|468:167|478:140,2,33.75,8|8|8,0:0|0:0|0:0,0:0:0:0:
398,100,285095,1,0,1:2:0:0:
336,205,285237,1,8,0:0:0:0:
398,100,285378,6,0,P|344:102|307:99,1,67.5,0|0,1:2|0:0,0:0:0:0:
174,59,285661,5,8,0:3:0:0:
156,101,285802,1,8,0:3:0:0:
284,185,285944,5,4,0:3:0:0:
256,148,286085,1,4,0:3:0:0:
102,214,286227,5,8,0:0:0:0:
197,241,286368,1,8,0:0:0:0:
22,327,286510,6,0,B|98:342|70:282|163:306,2,135,6|0|8,1:2|1:2|0:0,0:0:0:0:
203,356,287359,1,0,1:2:0:0:
203,356,287501,1,8,0:0:0:0:
306,270,287642,5,0,1:2:0:0:
329,354,287784,1,8,0:0:0:0:
306,270,287925,6,0,P|342:246|366:240,1,67.5,0|8,1:2|0:0,0:0:0:0:
484,175,288208,2,0,P|451:165|424:145,1,67.5,8|8,0:0|0:3,0:0:0:0:
399,71,288491,1,4,0:3:0:0:
399,71,288633,1,4,0:3:0:0:
231,166,288774,6,0,P|265:112|346:133,2,135,6|0|8,1:2|1:2|0:0,0:0:0:0:
105,43,289623,1,0,1:2:0:0:
105,43,289765,1,0,1:2:0:0:
83,158,289906,5,8,0:0:0:0:
175,103,290048,1,8,0:3:0:0:
83,158,290190,6,0,P|76:189|84:241,1,67.5,8|8,0:3|0:3,0:0:0:0:
198,313,290473,2,0,B|131:341|139:282|66:314,1,135,4|4,0:3|0:3,0:0:0:0:
67,312,290897,1,4,0:3:0:0:
256,192,291072,5,6,1:2:0:0:
256,192,291142,12,0,302392,0:0:0:0:
