osu file format v14

[General]
AudioFilename: audio.mp3
AudioLeadIn: 0
PreviewTime: 141980
Countdown: 0
SampleSet: Soft
StackLeniency: 0.2
Mode: 0
LetterboxInBreaks: 0
WidescreenStoryboard: 0

[Editor]
Bookmarks: 2070,24927,47784,70641,82069,104927,116355,139212,142069,164927,176355,199212,222069,244927
DistanceSpacing: 1.4
BeatDivisor: 4
GridSize: 4
TimelineZoom: 2.2

[Metadata]
Title:Kokoronashi
TitleUnicode:心做し
Artist:Natsuiro Matsuri
ArtistUnicode:夏色まつり
Creator:newton-
Version:if
Source:
Tags:-aqua chouchou-p 蝶々P papiyon vocaloid megpoid gumi yurica somehow cover hololive ホロライブ 夏まつch matsuri channel まつりす matsurisu virtual youtuber vtuber japanese pop novelty full version
BeatmapID:2400170
BeatmapSetID:1149708

[Difficulty]
HPDrainRate:5
CircleSize:5.5
OverallDifficulty:7
ApproachRate:8
SliderMultiplier:1
SliderTickRate:1

[Events]
//Background and Video events
0,0,"mtr.png",0,0
//Break Periods
2,105127,109891
//Storyboard Layer 0 (Background)
//Storyboard Layer 1 (Fail)
//Storyboard Layer 2 (Pass)
//Storyboard Layer 3 (Foreground)
//Storyboard Layer 4 (Overlay)
//Storyboard Sound Samples

[TimingPoints]
2070,357.142857142857,4,2,1,25,1,0
2070,-200,4,2,1,25,0,0
23141,-500,4,2,1,25,0,0
24034,-500,4,2,1,5,0,0
24212,-200,4,2,1,55,0,0
24748,-200,4,2,1,5,0,0
24927,-133.333333333333,4,2,1,70,0,0
25641,-66.6666666666667,4,2,1,70,0,0
26712,-133.333333333333,4,2,1,70,0,0
27069,-66.6666666666667,4,2,1,70,0,0
27784,-133.333333333333,4,2,1,70,0,0
28498,-66.6666666666667,4,2,1,70,0,0
30641,-133.333333333333,4,2,1,70,0,0
31355,-66.6666666666667,4,2,1,70,0,0
32069,-133.333333333333,4,2,1,70,0,0
32784,-66.6666666666667,4,2,1,70,0,0
33498,-133.333333333333,4,2,1,70,0,0
35641,-66.6666666666667,4,2,1,70,0,0
36355,-133.333333333333,4,2,1,70,0,0
37069,-66.6666666666667,4,2,1,70,0,0
39212,-133.333333333333,4,2,1,70,0,0
39927,-66.6666666666667,4,2,1,70,0,0
42069,-133.333333333333,4,2,1,70,0,0
42784,-66.6666666666667,4,2,1,70,0,0
44927,-133.333333333333,4,2,1,70,0,0
47069,-66.6666666666667,4,2,1,70,0,0
47784,-100,4,2,1,60,0,0
70641,-100,4,2,1,65,0,0
81355,-500,4,2,1,70,0,0
82069,-100,4,2,1,85,0,0
82784,-66.6666666666667,4,2,1,85,0,0
84212,-133.333333333333,4,2,1,85,0,0
84927,-100,4,2,1,85,0,0
85641,-66.6666666666667,4,2,1,85,0,0
86712,-133.333333333333,4,2,1,85,0,0
87069,-100,4,2,1,85,0,0
88855,-66.6666666666667,4,2,1,85,0,0
90641,-100,4,2,1,85,0,0
94212,-66.6666666666667,4,2,1,85,0,0
95641,-133.333333333333,4,2,1,85,0,0
96355,-100,4,2,1,85,0,0
97069,-66.6666666666667,4,2,1,85,0,0
99212,-100,4,2,1,85,0,0
99927,-66.6666666666667,4,2,1,85,0,0
102069,-100,4,2,1,85,0,0
104212,-500,4,2,1,85,0,0
104927,-500,4,2,1,50,0,0
115462,-500,4,2,1,60,0,0
116355,-100,4,2,1,65,0,0
126891,-66.6666666666667,4,2,1,65,0,0
127784,-100,4,2,1,65,0,0
138498,-500,4,2,1,50,0,0
139212,-200,4,2,1,50,0,0
141355,-1000,4,2,1,65,0,0
141891,-1000,4,2,1,5,0,0
142069,-100,4,2,1,75,0,1
142159,-100,4,2,1,75,0,0
142784,-66.6666666666667,4,2,1,75,0,0
143855,-100,4,2,1,75,0,0
144212,-66.6666666666667,4,2,1,75,0,0
144927,-200,4,2,1,75,0,0
145641,-100,4,2,1,75,0,0
147069,-66.6666666666667,4,2,1,75,0,0
153498,-100,4,2,1,75,0,0
154212,-66.6666666666667,4,2,1,75,0,0
156355,-200,4,2,1,75,0,0
157069,-100,4,2,1,75,0,0
158498,-66.6666666666667,4,2,1,75,0,0
161355,-100,4,2,1,75,0,0
164927,-100,4,2,1,65,0,0
176355,-200,4,2,1,50,0,0
198498,-500,4,2,1,70,0,0
199212,-100,4,2,1,85,0,0
199927,-66.6666666666667,4,2,1,85,0,0
201355,-133.333333333333,4,2,1,85,0,0
202066,-100,4,2,1,85,0,0
202784,-66.6666666666667,4,2,1,85,0,0
204212,-100,4,2,1,85,0,0
205998,-66.6666666666667,4,2,1,85,0,0
207784,-100,4,2,1,85,0,0
211355,-66.6666666666667,4,2,1,85,0,0
212784,-133.333333333333,4,2,1,85,0,0
213498,-100,4,2,1,85,0,0
214212,-66.6666666666667,4,2,1,85,0,0
216355,-100,4,2,1,85,0,0
217069,-66.6666666666667,4,2,1,85,0,0
219212,-100,4,2,1,85,0,0
221355,-500,4,2,1,85,0,0
222069,-133.333333333333,4,2,1,70,0,0
222784,-66.6666666666667,4,2,1,70,0,0
224927,-133.333333333333,4,2,1,70,0,0
225641,-66.6666666666667,4,2,1,70,0,0
227784,-133.333333333333,4,2,1,70,0,0
228498,-66.6666666666667,4,2,1,70,0,0
230641,-133.333333333333,4,2,1,70,0,0
232784,-66.6666666666667,4,2,1,70,0,0
233498,-133.333333333333,4,2,1,70,0,0
234212,-66.6666666666667,4,2,1,70,0,0
236355,-133.333333333333,4,2,1,70,0,0
237069,-66.6666666666667,4,2,1,70,0,0
239212,-133.333333333333,4,2,1,70,0,0
239927,-66.6666666666667,4,2,1,70,0,0
242069,-133.333333333333,4,2,1,70,0,0
244927,-200,4,2,1,25,0,0

[Colours]
Combo1 : 62,62,255
Combo2 : 128,128,128
Combo3 : 192,192,192
Combo4 : 255,124,62
Combo5 : 255,255,51
Combo6 : 176,88,0
Combo7 : 170,170,0

[HitObjects]
87,77,2070,6,0,P|85:102|91:126,2,50,2|2|2,0:0|0:0|0:0,0:0:0:0:
91,126,3498,2,0,P|103:147|122:164,2,50,2|2|2,0:0|0:0|0:0,0:0:0:0:
121,163,4927,2,0,P|144:173|169:175,1,50,2|2,0:0|0:0,0:0:0:0:
169,175,5641,2,0,P|193:170|215:157,1,50,2|2,0:0|0:0,0:0:0:0:
215,158,6355,2,0,P|232:140|243:118,2,50,2|2|2,0:0|0:0|0:0,0:0:0:0:
215,158,7427,1,0,0:0:0:0:
323,133,7784,6,0,P|325:108|319:84,2,50,2|2|2,0:0|0:0|0:0,0:0:0:0:
319,84,9212,2,0,P|307:63|288:46,2,50,2|2|2,0:0|0:0|0:0,0:0:0:0:
288,46,10641,2,0,P|265:36|240:34,1,50,2|2,0:0|0:0,0:0:0:0:
240,34,11355,2,0,P|216:39|194:52,1,50,2|2,0:0|0:0,0:0:0:0:
194,52,12069,2,0,P|177:70|166:92,2,50,2|2|2,0:0|0:0|0:0,0:0:0:0:
194,52,13141,1,2,0:0:0:0:
99,74,13498,86,0,L|103:125,1,50,2|0,0:0|0:0,0:0:0:0:
104,124,14212,2,0,L|108:175,1,50,2|0,0:0|0:0,0:0:0:0:
185,159,14927,6,0,L|180:210,1,50,2|0,0:0|0:0,0:0:0:0:
180,209,15641,2,0,L|175:260,1,50,2|0,0:0|0:0,0:0:0:0:
48,293,16355,85,2,0:0:0:0:
112,276,16712,1,2,0:0:0:0:
193,357,17069,1,2,0:0:0:0:
129,340,17427,1,2,0:0:0:0:
239,241,17784,6,0,P|263:243|286:253,2,50,2|2|2,0:0|0:0|0:0,0:0:0:0:
327,368,19212,86,0,P|325:343|331:319,2,50,2|2|2,0:0|0:0|0:0,0:0:0:0:
331,319,20641,2,0,P|343:298|362:281,2,50,2|2|2,0:0|0:0|0:0,0:0:0:0:
362,281,22069,2,0,P|385:271|410:269,2,50,2|2|2,0:0|0:0|0:0,0:0:0:0:
272,213,23141,6,0,P|295:223|320:226,1,50,2|0,0:0|0:0,0:0:0:0:
323,163,24212,70,0,B|321:119|321:119|299:156,1,87.5,2|0,0:0|0:0,0:0:0:0:
273,214,24927,70,0,P|237:203|203:216,1,75.0000028610231,6|2,1:2|0:0,0:0:0:0:
186,292,25641,2,0,L|172:142,1,150.000005722046,10|2,0:0|0:0,0:0:0:0:
253,67,26177,5,0,1:0:0:0:
253,67,26266,1,0,1:0:0:0:
253,67,26355,1,2,1:2:0:0:
239,134,26534,1,8,0:0:0:0:
229,46,26712,2,0,L|232:8,1,37.5000014305115,2|0,1:2|0:0,0:0:0:0:
317,36,27069,2,0,P|342:104|322:175,1,150.000005722046,10|2,0:0|1:2,0:0:0:0:
321,176,27784,86,0,P|338:167|356:164,1,37.5000014305115,2|0,1:2|0:0,0:0:0:0:
423,235,28141,2,0,P|404:231|387:223,1,37.5000014305115,2|0,1:2|0:0,0:0:0:0:
312,338,28498,2,0,P|374:301|448:308,1,150.000005722046,10|2,0:0|0:0,0:0:0:0:
391,365,29034,1,0,1:0:0:0:
254,264,29212,5,2,1:2:0:0:
246,330,29391,1,8,0:0:0:0:
248,256,29569,1,2,1:2:0:0:
163,351,29927,2,0,L|313:337,1,150.000005722046,10|0,0:0|1:0,0:0:0:0:
179,283,30462,1,8,0:0:0:0:
97,376,30641,86,0,P|90:339|73:306,1,75.0000028610231,2|2,1:2|0:0,0:0:0:0:
206,218,31355,2,0,P|206:290|163:350,1,150.000005722046,10|2,0:0|0:0,0:0:0:0:
118,262,31891,1,0,1:0:0:0:
261,152,32069,6,0,L|264:195,1,37.5000014305115,2|8,1:2|0:0,0:0:0:0:
304,242,32427,1,2,1:2:0:0:
344,32,32784,2,0,L|330:181,1,150.000005722046,10|2,0:0|1:2,0:0:0:0:
330,181,33498,86,0,P|361:162|398:167,1,75.0000028610231,2|2,1:2|1:2,0:0:0:0:
445,215,34034,1,0,1:0:0:0:
413,57,34212,1,10,0:0:0:0:
270,99,34391,1,2,0:0:0:0:
191,47,34569,1,2,0:0:0:0:
266,28,34748,5,0,1:0:0:0:
266,28,34837,1,0,1:0:0:0:
266,28,34927,1,2,1:2:0:0:
230,167,35105,1,8,0:0:0:0:
270,7,35284,1,2,1:2:0:0:
154,140,35641,2,0,L|167:295,1,150.000005722046,10|10,0:0|0:0,0:0:0:0:
173,361,36177,1,8,0:0:0:0:
88,203,36355,86,0,P|81:240|64:273,1,75.0000028610231,6|2,1:2|0:0,0:0:0:0:
20,184,37069,2,0,P|92:184|152:141,1,150.000005722046,10|2,0:0|0:0,0:0:0:0:
53,40,37605,5,0,1:2:0:0:
53,40,37694,1,0,1:2:0:0:
53,40,37784,1,2,1:2:0:0:
74,116,37962,1,8,0:0:0:0:
64,15,38141,1,2,1:2:0:0:
216,179,38498,2,0,L|223:105,1,75.0000028610231,10|0,0:0|0:0,0:0:0:0:
170,302,38855,2,0,L|164:228,1,75.0000028610231,2|0,1:2|0:0,0:0:0:0:
312,144,39212,86,0,L|305:218,1,75.0000028610231,2|2,1:2|1:2,0:0:0:0:
297,326,39927,2,0,L|284:176,1,150.000005722046,10|2,0:0|0:0,0:0:0:0:
454,219,40462,1,0,1:0:0:0:
454,219,40552,1,0,1:0:0:0:
454,219,40641,1,2,1:2:0:0:
357,259,40819,1,8,0:0:0:0:
436,197,40998,1,2,1:2:0:0:
315,30,41355,2,0,P|375:74|449:75,1,150.000005722046,10|2,0:0|1:2,0:0:0:0:
399,9,41891,1,8,0:0:0:0:
263,84,42069,6,0,L|269:158,1,75.0000028610231,2|2,1:2|0:0,0:0:0:0:
242,221,42784,2,0,L|248:147,1,75.0000028610231,10|0,0:0|0:0,0:0:0:0:
193,30,43141,2,0,L|187:104,1,75.0000028610231,2|0,0:0|1:0,0:0:0:0:
163,122,43409,1,0,1:0:0:0:
163,122,43498,1,2,1:2:0:0:
28,56,43677,1,8,0:0:0:0:
140,135,43855,1,2,1:2:0:0:
3,299,44212,2,0,P|75:299|135:342,1,150.000005722046,10|2,0:0|1:2,0:0:0:0:
137,343,44927,86,0,P|156:312|151:275,1,75.0000028610231,2|0,1:2|1:0,0:0:0:0:
87,230,45462,1,0,1:0:0:0:
228,323,45641,1,10,0:0:0:0:
330,274,45819,1,2,0:0:0:0:
309,174,45998,1,2,0:0:0:0:
232,216,46177,2,0,L|234:239,1,18.7500007152558,0|8,1:0|0:0,0:0:0:0:
407,264,46355,5,0,1:0:0:0:
358,104,46534,1,8,0:0:0:0:
396,286,46712,1,2,3:0:0:0:
452,53,47069,2,0,L|439:194,1,112.500004291535,10|0,0:0|0:0,0:0:0:0:
438,202,47427,1,8,0:0:0:0:
347,126,47605,1,8,0:0:0:0:
192,163,47784,86,0,B|141:168|143:141|94:146,1,100,6|0,1:2|0:0,0:0:0:0:
187,241,48498,2,0,P|209:231|234:228,1,50,10|0,0:0|0:0,0:0:0:0:
292,198,48855,2,0,P|308:216|318:239,1,50,0|0,0:0|1:0,0:0:0:0:
320,268,49123,1,0,1:0:0:0:
320,268,49212,5,2,1:2:0:0:
345,150,49391,1,8,0:0:0:0:
331,282,49569,2,0,L|326:337,1,50,0|0,1:0|0:0,0:0:0:0:
391,207,49927,1,8,0:0:0:0:
391,207,50284,1,0,1:0:0:0:
437,264,50462,1,0,0:0:0:0:
261,304,50641,86,0,L|153:313,1,100,2|0,1:2|1:0,0:0:0:0:
210,282,51177,1,0,0:0:0:0:
50,233,51355,2,0,L|157:242,1,100,8|2,0:0|0:0,0:0:0:0:
101,211,51891,1,0,1:0:0:0:
229,190,52069,5,2,1:2:0:0:
108,141,52248,1,8,0:0:0:0:
225,214,52427,1,2,3:0:0:0:
218,27,52784,2,0,P|236:73|238:123,1,100,10|0,0:0|1:0,0:0:0:0:
293,29,53319,1,8,0:0:0:0:
399,47,53498,86,0,L|506:37,1,100,2|0,1:2|0:0,0:0:0:0:
457,106,54034,1,0,0:0:0:0:
335,83,54212,2,0,P|325:105|322:130,1,50,10|0,0:0|0:0,0:0:0:0:
296,199,54569,2,0,P|314:215|337:225,1,50,0|0,0:0|1:0,0:0:0:0:
462,221,54927,5,2,1:2:0:0:
303,283,55105,1,8,0:0:0:0:
439,210,55284,1,0,1:0:0:0:
377,56,55641,2,0,P|358:102|357:152,1,100,8|0,0:0|1:0,0:0:0:0:
429,115,56177,1,0,0:0:0:0:
284,91,56355,86,0,L|176:82,1,100,2|0,1:2|1:0,0:0:0:0:
233,113,56891,1,0,0:0:0:0:
73,162,57069,2,0,L|181:153,1,100,8|2,0:0|0:0,0:0:0:0:
124,184,57605,1,0,1:0:0:0:
235,217,57784,5,2,1:2:0:0:
113,253,57962,1,8,0:0:0:0:
244,195,58141,2,0,P|268:197|291:207,1,50,2|0,3:0|0:0,0:0:0:0:
344,291,58498,2,0,P|362:245|366:201,1,75,10|0,0:0|0:0,0:0:0:0:
363,194,58855,1,2,1:2:0:0:
288,126,59034,1,8,0:0:0:0:
145,181,59212,86,0,L|136:73,2,100,6|0|10,1:2|0:0|0:0,0:0:0:0:
188,341,60284,1,0,0:0:0:0:
210,206,60462,1,0,1:0:0:0:
269,288,60641,6,0,P|246:278|221:275,1,50,2|8,1:2|0:0,0:0:0:0:
153,253,60998,2,0,P|137:271|127:294,1,50,0|0,1:0|0:0,0:0:0:0:
339,344,61355,2,0,L|348:236,1,100,8|0,0:0|1:0,0:0:0:0:
282,94,62069,86,0,L|290:193,1,100,2|0,1:2|1:0,0:0:0:0:
312,142,62605,1,0,0:0:0:0:
214,23,62784,2,0,L|209:78,1,50,8|0,0:0|0:0,0:0:0:0:
292,29,63141,1,2,0:0:0:0:
292,29,63319,1,0,1:0:0:0:
423,69,63498,6,0,P|433:91|435:116,1,50,2|8,1:2|0:0,0:0:0:0:
386,282,63855,2,0,P|387:232|406:186,1,100,2|10,3:0|0:0,0:0:0:0:
490,180,64391,1,0,0:0:0:0:
362,228,64569,1,0,1:0:0:0:
316,165,64748,1,8,0:0:0:0:
378,72,64927,86,0,L|477:80,1,100,2|0,1:2|0:0,0:0:0:0:
219,32,65641,2,0,L|318:23,1,100,10|0,0:0|0:0,0:0:0:0:
201,100,66177,1,0,1:0:0:0:
111,16,66355,5,2,1:2:0:0:
146,154,66534,1,8,0:0:0:0:
125,6,66712,1,0,1:0:0:0:
112,246,67069,2,0,P|157:227|207:225,1,100,8|0,0:0|1:0,0:0:0:0:
358,290,67784,86,0,L|258:281,1,100,2|0,1:2|1:0,0:0:0:0:
310,260,68319,1,0,0:0:0:0:
427,328,68498,2,0,P|445:282|447:232,1,100,8|2,0:0|0:0,0:0:0:0:
387,49,69034,5,0,1:0:0:0:
387,49,69123,1,0,1:0:0:0:
387,49,69212,2,0,P|389:73|399:96,1,50,2|8,1:2|0:0,0:0:0:0:
489,171,69569,2,0,P|466:160|441:157,1,50,2|0,3:0|0:0,0:0:0:0:
333,198,69927,2,0,P|353:183|367:163,1,50,10|0,0:0|0:0,0:0:0:0:
456,56,70284,1,8,0:0:0:0:
304,132,70462,1,8,0:0:0:0:
171,25,70641,86,0,L|179:124,2,100,6|0|8,1:2|0:0|0:0,0:0:0:0:
95,126,71712,2,0,P|106:149|110:174,1,50,0|0,1:0|0:0,0:0:0:0:
36,261,72069,5,2,1:2:0:0:
20,117,72248,1,8,0:0:0:0:
18,277,72427,1,0,1:0:0:0:
74,42,72784,2,0,P|120:60|170:61,1,100,10|0,0:0|1:0,0:0:0:0:
322,103,73498,86,0,P|272:104|225:122,1,100,2|0,1:2|1:0,0:0:0:0:
342,24,74212,1,8,0:0:0:0:
402,161,74569,2,0,L|397:111,1,50,0|0,0:0|1:0,0:0:0:0:
456,62,74927,5,2,1:2:0:0:
410,233,75105,1,8,0:0:0:0:
436,37,75284,1,0,1:0:0:0:
442,325,75641,2,0,P|397:306|347:304,1,100,10|0,0:0|1:0,0:0:0:0:
289,348,76177,1,8,0:0:0:0:
159,300,76355,86,0,P|208:298|255:280,2,100,2|2|8,1:2|0:0|0:0,0:0:0:0:
222,165,77427,2,0,L|217:214,1,50,0|0,1:0|0:0,0:0:0:0:
54,250,77784,1,2,1:2:0:0:
152,182,77962,1,8,0:0:0:0:
58,272,78141,1,0,1:0:0:0:
98,52,78498,1,8,0:0:0:0:
43,354,78855,1,6,1:2:0:0:
43,354,81177,21,0,1:0:0:0:
43,354,81266,1,0,1:0:0:0:
43,354,81355,2,0,L|41:320,1,35,10|0,0:0|0:0,0:0:0:0:
135,233,82069,38,0,P|133:282|114:328,1,100,6|0,1:2|3:0,0:0:0:0:
58,254,82605,1,0,0:0:0:0:
206,313,82784,2,0,P|228:342|227:378,1,75.0000028610231,8|0,0:0|0:0,0:0:0:0:
286,284,83141,2,0,P|322:278|353:298,1,75.0000028610231,0|0,3:0|1:0,0:0:0:0:
369,321,83409,1,0,1:0:0:0:
369,321,83498,5,2,1:2:0:0:
394,174,83677,1,8,0:0:0:0:
374,342,83855,1,0,3:0:0:0:
431,117,84212,2,0,P|414:108|396:105,1,37.5000014305115,10|0,0:2|0:0,0:0:0:0:
319,59,84569,2,0,P|337:55|353:47,1,37.5000014305115,0|0,3:0|0:0,0:0:0:0:
243,18,84927,86,0,L|252:121,1,100,2|0,1:2|1:0,0:0:0:0:
177,50,85462,1,0,0:0:0:0:
125,134,85641,2,0,L|112:290,1,150.000005722046,8|0,0:0|3:0,0:0:0:0:
191,166,86177,1,0,1:0:0:0:
301,222,86355,5,2,1:2:0:0:
142,220,86534,1,8,0:0:0:0:
305,244,86712,2,0,P|323:240|339:232,1,37.5000014305115,0|0,1:0|0:0,0:0:0:0:
356,63,87069,2,0,P|358:87|354:112,1,50,8|0,0:0|1:2,0:0:0:0:
310,167,87427,1,8,0:0:0:0:
422,284,87605,85,8,0:0:0:0:
422,284,87694,1,8,0:0:0:0:
422,284,87784,2,0,L|413:184,1,100,6|0,1:2|3:0,0:0:0:0:
469,125,88319,1,0,0:0:0:0:
335,158,88498,1,8,0:0:0:0:
239,113,88677,1,0,0:0:0:0:
321,67,88855,2,0,L|314:142,1,75.0000028610231,0|0,3:0|1:0,0:0:0:0:
206,218,89212,5,2,1:2:0:0:
166,65,89391,1,8,0:0:0:0:
217,201,89569,2,0,L|210:275,1,75.0000028610231,0|0,1:0|0:0,0:0:0:0:
8,247,89927,1,8,0:0:0:0:
72,209,90105,1,0,0:0:0:0:
142,311,90284,2,0,P|105:303|71:286,1,75.0000028610231,0|0,1:0|0:0,0:0:0:0:
83,121,90641,86,0,L|92:224,1,100,2|0,1:2|1:0,0:0:0:0:
155,147,91177,1,0,1:0:0:0:
232,13,91355,2,0,L|222:116,1,100,8|0,0:0|3:0,0:0:0:0:
160,39,91891,2,0,L|156:74,1,25,0|8,1:0|0:0,0:0:0:0:
282,160,92069,5,2,1:2:0:0:
416,109,92248,1,8,0:0:0:0:
360,16,92427,1,0,1:0:0:0:
347,210,92605,1,8,0:0:0:0:
347,210,92694,1,8,0:0:0:0:
347,210,92784,1,8,1:3:0:0:
213,183,92962,1,4,1:3:0:0:
268,135,93141,1,0,1:0:0:0:
282,160,93319,1,0,1:0:0:0:
245,272,93498,86,0,P|199:252|149:250,1,100,6|0,1:2|3:0,0:0:0:0:
2,179,94212,2,0,P|39:172|72:155,1,75.0000028610231,8|0,0:0|0:0,0:0:0:0:
147,171,94569,2,0,P|151:133|145:97,1,75.0000028610231,0|0,3:0|1:0,0:0:0:0:
122,76,94837,1,0,1:0:0:0:
122,76,94927,5,2,1:2:0:0:
64,239,95105,1,8,0:0:0:0:
97,58,95284,1,0,3:0:0:0:
143,283,95641,2,0,P|127:291|109:295,1,37.5000014305115,10|0,0:2|0:0,0:0:0:0:
31,346,95998,2,0,P|49:349|65:357,1,37.5000014305115,0|0,3:0|0:0,0:0:0:0:
218,321,96355,86,0,L|209:218,1,100,2|0,1:2|1:0,0:0:0:0:
284,289,96891,1,0,0:0:0:0:
336,205,97069,2,0,L|349:49,1,150.000005722046,8|0,0:0|3:0,0:0:0:0:
270,173,97605,1,0,1:0:0:0:
228,40,97784,5,2,1:2:0:0:
412,133,97962,1,8,0:0:0:0:
217,61,98141,1,0,1:0:0:0:
60,279,98498,1,8,0:0:0:0:
37,211,98677,1,0,0:0:0:0:
105,188,98855,1,8,0:0:0:0:
101,371,99034,85,8,0:0:0:0:
101,371,99123,1,8,0:0:0:0:
101,371,99212,2,0,P|55:351|5:349,1,100,6|0,1:2|3:0,0:0:0:0:
128,256,99748,1,0,0:0:0:0:
222,352,99927,2,0,P|204:318|198:282,2,75.0000028610231,8|0|0,0:0|0:0|3:0,0:0:0:0:
307,203,100462,5,0,1:0:0:0:
307,203,100552,1,0,1:0:0:0:
307,203,100641,1,2,1:2:0:0:
293,375,100819,1,8,0:0:0:0:
327,184,100998,1,0,1:0:0:0:
59,276,101355,2,0,L|53:202,1,75.0000028610231,8|0,0:0|0:0,0:0:0:0:
114,159,101712,2,0,L|108:85,1,75.0000028610231,0|0,1:0|0:0,0:0:0:0:
184,249,102069,86,0,L|193:146,1,100,2|0,1:2|1:0,0:0:0:0:
256,223,102605,1,0,1:0:0:0:
333,357,102784,2,0,L|323:254,1,100,8|0,0:0|3:0,0:0:0:0:
261,331,103319,5,0,1:0:0:0:
261,331,103409,1,0,1:0:0:0:
261,331,103498,1,2,1:2:0:0:
396,235,103677,1,8,0:0:0:0:
263,355,103855,1,0,1:0:0:0:
112,300,104034,37,8,0:0:0:0:
112,300,104123,1,8,0:0:0:0:
112,300,104212,2,0,L|142:297,1,30,6|0,1:2|0:0,0:0:0:0:
209,292,104927,1,2,0:0:0:0:
166,141,110641,6,0,L|167:160,1,20,2|0,0:0|0:0,0:0:0:0:
166,141,111177,1,2,0:0:0:0:
190,120,112069,6,0,L|191:139,1,20,2|0,0:0|0:0,0:0:0:0:
190,120,112605,1,2,0:0:0:0:
214,99,113498,86,0,L|215:118,1,20,2|0,0:0|0:0,0:0:0:0:
214,99,114034,1,2,0:0:0:0:
264,196,114927,6,0,L|265:176,1,20,2|0,0:0|0:0,0:0:0:0:
282,38,115462,1,0,1:0:0:0:
282,38,115552,1,0,1:0:0:0:
282,38,115641,1,8,0:0:0:0:
332,151,115819,1,8,1:3:0:0:
425,170,115998,1,4,1:3:0:0:
390,105,116177,1,0,1:0:0:0:
366,220,116355,38,0,L|375:323,1,100,6|0,1:2|0:0,0:0:0:0:
240,202,116891,1,8,0:0:0:0:
295,250,117069,2,0,L|291:300,2,50,0|0|0,0:0|1:0|1:0,0:0:0:0:
254,42,117784,5,2,0:0:0:0:
203,95,117962,1,0,1:0:0:0:
275,113,118141,1,0,1:0:0:0:
275,113,118319,1,2,0:0:0:0:
120,58,118498,2,0,P|130:80|133:105,1,50,8|0,0:0|0:0,0:0:0:0:
222,168,118855,2,0,P|212:190|209:215,1,50,0|8,1:0|0:0,0:0:0:0:
39,203,119212,86,0,P|85:185|135:183,1,100,2|0,1:2|1:0,0:0:0:0:
187,288,119748,1,8,0:0:0:0:
295,89,120105,1,0,1:0:0:0:
315,353,120462,5,0,1:0:0:0:
315,353,120552,1,0,1:0:0:0:
315,353,120641,2,0,P|293:343|268:340,1,50,2|8,1:2|0:0,0:0:0:0:
375,298,120998,2,0,P|399:295|422:285,1,50,0|0,1:2|0:0,0:0:0:0:
309,168,121355,2,0,L|300:267,1,100,10|0,0:0|1:0,0:0:0:0:
386,195,121891,1,8,0:0:0:0:
316,81,122069,86,0,P|270:99|220:101,1,100,6|0,1:2|0:0,0:0:0:0:
121,117,122605,2,0,P|158:149|204:168,1,100,8|0,0:0|1:0,0:0:0:0:
61,160,123141,1,0,1:0:0:0:
89,342,123498,5,2,0:0:0:0:
119,283,123677,1,0,1:0:0:0:
194,255,123855,1,0,1:0:0:0:
289,311,124034,1,2,0:0:0:0:
206,375,124212,2,0,P|187:328|186:278,1,100,8|0,0:0|1:0,0:0:0:0:
301,231,124748,1,8,0:0:0:0:
413,297,124927,86,0,L|404:197,1,100,2|0,1:2|1:0,0:0:0:0:
458,149,125462,1,8,0:0:0:0:
419,368,125819,1,0,1:0:0:0:
384,53,126177,5,0,1:0:0:0:
384,53,126266,1,0,1:0:0:0:
384,53,126355,2,0,P|394:75|397:100,2,50,2|8|2,1:2|0:0|1:2,0:0:0:0:
341,149,126891,1,0,1:2:0:0:
341,149,126980,1,0,1:2:0:0:
341,149,127069,2,0,B|284:154|286:124|232:130,2,112.500004291535,8|8|8,0:0|0:0|0:0,0:0:0:0:
152,81,127784,86,0,L|160:180,1,100,6|8,1:2|0:0,0:0:0:0:
0,304,128498,1,0,1:0:0:0:
41,219,128677,1,8,1:3:0:0:
128,253,128855,1,4,1:3:0:0:
50,240,129034,1,8,0:0:0:0:
98,365,129212,6,0,P|120:355|145:352,1,50,2|0,0:0|1:0,0:0:0:0:
286,303,129569,2,0,L|186:294,1,100,8|0,0:0|0:0,0:0:0:0:
244,231,130105,1,0,1:0:0:0:
244,231,130194,1,0,1:0:0:0:
244,231,130284,1,8,0:0:0:0:
359,373,130641,86,0,P|360:323|379:277,1,100,2|8,1:2|0:0,0:0:0:0:
449,261,131177,1,0,0:0:0:0:
353,188,131355,2,0,P|375:198|400:201,1,50,0|0,1:0|1:0,0:0:0:0:
309,122,131712,2,0,P|284:124|261:134,1,50,0|8,0:0|0:0,0:0:0:0:
401,57,132069,6,0,L|301:48,1,100,2|8,0:0|0:0,0:0:0:0:
94,72,132784,1,2,1:2:0:0:
168,102,132962,1,0,1:0:0:0:
168,102,133052,1,0,1:0:0:0:
168,102,133141,1,8,0:0:0:0:
46,127,133319,85,8,0:0:0:0:
46,127,133409,1,8,0:0:0:0:
46,127,133498,2,0,P|64:173|66:222,1,100,6|0,1:2|1:0,0:0:0:0:
111,361,134034,2,0,P|112:311|131:265,1,100,10|0,0:0|1:0,0:0:0:0:
44,296,134569,1,0,1:0:0:0:
172,121,134927,6,0,P|196:123|219:133,1,50,2|0,0:0|1:0,0:0:0:0:
280,235,135284,2,0,P|270:212|267:187,1,50,0|0,1:0|0:0,0:0:0:0:
297,67,135641,2,0,L|287:174,1,100,8|0,0:0|1:0,0:0:0:0:
362,101,136177,1,8,0:0:0:0:
429,248,136355,86,0,L|420:148,1,100,2|0,1:2|1:0,0:0:0:0:
461,68,136891,2,0,P|459:117|441:164,1,100,10|0,0:0|1:0,0:0:0:0:
349,205,137427,1,0,0:0:0:0:
477,307,137605,5,0,1:0:0:0:
477,307,137694,1,0,1:0:0:0:
477,307,137784,2,0,P|454:317|429:319,1,50,2|8,1:2|0:0,0:0:0:0:
287,248,138141,2,0,P|264:237|239:235,1,50,0|0,1:0|0:0,0:0:0:0:
71,304,138498,6,0,L|68:274,1,30,10|0,1:2|1:0,0:0:0:0:
92,259,139123,5,0,1:0:0:0:
92,259,139212,2,0,L|96:204,5,50,6|2|2|2|2|2,1:2|0:0|0:0|0:0|0:0|0:0,0:0:0:0:
43,153,141177,1,0,1:0:0:0:
43,153,141266,1,0,1:0:0:0:
43,153,141355,2,0,L|40:136,1,17.5,6|0,1:2|0:0,0:0:0:0:
135,39,142069,22,0,P|117:85|114:135,1,100,6|2,1:2|0:0,0:0:0:0:
348,58,142784,2,0,L|198:71,1,150.000005722046,10|2,0:0|0:0,0:0:0:0:
313,138,143319,5,2,1:2:0:0:
313,138,143409,1,0,1:0:0:0:
313,138,143498,1,2,1:2:0:0:
432,52,143677,1,8,0:0:0:0:
296,159,143855,2,0,P|298:183|308:206,1,50,2|0,1:2|0:0,0:0:0:0:
436,251,144212,2,0,P|365:226|290:225,1,150.000005722046,10|2,0:0|1:2,0:0:0:0:
241,306,144927,86,0,P|263:295|288:293,1,50,2|0,1:2|1:0,0:0:0:0:
345,336,145462,1,0,1:0:0:0:
222,239,145641,2,0,P|199:228|174:226,1,50,10|0,0:0|0:0,0:0:0:0:
196,93,145998,2,0,P|211:112|220:135,1,50,2|0,0:0|1:0,0:0:0:0:
216,161,146266,1,0,1:0:0:0:
216,161,146355,5,2,1:2:0:0:
238,11,146534,1,8,0:0:0:0:
241,153,146712,1,2,1:2:0:0:
45,96,147069,2,0,P|79:80|116:76,1,75.0000028610231,10|0,0:0|1:0,0:0:0:0:
292,97,147427,2,0,P|326:112|363:116,1,75.0000028610231,10|8,0:0|0:0,0:0:0:0:
391,100,147694,1,8,0:0:0:0:
391,100,147784,1,6,1:2:0:0:
391,100,148141,85,2,0:0:0:0:
383,179,148319,1,2,0:0:0:0:
316,283,148498,1,10,0:0:0:0:
308,204,148676,1,2,0:0:0:0:
324,293,148855,1,2,0:0:0:0:
244,153,149034,1,0,1:2:0:0:
244,153,149123,1,0,1:2:0:0:
244,153,149212,1,2,1:2:0:0:
232,228,149391,1,10,0:0:0:0:
170,302,149569,1,2,0:0:0:0:
49,299,149748,1,2,0:0:0:0:
155,220,149927,1,10,0:0:0:0:
248,311,150105,1,2,0:0:0:0:
322,260,150284,1,2,1:2:0:0:
387,297,150462,1,2,0:0:0:0:
413,96,150641,1,2,1:2:0:0:
332,184,150819,1,2,0:0:0:0:
234,185,150998,1,2,1:2:0:0:
177,136,151177,1,2,0:0:0:0:
263,314,151355,1,10,0:0:0:0:
316,258,151533,1,2,0:0:0:0:
389,272,151712,1,2,0:0:0:0:
251,109,151891,1,0,1:2:0:0:
251,109,151980,1,0,1:2:0:0:
251,109,152069,1,2,1:2:0:0:
234,185,152248,1,10,0:0:0:0:
150,234,152427,1,2,1:2:0:0:
37,195,152605,1,8,0:0:0:0:
37,195,152694,1,8,0:0:0:0:
37,195,152784,1,2,1:2:0:0:
11,55,152962,1,10,1:3:0:0:
22,210,153141,1,2,1:2:0:0:
22,210,153498,6,0,P|68:192|118:189,1,100,6|2,1:2|0:0,0:0:0:0:
309,144,154212,2,0,P|234:142|163:117,1,150.000005722046,10|2,0:0|0:0,0:0:0:0:
267,227,154748,85,0,1:2:0:0:
267,227,154837,1,0,1:2:0:0:
267,227,154927,1,2,1:2:0:0:
290,70,155105,1,8,0:0:0:0:
273,247,155284,1,2,1:2:0:0:
390,21,155641,2,0,P|374:55|370:92,1,75.0000028610231,10|0,0:0|0:0,0:0:0:0:
438,139,155998,2,0,P|465:164|499:179,1,75.0000028610231,2|0,1:2|0:0,0:0:0:0:
429,284,156355,6,0,L|433:234,1,50,2|2,1:2|1:2,0:0:0:0:
378,186,156891,1,0,1:0:0:0:
353,300,157069,2,0,L|358:350,1,50,10|0,0:0|0:0,0:0:0:0:
279,245,157427,2,0,L|275:295,1,50,2|0,0:0|1:0,0:0:0:0:
258,312,157694,1,0,1:0:0:0:
258,312,157784,85,2,1:2:0:0:
225,172,157962,1,8,0:0:0:0:
243,327,158141,1,2,1:2:0:0:
200,82,158498,2,0,P|234:98|271:102,1,75.0000028610231,10|2,0:0|0:0,0:0:0:0:
337,145,158855,2,0,P|362:117|377:83,1,75.0000028610231,10|8,0:0|0:0,0:0:0:0:
381,57,159123,1,8,0:0:0:0:
381,57,159212,1,6,1:2:0:0:
379,206,159569,6,0,L|372:285,1,75.0000028610231,2|0,0:0|0:0,0:0:0:0:
422,384,159927,1,8,0:0:0:0:
353,285,160105,1,2,0:0:0:0:
255,288,160284,1,2,0:0:0:0:
206,345,160462,85,0,1:0:0:0:
206,345,160552,1,0,1:0:0:0:
206,345,160641,1,2,1:2:0:0:
226,182,160819,1,8,0:0:0:0:
212,360,160998,1,2,1:2:0:0:
164,123,161355,2,0,P|188:120|211:109,1,50,10|0,0:0|0:0,0:0:0:0:
282,138,161712,2,0,P|306:140|329:151,1,50,2|0,0:0|0:0,0:0:0:0:
85,151,162069,5,2,1:2:0:0:
172,232,162248,1,2,0:0:0:0:
171,323,162427,1,2,1:2:0:0:
112,366,162605,1,2,1:2:0:0:
236,309,162784,1,10,0:0:0:0:
320,341,162962,1,2,0:0:0:0:
383,306,163141,1,2,0:0:0:0:
407,246,163319,85,2,1:2:0:0:
407,246,163409,1,0,1:2:0:0:
407,246,163498,1,2,1:2:0:0:
456,384,163677,1,8,0:0:0:0:
416,223,163855,1,2,1:2:0:0:
481,42,164123,5,8,0:0:0:0:
481,42,164212,1,8,0:0:0:0:
388,133,164390,1,0,3:1:0:0:
314,82,164569,1,0,3:1:0:0:
249,119,164747,1,0,3:1:0:0:
125,97,164927,6,0,L|117:196,2,100,6|0|10,1:2|0:0|0:0,0:0:0:0:
37,35,165998,2,0,P|48:58|52:83,1,50,0|0,3:0|0:0,0:0:0:0:
15,145,166355,5,2,1:2:0:0:
128,78,166534,1,8,0:0:0:0:
23,165,166712,1,0,1:0:0:0:
157,341,167069,2,0,P|203:323|253:322,1,100,10|0,0:0|1:0,0:0:0:0:
385,274,167784,86,0,P|335:273|288:255,2,100,2|0|8,1:2|1:0|0:0,0:0:0:0:
327,350,168855,2,0,L|376:354,1,50,2|0,0:0|1:0,0:0:0:0:
403,344,169123,1,0,1:0:0:0:
403,344,169212,5,2,1:2:0:0:
458,242,169391,1,8,0:0:0:0:
401,372,169569,1,2,3:0:0:0:
375,108,169927,2,0,P|330:127|280:129,1,100,10|0,0:0|1:0,0:0:0:0:
221,78,170462,1,8,0:0:0:0:
160,197,170641,86,0,L|259:205,2,100,2|0|8,1:2|0:0|0:0,0:0:0:0:
77,281,171712,2,0,L|126:276,1,50,0|0,3:0|0:0,0:0:0:0:
205,270,172069,5,2,1:2:0:0:
85,189,172248,1,8,0:0:0:0:
202,294,172427,1,0,1:0:0:0:
223,25,172784,1,8,0:0:0:0:
193,368,173141,1,6,1:2:0:0:
193,368,175462,5,0,1:0:0:0:
193,368,175552,1,0,1:0:0:0:
193,368,175641,1,2,1:2:0:0:
265,310,175819,1,8,1:3:0:0:
358,313,175998,1,4,1:3:0:0:
421,351,176177,1,0,1:3:0:0:
434,365,176355,6,0,L|438:315,2,50,6|2|2,0:0|0:0|0:0,0:0:0:0:
438,315,177784,2,0,L|442:265,2,50,2|2|2,0:0|0:0|0:0,0:0:0:0:
442,265,179212,2,0,L|446:215,2,50,2|2|2,0:0|0:0|0:0,0:0:0:0:
446,216,180641,2,0,L|450:166,1,50,2|2,0:0|0:0,0:0:0:0:
450,167,181355,2,0,L|454:117,1,50,2|0,0:0|0:0,0:0:0:0:
367,80,182069,6,0,L|371:130,2,50,2|2|2,0:0|0:0|0:0,0:0:0:0:
371,130,183498,2,0,L|375:180,1,50,2|2,0:0|0:0,0:0:0:0:
375,180,184212,2,0,L|379:230,1,50,2|0,0:0|0:0,0:0:0:0:
379,229,184927,2,0,L|383:279,2,50,2|2|2,0:0|0:0|0:0,0:0:0:0:
379,229,185998,1,2,0:0:0:0:
310,265,186355,2,0,L|306:315,2,50,2|2|2,0:0|0:0|0:0,0:0:0:0:
231,346,187784,86,0,L|227:296,2,50,2|2|2,0:0|0:0|0:0,0:0:0:0:
227,296,189213,2,0,L|223:246,2,50,2|2|2,0:0|0:0|0:0,0:0:0:0:
223,246,190641,2,0,L|219:196,2,50,2|2|2,0:0|0:0|0:0,0:0:0:0:
219,197,192070,2,0,L|215:147,1,50,2|2,0:0|0:0,0:0:0:0:
215,148,192784,2,0,L|211:98,1,50,2|0,0:0|0:0,0:0:0:0:
140,56,193498,6,0,L|136:106,2,50,2|2|0,0:0|0:0|0:0,0:0:0:0:
136,106,194927,2,0,L|132:156,1,50,2|2,0:0|0:0,0:0:0:0:
132,156,195641,2,0,L|128:206,1,50,2|0,0:0|0:0,0:0:0:0:
128,205,196356,2,0,L|124:255,2,50,2|0|0,0:0|0:0|0:0,0:0:0:0:
124,254,197784,2,0,L|120:304,1,50,2|0,0:0|0:0,0:0:0:0:
52,197,198319,69,0,1:0:0:0:
52,197,198409,1,0,1:0:0:0:
52,197,198498,2,0,L|55:235,1,35,6|0,1:2|0:0,0:0:0:0:
114,142,199212,38,0,P|159:161|209:163,1,100,6|0,1:2|3:0,0:0:0:0:
270,121,199748,1,0,0:0:0:0:
325,208,199927,2,0,P|341:174|345:137,1,75.0000028610231,8|0,0:0|0:0,0:0:0:0:
426,144,200284,2,0,P|413:108|389:79,1,75.0000028610231,0|0,3:0|1:0,0:0:0:0:
364,67,200552,1,0,1:0:0:0:
367,70,200641,5,2,1:2:0:0:
406,220,200819,1,8,0:0:0:0:
387,52,200998,1,0,3:0:0:0:
424,304,201355,2,0,P|407:295|389:292,1,37.5000014305115,10|0,0:2|0:0,0:0:0:0:
285,278,201712,2,0,P|303:274|319:266,1,37.5000014305115,0|0,3:0|0:0,0:0:0:0:
247,124,202069,86,0,L|237:226,1,100,2|0,1:2|1:0,0:0:0:0:
177,144,202604,1,0,0:0:0:0:
95,18,202784,2,0,L|109:173,1,150.000005722046,8|0,0:0|3:0,0:0:0:0:
170,38,203319,5,0,1:0:0:0:
170,38,203409,1,0,1:0:0:0:
170,38,203498,1,2,1:2:0:0:
31,132,203677,1,8,0:0:0:0:
172,54,203855,1,0,1:0:0:0:
109,238,204212,2,0,P|77:236|44:244,1,50,8|0,0:0|1:2,0:0:0:0:
0,276,204570,1,8,0:0:0:0:
172,347,204748,85,8,0:0:0:0:
172,347,204837,1,8,0:0:0:0:
172,347,204927,2,0,L|181:247,1,100,6|0,1:2|3:0,0:0:0:0:
239,196,205462,1,0,0:0:0:0:
304,345,205641,1,8,0:0:0:0:
387,309,205819,1,0,0:0:0:0:
463,354,205998,2,0,P|479:320|483:283,1,75.0000028610231,0|0,3:0|1:0,0:0:0:0:
455,115,206355,5,2,1:2:0:0:
415,232,206534,1,8,0:0:0:0:
442,95,206712,1,0,1:0:0:0:
336,254,207069,1,8,0:0:0:0:
273,213,207248,1,0,0:0:0:0:
193,257,207427,2,0,P|230:252|264:237,1,75.0000028610231,0|0,1:0|0:0,0:0:0:0:
350,73,207784,86,0,L|340:175,1,100,2|0,1:2|1:0,0:0:0:0:
280,93,208319,1,0,1:0:0:0:
208,148,208498,2,0,L|198:45,1,100,8|0,0:0|3:0,0:0:0:0:
138,128,209034,5,0,1:0:0:0:
138,128,209123,1,0,1:0:0:0:
138,128,209212,1,2,1:2:0:0:
64,118,209391,1,8,0:0:0:0:
1,195,209569,1,0,1:0:0:0:
25,318,209748,1,8,0:0:0:0:
25,318,209837,1,8,0:0:0:0:
25,318,209927,1,8,1:3:0:0:
111,267,210105,1,4,1:3:0:0:
185,277,210284,1,0,1:0:0:0:
213,302,210462,1,0,1:0:0:0:
303,204,210641,86,0,P|284:249|282:299,1,100,6|0,1:2|3:0,0:0:0:0:
343,339,211177,1,0,0:0:0:0:
427,173,211355,2,0,P|389:168|356:152,1,75.0000028610231,8|0,0:0|0:0,0:0:0:0:
372,1,211712,2,0,P|367:38|374:74,1,75.0000028610231,0|0,3:0|1:0,0:0:0:0:
394,95,211980,1,0,1:0:0:0:
394,95,212069,5,2,1:2:0:0:
258,60,212248,1,8,0:0:0:0:
401,71,212427,1,0,3:0:0:0:
183,56,212784,2,0,P|164:59|147:68,1,37.5000014305115,10|0,0:2|0:0,0:0:0:0:
47,90,213141,2,0,P|63:98|82:102,1,37.5000014305115,0|0,3:0|0:0,0:0:0:0:
193,195,213498,86,0,P|143:196|97:215,1,100,2|0,1:2|1:0,0:0:0:0:
159,262,214034,1,0,0:0:0:0:
0,304,214212,2,0,P|74:306|143:335,1,150,8|0,0:0|3:0,0:0:0:0:
60,376,214748,5,0,1:0:0:0:
60,376,214837,1,0,1:2:0:0:
60,376,214927,1,2,1:2:0:0:
31,181,215105,1,8,0:0:0:0:
32,369,215284,1,0,1:0:0:0:
86,126,215641,1,8,0:0:0:0:
136,186,215819,1,0,0:0:0:0:
240,200,215998,1,8,0:0:0:0:
345,115,216177,85,8,0:0:0:0:
345,115,216266,1,8,0:0:0:0:
345,115,216355,2,0,L|335:222,1,100,6|0,1:2|3:0,0:0:0:0:
412,149,216891,1,0,0:0:0:0:
436,289,217069,2,0,P|440:251|456:218,1,75.0000028610231,8|0,0:0|0:0,0:0:0:0:
363,372,217427,2,0,P|339:342|327:307,1,75.0000028610231,0|0,3:0|1:0,0:0:0:0:
330,284,217694,1,0,1:0:0:0:
330,284,217784,5,2,1:2:0:0:
341,165,217962,1,8,0:0:0:0:
306,295,218141,1,0,1:0:0:0:
67,121,218498,2,0,L|73:195,1,75.0000028610231,8|0,0:0|0:0,0:0:0:0:
146,246,218855,2,0,L|152:172,1,75.0000028610231,0|0,1:0|0:0,0:0:0:0:
196,66,219212,86,0,P|195:116|176:162,1,100,2|0,1:2|1:0,0:0:0:0:
125,79,219748,1,0,1:0:0:0:
269,12,219927,2,0,P|270:61|289:107,1,100,8|0,0:0|3:0,0:0:0:0:
340,24,220462,5,0,1:0:0:0:
340,24,220552,1,0,1:0:0:0:
340,24,220641,1,2,1:2:0:0:
300,176,220819,1,8,0:0:0:0:
350,36,220998,1,0,1:0:0:0:
378,201,221177,37,8,0:0:0:0:
378,201,221266,1,8,0:0:0:0:
378,201,221355,2,0,L|380:232,1,30,4|0,1:2|0:0,0:0:0:0:
366,320,222069,70,0,P|353:285|364:250,1,75.0000028610231,6|2,1:2|0:0,0:0:0:0:
457,167,222784,2,0,L|443:322,1,150.000005722046,10|2,0:0|0:0,0:0:0:0:
281,283,223319,5,0,1:0:0:0:
281,283,223409,1,0,1:0:0:0:
281,283,223498,1,2,1:2:0:0:
380,230,223677,1,8,0:0:0:0:
284,307,223855,1,2,1:2:0:0:
157,144,224212,2,0,P|200:203|200:277,1,150.000005722046,10|2,0:0|1:2,0:0:0:0:
249,69,224927,86,0,P|240:86|237:104,1,37.5000014305115,2|0,1:2|0:0,0:0:0:0:
164,68,225284,2,0,P|155:51|152:33,1,37.5000014305115,2|0,1:2|0:0,0:0:0:0:
97,99,225641,2,0,L|111:249,1,150.000005722046,10|2,0:0|0:0,0:0:0:0:
25,182,226177,5,0,1:0:0:0:
25,182,226266,1,0,1:0:0:0:
25,182,226355,1,2,1:2:0:0:
118,346,226534,1,8,0:0:0:0:
136,167,226712,1,2,1:2:0:0:
45,379,227069,2,0,L|195:365,1,150.000005722046,10|0,0:0|1:0,0:0:0:0:
239,297,227605,1,8,0:0:0:0:
383,381,227784,86,0,P|365:347|359:311,1,75.0000028610231,2|2,1:2|0:0,0:0:0:0:
335,163,228498,2,0,P|378:222|378:296,1,150.000005722046,10|2,0:0|0:0,0:0:0:0:
407,123,229034,5,0,1:0:0:0:
407,123,229123,1,0,1:0:0:0:
407,123,229212,1,2,1:2:0:0:
310,265,229391,1,8,0:0:0:0:
386,99,229569,1,2,1:2:0:0:
189,26,229927,2,0,L|203:176,1,150.000005722046,10|2,0:0|1:2,0:0:0:0:
102,115,230641,86,0,P|133:96|170:101,1,75.0000028610231,2|2,1:2|1:2,0:0:0:0:
130,181,231177,1,0,1:0:0:0:
51,68,231355,1,10,0:0:0:0:
15,134,231534,1,2,0:0:0:0:
29,230,231712,1,2,0:0:0:0:
122,301,231891,5,0,1:0:0:0:
122,301,231980,1,0,1:0:0:0:
122,301,232069,1,2,1:2:0:0:
130,181,232248,1,8,0:0:0:0:
105,312,232427,1,2,1:2:0:0:
187,55,232784,2,0,P|187:128|230:188,1,150.000005722046,10|10,0:0|0:0,0:0:0:0:
304,214,233319,1,8,0:0:0:0:
458,155,233498,86,0,L|451:229,1,75.0000028610231,6|2,1:2|0:0,0:0:0:0:
442,340,234212,2,0,L|428:190,1,150.000005722046,10|2,0:0|0:0,0:0:0:0:
467,76,234748,5,0,1:2:0:0:
467,76,234837,1,0,1:2:0:0:
467,76,234927,1,2,1:2:0:0:
361,153,235105,1,8,0:0:0:0:
458,56,235284,1,2,1:2:0:0:
357,257,235641,2,0,P|297:213|223:213,1,150.000005722046,10|2,0:0|1:2,0:0:0:0:
224,213,236355,86,0,P|239:246|272:263,1,75.0000028610231,2|2,1:2|1:2,0:0:0:0:
97,301,237069,2,0,L|91:227,1,75.0000028610231,10|0,0:0|0:0,0:0:0:0:
152,184,237427,2,0,L|146:110,1,75.0000028610231,2|0,0:0|1:0,0:0:0:0:
145,80,237695,1,0,1:0:0:0:
145,80,237784,5,2,1:2:0:0:
38,178,237962,1,8,0:0:0:0:
141,54,238141,1,2,1:2:0:0:
240,212,238498,2,0,L|90:225,1,150.000005722046,10|2,0:0|1:2,0:0:0:0:
205,287,239034,1,8,0:0:0:0:
334,201,239212,86,0,P|316:235|310:271,1,75.0000028610231,2|2,1:2|0:0,0:0:0:0:
421,297,239927,2,0,L|407:147,1,150.000005722046,10|2,0:0|0:0,0:0:0:0:
490,188,240462,1,0,1:0:0:0:
427,370,240641,5,2,1:2:0:0:
264,333,240819,1,8,0:0:0:0:
408,384,240998,1,2,1:2:0:0:
136,224,241355,2,0,P|179:283|179:357,1,150.000005722046,10|2,0:0|1:2,0:0:0:0:
241,145,242069,86,0,L|235:219,1,75.0000028610231,2|0,1:2|1:0,0:0:0:0:
156,150,242605,1,0,1:0:0:0:
255,306,242784,1,10,0:0:0:0:
336,218,242962,1,2,0:0:0:0:
434,217,243141,1,2,0:0:0:0:
491,266,243319,5,0,1:0:0:0:
491,266,243409,1,0,1:0:0:0:
491,266,243498,1,0,1:0:0:0:
421,90,243677,1,8,0:0:0:0:
477,284,243855,1,2,3:0:0:0:
424,382,244034,1,0,1:0:0:0:
424,382,244123,1,0,1:0:0:0:
424,382,244212,1,10,1:3:0:0:
316,308,244391,1,4,1:3:0:0:
252,371,244570,1,0,1:0:0:0:
182,346,244748,1,0,0:0:0:0:
182,346,244927,22,0,P|157:348|133:342,2,50,2|2|2,0:0|0:0|0:0,0:0:0:0:
133,342,246355,2,0,P|112:330|95:311,2,50,2|2|2,0:0|0:0|0:0,0:0:0:0:
96,312,247784,2,0,P|86:289|84:264,1,50,2|2,0:0|0:0,0:0:0:0:
84,264,248498,2,0,P|89:240|102:218,1,50,2|2,0:0|0:0,0:0:0:0:
101,218,249212,2,0,P|119:201|141:190,2,50,2|2|2,0:0|0:0|0:0,0:0:0:0:
101,219,250284,1,0,0:0:0:0:
191,90,250641,6,0,P|189:115|195:139,2,50,2|2|2,0:0|0:0|0:0,0:0:0:0:
195,139,252069,2,0,P|207:160|226:177,2,50,2|2|2,0:0|0:0|0:0,0:0:0:0:
225,176,253498,2,0,P|248:186|273:188,1,50,2|2,0:0|0:0,0:0:0:0:
273,188,254212,2,0,P|297:183|319:170,1,50,2|2,0:0|0:0,0:0:0:0:
319,171,254926,2,0,P|336:153|347:131,2,50,2|2|2,0:0|0:0|0:0,0:0:0:0:
319,171,255998,1,2,0:0:0:0:
489,107,256355,86,0,L|485:158,1,50,2|0,0:0|0:0,0:0:0:0:
485,157,257069,2,0,L|481:208,1,50,2|0,0:0|0:0,0:0:0:0:
403,192,257784,6,0,L|408:243,1,50,2|0,0:0|0:0,0:0:0:0:
408,242,258498,2,0,L|413:293,1,50,2|0,0:0|0:0,0:0:0:0:
469,367,259212,85,2,0:0:0:0:
486,303,259569,1,2,0:0:0:0:
337,276,259927,1,2,0:0:0:0:
354,340,260284,1,2,0:0:0:0:
228,365,260641,2,0,L|232:315,2,50,2|2|2,0:0|0:0|0:0,0:0:0:0:
192,193,262069,6,0,P|194:218|188:242,2,50,2|2|2,0:0|0:0|0:0,0:0:0:0:
188,242,263498,2,0,P|176:263|157:280,2,50,2|2|2,0:0|0:0|0:0,0:0:0:0:
157,280,264926,2,0,P|134:290|109:292,2,50,2|2|2,0:0|0:0|0:0,0:0:0:0:
157,280,265998,1,2,0:0:0:0:
