osu file format v14

[General]
AudioFilename: audio.mp3
AudioLeadIn: 0
PreviewTime: 157479
Countdown: 0
SampleSet: Soft
StackLeniency: 0.6
Mode: 0
LetterboxInBreaks: 0
WidescreenStoryboard: 0

[Editor]
Bookmarks: 19634,30668,41703,52737,63772,77565,88599,99634,110668,124461,129979,135496,157565,163082,168599,182392,193255
DistanceSpacing: 0.4
BeatDivisor: 4
GridSize: 4
TimelineZoom: 2.8

[Metadata]
Title:Kimi to Nagameru Natsu no Hana
TitleUnicode:君と眺める夏の花
Artist:Natsuiro Matsuri
ArtistUnicode:夏色まつり
Creator:Ayucchi
Version:Wasshoi!
Source:
Tags:japanese pop rock メリッサ LockP_melissa hololive ホロライブ seiso idol vtuber virtual youtuber full version
BeatmapID:2494075
BeatmapSetID:1197338

[Difficulty]
HPDrainRate:6
CircleSize:4
OverallDifficulty:8.7
ApproachRate:9.3
SliderMultiplier:1.8
SliderTickRate:1

[Events]
//Background and Video events
0,0,"matsuridaisuki.jpg",0,0
//Break Periods
2,124661,129425
//Storyboard Layer 0 (Background)
//Storyboard Layer 1 (Fail)
//Storyboard Layer 2 (Pass)
//Storyboard Layer 3 (Foreground)
//Storyboard Layer 4 (Overlay)
//Storyboard Sound Samples

[TimingPoints]
18255,344.827586206897,4,2,1,40,1,0
19634,-100,4,2,1,65,0,0
30668,-125,4,2,1,45,0,0
41358,-166.666666666667,4,2,1,45,0,0
41703,-111.111111111111,4,2,1,55,0,0
52737,-90.9090909090909,4,2,1,65,0,0
57910,-125,4,2,1,65,0,0
63427,-250,4,2,1,65,0,0
63772,-76.9230769230769,4,2,1,85,0,1
65841,-66.6666666666667,4,2,1,85,0,1
66530,-76.9230769230769,4,2,1,85,0,1
71358,-66.6666666666667,4,2,1,85,0,1
72048,-90.9090909090909,4,2,1,85,0,1
76186,-90.9090909090909,4,2,1,85,0,0
76272,-90.9090909090909,4,2,1,5,0,0
77565,-100,4,2,1,65,0,0
88255,-250,4,2,1,65,0,0
88599,-250,4,2,1,55,0,0
89979,-100,4,2,1,55,0,0
91013,-125,4,2,1,55,0,0
91358,-111.111111111111,4,2,1,55,0,0
99634,-90.9090909090908,4,2,1,65,0,0
106013,-125,4,2,1,65,0,0
107020,344.827586206897,4,2,1,65,1,0
107565,344.827586206897,4,2,1,65,1,0
107910,344.827586206897,4,2,1,65,1,0
107910,-125,4,2,1,65,0,0
110323,-250,4,2,1,65,0,0
110668,-76.9230769230769,4,2,1,85,0,1
112737,-66.6666666666667,4,2,1,85,0,1
113427,-76.9230769230769,4,2,1,85,0,1
118944,-90.9090909090909,4,2,1,85,0,1
123082,-90.9090909090909,4,2,1,85,0,0
123168,-90.9090909090909,4,2,1,5,0,0
124461,-90.9090909090909,4,2,1,65,0,0
129979,-125,4,2,1,45,0,0
135496,-100,4,2,1,65,0,0
146358,-90.9090909090909,4,2,1,65,0,0
152048,-90.9090909090909,4,2,1,75,0,0
154806,-90.9090909090909,4,2,1,65,0,0
156013,-125,4,2,1,65,0,0
157565,-200,4,2,1,55,0,0
163082,-125,4,2,1,55,0,0
168255,-250,4,2,1,55,0,0
168599,-76.9230769230769,4,2,1,85,0,1
170668,-66.6666666666667,4,2,1,85,0,1
171358,-76.9230769230769,4,2,1,85,0,1
176530,-66.6666666666667,4,2,1,85,0,1
176875,-90.9090909090909,4,2,1,85,0,1
181013,-90.9090909090909,4,2,1,85,0,0
181099,-90.9090909090909,4,2,1,5,0,0
182392,-90.9090909090909,4,2,1,65,0,0
192737,-90.9090909090909,4,2,1,85,0,0

[Colours]
Combo1 : 225,198,153
Combo2 : 181,101,29
Combo3 : 131,105,83

[HitObjects]
147,75,19634,6,0,P|99:77|26:88,1,90,6|2,3:2|2:0,0:0:0:0:
40,72,19892,1,2,2:0:0:0:
40,72,19979,2,0,L|31:19,1,45,2|0,1:2|0:0,0:0:0:0:
150,200,20151,2,0,L|141:147,1,45,2|0,2:0|0:0,0:0:0:0:
21,357,20323,6,0,P|11:304|31:262,1,90,2|2,3:2|2:0,0:0:0:0:
51,259,20582,1,2,2:0:0:0:
51,259,20668,2,0,L|116:270,1,45,2|0,1:2|0:0,0:0:0:0:
223,165,20841,2,0,L|288:154,1,45,2|0,2:0|0:0,0:0:0:0:
435,240,21013,6,0,B|390:250|415:279|320:287,1,90,2|2,3:2|2:0,0:0:0:0:
342,303,21272,1,2,2:0:0:0:
342,303,21358,2,0,P|332:335|340:367,1,45,2|0,1:2|0:0,0:0:0:0:
502,278,21530,2,0,P|512:246|504:214,1,45,2|0,2:0|0:0,0:0:0:0:
357,105,21703,6,0,P|314:144|366:205,1,135,2|0,3:2|0:0,0:0:0:0:
461,45,22048,6,0,B|391:59|419:4|318:27,1,135,2|0,1:2|0:0,0:0:0:0:
170,80,22392,6,0,B|231:89|267:68|267:68|243:94|242:136,1,135,2|0,3:2|0:0,0:0:0:0:
289,162,22737,1,0,1:2:0:0:
134,13,22910,1,2,2:0:0:0:
119,24,22996,1,2,2:0:0:0:
106,37,23082,2,0,P|92:87|115:130,1,90,2|0,3:2|0:0,0:0:0:0:
222,228,23427,2,0,P|179:197|131:204,1,90,0|0,1:2|0:0,0:0:0:0:
56,335,23772,5,0,3:2:0:0:
158,275,23944,2,0,L|106:279,1,45,2|2,2:0|2:0,0:0:0:0:
294,191,24117,1,2,1:2:0:0:
219,351,24289,1,2,2:0:0:0:
365,284,24461,1,2,1:2:0:0:
346,284,24548,1,0,1:2:0:0:
328,284,24634,1,2,1:2:0:0:
439,174,24806,2,0,L|452:270,1,90,2|0,1:2|3:2,0:0:0:0:
279,136,25151,6,0,P|334:108|381:115,1,90,6|2,2:0|2:0,0:0:0:0:
377,121,25410,1,2,2:0:0:0:
377,121,25496,2,0,L|384:58,1,45,2|0,1:2|0:0,0:0:0:0:
215,33,25668,2,0,L|222:96,1,45,2|0,2:0|0:0,0:0:0:0:
206,294,25841,6,0,P|202:239|179:194,1,90,2|2,3:2|2:0,0:0:0:0:
179,193,26099,1,2,2:0:0:0:
179,193,26186,2,0,L|253:196,1,45,2|0,1:2|0:0,0:0:0:0:
138,68,26358,2,0,L|64:71,1,45,2|0,2:0|0:0,0:0:0:0:
0,238,26530,6,0,P|55:246|98:233,1,90,2|2,3:2|2:0,0:0:0:0:
103,230,26789,1,2,2:0:0:0:
103,230,26875,2,0,P|96:259|96:287,1,45,2|0,1:2|0:0,0:0:0:0:
275,366,27048,2,0,P|282:337|282:309,1,45,2|0,2:0|0:0,0:0:0:0:
179,193,27220,6,0,P|246:199|326:223,1,135,2|0,3:2|0:0,0:0:0:0:
398,124,27565,2,0,B|382:93|343:81|343:81|317:106|316:146,1,135,2|0,1:2|0:0,0:0:0:0:
370,271,27910,5,2,1:2:0:0:
228,26,28082,1,0,3:2:0:0:
59,254,28255,1,0,3:2:0:0:
317,137,28427,5,2,1:2:0:0:
61,93,28599,1,0,3:2:0:0:
69,349,28772,1,0,3:2:0:0:
296,214,28944,5,2,1:2:0:0:
7,177,29117,1,0,3:2:0:0:
241,374,29289,1,0,3:2:0:0:
62,95,29461,5,2,1:2:0:0:
337,147,29634,1,0,3:2:0:0:
62,95,29806,1,0,3:2:0:0:
262,72,29979,1,2,1:2:0:0:
266,89,30065,1,0,1:2:0:0:
270,106,30151,1,2,1:2:0:0:
162,234,30323,2,0,B|180:178|225:173|225:173|236:184|267:185,1,135,2|0,3:2|0:0,0:0:0:0:
274,197,30668,6,0,P|293:231|296:295,1,96,2|2,3:2|2:0,0:0:0:0:
399,367,31013,2,0,P|400:331|418:300,1,72,2|2,3:2|2:0,0:0:0:0:
442,126,31358,2,0,L|342:140,1,72,2|2,3:2|2:0,0:0:0:0:
224,278,31703,2,0,L|324:292,1,72,2|2,3:2|2:0,0:0:0:0:
371,136,32048,6,0,B|295:136|322:190|222:186,3,144,2|2|2|2,3:2|3:2|3:2|3:2,0:0:0:0:
172,90,33255,1,2,2:0:0:0:
172,90,33341,1,2,2:0:0:0:
172,90,33427,6,0,P|212:100|252:102,1,72,2|0,3:2|0:0,0:0:0:0:
252,271,33772,2,0,P|212:261|172:259,1,72,2|0,3:2|0:0,0:0:0:0:
91,207,34117,2,0,L|106:120,1,72,2|0,3:2|0:0,0:0:0:0:
11,265,34461,2,0,L|26:352,1,72,2|0,3:2|0:0,0:0:0:0:
133,384,34806,5,2,3:2:0:0:
163,239,34979,1,2,2:0:0:0:
246,339,35151,1,2,3:2:0:0:
102,298,35323,1,2,2:0:0:0:
294,272,35496,1,2,3:2:0:0:
294,272,35582,2,0,P|341:277|371:295,1,72,0|0,1:2|0:0,0:0:0:0:
372,299,35841,2,0,L|375:210,1,72,0|0,1:2|3:2,0:0:0:0:
428,170,36099,1,0,1:2:0:0:
428,170,36186,6,0,P|398:150|337:158,1,96,2|2,3:2|2:0,0:0:0:0:
211,238,36530,2,0,P|241:258|295:249,1,72,2|2,3:2|2:0,0:0:0:0:
256,103,36875,2,0,L|259:183,1,72,2|2,3:2|2:0,0:0:0:0:
428,170,37220,1,2,3:2:0:0:
376,15,37392,1,2,1:2:0:0:
376,15,37479,1,0,1:2:0:0:
376,15,37565,6,0,P|314:23|214:30,3,144,2|2|2|2,3:2|3:2|3:2|3:2,0:0:0:0:
99,118,38772,1,0,0:0:0:0:
99,118,38944,6,0,P|107:173|104:207,1,72,2|0,3:2|0:0,0:0:0:0:
248,112,39289,2,0,P|240:57|243:23,1,72,2|0,1:2|0:0,0:0:0:0:
119,36,39634,2,0,L|48:44,1,72,2|0,3:2|0:0,0:0:0:0:
211,195,39979,2,0,L|282:203,1,72,2|0,1:2|0:0,0:0:0:0:
24,124,40323,5,2,3:2:0:0:
142,237,40496,1,0,3:2:0:0:
59,202,40668,1,0,1:2:0:0:
130,147,40841,1,0,3:2:0:0:
74,287,41013,1,2,2:3:0:0:
75,294,41099,1,2,2:3:0:0:
76,301,41186,1,2,2:3:0:0:
77,308,41272,1,2,2:3:0:0:
78,315,41358,2,0,B|122:318|122:318|159:298,1,80.9999975280763,2|0,1:3|0:0,0:0:0:0:
160,285,41703,6,0,L|240:296,1,80.9999975280763,6|2,2:0|2:0,0:0:0:0:
278,208,41961,1,0,3:2:0:0:
278,208,42048,2,0,L|359:197,1,80.9999975280763,2|2,1:2|2:0,0:0:0:0:
455,73,42392,1,2,3:2:0:0:
404,265,42565,1,2,3:2:0:0:
312,123,42737,1,2,1:2:0:0:
495,200,42910,1,2,2:0:0:0:
314,286,43082,6,0,B|214:280|274:344|142:334,1,161.999995056153,2|2,3:2|1:2,0:0:0:0:
359,197,43599,1,0,3:2:0:0:
451,348,43772,2,0,P|417:343|358:345,1,80.9999975280763,2|0,3:2|3:2,0:0:0:0:
184,257,44117,2,0,P|168:206|212:161,1,121.499996292114,2|0,1:2|0:0,0:0:0:0:
227,153,44461,6,0,P|229:100|215:54,1,80.9999975280763,2|0,3:2|0:0,0:0:0:0:
391,30,44806,2,0,P|389:83|403:129,1,80.9999975280763,2|0,1:2|0:0,0:0:0:0:
277,212,45151,1,2,3:2:0:0:
304,54,45323,1,0,3:2:0:0:
478,125,45496,2,0,L|490:223,1,80.9999975280763,2|0,1:2|0:0,0:0:0:0:
304,343,45841,5,2,3:2:0:0:
443,274,46013,1,2,2:0:0:0:
277,212,46186,1,2,1:2:0:0:
413,364,46358,1,2,3:2:0:0:
230,282,46530,1,2,2:3:0:0:
230,282,46617,1,2,2:3:0:0:
230,282,46703,1,2,3:0:0:0:
378,106,46875,2,0,P|402:163|377:217,1,121.499996292114,0|0,1:2|0:0,0:0:0:0:
357,222,47220,6,0,L|271:211,1,80.9999975280763,6|2,2:0|2:0,0:0:0:0:
206,118,47479,1,0,3:2:0:0:
206,118,47565,2,0,L|120:129,1,80.9999975280763,2|2,1:2|2:0,0:0:0:0:
0,248,47910,1,2,3:2:0:0:
62,78,48082,1,2,3:2:0:0:
173,237,48255,1,2,1:2:0:0:
0,154,48427,1,2,3:2:0:0:
178,48,48599,6,0,P|243:57|340:55,1,161.999995056153,2|2,3:2|1:2,0:0:0:0:
458,151,49117,1,0,3:2:0:0:
288,217,49289,2,0,P|293:158|317:113,1,80.9999975280763,2|0,3:2|3:2,0:0:0:0:
482,225,49634,2,0,P|404:264|367:233,1,121.499996292114,2|0,1:2|0:0,0:0:0:0:
367,240,49979,6,0,L|376:348,1,80.9999975280763,2|0,3:2|0:0,0:0:0:0:
199,262,50323,2,0,L|205:181,1,80.9999975280763,2|0,1:2|0:0,0:0:0:0:
360,154,50668,1,2,3:2:0:0:
204,40,50841,1,0,3:2:0:0:
351,65,51013,1,2,1:2:0:0:
135,110,51186,1,0,0:0:0:0:
292,219,51358,6,0,P|348:229|417:233,1,121.499996292114,2|0,3:2|0:0,0:0:0:0:
427,223,51703,2,0,P|406:263|415:323,1,80.9999975280763,0|0,1:2|0:0,0:0:0:0:
237,319,52048,5,0,1:2:0:0:
240,303,52134,1,0,1:2:0:0:
243,287,52220,2,0,L|189:279,1,40.4999987640381,0|0,3:2|0:0,0:0:0:0:
37,258,52392,1,2,1:2:0:0:
50,296,52479,1,0,1:2:0:0:
33,333,52565,1,0,1:2:0:0:
52,368,52651,1,0,1:2:0:0:
52,368,52737,6,0,P|106:342|182:345,1,99.0000030212403,6|0,1:2|0:0,0:0:0:0:
195,206,52996,2,0,P|152:217|128:279,1,99.0000030212403,0|0,3:2|0:0,0:0:0:0:
222,384,53255,2,0,P|223:358|230:330,1,49.5000015106202,2|0,3:2|0:0,0:0:0:0:
272,120,53427,6,0,L|281:240,1,99.0000030212403,6|0,1:2|0:0,0:0:0:0:
443,188,53686,2,0,B|398:166|398:166|349:183,1,99.0000030212403,0|0,3:2|0:0,0:0:0:0:
329,360,53944,1,2,3:2:0:0:
341,374,54030,1,0,0:0:0:0:
358,383,54117,6,0,P|394:335|375:226,1,148.50000453186,6|0,1:2|0:0,0:0:0:0:
351,182,54461,5,2,1:2:0:0:
346,162,54548,1,2,2:0:0:0:
349,142,54634,1,2,1:2:0:0:
355,123,54720,1,2,2:0:0:0:
369,109,54806,5,2,3:2:0:0:
374,89,54893,1,2,2:0:0:0:
371,69,54979,1,2,1:2:0:0:
365,50,55065,1,2,2:0:0:0:
348,52,55151,6,0,B|331:91|331:91|260:112|220:55,1,148.50000453186,6|0,1:2|0:0,0:0:0:0:
232,70,55496,6,0,P|224:125|232:195,1,99.0000030212403,6|0,1:2|0:0,0:0:0:0:
105,243,55755,2,0,P|103:202|155:181,1,99.0000030212403,0|0,3:2|0:0,0:0:0:0:
250,249,56013,2,0,L|192:244,1,49.5000015106202,2|0,3:2|0:0,0:0:0:0:
64,362,56186,6,0,B|36:350|36:350|18:308|54:255,1,99.0000030212403,6|0,1:2|0:0,0:0:0:0:
70,165,56444,2,0,P|112:217|96:254,1,99.0000030212403,0|0,3:2|0:0,0:0:0:0:
0,95,56703,2,0,L|66:87,1,49.5000015106202,2|0,3:2|0:0,0:0:0:0:
201,32,56875,6,0,B|292:42|231:92|368:94,1,148.50000453186,6|0,1:2|0:0,0:0:0:0:
199,109,57220,5,2,3:2:0:0:
182,120,57306,1,2,3:2:0:0:
173,137,57392,1,2,3:2:0:0:
173,156,57479,1,2,2:0:0:0:
181,173,57565,6,0,P|212:185|260:185,1,49.5000015106202,2|0,3:2|0:0,0:0:0:0:
273,275,57737,2,0,P|301:257|330:219,1,49.5000015106202,2|0,3:2|0:0,0:0:0:0:
440,200,57910,2,0,P|410:252|416:320,1,108,6|0,1:2|0:0,0:0:0:0:
426,317,58255,6,0,B|337:313|382:369|268:365,1,144,6|0,1:2|0:0,0:0:0:0:
170,264,58772,1,2,3:2:0:0:
212,184,58944,2,0,L|221:342,1,144,2|0,2:0|1:2,0:0:0:0:
299,285,59461,1,2,2:0:0:0:
150,364,59634,6,0,P|106:348|89:325,1,72,2|0,3:2|0:0,0:0:0:0:
5,330,59979,2,0,P|-7:284|1:257,1,72,2|0,2:0|3:2,0:0:0:0:
50,138,60323,2,0,L|59:222,1,72,2|0,2:0|0:0,0:0:0:0:
165,292,60668,2,0,L|156:208,1,72,2|0,1:2|0:0,0:0:0:0:
78,65,61013,5,2,1:2:0:0:
242,215,61186,1,0,3:2:0:0:
14,274,61358,1,2,3:2:0:0:
169,3,61530,2,0,L|160:82,1,72,2|0,1:2|3:2,0:0:0:0:
165,292,61875,5,0,3:2:0:0:
279,130,62048,2,0,L|200:139,1,72,2|0,1:2|3:2,0:0:0:0:
437,183,62392,5,2,1:2:0:0:
445,191,63255,1,0,3:2:0:0:
445,191,63341,1,0,3:2:0:0:
445,191,63427,2,0,L|387:207,1,54,0|0,1:2|0:0,0:0:0:0:
312,184,63772,6,0,P|354:225|324:315,1,116.999994644165,6|2,3:2|3:2,0:0:0:0:
304,347,64030,1,0,3:2:0:0:
304,347,64117,2,0,L|228:328,1,58.4999973220826,2|0,1:2|0:0,0:0:0:0:
110,257,64289,2,0,L|34:276,1,58.4999973220826,2|0,1:2|0:0,0:0:0:0:
66,106,64461,6,0,B|86:84|86:84|147:84|187:137,1,116.999994644165,2|2,3:2|3:2,0:0:0:0:
216,197,64720,1,0,3:2:0:0:
216,197,64806,2,0,P|212:231|187:269,1,58.4999973220826,2|0,1:2|0:0,0:0:0:0:
13,203,64979,2,0,P|1:176|0:147,1,58.4999973220826,2|0,1:2|0:0,0:0:0:0:
154,19,65151,6,0,B|228:19|188:64|269:62,1,116.999994644165,2|2,3:2|3:2,0:0:0:0:
350,36,65410,1,0,3:2:0:0:
350,36,65496,2,0,B|337:64|337:64|341:114,1,58.4999973220826,2|0,1:2|0:0,0:0:0:0:
494,222,65668,2,0,B|507:194|507:194|503:144,1,58.4999973220826,2|0,1:2|0:0,0:0:0:0:
314,255,65841,6,0,B|307:295|307:295|335:348|413:348|463:283,1,202.500007724762,2|0,3:1|0:0,0:0:0:0:
427,177,66186,2,0,B|318:153|363:253|233:218,1,202.500007724762,2|0,1:0|0:0,0:0:0:0:
138,223,66530,6,0,B|152:215|161:197|161:197|150:237|179:279,1,116.999994644165,2|0,3:2|3:2,0:0:0:0:
213,346,66789,1,2,3:2:0:0:
213,346,66875,2,0,L|135:363,1,58.4999973220826,2|0,1:2|0:0,0:0:0:0:
6,245,67048,2,0,L|63:257,1,58.4999973220826,2|0,1:2|0:0,0:0:0:0:
291,384,67220,6,0,P|337:330|312:278,1,116.999994644165,2|0,3:2|3:2,0:0:0:0:
255,251,67479,1,0,3:2:0:0:
255,251,67565,2,0,P|252:226|274:179,1,58.4999973220826,2|0,1:2|0:0,0:0:0:0:
460,124,67737,2,0,P|469:151|466:180,1,58.4999973220826,2|0,1:2|0:0,0:0:0:0:
325,291,67910,5,2,3:2:0:0:
345,70,68082,2,0,L|424:79,1,58.4999973220826,2|0,1:2|1:2,0:0:0:0:
413,267,68255,5,2,3:2:0:0:
222,29,68427,2,0,L|301:20,1,58.4999973220826,2|0,1:2|0:0,0:0:0:0:
152,115,68599,5,2,1:2:0:0:
134,113,68686,1,0,1:2:0:0:
116,111,68772,2,0,P|108:80|127:39,1,58.4999973220826,0|0,3:2|0:0,0:0:0:0:
296,131,68944,5,0,1:2:0:0:
317,172,69030,1,0,1:2:0:0:
294,213,69117,1,0,1:2:0:0:
321,256,69203,1,0,1:2:0:0:
321,256,69289,6,0,B|263:240|263:240|203:270,1,116.999994644165,6|2,1:2|3:2,0:0:0:0:
137,311,69548,1,0,3:2:0:0:
137,311,69634,2,0,L|124:224,1,58.4999973220826,2|0,1:2|0:0,0:0:0:0:
329,198,69806,2,0,L|316:285,1,58.4999973220826,2|0,1:2|0:0,0:0:0:0:
71,198,69979,6,0,B|61:169|61:169|101:128|166:150,1,116.999994644165,2|2,3:2|3:2,0:0:0:0:
207,194,70237,1,0,3:2:0:0:
207,194,70323,2,0,P|224:157|208:100,1,58.4999973220826,2|0,1:2|0:0,0:0:0:0:
36,42,70496,2,0,P|19:79|35:136,1,58.4999973220826,2|0,1:2|0:0,0:0:0:0:
304,79,70668,6,0,P|260:43|203:45,1,116.999994644165,2|2,3:2|3:2,0:0:0:0:
134,85,70927,1,0,3:2:0:0:
134,85,71013,2,0,L|141:155,1,58.4999973220826,2|0,1:2|0:0,0:0:0:0:
267,251,71186,2,0,L|260:321,1,58.4999973220826,2|0,1:2|0:0,0:0:0:0:
1,363,71358,6,0,B|121:384|78:284|198:308,1,202.500007724762,2|0,1:0|0:0,0:0:0:0:
358,283,71703,2,0,B|371:333|332:373|332:373|265:361|260:303,1,202.500007724762,2|0,1:0|0:0,0:0:0:0:
233,148,72048,6,0,P|300:158|398:195,1,148.50000453186,6|0,3:2|0:0,0:0:0:0:
389,200,72392,1,2,1:2:0:0:
474,64,72565,6,0,P|398:37|350:114,1,148.50000453186,2|0,3:2|0:0,0:0:0:0:
348,91,72910,2,0,L|334:23,2,49.5000015106202,2|0|0,3:2|3:2|1:2,0:0:0:0:
441,274,73255,6,0,B|479:294|479:294|538:216|476:133,1,198.000006042481,6|0,3:2|3:2,0:0:0:0:
370,225,73772,2,0,B|351:276|351:276|374:325,1,99.0000030212403,2|0,1:2|3:2,0:0:0:0:
437,365,74030,1,0,1:2:0:0:
437,365,74117,2,0,P|369:369|323:400,1,99.0000030212403,2|0,1:2|3:2,0:0:0:0:
264,301,74461,2,0,P|196:296|150:265,1,99.0000030212403,2|0,3:2|3:2,0:0:0:0:
110,73,74806,5,6,1:2:0:0:
110,73,75151,5,0,1:2:0:0:
94,345,75323,1,2,3:2:0:0:
250,42,75496,5,2,1:2:0:0:
3,237,75668,1,0,3:2:0:0:
335,201,75841,5,0,1:2:0:0:
298,167,75927,1,0,1:2:0:0:
249,155,76013,1,0,1:2:0:0:
202,170,76099,1,0,1:2:0:0:
157,233,76186,6,0,L|178:319,1,49.5000015106202,2|0,1:2|0:0,0:0:0:0:
168,281,77565,6,0,L|152:155,1,90,6|2,3:2|2:0,0:0:0:0:
154,174,77823,1,2,2:0:0:0:
154,174,77910,2,0,P|131:184|101:185,1,45,2|0,1:2|0:0,0:0:0:0:
29,73,78082,2,0,P|52:63|82:62,1,45,2|0,2:0|0:0,0:0:0:0:
234,137,78255,6,0,P|272:157|345:156,1,90,2|2,3:2|2:0,0:0:0:0:
338,150,78513,1,2,2:0:0:0:
338,150,78599,2,0,L|344:202,1,45,2|0,1:2|0:0,0:0:0:0:
481,152,78772,2,0,L|487:100,1,45,2|0,2:0|0:0,0:0:0:0:
393,261,78944,6,0,B|377:304|377:304|402:358,1,90,2|2,3:2|2:0,0:0:0:0:
407,358,79203,1,2,2:0:0:0:
407,358,79289,2,0,L|352:357,1,45,2|0,1:2|0:0,0:0:0:0:
234,247,79461,2,0,L|289:246,1,45,2|0,2:0|0:0,0:0:0:0:
159,384,79634,6,0,P|126:330|162:268,1,135,2|0,3:2|0:0,0:0:0:0:
231,126,79979,6,0,B|263:187|263:187|221:273,1,135,2|0,1:2|0:0,0:0:0:0:
69,252,80323,6,0,B|56:209|99:175|99:175|146:188,1,135,2|0,3:2|0:0,0:0:0:0:
156,271,80668,1,0,1:2:0:0:
38,116,80841,1,2,2:0:0:0:
43,98,80927,1,2,2:0:0:0:
48,80,81013,2,0,P|93:96|145:85,1,90,2|0,3:2|0:0,0:0:0:0:
270,20,81358,2,0,P|237:54|225:106,1,90,0|0,1:2|0:0,0:0:0:0:
235,258,81703,5,0,3:2:0:0:
279,153,81875,2,0,L|296:226,1,45,2|2,2:0|2:0,0:0:0:0:
379,374,82048,1,2,1:2:0:0:
512,322,82220,1,2,2:0:0:0:
377,275,82392,5,2,3:2:0:0:
359,270,82479,1,0,3:2:0:0:
341,272,82565,1,2,3:2:0:0:
324,277,82651,1,0,3:2:0:0:
310,288,82737,2,0,L|316:349,1,45,2|0,1:2|0:0,0:0:0:0:
239,344,82910,2,0,L|235:300,1,45,2|0,1:2|0:0,0:0:0:0:
410,141,83082,6,0,P|418:191|382:236,1,90,6|2,3:2|1:2,0:0:0:0:
378,237,83341,1,0,1:2:0:0:
378,237,83427,1,2,3:2:0:0:
213,95,83599,6,0,P|292:96|370:89,1,135,2|0,1:2|0:0,0:0:0:0:
362,81,83944,1,2,3:2:0:0:
265,189,84117,1,2,3:2:0:0:
142,37,84289,6,0,P|181:94|135:143,1,135,2|0,1:2|0:0,0:0:0:0:
129,147,84634,1,2,3:2:0:0:
147,308,84806,1,2,3:2:0:0:
3,278,84979,6,0,B|107:282|60:215|168:226,1,180,6|2,3:2|3:2,0:0:0:0:
184,243,85410,1,0,3:2:0:0:
184,243,85496,1,2,1:2:0:0:
11,65,85668,6,0,L|25:213,1,135,6|0,3:2|0:0,0:0:0:0:
21,217,86013,1,0,3:2:0:0:
111,107,86186,5,0,1:2:0:0:
147,308,86358,1,0,3:2:0:0:
243,54,86530,5,0,1:2:0:0:
227,268,86703,1,0,3:2:0:0:
360,95,86875,5,2,1:2:0:0:
318,332,87048,2,0,B|229:355|255:274|127:313,1,180,6|0,3:2|3:2,0:0:0:0:
71,253,87565,1,0,3:2:0:0:
100,178,87737,1,0,3:2:0:0:
100,178,88082,5,0,3:2:0:0:
295,257,88255,2,0,L|355:245,1,54,0|0,1:2|0:0,0:0:0:0:
415,195,88599,5,6,3:2:0:0:
415,195,89979,6,0,L|425:267,1,45,6|0,3:2|0:0,0:0:0:0:
421,239,90151,1,0,0:0:0:0:
403,74,90323,5,2,3:2:0:0:
476,115,90496,2,0,L|486:187,1,45,4|0,3:2|0:0,0:0:0:0:
482,159,90668,1,2,2:0:0:0:
325,46,90841,5,0,3:2:0:0:
289,119,91013,2,0,P|232:137|180:119,1,108,2|0,1:2|0:0,0:0:0:0:
176,110,91358,6,0,L|167:212,1,80.9999975280763,6|0,3:2|3:2,0:0:0:0:
41,326,91703,2,0,L|32:224,1,80.9999975280763,2|0,1:2|0:0,0:0:0:0:
73,125,92048,1,2,3:2:0:0:
159,275,92220,1,0,3:2:0:0:
257,146,92392,2,0,P|296:147|355:152,1,80.9999975280763,2|0,1:2|0:0,0:0:0:0:
486,49,92737,5,2,3:2:0:0:
349,228,92910,1,2,3:2:0:0:
353,243,92996,1,0,3:2:0:0:
357,258,93082,1,2,1:2:0:0:
404,104,93255,1,2,3:2:0:0:
500,292,93427,2,0,P|456:299|393:325,1,80.9999975280763,2|0,3:2|3:2,0:0:0:0:
312,382,93772,1,0,1:2:0:0:
242,265,93944,1,2,0:0:0:0:
245,249,94030,1,2,0:0:0:0:
248,232,94117,6,0,L|167:240,1,80.9999975280763,6|2,3:2|2:0,0:0:0:0:
94,325,94375,1,0,3:2:0:0:
94,325,94461,2,0,L|13:317,1,80.9999975280763,2|2,1:2|2:0,0:0:0:0:
0,173,94806,5,2,3:2:0:0:
167,239,94979,1,2,3:2:0:0:
78,106,95151,1,2,1:2:0:0:
13,317,95323,1,2,2:0:0:0:
164,150,95496,6,0,P|220:155|330:162,1,161.999995056153,2|2,3:2|1:2,0:0:0:0:
198,243,96013,1,0,3:2:0:0:
317,89,96186,2,0,P|329:49|316:9,1,80.9999975280763,2|0,3:2|3:2,0:0:0:0:
153,71,96530,2,0,B|89:80|123:118|36:128,1,121.499996292114,2|0,1:2|0:0,0:0:0:0:
33,123,96875,6,0,L|41:224,1,80.9999975280763,2|0,3:2|0:0,0:0:0:0:
119,334,97220,2,0,L|127:233,1,80.9999975280763,2|0,1:2|0:0,0:0:0:0:
167,150,97565,1,2,3:2:0:0:
258,288,97737,1,0,3:2:0:0:
352,174,97910,2,0,L|262:188,1,80.9999975280763,2|0,1:2|0:0,0:0:0:0:
458,317,98255,6,0,P|476:269|466:228,1,80.9999975280763,2|0,3:2|0:0,0:0:0:0:
365,97,98599,2,0,P|347:145|357:186,1,80.9999975280763,0|0,1:2|0:0,0:0:0:0:
511,134,98944,1,0,1:2:0:0:
344,259,99117,5,0,3:2:0:0:
311,283,99203,1,0,3:2:0:0:
271,274,99289,1,2,3:2:0:0:
238,295,99375,1,0,3:2:0:0:
238,295,99461,2,0,L|235:246,1,40.4999987640381,0|0,3:2|3:2,0:0:0:0:
175,108,99634,6,0,P|158:156|179:202,1,99.0000030212403,6|0,1:2|0:0,0:0:0:0:
331,156,99892,2,0,B|309:143|309:143|235:153,1,99.0000030212403,2|0,3:2|0:0,0:0:0:0:
154,275,100151,2,0,L|104:285,1,49.5000015106202,2|0,3:2|0:0,0:0:0:0:
0,384,100323,6,0,B|46:360|46:360|111:372,1,99.0000030212403,6|2,1:2|2:0,0:0:0:0:
223,325,100582,1,2,3:2:0:0:
223,325,100668,2,0,P|237:293|234:248,2,49.5000015106202,0|0|0,3:2|3:2|3:2,0:0:0:0:
27,219,101013,6,0,B|114:217|73:171|169:171,1,148.50000453186,6|0,1:2|0:0,0:0:0:0:
176,190,101358,6,0,P|187:156|180:115,1,49.5000015106202,4|0,1:2|0:0,0:0:0:0:
94,53,101530,1,0,1:2:0:0:
268,131,101703,6,0,P|257:96|228:67,1,49.5000015106202,4|0,3:2|0:0,0:0:0:0:
94,53,101875,1,0,1:2:0:0:
309,29,102048,6,0,P|280:7|239:0,1,49.5000015106202,4|0,1:2|0:0,0:0:0:0:
94,53,102220,1,0,0:0:0:0:
265,207,102392,6,0,B|328:215|309:166|375:175,1,99.0000030212403,6|0,1:2|0:0,0:0:0:0:
433,68,102651,2,0,P|370:68|362:128,1,99.0000030212403,2|0,3:2|0:0,0:0:0:0:
435,198,102910,2,0,L|448:123,1,49.5000015106202,2|0,3:2|0:0,0:0:0:0:
371,252,103082,6,0,L|396:357,1,99.0000030212403,6|2,1:2|2:0,0:0:0:0:
215,303,103341,2,0,P|265:273|310:292,1,99.0000030212403,2|0,3:2|0:0,0:0:0:0:
232,380,103599,2,0,L|162:374,1,49.5000015106202,2|0,3:2|0:0,0:0:0:0:
0,290,103772,6,0,P|73:280|155:261,1,148.50000453186,6|0,1:2|0:0,0:0:0:0:
158,244,104117,1,0,3:2:0:0:
42,135,104289,1,0,3:2:0:0:
39,154,104375,1,0,3:2:0:0:
37,173,104461,1,2,3:2:0:0:
117,59,104634,1,2,3:2:0:0:
208,180,104806,2,0,P|250:132|339:146,1,148.50000453186,6|0,1:2|0:0,0:0:0:0:
340,152,105151,5,6,1:2:0:0:
340,152,106013,2,0,L|348:228,2,72,0|0|2,3:2|3:2|3:2,0:0:0:0:
414,42,106530,5,6,3:2:0:0:
418,46,107020,5,8,3:3:0:0:
418,46,107364,5,4,3:3:0:0:
473,182,107565,1,2,3:2:0:0:
473,182,107910,6,0,L|465:250,1,36,2|0,1:2|3:2,0:0:0:0:
405,304,108082,2,0,L|413:355,2,36,0|0|2,3:2|3:2|3:2,0:0:0:0:
310,206,108427,1,2,1:2:0:0:
292,210,108513,1,0,1:2:0:0:
274,214,108599,2,0,P|265:251|281:286,1,72,0|0,3:2|0:0,0:0:0:0:
391,219,108944,5,2,1:2:0:0:
401,184,109030,1,0,1:2:0:0:
384,151,109117,1,0,1:2:0:0:
398,118,109203,1,0,1:2:0:0:
398,118,109289,6,0,P|360:119|323:104,1,72,2|0,1:2|2:3,0:0:0:0:
329,108,109806,5,0,3:2:0:0:
293,113,109892,1,0,3:2:0:0:
257,119,109979,1,2,3:2:0:0:
245,110,110065,1,0,3:2:0:0:
231,104,110151,1,0,3:2:0:0:
216,101,110237,1,0,3:2:0:0:
201,102,110323,6,0,L|191:162,1,54,0|0,1:2|0:0,0:0:0:0:
130,206,110668,6,0,P|185:195|233:227,1,116.999994644165,6|2,3:2|3:2,0:0:0:0:
266,306,110927,1,0,3:2:0:0:
266,306,111013,2,0,L|252:370,1,58.4999973220826,2|0,1:2|0:0,0:0:0:0:
56,238,111186,2,0,L|42:174,1,58.4999973220826,2|0,1:2|0:0,0:0:0:0:
201,102,111358,6,0,B|267:97|241:147|319:140,1,116.999994644165,2|2,3:2|3:2,0:0:0:0:
366,78,111617,1,0,3:2:0:0:
366,78,111703,2,0,P|340:64|305:61,1,58.4999973220826,2|0,1:2|0:0,0:0:0:0:
401,273,111875,2,0,P|429:269|455:255,1,58.4999973220826,2|0,1:2|0:0,0:0:0:0:
202,178,112048,6,0,L|222:309,1,116.999994644165,2|2,3:2|3:2,0:0:0:0:
171,357,112306,1,0,3:2:0:0:
171,357,112392,2,0,B|141:367|141:367|109:357,1,58.4999973220826,2|0,1:2|0:0,0:0:0:0:
170,110,112565,2,0,B|200:100|200:100|232:110,1,58.4999973220826,2|0,1:2|0:0,0:0:0:0:
81,281,112737,6,0,B|44:311|44:311|-7:263|7:198|57:171,1,202.500007724762,2|0,3:1|0:0,0:0:0:0:
96,61,113082,2,0,B|147:32|147:32|119:209,1,202.500007724762,2|0,1:0|0:0,0:0:0:0:
81,281,113427,6,0,B|137:253|137:253|198:267,1,116.999994644165,2|0,3:2|3:2,0:0:0:0:
252,337,113686,1,2,3:2:0:0:
252,337,113772,2,0,L|263:267,1,58.4999973220826,2|0,1:2|0:0,0:0:0:0:
310,134,113944,2,0,L|299:64,1,58.4999973220826,2|0,1:2|0:0,0:0:0:0:
494,99,114117,6,0,P|451:133|383:136,1,116.999994644165,2|0,3:2|3:2,0:0:0:0:
348,206,114375,1,2,3:2:0:0:
348,206,114461,2,0,L|357:263,1,58.4999973220826,2|0,1:2|0:0,0:0:0:0:
170,355,114634,2,0,L|179:297,1,58.4999973220826,2|0,1:2|0:0,0:0:0:0:
228,40,114806,5,2,3:2:0:0:
152,201,114979,2,0,P|175:216|222:216,1,58.4999973220826,2|0,1:2|1:2,0:0:0:0:
152,51,115151,5,2,3:2:0:0:
68,184,115323,2,0,P|67:211|92:251,1,58.4999973220826,2|0,1:2|0:0,0:0:0:0:
170,355,115496,5,2,1:2:0:0:
143,331,115582,1,0,1:2:0:0:
111,346,115668,1,0,1:2:0:0:
84,330,115755,1,0,1:2:0:0:
84,330,115841,2,0,L|16:333,1,58.4999973220826,0|0,1:2|0:0,0:0:0:0:
0,89,116013,1,0,1:2:0:0:
47,110,116099,1,0,1:2:0:0:
97,93,116186,6,0,P|157:85|229:84,1,116.999994644165,6|2,1:2|3:2,0:0:0:0:
278,42,116444,1,0,3:2:0:0:
278,42,116530,2,0,P|290:74|279:116,1,58.4999973220826,2|0,1:2|0:0,0:0:0:0:
452,223,116703,2,0,P|450:194|461:167,1,58.4999973220826,2|0,1:2|0:0,0:0:0:0:
274,173,116875,6,0,B|248:176|248:176|211:209|237:260,1,116.999994644165,2|2,3:2|3:2,0:0:0:0:
277,329,117134,1,0,3:2:0:0:
277,329,117220,2,0,L|215:336,1,58.4999973220826,2|0,1:2|0:0,0:0:0:0:
98,172,117392,2,0,L|160:179,1,58.4999973220826,2|0,1:2|0:0,0:0:0:0:
418,77,117565,6,0,P|336:98|273:102,1,116.999994644165,2|2,3:2|3:2,0:0:0:0:
235,70,117823,1,0,3:2:0:0:
235,70,117910,2,0,P|225:114|244:142,1,58.4999973220826,2|0,1:2|0:0,0:0:0:0:
468,194,118082,2,0,P|473:165|462:139,1,58.4999973220826,2|0,1:2|0:0,0:0:0:0:
205,263,118255,6,0,L|277:283,1,58.4999973220826,2|0,1:0|0:0,0:0:0:0:
396,174,118427,1,0,3:2:0:0:
128,203,118599,6,0,L|200:183,1,58.4999973220826,2|0,1:0|0:0,0:0:0:0:
319,343,118771,1,0,3:2:0:0:
77,368,118944,6,0,P|23:298|65:235,1,148.50000453186,6|0,3:2|0:0,0:0:0:0:
58,239,119289,1,2,1:2:0:0:
211,106,119461,6,0,P|124:133|44:145,1,148.50000453186,2|0,3:2|0:0,0:0:0:0:
51,137,119806,1,2,3:2:0:0:
195,230,119979,1,0,1:2:0:0:
190,34,120151,6,0,B|300:27|249:109|383:102,1,198.000006042481,6|0,3:2|3:2,0:0:0:0:
440,13,120668,2,0,B|388:-1|388:-1|339:27,1,99.0000030212403,2|0,1:2|0:0,0:0:0:0:
278,185,121013,2,0,B|284:225|284:225|332:255|416:211,1,148.50000453186,2|0,1:2|0:0,0:0:0:0:
487,199,121358,2,0,B|469:195|447:171|447:171|488:225|436:300,1,148.50000453186,2|0,3:2|0:0,0:0:0:0:
386,312,121703,5,6,1:2:0:0:
386,312,122048,5,0,1:2:0:0:
257,55,122220,1,2,3:2:0:0:
205,360,122392,5,2,1:2:0:0:
404,114,122565,1,0,3:2:0:0:
145,297,122737,5,0,1:2:0:0:
95,297,122823,1,0,1:2:0:0:
58,262,122910,1,2,1:2:0:0:
42,216,122996,1,0,1:2:0:0:
66,143,123082,6,0,L|132:134,1,49.5000015106202,2|0,1:2|0:0,0:0:0:0:
115,136,124461,5,6,1:2:0:0:
375,231,129979,6,0,P|298:237|211:278,1,144,4|0,3:2|3:2,0:0:0:0:
149,317,130496,2,0,P|151:274|141:244,1,72,2|0,2:0|0:0,0:0:0:0:
202,186,130841,2,0,P|175:151|148:135,1,72,2|0,2:0|0:0,0:0:0:0:
19,104,131186,1,2,2:0:0:0:
19,104,131358,6,0,B|101:103|69:47|163:49,1,144,4|0,3:2|3:2,0:0:0:0:
229,79,131875,1,0,3:2:0:0:
229,79,132048,2,0,L|320:85,1,72,2|0,3:2|3:2,0:0:0:0:
399,79,132392,2,0,P|364:147|350:206,1,108,0|0,1:2|0:0,0:0:0:0:
355,192,132737,6,0,P|416:165|446:236,1,144,6|0,3:2|3:2,0:0:0:0:
383,279,133255,1,0,1:2:0:0:
383,279,133341,1,0,1:2:0:0:
383,279,133427,2,0,B|320:282|356:315|266:316,2,108,0|0|0,3:2|3:2|3:2,0:0:0:0:
274,165,134117,6,0,L|286:252,1,72,4|2,3:2|3:2,0:0:0:0:
216,369,134461,1,2,3:2:0:0:
166,230,134634,1,2,1:2:0:0:
106,353,134806,2,0,P|61:361|21:373,1,72,2|2,1:2|2:0,0:0:0:0:
5,215,135151,1,2,1:2:0:0:
34,201,135237,1,0,1:2:0:0:
63,214,135323,1,2,1:2:0:0:
93,198,135410,1,0,1:2:0:0:
93,198,135496,6,0,P|66:122|128:76,1,135,6|0,3:2|0:0,0:0:0:0:
115,74,135841,2,0,L|213:92,1,90,2|2,1:2|2:0,0:0:0:0:
349,188,136186,1,2,3:2:0:0:
264,31,136358,1,0,3:2:0:0:
446,89,136530,2,0,L|348:107,1,90,2|0,1:2|0:0,0:0:0:0:
202,198,136875,5,2,3:2:0:0:
238,327,137048,1,2,2:0:0:0:
349,188,137220,1,2,1:2:0:0:
385,317,137392,1,2,3:2:0:0:
202,198,137565,5,2,3:2:0:0:
433,240,137737,1,2,3:2:0:0:
281,97,137910,1,2,1:2:0:0:
241,350,138082,6,0,P|254:296|285:234,1,90,2|0,2:0|3:2,0:0:0:0:
386,140,138427,1,0,0:0:0:0:
202,198,138599,2,0,P|115:196|70:201,1,90,0|2,1:2|2:0,0:0:0:0:
48,361,138944,5,0,3:2:0:0:
227,276,139117,1,2,3:2:0:0:
24,192,139289,1,2,1:2:0:0:
208,108,139461,6,0,L|200:212,1,90,2|0,2:0|3:2,0:0:0:0:
98,52,139806,1,2,2:0:0:0:
283,137,139979,1,2,1:2:0:0:
132,234,140151,1,2,3:2:0:0:
114,238,140237,1,0,3:2:0:0:
96,242,140323,5,0,3:2:0:0:
141,333,140496,1,0,3:2:0:0:
241,359,140668,1,0,3:2:0:0:
329,298,140841,1,2,3:2:0:0:
259,184,141013,6,0,L|244:283,2,90,6|2|2,3:2|3:2|1:2,0:0:0:0:
347,90,141530,1,2,2:0:0:0:
359,102,141617,1,2,2:0:0:0:
371,114,141703,2,0,L|453:122,1,45,2|2,3:2|2:0,0:0:0:0:
267,34,141875,2,0,L|222:38,1,45,2|2,3:2|2:0,0:0:0:0:
342,204,142048,5,2,1:2:0:0:
386,197,142134,1,2,2:0:0:0:
425,219,142220,1,2,2:0:0:0:
430,263,142306,1,2,2:0:0:0:
408,302,142392,6,0,P|356:317|317:343,1,90,2|0,3:2|0:0,0:0:0:0:
139,241,142737,1,0,1:2:0:0:
241,360,142910,1,2,3:2:0:0:
238,337,142996,1,0,0:0:0:0:
235,314,143082,2,0,B|183:238|106:297|106:297|133:331,1,180,2|2,3:2|1:2,0:0:0:0:
40,192,143599,1,2,2:0:0:0:
49,376,143772,5,6,3:2:0:0:
195,191,143944,1,0,0:0:0:0:
183,377,144117,1,2,1:2:0:0:
40,192,144289,1,0,0:0:0:0:
49,376,144461,5,2,3:2:0:0:
230,283,144634,1,2,3:2:0:0:
40,192,144806,1,2,1:2:0:0:
210,130,144979,6,0,P|287:154|361:161,1,135,2|0,2:0|0:0,0:0:0:0:
355,153,145323,1,2,2:0:0:0:
230,283,145496,1,0,1:2:0:0:
446,336,145668,6,0,B|381:327|421:266|301:253,1,135,6|0,3:2|0:0,0:0:0:0:
325,268,146013,1,6,3:2:0:0:
463,166,146186,1,0,1:2:0:0:
329,50,146358,6,0,B|382:19|382:19|352:166,1,198.000006042481,6|2,3:2|3:2,0:0:0:0:
304,302,146875,2,0,P|285:215|317:179,1,99.0000030212403,2|0,1:2|0:0,0:0:0:0:
462,261,147220,1,2,3:2:0:0:
279,136,147392,1,2,3:2:0:0:
467,109,147565,1,2,1:2:0:0:
304,302,147737,6,0,B|188:327|241:232|107:265,1,198.000006042481,6|0,3:2|3:2,0:0:0:0:
0,361,148255,2,0,L|119:337,1,99.0000030212403,2|0,1:2|0:0,0:0:0:0:
272,225,148599,1,2,3:2:0:0:
283,203,148686,1,2,2:0:0:0:
278,178,148772,1,2,3:2:0:0:
265,156,148858,1,2,2:0:0:0:
242,145,148944,2,0,L|180:152,1,49.5000015106202,2|0,1:2|0:0,0:0:0:0:
45,240,149117,6,0,B|-5:223|-10:149|41:111|41:111|78:134,1,198.000006042481,6|2,3:2|3:2,0:0:0:0:
239,60,149634,2,0,B|188:54|188:54|134:94,1,99.0000030212403,2|2,1:2|2:0,0:0:0:0:
122,268,149979,1,2,3:2:0:0:
215,132,150151,1,2,3:2:0:0:
304,310,150323,1,2,1:2:0:0:
309,118,150496,6,0,B|344:91|344:91|323:203,1,148.50000453186,6|0,3:2|0:0,0:0:0:0:
273,253,150841,1,2,3:2:0:0:
215,132,151013,1,2,2:2:0:0:
158,333,151186,2,0,B|190:307|198:271|198:271|203:308|255:332,1,148.50000453186,2|0,1:2|0:0,0:0:0:0:
322,316,151530,5,2,3:2:0:0:
176,199,151703,2,0,P|117:208|20:241,1,148.50000453186,0|0,1:2|0:0,0:0:0:0:
25,249,152048,6,0,L|41:137,1,99.0000030212403,6|0,3:2|3:2,0:0:0:0:
202,54,152392,5,0,1:2:0:0:
83,303,152565,1,0,3:2:0:0:
320,177,152737,5,2,1:2:0:0:
39,150,152910,1,0,3:2:0:0:
227,343,153082,5,0,1:2:0:0:
279,101,153255,1,0,3:2:0:0:
284,82,153341,1,2,3:2:0:0:
289,63,153427,5,2,1:2:0:0:
39,150,153599,1,2,3:2:0:0:
296,238,153772,5,2,1:2:0:0:
40,51,153944,1,2,3:2:0:0:
247,0,154117,5,0,1:2:0:0:
91,252,154289,1,0,3:2:0:0:
171,18,154461,5,0,1:2:0:0:
229,301,154634,1,2,3:2:0:0:
61,147,154806,5,6,3:2:0:0:
223,210,154979,1,2,2:0:0:0:
91,252,155151,1,2,1:2:0:0:
184,105,155323,5,2,3:2:0:0:
181,124,155410,1,0,3:2:0:0:
178,143,155496,1,0,3:2:0:0:
172,295,155668,1,2,3:2:0:0:
289,168,155841,1,2,3:2:0:0:
367,309,156013,6,0,P|293:328|220:366,1,144,6|2,1:2|2:0,0:0:0:0:
460,353,156530,5,2,3:2:0:0:
435,248,156703,1,2,3:2:0:0:
435,248,157048,5,0,3:2:0:0:
232,357,157220,1,0,1:2:0:0:
152,87,157565,6,0,B|140:29|66:5|3:36|-8:198|136:134|87:250,1,337.5,6|0,3:2|0:0,0:0:0:0:
27,322,158944,6,0,P|107:343|136:385,1,135,4|0,3:2|3:2,0:0:0:0:
135,383,159806,1,0,3:2:0:0:
236,326,159979,1,0,3:2:0:0:
87,250,160323,6,0,B|132:132|191:278|296:154|272:88|201:48|153:87,1,337.5,4|0,3:2|0:0,0:0:0:0:
154,85,161703,6,0,P|208:110|292:118,1,135,4|0,3:2|1:2,0:0:0:0:
343,64,162392,1,0,3:2:0:0:
369,146,162565,1,0,1:2:0:0:
343,64,162737,1,0,3:2:0:0:
451,204,163082,6,0,P|420:281|418:346,1,144,6|2,3:2|3:2,0:0:0:0:
332,277,163599,1,2,1:2:0:0:
332,277,163686,1,0,1:2:0:0:
332,277,163772,2,0,B|253:273|291:327|179:321,1,144,2|2,3:2|3:2,0:0:0:0:
50,264,164289,1,2,1:2:0:0:
82,344,164461,6,0,P|134:270|104:203,1,144,6|2,1:2|3:2,0:0:0:0:
77,111,164979,1,2,1:2:0:0:
52,186,165151,2,0,B|132:208|116:140|212:163,1,144,2|2,3:2|1:2,0:0:0:0:
188,158,165841,6,0,P|200:86|233:11,1,144,6|2,3:2|1:2,0:0:0:0:
227,20,166530,5,0,1:2:0:0:
342,88,166703,1,2,1:2:0:0:
163,83,166875,5,0,1:2:0:0:
399,26,167048,1,6,1:2:0:0:
399,26,167910,5,0,0:0:0:0:
467,88,168082,1,0,3:2:0:0:
467,88,168168,1,0,3:2:0:0:
467,88,168255,2,0,L|453:144,1,54,0|0,1:2|0:0,0:0:0:0:
488,213,168599,6,0,P|448:178|358:207,1,116.999994644165,6|2,3:2|3:2,0:0:0:0:
342,248,168858,1,0,3:2:0:0:
342,248,168944,2,0,L|352:314,1,58.4999973220826,2|0,1:2|0:0,0:0:0:0:
184,143,169117,2,0,L|194:77,1,58.4999973220826,2|0,1:2|0:0,0:0:0:0:
262,320,169289,6,0,B|247:348|247:348|201:367|133:326,1,116.999994644165,2|2,3:2|3:2,0:0:0:0:
105,289,169548,1,0,3:2:0:0:
105,289,169634,2,0,P|86:313|93:355,1,58.4999973220826,2|0,1:2|0:0,0:0:0:0:
267,244,169806,2,0,P|265:215|247:192,1,58.4999973220826,2|0,1:2|0:0,0:0:0:0:
6,143,169979,6,0,B|80:141|49:97|128:98,1,116.999994644165,2|2,3:2|3:2,0:0:0:0:
192,85,170237,1,0,3:2:0:0:
192,85,170323,2,0,L|184:143,1,58.4999973220826,2|0,1:2|0:0,0:0:0:0:
371,92,170496,2,0,L|362:34,1,58.4999973220826,2|0,1:2|0:0,0:0:0:0:
253,182,170668,6,0,B|246:222|246:222|275:279|351:295|398:229,1,202.500007724762,2|0,3:1|0:0,0:0:0:0:
371,92,171013,2,0,B|266:80|309:177|149:137,1,202.500007724762,2|0,1:0|0:0,0:0:0:0:
19,52,171358,6,0,B|71:23|71:23|141:50,1,116.999994644165,2|2,3:2|3:2,0:0:0:0:
104,121,171617,1,0,3:2:0:0:
104,121,171703,2,0,P|101:160|123:203,1,58.4999973220826,2|0,1:2|0:0,0:0:0:0:
293,84,171875,2,0,P|296:45|274:2,1,58.4999973220826,2|0,1:2|0:0,0:0:0:0:
129,254,172048,6,0,B|159:247|176:223|176:223|212:226|233:246,1,116.999994644165,2|2,3:2|3:2,0:0:0:0:
258,316,172306,1,0,3:2:0:0:
258,316,172392,2,0,B|286:328|286:328|328:314,1,58.4999973220826,2|0,1:2|0:0,0:0:0:0:
403,145,172565,2,0,B|375:133|375:133|333:147,1,58.4999973220826,2|0,1:2|0:0,0:0:0:0:
396,309,172737,5,2,3:2:0:0:
293,84,172910,2,0,L|236:97,1,58.4999973220826,2|0,1:2|1:2,0:0:0:0:
463,265,173082,5,2,3:2:0:0:
402,39,173255,2,0,L|345:25,1,58.4999973220826,2|0,1:2|0:0,0:0:0:0:
488,344,173427,6,0,B|397:362|420:286|322:310,1,175.499991966248,2|0,1:2|0:0,0:0:0:0:
247,275,173772,2,0,B|289:249|289:249|273:394,1,175.499991966248,0|0,1:2|0:0,0:0:0:0:
195,384,174117,6,0,P|141:317|173:265,1,116.999994644165,6|2,1:2|3:2,0:0:0:0:
190,228,174375,1,0,3:2:0:0:
190,228,174461,2,0,L|172:158,1,58.4999973220826,2|0,1:2|0:0,0:0:0:0:
42,35,174634,2,0,L|24:105,1,58.4999973220826,2|0,1:2|0:0,0:0:0:0:
5,274,174806,6,0,B|94:272|35:227|148:224,1,116.999994644165,2|2,3:2|3:2,0:0:0:0:
179,175,175065,1,0,3:2:0:0:
179,175,175151,2,0,P|211:188|257:216,1,58.4999973220826,2|0,1:2|0:0,0:0:0:0:
410,46,175323,2,0,P|378:59|332:87,1,58.4999973220826,2|0,1:2|0:0,0:0:0:0:
486,296,175496,6,0,P|523:245|480:169,1,116.999994644165,2|2,3:2|3:2,0:0:0:0:
456,147,175755,1,0,3:2:0:0:
456,147,175841,2,0,L|384:164,1,58.4999973220826,2|0,1:2|0:0,0:0:0:0:
287,294,176013,2,0,L|215:277,1,58.4999973220826,2|0,1:2|0:0,0:0:0:0:
157,65,176186,6,0,P|187:60|234:74,1,58.4999973220826,2|0,1:0|0:0,0:0:0:0:
340,231,176358,1,0,3:2:0:0:
118,220,176530,6,0,B|94:184|94:184|133:133|197:120|259:162,1,202.500007724762,2|0,1:0|0:0,0:0:0:0:
200,355,176875,6,0,P|142:339|52:318,1,148.50000453186,6|0,3:2|0:0,0:0:0:0:
40,330,177220,1,2,1:2:0:0:
188,252,177392,6,0,B|275:235|220:307|355:283,1,148.50000453186,2|0,3:2|0:0,0:0:0:0:
335,303,177737,1,2,3:2:0:0:
407,199,177910,1,0,1:2:0:0:
288,120,178082,6,0,B|332:77|332:77|307:222,1,198.000006042481,6|0,3:2|3:2,0:0:0:0:
445,345,178599,2,0,P|472:292|436:245,1,99.0000030212403,2|0,1:2|3:2,0:0:0:0:
407,199,178858,1,0,1:2:0:0:
407,199,178944,2,0,L|279:215,1,99.0000030212403,2|0,1:2|3:2,0:0:0:0:
86,126,179289,2,0,B|181:133|132:73|251:78,1,148.50000453186,2|0,3:2|0:0,0:0:0:0:
292,124,179634,5,6,1:2:0:0:
292,124,179979,5,0,1:2:0:0:
12,318,180151,1,2,3:2:0:0:
99,50,180323,5,2,1:2:0:0:
258,351,180496,1,0,3:2:0:0:
472,130,180668,1,0,1:2:0:0:
443,89,180755,1,0,1:2:0:0:
397,70,180841,1,2,1:2:0:0:
350,74,180927,1,0,1:2:0:0:
292,124,181013,6,0,L|305:209,1,49.5000015106202,2|0,1:2|0:0,0:0:0:0:
299,172,182392,6,0,P|236:191|194:195,1,99.0000030212403,6|2,3:2|2:0,0:0:0:0:
187,189,182651,1,2,2:0:0:0:
187,189,182737,2,0,L|174:247,1,49.5000015106202,2|0,1:2|0:0,0:0:0:0:
79,341,182910,2,0,L|66:283,1,49.5000015106202,2|0,2:0|0:0,0:0:0:0:
3,137,183082,6,0,B|66:128|47:171|123:162,1,99.0000030212403,2|2,3:2|2:0,0:0:0:0:
112,155,183341,1,2,2:0:0:0:
112,155,183427,2,0,P|106:128|119:96,1,49.5000015106202,2|0,1:2|0:0,0:0:0:0:
265,41,183599,2,0,P|271:68|258:100,1,49.5000015106202,2|0,2:0|0:0,0:0:0:0:
161,313,183772,6,0,L|172:190,1,99.0000030212403,2|2,3:2|2:0,0:0:0:0:
185,203,184030,1,2,2:0:0:0:
185,203,184117,2,0,L|237:216,1,49.5000015106202,2|0,1:2|0:0,0:0:0:0:
332,299,184289,2,0,L|384:286,1,49.5000015106202,2|0,2:0|0:0,0:0:0:0:
501,79,184461,6,0,P|446:92|344:104,1,148.50000453186,2|0,3:2|0:0,0:0:0:0:
244,78,184806,6,0,B|271:62|283:52|283:52|254:105|277:153,1,148.50000453186,2|0,1:2|0:0,0:0:0:0:
382,204,185151,6,0,B|309:188|334:259|216:224,1,148.50000453186,2|0,3:2|0:0,0:0:0:0:
196,168,185496,1,0,1:2:0:0:
109,340,185668,1,2,2:0:0:0:
104,320,185755,1,2,2:0:0:0:
100,300,185841,2,0,P|148:283|218:303,1,99.0000030212403,2|0,3:2|0:0,0:0:0:0:
321,363,186186,2,0,P|334:313|391:268,1,99.0000030212403,0|0,1:2|0:0,0:0:0:0:
288,175,186530,5,0,3:2:0:0:
392,151,186703,2,0,L|372:223,1,49.5000015106202,2|2,2:0|2:0,0:0:0:0:
325,59,186875,1,2,1:2:0:0:
481,162,187048,1,2,2:0:0:0:
288,175,187220,5,2,1:2:0:0:
425,33,187392,1,2,1:2:0:0:
378,198,187565,1,2,1:2:0:0:
247,96,187737,1,0,3:2:0:0:
228,90,187823,1,0,3:2:0:0:
208,84,187910,6,0,P|184:123|199:183,1,99.0000030212403,6|2,2:0|2:0,0:0:0:0:
202,193,188168,1,2,2:0:0:0:
202,193,188255,2,0,L|139:188,1,49.5000015106202,2|0,1:2|0:0,0:0:0:0:
50,327,188427,2,0,L|113:322,1,49.5000015106202,2|0,2:0|0:0,0:0:0:0:
307,230,188599,6,0,B|249:246|280:265|186:276,1,99.0000030212403,2|2,3:2|2:0,0:0:0:0:
205,287,188858,1,2,2:0:0:0:
205,287,188944,2,0,P|198:320|214:359,1,49.5000015106202,2|0,1:2|0:0,0:0:0:0:
379,254,189117,2,0,P|386:221|370:182,1,49.5000015106202,2|0,2:0|0:0,0:0:0:0:
299,33,189289,6,0,L|315:141,1,99.0000030212403,2|2,3:2|2:0,0:0:0:0:
328,147,189548,1,2,2:0:0:0:
328,147,189634,2,0,B|296:143|254:173,1,49.5000015106202,2|0,1:2|0:0,0:0:0:0:
318,338,189806,2,0,B|350:342|392:312,1,49.5000015106202,2|0,2:0|0:0,0:0:0:0:
240,228,189979,6,0,P|173:234|93:258,1,148.50000453186,2|0,3:2|0:0,0:0:0:0:
16,153,190323,2,0,B|32:122|71:110|71:110|97:135|99:180,1,148.50000453186,2|0,1:2|0:0,0:0:0:0:
42,315,190669,5,6,1:2:0:0:
187,114,190841,1,0,3:2:0:0:
265,330,191013,1,0,3:2:0:0:
98,169,191186,5,6,1:2:0:0:
343,174,191358,1,0,3:2:0:0:
112,363,191530,1,0,3:2:0:0:
177,83,191703,5,6,1:2:0:0:
265,330,191875,1,0,3:2:0:0:
431,101,192048,1,0,3:2:0:0:
161,247,192220,5,6,1:2:0:0:
440,193,192392,1,0,3:2:0:0:
255,16,192565,1,0,3:2:0:0:
390,271,192737,5,6,1:2:0:0:
73,127,192910,1,2,1:2:0:0:
431,101,193082,5,2,1:2:0:0:
32,238,193255,1,6,1:2:0:0:
