osu file format v14

[General]
AudioFilename: audio.mp3
AudioLeadIn: 0
PreviewTime: 157479
Countdown: 0
SampleSet: Soft
StackLeniency: 0.5
Mode: 0
LetterboxInBreaks: 0
WidescreenStoryboard: 1

[Editor]
Bookmarks: 19634,30668,41703,52737,63772,77565,88599,99634,110668,124461,135496,157565,163082,168599,182392,193255
DistanceSpacing: 0.4
BeatDivisor: 4
GridSize: 4
TimelineZoom: 2.8

[Metadata]
Title:Kimi to Nagameru Natsu no Hana
TitleUnicode:君と眺める夏の花
Artist:Natsuiro Matsuri
ArtistUnicode:夏色まつり
Creator:Ayucchi
Version:Insane
Source:
Tags:japanese pop rock メリッサ LockP_melissa hololive ホロライブ seiso idol vtuber virtual youtuber full version
BeatmapID:2494073
BeatmapSetID:1197338

[Difficulty]
HPDrainRate:5
CircleSize:3.8
OverallDifficulty:8
ApproachRate:9
SliderMultiplier:1.6
SliderTickRate:1

[Events]
//Background and Video events
0,0,"matsuridaisuki.jpg",0,0
//Break Periods
2,77765,87999
2,124661,133517
2,157765,162482
//Storyboard Layer 0 (Background)
//Storyboard Layer 1 (Fail)
//Storyboard Layer 2 (Pass)
//Storyboard Layer 3 (Foreground)
//Storyboard Layer 4 (Overlay)
//Storyboard Sound Samples

[TimingPoints]
18255,344.827586206897,4,2,1,40,1,0
19634,-100,4,2,1,65,0,0
30668,-125,4,2,1,45,0,0
41703,-111.111111111111,4,2,1,55,0,0
52737,-100,4,2,1,65,0,0
58255,-125,4,2,1,65,0,0
61013,-100,4,2,1,65,0,0
63427,-200,4,2,1,65,0,0
63772,-83.3333333333333,4,2,1,85,0,1
72048,-90.9090909090909,4,2,1,85,0,1
76186,-90.9090909090909,4,2,1,85,0,0
77565,-90.9090909090909,4,2,1,65,0,0
88599,-111.111111111111,4,2,1,55,0,0
99634,-100,4,2,1,65,0,0
106013,-125,4,2,1,65,0,0
107020,344.827586206897,4,2,1,65,1,0
107565,344.827586206897,4,2,1,65,1,0
107910,344.827586206897,4,2,1,65,1,0
107910,-100,4,2,1,65,0,0
110323,-200,4,2,1,65,0,0
110668,-83.3333333333333,4,2,1,85,0,1
118944,-90.9090909090909,4,2,1,85,0,1
123082,-90.9090909090909,4,2,1,85,0,0
124461,-90.9090909090909,4,2,1,65,0,0
129979,-90.9090909090909,4,2,1,45,0,0
134117,-100,4,2,1,45,0,0
135496,-100,4,2,1,65,0,0
152048,-100,4,2,1,75,0,0
154806,-100,4,2,1,65,0,0
156013,-111.111111111111,4,2,1,65,0,0
157565,-111.111111111111,4,2,1,55,0,0
163082,-125,4,2,1,55,0,0
168255,-200,4,2,1,55,0,0
168599,-83.3333333333333,4,2,1,85,0,1
176875,-90.9090909090909,4,2,1,85,0,1
181013,-90.9090909090909,4,2,1,85,0,0
182392,-100,4,2,1,65,0,0
192737,-100,4,2,1,85,0,0

[Colours]
Combo1 : 225,198,153
Combo2 : 181,101,29
Combo3 : 131,105,83

[HitObjects]
181,88,19634,6,0,L|170:187,1,80,6|2,3:2|2:0,0:0:0:0:
122,235,19892,1,2,2:0:0:0:
122,235,19979,2,0,L|133:334,1,80,2|2,1:2|2:0,0:0:0:0:
244,221,20323,6,0,P|279:200|327:207,1,80,2|2,3:2|2:0,0:0:0:0:
381,257,20582,1,2,2:0:0:0:
381,257,20668,2,0,P|402:222|395:174,1,80,2|2,1:2|2:0,0:0:0:0:
299,284,21013,6,0,L|311:363,1,80,2|2,3:2|2:0,0:0:0:0:
393,339,21272,1,2,2:0:0:0:
393,339,21358,2,0,P|433:325|473:340,1,80,2|2,1:2|2:0,0:0:0:0:
478,170,21703,6,0,P|438:177|385:187,1,80,2|0,3:2|0:0,0:0:0:0:
295,71,22048,2,0,P|335:78|388:88,1,80,2|0,1:2|0:0,0:0:0:0:
218,221,22392,6,0,P|190:170|226:98,1,120,2|0,3:2|0:0,0:0:0:0:
222,102,22737,1,0,1:2:0:0:
84,23,22910,1,2,2:0:0:0:
84,23,22996,1,2,2:0:0:0:
84,23,23082,2,0,P|97:72|101:117,1,80,2|0,3:2|0:0,0:0:0:0:
16,224,23427,2,0,P|64:189|105:196,1,80,0|0,1:2|0:0,0:0:0:0:
177,333,23772,5,0,3:2:0:0:
91,276,23944,1,2,2:0:0:0:
91,276,24030,1,2,2:0:0:0:
91,276,24117,2,0,L|80:379,1,80,2|2,1:2|2:0,0:0:0:0:
165,213,24461,1,2,1:2:0:0:
161,193,24548,1,0,1:2:0:0:
157,173,24634,1,2,1:2:0:0:
177,333,24806,2,0,P|219:316|261:326,1,80,2|0,1:2|3:2,0:0:0:0:
383,365,25151,6,0,L|372:266,1,80,6|2,2:0|2:0,0:0:0:0:
454,239,25409,1,2,2:0:0:0:
454,239,25496,2,0,L|465:140,1,80,2|2,1:2|2:0,0:0:0:0:
512,18,25841,6,0,P|459:38|419:31,1,80,2|2,3:2|2:0,0:0:0:0:
392,104,26099,1,2,2:0:0:0:
392,104,26186,2,0,P|339:84|299:91,1,80,2|2,1:2|2:0,0:0:0:0:
145,185,26530,6,0,L|224:191,1,80,2|2,3:2|2:0,0:0:0:0:
293,243,26789,1,2,2:0:0:0:
293,243,26875,2,0,P|312:196|296:152,1,80,2|2,1:2|2:0,0:0:0:0:
156,32,27220,6,0,P|139:88|137:139,1,80,2|0,3:2|0:0,0:0:0:0:
79,260,27565,2,0,P|72:220|59:182,1,80,2|0,1:2|0:0,0:0:0:0:
217,142,27910,5,2,1:2:0:0:
154,302,28082,2,0,P|220:292|256:291,1,80,0|0,3:2|3:2,0:0:0:0:
391,203,28427,5,2,1:2:0:0:
313,305,28599,2,0,P|309:350|309:389,1,80,0|0,3:2|3:2,0:0:0:0:
160,219,28944,5,2,1:2:0:0:
313,155,29117,2,0,P|309:110|309:71,1,80,0|0,3:2|3:2,0:0:0:0:
362,270,29461,5,2,1:2:0:0:
160,219,29634,1,0,3:2:0:0:
366,274,29806,1,0,3:2:0:0:
230,361,29979,1,2,1:2:0:0:
230,361,30065,1,0,1:2:0:0:
230,361,30151,1,2,1:2:0:0:
250,225,30323,2,0,B|315:226|302:184|375:190,1,120,2|0,3:2|0:0,0:0:0:0:
377,194,30668,6,0,P|385:159|370:121,1,64,2|2,3:2|2:0,0:0:0:0:
309,85,31013,2,0,L|232:96,1,64,2|2,3:2|2:0,0:0:0:0:
177,49,31358,2,0,P|163:96|171:130,1,64,2|2,3:2|2:0,0:0:0:0:
134,184,31703,2,0,L|58:177,1,64,2|2,3:2|2:0,0:0:0:0:
25,283,32048,6,0,P|88:257|154:293,1,128,2|2,3:2|3:2,0:0:0:0:
307,359,32737,2,0,P|244:385|178:349,1,128,2|2,3:2|3:2,0:0:0:0:
220,246,33255,1,2,2:0:0:0:
220,246,33341,1,2,2:0:0:0:
220,246,33427,6,0,P|253:230|287:227,1,64,2|0,3:2|0:0,0:0:0:0:
320,161,33772,2,0,P|353:177|387:180,1,64,2|0,3:2|0:0,0:0:0:0:
455,139,34117,2,0,P|467:177|455:216,1,64,2|0,3:2|0:0,0:0:0:0:
398,258,34461,2,0,P|386:287|389:319,1,64,2|0,3:2|0:0,0:0:0:0:
331,209,34806,6,0,P|299:207|267:201,1,64,2|2,3:2|2:0,0:0:0:0:
208,283,35151,2,0,P|240:285|271:290,1,64,2|2,3:2|2:0,0:0:0:0:
138,328,35496,1,2,3:2:0:0:
138,328,35582,2,0,P|123:278|140:248,1,64,0|0,1:2|0:0,0:0:0:0:
140,251,35841,2,0,L|65:259,1,64,0|0,1:2|3:2,0:0:0:0:
13,204,36099,1,0,1:2:0:0:
13,204,36186,6,0,P|5:173|24:127,1,64,2|2,3:2|2:0,0:0:0:0:
81,102,36530,2,0,L|154:114,1,64,2|2,3:2|2:0,0:0:0:0:
203,168,36875,2,0,P|225:131|220:85,1,64,2|2,3:2|2:0,0:0:0:0:
179,46,37220,1,2,3:2:0:0:
310,40,37392,1,2,1:2:0:0:
310,40,37479,1,0,1:2:0:0:
310,40,37565,6,0,B|311:117|358:63|353:184,1,128,2|2,3:2|3:2,0:0:0:0:
323,329,38255,2,0,B|322:252|275:306|280:185,1,128,2|2,3:2|3:2,0:0:0:0:
357,159,38772,1,0,0:0:0:0:
357,159,38944,6,0,P|397:160|448:165,1,64,2|0,3:2|0:0,0:0:0:0:
283,216,39289,2,0,P|243:215|192:210,1,64,2|0,1:2|0:0,0:0:0:0:
199,359,39634,2,0,P|213:327|206:290,1,64,2|0,3:2|0:0,0:0:0:0:
145,173,39979,2,0,P|131:205|138:242,1,64,2|0,1:2|0:0,0:0:0:0:
12,369,40323,5,2,3:2:0:0:
72,303,40496,2,0,L|151:314,2,64,0|0|0,3:2|1:2|3:2,0:0:0:0:
2,232,41013,1,2,2:3:0:0:
0,225,41099,1,2,2:3:0:0:
0,218,41186,1,2,2:3:0:0:
1,211,41272,1,2,2:3:0:0:
3,204,41358,2,0,B|57:199|40:236|111:223,1,96,2|0,1:3|0:0,0:0:0:0:
104,217,41703,6,0,P|94:179|102:129,1,71.9999978027344,6|2,2:0|2:0,0:0:0:0:
193,55,42048,2,0,L|288:69,1,71.9999978027344,2|2,1:2|2:0,0:0:0:0:
106,65,42392,1,2,3:2:0:0:
187,148,42565,1,2,3:2:0:0:
104,217,42737,2,0,P|66:219|4:235,1,71.9999978027344,2|2,1:2|2:0,0:0:0:0:
191,333,43082,6,0,P|214:259|267:195,1,143.999995605469,2|2,3:2|1:2,0:0:0:0:
335,235,43599,1,0,3:2:0:0:
380,99,43772,2,0,P|342:103|284:105,1,71.9999978027344,2|0,3:2|3:2,0:0:0:0:
412,202,44117,2,0,P|450:198|508:196,1,71.9999978027344,2|0,1:2|0:0,0:0:0:0:
438,351,44461,6,0,B|359:357|390:303|285:313,1,143.999995605469,2|2,3:2|1:2,0:0:0:0:
303,311,45151,1,2,3:2:0:0:
245,206,45323,1,0,3:2:0:0:
179,311,45496,2,0,P|173:357|174:389,1,71.9999978027344,2|0,1:2|0:0,0:0:0:0:
115,224,45841,5,2,3:2:0:0:
179,311,46013,1,2,2:0:0:0:
71,353,46186,2,0,P|25:357|-14:365,1,71.9999978027344,2|2,1:2|3:2,0:0:0:0:
123,232,46530,1,2,2:3:0:0:
123,232,46617,1,2,2:3:0:0:
123,232,46703,1,2,3:0:0:0:
40,62,46875,2,0,P|40:126|47:181,1,107.999996704102,0|0,1:2|0:0,0:0:0:0:
54,179,47220,6,0,P|91:148|127:146,1,71.9999978027344,6|2,2:0|2:0,0:0:0:0:
174,83,47479,1,0,3:2:0:0:
174,83,47565,2,0,P|211:114|247:116,1,71.9999978027344,2|2,1:2|2:0,0:0:0:0:
301,37,47910,1,2,3:2:0:0:
365,149,48082,1,2,3:2:0:0:
460,82,48255,2,0,P|466:42|476:-10,1,71.9999978027344,2|2,1:2|3:2,0:0:0:0:
371,159,48599,6,0,P|379:223|385:310,1,143.999995605469,2|2,3:2|1:2,0:0:0:0:
335,378,49117,1,0,3:2:0:0:
256,259,49289,2,0,P|214:264|165:273,1,71.9999978027344,2|0,3:2|3:2,0:0:0:0:
8,370,49634,2,0,P|56:326|116:345,1,107.999996704102,2|0,1:2|0:0,0:0:0:0:
105,337,49979,6,0,P|100:282|98:240,1,71.9999978027344,2|0,3:2|0:0,0:0:0:0:
21,103,50323,2,0,P|18:138|15:174,1,71.9999978027344,2|0,1:2|0:0,0:0:0:0:
99,265,50668,1,2,3:2:0:0:
166,174,50841,1,0,3:2:0:0:
229,275,51013,2,0,P|270:268|326:264,1,71.9999978027344,2|0,1:2|0:0,0:0:0:0:
409,133,51358,6,0,B|337:130|365:190|262:170,1,143.999995605469,2|0,3:2|1:2,0:0:0:0:
213,102,51875,1,0,0:0:0:0:
365,34,52048,1,0,1:2:0:0:
365,34,52134,1,0,1:2:0:0:
365,34,52220,1,0,3:2:0:0:
406,212,52392,1,2,1:2:0:0:
404,229,52479,1,0,1:2:0:0:
403,246,52565,1,0,1:2:0:0:
402,263,52651,1,0,1:2:0:0:
401,280,52737,6,0,B|459:267|459:267|526:305,1,120,6|0,1:2|3:2,0:0:0:0:
512,304,53082,2,0,L|503:217,1,80,0|2,3:2|3:2,0:0:0:0:
327,319,53427,2,0,B|269:332|269:332|202:294,1,120,6|0,1:2|3:2,0:0:0:0:
216,295,53772,2,0,L|225:382,1,80,0|2,3:2|3:2,0:0:0:0:
319,236,54117,2,0,L|329:136,1,80,6|0,1:2|0:0,0:0:0:0:
415,107,54461,6,0,L|465:114,3,40,2|2|2|2,1:2|2:0|1:2|2:0,0:0:0:0:
366,34,54806,2,0,L|316:41,3,40,2|2|2|2,3:2|2:0|1:2|2:0,0:0:0:0:
268,100,55151,1,6,1:2:0:0:
268,100,55496,6,0,B|286:138|286:138|266:240,1,120,6|0,1:2|3:2,0:0:0:0:
268,222,55841,2,0,P|302:197|361:199,1,80,0|2,3:2|3:2,0:0:0:0:
142,137,56186,2,0,B|124:99|124:99|144:-3,1,120,6|0,1:2|3:2,0:0:0:0:
142,15,56531,2,0,P|108:40|49:38,1,80,0|2,3:2|3:2,0:0:0:0:
196,198,56875,2,0,L|173:297,1,80,6|0,1:2|0:0,0:0:0:0:
40,340,57220,5,2,3:2:0:0:
56,328,57306,1,2,3:2:0:0:
75,322,57392,1,2,3:2:0:0:
95,322,57479,1,2,2:0:0:0:
109,335,57565,2,0,P|136:362|202:357,1,80,2|2,3:2|3:2,0:0:0:0:
258,286,57910,1,6,1:2:0:0:
479,350,58255,6,0,B|482:283|436:315|441:232,1,128,6|0,1:2|0:0,0:0:0:0:
433,103,58772,1,2,3:2:0:0:
433,103,58944,2,0,P|390:141|303:121,1,128,2|0,2:0|1:2,0:0:0:0:
232,41,59461,1,2,2:0:0:0:
232,41,59634,6,0,P|242:94|242:117,1,64,2|0,3:2|0:0,0:0:0:0:
322,212,59979,2,0,P|324:180|332:149,1,64,2|0,2:0|3:2,0:0:0:0:
243,53,60323,2,0,P|253:106|253:129,1,64,2|0,2:0|0:0,0:0:0:0:
333,224,60668,2,0,P|335:192|343:161,1,64,2|0,1:2|0:0,0:0:0:0:
284,305,61013,5,2,1:2:0:0:
208,188,61186,2,0,P|173:194|93:202,1,80,0|2,3:2|3:2,0:0:0:0:
241,376,61530,5,2,1:2:0:0:
93,265,61703,2,0,P|58:259|-22:251,1,80,0|0,3:2|3:2,0:0:0:0:
128,139,62048,5,2,1:2:0:0:
167,308,62220,1,0,3:2:0:0:
132,143,62392,1,2,1:2:0:0:
140,151,63255,1,0,3:2:0:0:
140,151,63341,1,0,3:2:0:0:
140,151,63427,2,0,L|205:162,1,60,0|0,1:2|0:0,0:0:0:0:
209,168,63772,5,6,3:2:0:0:
312,73,63944,1,2,3:2:0:0:
312,73,64030,1,0,3:2:0:0:
312,73,64117,2,0,P|303:121|300:186,1,95.9999970703126,2|2,1:2|1:2,0:0:0:0:
393,330,64461,5,2,3:2:0:0:
460,205,64634,1,2,3:2:0:0:
460,205,64720,1,0,3:2:0:0:
460,205,64806,2,0,P|412:194|356:229,1,95.9999970703126,2|2,1:2|1:2,0:0:0:0:
314,368,65151,5,2,3:2:0:0:
203,276,65323,1,2,3:2:0:0:
203,276,65410,1,0,3:2:0:0:
203,276,65496,2,0,P|207:211|201:149,1,95.9999970703126,2|2,1:2|1:2,0:0:0:0:
87,5,65841,6,0,P|61:58|137:84,1,143.999995605469,2|0,3:1|0:0,0:0:0:0:
202,100,66186,2,0,B|120:111|162:156|42:173,1,143.999995605469,2|0,1:0|0:0,0:0:0:0:
3,133,66530,5,2,3:2:0:0:
29,295,66703,1,0,3:2:0:0:
29,295,66789,1,2,3:2:0:0:
29,295,66875,2,0,P|81:288|141:282,1,95.9999970703126,2|2,1:2|1:2,0:0:0:0:
245,371,67220,5,2,3:2:0:0:
275,217,67392,1,0,3:2:0:0:
275,217,67479,1,0,3:2:0:0:
275,217,67565,2,0,P|233:206|173:246,1,95.9999970703126,2|2,1:2|1:2,0:0:0:0:
245,371,67910,5,2,3:2:0:0:
355,230,68082,1,2,1:2:0:0:
237,288,68255,5,2,3:2:0:0:
409,364,68427,1,2,1:2:0:0:
434,187,68599,5,2,1:2:0:0:
434,187,68686,1,0,1:2:0:0:
434,187,68772,1,0,3:2:0:0:
293,53,68944,1,0,1:2:0:0:
296,76,69030,1,0,1:2:0:0:
299,99,69117,1,0,1:2:0:0:
302,122,69203,1,0,1:2:0:0:
305,145,69289,5,6,1:2:0:0:
451,93,69461,1,2,3:2:0:0:
451,93,69548,1,0,3:2:0:0:
451,93,69634,2,0,P|437:149|433:217,1,95.9999970703126,2|2,1:2|1:2,0:0:0:0:
377,337,69979,5,2,3:2:0:0:
267,225,70151,1,2,3:2:0:0:
267,225,70237,1,0,3:2:0:0:
267,225,70323,2,0,P|313:234|357:216,1,95.9999970703126,2|2,1:2|1:2,0:0:0:0:
293,53,70668,5,2,3:2:0:0:
183,178,70841,1,2,3:2:0:0:
183,178,70927,1,0,3:2:0:0:
183,178,71013,2,0,P|189:253|191:293,1,95.9999970703126,2|2,1:2|1:2,0:0:0:0:
159,59,71358,6,0,B|88:64|115:114|30:115,1,143.999995605469,2|0,1:0|0:0,0:0:0:0:
43,36,71703,2,0,P|108:96|83:178,1,143.999995605469,2|0,1:0|0:0,0:0:0:0:
33,190,72048,6,0,P|53:260|51:338,1,132.00000402832,6|0,3:2|0:0,0:0:0:0:
48,337,72392,1,2,1:2:0:0:
140,241,72565,6,0,P|193:276|251:228,1,132.00000402832,2|0,3:2|0:0,0:0:0:0:
246,230,72910,2,0,L|237:185,2,44.0000013427735,2|0|0,3:2|3:2|1:2,0:0:0:0:
311,356,73255,6,0,B|410:363|381:295|486:304,1,176.000005371094,6|0,3:2|3:2,0:0:0:0:
480,181,73772,2,0,P|464:140|504:84,1,88.000002685547,2|0,1:2|3:2,0:0:0:0:
494,25,74030,1,0,1:2:0:0:
494,25,74117,2,0,P|433:31|378:33,1,88.000002685547,2|0,1:2|3:2,0:0:0:0:
250,104,74461,2,0,P|314:81|374:127,1,132.00000402832,2|0,3:2|0:0,0:0:0:0:
373,137,74806,5,6,1:2:0:0:
373,137,75151,5,0,1:2:0:0:
234,322,75323,1,2,3:2:0:0:
205,74,75496,5,2,1:2:0:0:
358,291,75668,1,0,3:2:0:0:
124,166,75841,5,0,1:2:0:0:
150,163,75927,1,0,1:2:0:0:
176,160,76013,1,0,1:2:0:0:
202,157,76099,1,0,1:2:0:0:
228,154,76186,5,2,1:2:0:0:
228,154,77565,5,6,3:2:0:0:
228,154,88599,5,6,3:2:0:0:
228,154,89979,6,0,L|217:241,1,71.9999978027344,6|0,3:2|0:0,0:0:0:0:
144,105,90323,5,2,3:2:0:0:
144,105,90496,2,0,L|133:192,1,71.9999978027344,4|2,3:2|2:0,0:0:0:0:
60,56,90840,5,0,3:2:0:0:
60,56,91013,2,0,L|49:143,1,71.9999978027344,2|0,1:2|0:0,0:0:0:0:
20,261,91358,6,0,P|60:260|105:252,1,71.9999978027344,6|0,3:2|3:2,0:0:0:0:
191,365,91703,2,0,P|155:359|119:359,1,71.9999978027344,2|0,1:2|0:0,0:0:0:0:
163,208,92048,1,2,3:2:0:0:
246,304,92220,1,0,3:2:0:0:
306,185,92392,2,0,P|310:126|311:87,1,71.9999978027344,2|0,1:2|0:0,0:0:0:0:
327,340,92737,5,2,3:2:0:0:
387,228,92910,1,2,3:2:0:0:
387,228,92996,1,0,3:2:0:0:
387,228,93082,1,2,1:2:0:0:
463,318,93255,1,2,3:2:0:0:
503,152,93427,2,0,P|464:155|427:156,1,71.9999978027344,2|0,3:2|3:2,0:0:0:0:
312,59,93772,1,0,1:2:0:0:
312,59,94117,6,0,P|323:105|304:138,1,71.9999978027344,6|2,3:2|2:0,0:0:0:0:
253,183,94375,1,0,3:2:0:0:
253,183,94461,2,0,L|170:176,1,71.9999978027344,2|2,1:2|2:0,0:0:0:0:
85,153,94806,1,2,3:2:0:0:
165,68,94979,1,2,3:2:0:0:
21,29,95151,2,0,P|15:73|13:103,1,71.9999978027344,2|2,1:2|2:0,0:0:0:0:
64,237,95496,6,0,B|151:245|121:193|215:204,1,143.999995605469,2|2,3:2|1:2,0:0:0:0:
189,287,96013,1,0,3:2:0:0:
85,153,96186,2,0,P|91:114|108:68,1,71.9999978027344,2|0,3:2|3:2,0:0:0:0:
200,202,96530,1,2,1:2:0:0:
200,202,96875,6,0,P|236:209|288:212,1,71.9999978027344,2|0,3:2|0:0,0:0:0:0:
359,324,97220,2,0,P|323:327|287:333,1,71.9999978027344,2|0,1:2|0:0,0:0:0:0:
432,255,97565,1,2,3:2:0:0:
492,359,97737,1,0,3:2:0:0:
439,244,97910,2,0,B|437:186|405:202|411:135,1,107.999996704102,2|0,1:2|0:0,0:0:0:0:
413,132,98255,6,0,P|375:137|323:148,1,71.9999978027344,2|0,3:2|0:0,0:0:0:0:
234,55,98599,2,0,P|269:61|305:66,1,71.9999978027344,0|0,1:2|0:0,0:0:0:0:
283,203,98944,1,0,1:2:0:0:
158,137,99117,1,0,3:2:0:0:
155,119,99203,1,0,3:2:0:0:
152,101,99289,1,2,3:2:0:0:
150,83,99375,1,0,3:2:0:0:
148,65,99461,1,0,3:2:0:0:
71,204,99634,6,0,B|146:230|146:230|201:218,2,120,6|2|2,1:2|3:2|3:2,0:0:0:0:
13,337,100323,2,0,P|61:305|104:310,1,80,6|2,1:2|2:0,0:0:0:0:
111,323,100582,1,2,3:2:0:0:
111,323,100668,2,0,L|115:375,2,40,0|0|0,3:2|3:2|3:2,0:0:0:0:
185,221,101013,2,0,P|234:230|300:230,1,80,6|0,1:2|0:0,0:0:0:0:
328,142,101358,6,0,L|336:98,1,40,4|0,1:2|0:0,0:0:0:0:
281,43,101530,1,0,1:2:0:0:
404,167,101703,6,0,L|412:211,1,40,4|0,3:2|0:0,0:0:0:0:
357,266,101875,1,0,1:2:0:0:
481,141,102048,6,0,L|489:97,1,40,4|0,1:2|0:0,0:0:0:0:
434,42,102220,1,0,0:0:0:0:
404,167,102392,6,0,B|361:158|361:158|283:183,1,120,6|2,1:2|3:2,0:0:0:0:
284,189,102737,2,0,P|290:135|281:106,1,80,2|2,3:2|3:2,0:0:0:0:
357,268,103082,6,0,B|400:277|400:277|478:252,1,120,6|2,1:2|3:2,0:0:0:0:
477,246,103427,2,0,P|471:300|480:329,1,80,0|2,3:2|3:2,0:0:0:0:
298,332,103772,2,0,P|245:333|197:337,1,80,6|0,1:2|0:0,0:0:0:0:
200,141,104117,5,0,3:2:0:0:
120,205,104289,1,0,3:2:0:0:
120,205,104375,1,0,3:2:0:0:
120,205,104461,2,0,P|114:153|109:121,1,80,2|2,3:2|3:2,0:0:0:0:
40,90,104806,1,6,1:2:0:0:
27,321,105151,5,6,1:2:0:0:
27,321,106013,2,0,P|63:327|94:338,2,64,0|0|2,3:2|3:2|3:2,0:0:0:0:
187,240,106530,5,6,3:2:0:0:
187,240,107020,5,8,3:3:0:0:
187,240,107364,1,4,3:3:0:0:
224,345,107565,1,2,3:2:0:0:
397,336,107909,5,2,1:2:0:0:
408,319,107996,1,0,3:2:0:0:
413,299,108082,1,0,3:2:0:0:
409,279,108168,1,0,3:2:0:0:
397,262,108255,1,2,3:2:0:0:
279,277,108427,5,2,1:2:0:0:
279,277,108513,1,0,1:2:0:0:
279,277,108599,2,0,P|285:238|290:177,1,80,0|0,3:2|0:0,0:0:0:0:
236,95,108944,5,2,1:2:0:0:
259,99,109030,1,0,1:2:0:0:
282,103,109117,1,0,1:2:0:0:
305,107,109203,1,0,1:2:0:0:
328,111,109289,1,2,1:2:0:0:
447,222,109806,1,0,3:2:0:0:
452,203,109892,1,0,3:2:0:0:
457,184,109979,1,2,3:2:0:0:
462,165,110065,1,0,3:2:0:0:
452,148,110151,5,0,3:2:0:0:
433,141,110237,1,0,3:2:0:0:
413,145,110323,6,0,L|432:214,1,60,0|0,1:2|0:0,0:0:0:0:
421,219,110668,5,6,3:2:0:0:
306,324,110841,1,2,3:2:0:0:
306,324,110927,1,0,3:2:0:0:
306,324,111013,2,0,P|244:316|208:316,1,95.9999970703126,2|2,1:2|1:2,0:0:0:0:
70,227,111358,5,2,3:2:0:0:
184,156,111530,1,2,3:2:0:0:
184,156,111617,1,0,3:2:0:0:
184,156,111703,2,0,P|199:208|179:244,1,95.9999970703126,2|2,1:2|1:2,0:0:0:0:
61,117,112048,5,2,3:2:0:0:
149,28,112220,1,2,3:2:0:0:
149,28,112306,1,0,3:2:0:0:
149,28,112392,2,0,P|201:33|259:36,1,95.9999970703126,2|2,1:2|1:2,0:0:0:0:
492,115,112737,6,0,B|423:121|451:171|361:168,1,143.999995605469,2|0,3:1|0:0,0:0:0:0:
255,167,113082,2,0,B|278:156|288:133|288:133|268:185|303:228,1,143.999995605469,2|0,1:0|0:0,0:0:0:0:
374,251,113427,5,2,3:2:0:0:
504,202,113599,1,0,3:2:0:0:
504,202,113685,1,2,3:2:0:0:
504,202,113772,2,0,P|495:261|490:313,1,95.9999970703126,2|2,1:2|1:2,0:0:0:0:
353,351,114117,5,2,3:2:0:0:
299,223,114289,1,0,3:2:0:0:
299,223,114375,1,2,3:2:0:0:
299,223,114461,2,0,P|254:242|186:246,1,95.9999970703126,2|2,1:2|1:2,0:0:0:0:
62,116,114806,5,2,3:2:0:0:
210,156,114979,1,2,1:2:0:0:
121,53,115151,5,2,3:2:0:0:
134,197,115323,1,2,1:2:0:0:
284,110,115496,1,2,1:2:0:0:
281,91,115582,1,0,1:2:0:0:
278,72,115668,1,0,1:2:0:0:
275,52,115755,1,0,1:2:0:0:
272,33,115841,1,0,1:2:0:0:
444,147,116013,1,0,1:2:0:0:
438,170,116099,1,0,1:2:0:0:
432,193,116186,5,6,1:2:0:0:
473,332,116358,1,2,3:2:0:0:
473,332,116444,1,0,3:2:0:0:
473,332,116530,2,0,P|422:315|357:328,1,95.9999970703126,2|2,1:2|1:2,0:0:0:0:
234,366,116875,5,2,3:2:0:0:
319,266,117048,1,2,3:2:0:0:
319,266,117134,1,0,3:2:0:0:
319,266,117220,2,0,P|328:214|341:168,1,95.9999970703126,2|2,1:2|1:2,0:0:0:0:
480,221,117565,5,2,3:2:0:0:
403,112,117737,1,2,3:2:0:0:
403,112,117823,1,0,3:2:0:0:
403,112,117910,2,0,P|363:91|298:102,1,95.9999970703126,2|2,1:2|1:2,0:0:0:0:
176,192,118255,5,2,1:0:0:0:
290,239,118427,1,0,3:2:0:0:
122,254,118599,5,2,1:0:0:0:
344,177,118771,1,0,3:2:0:0:
181,108,118944,6,0,B|110:110|135:155|29:153,1,132.00000402832,6|0,3:2|0:0,0:0:0:0:
46,143,119289,1,2,1:2:0:0:
45,317,119461,6,0,P|47:258|116:235,1,132.00000402832,2|0,3:2|0:0,0:0:0:0:
120,238,119806,1,2,3:2:0:0:
201,350,119979,1,0,1:2:0:0:
296,259,120151,6,0,B|294:186|229:211|246:94,1,176.000005371094,6|0,3:2|3:2,0:0:0:0:
363,18,120668,2,0,P|399:86|300:117,2,176.000005371094,2|2|2,1:2|1:2|3:2,0:0:0:0:
124,77,121703,5,6,1:2:0:0:
124,77,122048,5,0,1:2:0:0:
268,297,122220,1,2,3:2:0:0:
264,105,122392,5,2,1:2:0:0:
131,325,122565,1,0,3:2:0:0:
0,139,122737,5,0,1:2:0:0:
25,143,122823,1,0,1:2:0:0:
51,147,122910,1,2,1:2:0:0:
76,151,122996,1,0,1:2:0:0:
101,156,123082,5,2,1:2:0:0:
101,156,124461,5,6,1:2:0:0:
101,156,134117,5,4,3:2:0:0:
79,77,134289,2,0,P|34:73|-30:61,2,80,2|2|2,3:2|3:2|1:2,0:0:0:0:
203,188,134806,2,0,P|217:140|240:96,1,80,2|2,1:2|2:0,0:0:0:0:
380,39,135151,1,2,1:2:0:0:
369,56,135237,1,0,1:2:0:0:
353,68,135323,1,2,1:2:0:0:
334,75,135410,1,0,1:2:0:0:
314,76,135496,6,0,P|329:130|336:168,1,80,6|0,3:2|0:0,0:0:0:0:
455,231,135841,2,0,P|463:191|474:153,1,80,2|2,1:2|2:0,0:0:0:0:
401,366,136186,1,2,3:2:0:0:
368,232,136358,1,0,3:2:0:0:
272,317,136530,2,0,P|220:320|166:326,1,80,2|0,1:2|0:0,0:0:0:0:
36,294,136875,6,0,P|24:252|50:198,1,80,2|2,3:2|2:0,0:0:0:0:
186,83,137220,2,0,P|177:134|171:188,1,80,2|2,1:2|3:2,0:0:0:0:
74,116,137565,1,2,3:2:0:0:
109,250,137737,1,2,3:2:0:0:
78,120,137910,1,2,1:2:0:0:
250,204,138082,6,0,B|347:207|298:148|412:152,1,160,2|0,2:0|0:0,0:0:0:0:
441,310,138599,2,0,P|395:317|341:329,1,80,0|2,1:2|2:0,0:0:0:0:
222,283,138944,2,0,P|213:323|236:368,1,80,0|2,3:2|3:2,0:0:0:0:
389,236,139289,1,2,1:2:0:0:
263,122,139461,6,0,P|196:132|86:139,1,160,2|2,2:0|2:0,0:0:0:0:
174,266,139979,1,2,1:2:0:0:
34,199,140151,1,2,3:2:0:0:
34,199,140237,1,0,3:2:0:0:
34,199,140323,2,0,P|41:247|41:297,1,80,0|0,3:2|3:2,0:0:0:0:
158,352,140668,2,0,P|159:312|165:272,1,80,0|2,3:2|3:2,0:0:0:0:
299,170,141013,5,6,3:2:0:0:
169,83,141186,1,2,3:2:0:0:
321,12,141358,1,2,1:2:0:0:
208,194,141530,1,2,2:0:0:0:
208,194,141617,1,2,2:0:0:0:
208,194,141703,6,0,L|212:148,3,40,2|2|2|2,3:2|2:0|3:2|2:0,0:0:0:0:
268,301,142048,2,0,P|270:268|270:245,1,40,2|2,1:2|2:0,0:0:0:0:
362,224,142220,2,0,P|362:243|364:263,1,40,2|2,2:0|2:0,0:0:0:0:
299,170,142392,6,0,P|377:142|448:206,1,160,2|0,3:2|1:2,0:0:0:0:
496,326,142910,1,2,3:2:0:0:
367,384,143082,2,0,P|366:302|361:209,1,160,2|2,3:2|1:2,0:0:0:0:
436,180,143599,1,2,2:0:0:0:
321,65,143772,6,0,P|285:70|221:77,1,80,6|0,3:2|0:0,0:0:0:0:
169,208,144117,2,0,P|208:212|248:218,1,80,2|0,1:2|0:0,0:0:0:0:
144,54,144461,1,2,3:2:0:0:
78,185,144634,1,2,3:2:0:0:
23,63,144806,1,2,1:2:0:0:
86,195,144979,6,0,B|81:292|143:243|118:370,1,160,2|2,2:0|2:0,0:0:0:0:
248,218,145496,1,0,1:2:0:0:
213,354,145668,2,0,P|254:307|332:321,1,120,6|0,3:2|0:0,0:0:0:0:
326,324,146013,1,6,3:2:0:0:
406,222,146186,1,0,1:2:0:0:
442,365,146358,6,0,B|436:266|493:307|492:213,1,160,6|2,3:2|3:2,0:0:0:0:
359,149,146875,2,0,P|317:154|266:158,1,80,2|0,1:2|0:0,0:0:0:0:
158,91,147220,1,2,3:2:0:0:
225,218,147392,1,2,3:2:0:0:
292,75,147565,1,2,1:2:0:0:
129,182,147737,6,0,P|143:258|151:358,1,160,6|0,3:2|3:2,0:0:0:0:
302,222,148255,2,0,P|257:212|216:221,1,80,2|0,1:2|0:0,0:0:0:0:
86,97,148599,1,2,3:2:0:0:
105,102,148686,1,2,2:0:0:0:
124,102,148772,1,2,3:2:0:0:
142,94,148858,1,2,2:0:0:0:
158,83,148944,1,2,1:2:0:0:
302,40,149117,6,0,B|298:128|350:93|345:196,1,160,6|2,3:2|3:2,0:0:0:0:
468,55,149634,2,0,P|429:52|381:54,1,80,2|2,1:2|2:0,0:0:0:0:
264,162,149979,1,2,3:2:0:0:
367,272,150151,1,2,3:2:0:0:
419,131,150323,1,2,1:2:0:0:
267,252,150496,6,0,B|224:263|224:263|210:282|210:282|127:304,1,120,6|0,3:2|2:2,0:0:0:0:
147,301,150841,1,2,3:2:0:0:
40,211,151013,1,2,2:2:0:0:
96,112,151186,6,0,P|135:140|132:217,1,120,2|0,1:2|0:0,0:0:0:0:
130,220,151530,1,2,3:2:0:0:
271,157,151703,1,0,1:2:0:0:
271,157,152048,6,0,P|323:161|379:162,1,80,6|0,3:2|3:2,0:0:0:0:
463,304,152392,2,0,P|423:305|383:308,1,80,0|0,1:2|3:2,0:0:0:0:
456,131,152737,2,0,P|452:183|451:239,1,80,2|0,1:2|3:2,0:0:0:0:
290,347,153082,1,0,1:2:0:0:
227,223,153255,1,0,3:2:0:0:
227,223,153341,1,2,3:2:0:0:
227,223,153427,6,0,P|188:242|165:288,1,80,2|2,1:2|3:2,0:0:0:0:
45,363,153772,2,0,P|48:319|19:276,1,80,2|2,1:2|3:2,0:0:0:0:
14,135,154117,2,0,P|49:159|101:156,1,80,0|0,1:2|3:2,0:0:0:0:
192,84,154461,1,0,1:2:0:0:
227,223,154634,1,2,3:2:0:0:
358,97,154806,6,0,P|303:104|263:111,2,80,6|2|2,3:2|2:0|1:2,0:0:0:0:
462,198,155323,1,2,3:2:0:0:
462,198,155410,1,0,3:2:0:0:
462,198,155496,1,0,3:2:0:0:
409,282,155668,1,2,3:2:0:0:
354,196,155841,1,2,3:2:0:0:
418,366,156013,6,0,B|335:377|365:319|263:331,1,143.999995605469,6|2,1:2|2:0,0:0:0:0:
175,367,156530,2,0,P|168:317|191:279,1,71.9999978027344,2|2,3:2|3:2,0:0:0:0:
175,298,157048,1,0,3:2:0:0:
58,345,157220,1,0,1:2:0:0:
118,137,157565,5,6,3:2:0:0:
118,137,163082,6,0,B|195:139|162:192|243:184,1,128,6|2,3:2|3:2,0:0:0:0:
314,132,163599,1,2,1:2:0:0:
314,132,163685,1,0,1:2:0:0:
314,132,163772,2,0,P|336:183|311:248,1,128,2|2,3:2|3:2,0:0:0:0:
226,256,164289,1,2,1:2:0:0:
344,367,164461,6,0,B|352:295|388:337|406:244,1,128,6|2,1:2|3:2,0:0:0:0:
469,204,164979,1,2,1:2:0:0:
464,105,165151,2,0,P|425:112|382:115,1,64,2|0,3:2|0:0,0:0:0:0:
351,185,165496,2,0,P|312:178|269:175,1,64,2|0,1:2|0:0,0:0:0:0:
106,114,165841,6,0,B|184:107|140:69|233:55,1,128,6|2,3:2|1:2,0:0:0:0:
220,61,166530,5,0,1:2:0:0:
220,61,166703,1,2,1:2:0:0:
301,101,166875,1,0,1:2:0:0:
219,221,167048,5,6,1:2:0:0:
219,221,167910,5,0,0:0:0:0:
161,280,168082,1,0,3:2:0:0:
161,280,168168,1,0,3:2:0:0:
161,280,168255,2,0,L|173:345,1,60,0|0,1:2|0:0,0:0:0:0:
182,353,168599,5,6,3:2:0:0:
308,259,168772,1,2,3:2:0:0:
308,259,168858,1,0,3:2:0:0:
308,259,168944,2,0,P|367:263|431:277,1,95.9999970703126,2|2,1:2|1:2,0:0:0:0:
394,136,169289,5,2,3:2:0:0:
245,207,169461,1,2,3:2:0:0:
245,207,169548,1,0,3:2:0:0:
245,207,169634,2,0,P|227:160|260:121,1,95.9999970703126,2|2,1:2|1:2,0:0:0:0:
386,56,169979,5,2,3:2:0:0:
250,17,170151,1,2,3:2:0:0:
250,17,170237,1,0,3:2:0:0:
250,17,170323,2,0,P|196:29|141:35,1,95.9999970703126,2|2,1:2|1:2,0:0:0:0:
44,147,170668,6,0,B|74:115|74:115|87:237,1,143.999995605469,2|0,3:1|0:0,0:0:0:0:
30,284,171013,2,0,P|76:246|169:290,1,143.999995605469,2|0,1:0|0:0,0:0:0:0:
99,325,171358,5,2,3:2:0:0:
204,201,171530,1,2,3:2:0:0:
204,201,171617,1,0,3:2:0:0:
204,201,171703,2,0,P|204:143|210:88,1,95.9999970703126,2|2,1:2|1:2,0:0:0:0:
335,154,172048,5,2,3:2:0:0:
247,282,172220,1,2,3:2:0:0:
247,282,172306,1,0,3:2:0:0:
247,282,172392,2,0,P|299:274|347:307,1,95.9999970703126,2|2,1:2|1:2,0:0:0:0:
493,345,172737,5,2,3:2:0:0:
385,224,172910,1,2,1:2:0:0:
512,262,173082,5,2,3:2:0:0:
382,360,173255,1,2,1:2:0:0:
371,142,173427,2,0,B|455:136|425:194|506:181,1,143.999995605469,2|0,1:2|0:0,0:0:0:0:
511,175,173772,2,0,P|462:184|417:202,1,95.9999970703126,0|0,1:2|3:2,0:0:0:0:
326,73,174117,5,6,1:2:0:0:
493,102,174289,1,2,3:2:0:0:
493,102,174375,1,0,3:2:0:0:
493,102,174461,2,0,P|500:49|509:3,1,95.9999970703126,2|2,1:2|1:2,0:0:0:0:
419,200,174806,5,2,3:2:0:0:
263,135,174979,1,2,3:2:0:0:
263,135,175065,1,0,3:2:0:0:
263,135,175151,2,0,P|201:143|147:151,1,95.9999970703126,2|2,1:2|1:2,0:0:0:0:
4,105,175496,5,2,3:2:0:0:
112,201,175668,1,2,3:2:0:0:
112,201,175755,1,0,3:2:0:0:
112,201,175841,2,0,P|117:255|85:291,1,95.9999970703126,2|2,1:2|1:2,0:0:0:0:
205,352,176186,5,2,1:0:0:0:
320,243,176358,1,0,3:2:0:0:
200,273,176530,2,0,B|284:275|244:331|353:319,1,143.999995605469,2|0,1:0|0:0,0:0:0:0:
396,269,176875,6,0,P|407:194|430:143,1,132.00000402832,6|0,3:2|0:0,0:0:0:0:
448,136,177220,1,2,1:2:0:0:
344,30,177392,6,0,P|332:98|265:117,1,132.00000402832,2|0,3:2|0:0,0:0:0:0:
259,112,177737,1,2,3:2:0:0:
202,26,177910,1,0,1:2:0:0:
101,133,178082,6,0,B|102:238|155:182|160:300,1,176.000005371094,6|0,3:2|3:2,0:0:0:0:
3,312,178599,2,0,P|38:279|77:272,1,88.000002685547,2|0,1:2|3:2,0:0:0:0:
163,297,178858,1,0,1:2:0:0:
163,297,178944,2,0,L|262:294,1,88.000002685547,2|0,1:2|3:2,0:0:0:0:
406,352,179289,6,0,B|405:273|362:318|362:208,1,132.00000402832,2|0,3:2|0:0,0:0:0:0:
374,213,179634,5,6,1:2:0:0:
374,213,179979,5,0,1:2:0:0:
160,121,180151,1,2,3:2:0:0:
417,121,180323,5,2,1:2:0:0:
112,203,180496,1,0,3:2:0:0:
314,59,180668,1,0,1:2:0:0:
310,85,180755,1,0,1:2:0:0:
306,111,180841,1,2,1:2:0:0:
302,137,180927,1,0,1:2:0:0:
299,163,181013,5,2,1:2:0:0:
299,163,182392,6,0,P|243:163|201:189,1,80,6|2,3:2|2:0,0:0:0:0:
171,238,182651,1,2,2:0:0:0:
171,238,182737,2,0,L|185:335,1,80,2|2,1:2|2:0,0:0:0:0:
1,225,183082,6,0,P|57:225|99:199,1,80,2|2,3:2|2:0,0:0:0:0:
129,150,183341,1,2,2:0:0:0:
129,150,183427,2,0,L|115:53,1,80,2|2,1:2|2:0,0:0:0:0:
254,47,183772,6,0,P|300:68|347:58,1,80,2|2,3:2|2:0,0:0:0:0:
376,131,184030,1,2,2:0:0:0:
376,131,184117,2,0,P|422:110|469:120,1,80,2|2,1:2|2:0,0:0:0:0:
442,275,184461,6,0,P|434:227|431:173,1,80,2|0,3:2|0:0,0:0:0:0:
291,149,184806,2,0,P|287:188|280:228,1,80,2|0,1:2|0:0,0:0:0:0:
185,333,185151,6,0,P|245:302|303:343,1,120,2|0,3:2|0:0,0:0:0:0:
302,341,185496,1,0,1:2:0:0:
198,222,185668,1,2,2:0:0:0:
198,222,185755,1,2,2:0:0:0:
198,222,185841,2,0,P|135:233|91:236,1,80,2|0,3:2|0:0,0:0:0:0:
41,363,186186,2,0,P|27:313|46:275,1,80,0|0,1:2|0:0,0:0:0:0:
138,151,186530,5,0,3:2:0:0:
32,121,186703,1,2,2:0:0:0:
32,121,186789,1,2,2:0:0:0:
32,121,186875,2,0,P|40:191|41:229,1,80,2|2,1:2|2:0,0:0:0:0:
101,68,187220,1,2,1:2:0:0:
105,48,187307,1,0,1:2:0:0:
109,28,187393,1,2,1:2:0:0:
138,151,187565,1,2,1:2:0:0:
221,57,187737,1,0,3:2:0:0:
221,57,187823,1,0,3:2:0:0:
221,57,187910,6,0,P|249:111|253:152,1,80,6|2,2:0|2:0,0:0:0:0:
328,172,188168,1,2,2:0:0:0:
328,172,188255,2,0,P|300:226|296:267,1,80,2|2,1:2|2:0,0:0:0:0:
450,351,188599,6,0,P|405:356|353:364,1,80,2|2,3:2|2:0,0:0:0:0:
303,321,188858,1,2,2:0:0:0:
303,321,188944,2,0,P|258:316|206:308,1,80,2|2,1:2|2:0,0:0:0:0:
98,374,189289,6,0,P|84:334|115:288,1,80,2|2,3:2|2:0,0:0:0:0:
167,259,189548,1,2,2:0:0:0:
167,259,189634,2,0,P|180:222|166:185,1,80,2|2,1:2|2:0,0:0:0:0:
46,54,189979,6,0,P|87:59|135:62,1,80,2|0,3:2|0:0,0:0:0:0:
236,172,190323,2,0,P|196:174|156:179,1,80,2|0,1:2|0:0,0:0:0:0:
263,58,190668,5,6,1:2:0:0:
305,223,190841,2,0,P|297:276|292:338,1,80,0|0,3:2|3:2,0:0:0:0:
418,120,191186,5,6,1:2:0:0:
462,292,191358,2,0,P|422:288|382:285,1,80,0|0,3:2|3:2,0:0:0:0:
235,171,191703,5,6,1:2:0:0:
425,125,191875,2,0,P|433:178|438:240,1,80,0|0,3:2|3:2,0:0:0:0:
306,31,192220,5,6,1:2:0:0:
305,223,192392,2,0,P|297:276|292:338,1,80,0|0,3:2|3:2,0:0:0:0:
386,55,192737,5,6,1:2:0:0:
119,141,192910,1,2,1:2:0:0:
425,125,193082,5,2,1:2:0:0:
72,74,193255,1,6,1:2:0:0:
