osu file format v14

[General]
AudioFilename: audio.mp3
AudioLeadIn: 0
PreviewTime: 213464
Countdown: 0
SampleSet: Soft
StackLeniency: 0.7
Mode: 0
LetterboxInBreaks: 0
WidescreenStoryboard: 0

[Editor]
Bookmarks: 147117,167762,190988,214214,224536,237440,247762
DistanceSpacing: 0.7
BeatDivisor: 6
GridSize: 32
TimelineZoom: 1.800005

[Metadata]
Title:Hakujitsu
TitleUnicode:白日
Artist:Natsuiro Matsuri & Rikka
ArtistUnicode:夏色まつり&律可
Creator:-Aqua
Version:Regret
Source:イノセンス 冤罪弁護士
Tags:夏まつch Matsuri Channel まつりす 祭丝 Matsurisu りっか Rikka ch.律可 Rikkaroid ホロライブ Hororaibu Hololive Holostars Virtual Youtuber Idol Seiso VTuber Japanese Pop King Gnu Cover Full Version Swing 1/6 1/3 Ayucchi Innocence Enzai Bengoshi
BeatmapID:2283853
BeatmapSetID:1092562

[Difficulty]
HPDrainRate:5
CircleSize:4
OverallDifficulty:8
ApproachRate:9.2
SliderMultiplier:1.6
SliderTickRate:1

[Events]
//Background and Video events
0,0,"hakujitsu.png",0,0
Video,55,"hakujitsu matsuri vid.mp4"
//Break Periods
2,90544,97440
//Storyboard Layer 0 (Background)
//Storyboard Layer 1 (Fail)
//Storyboard Layer 2 (Pass)
//Storyboard Layer 3 (Foreground)
//Storyboard Layer 4 (Overlay)
//Storyboard Sound Samples

[TimingPoints]
24,645.161290322581,4,2,1,40,1,0
24,-100,4,2,1,40,0,0
2604,-150.375939849624,4,2,1,40,0,0
4540,672.268907563025,4,2,1,40,1,0
4876,741.656365883807,4,2,1,40,1,0
5246,645.161290322581,4,2,1,40,1,0
5246,-150.375939849624,4,2,1,40,0,0
6308,645.161290322581,4,2,1,40,1,0
6536,771.704180064309,4,2,1,40,1,0
6536,-125.786163522013,4,2,1,40,0,0
6921,731.707317073171,4,2,1,40,1,0
7164,610.687022900763,4,2,1,40,1,0
7164,-158.982511923688,4,2,1,40,0,0
7774,645.161290322581,4,2,1,40,1,0
7774,-150.375939849624,4,2,1,40,0,0
9709,588.235294117647,4,2,1,40,1,0
9709,-171.673819742489,4,2,1,40,0,0
10335,627.615062761506,4,2,1,40,1,0
10335,-150.375939849624,4,2,1,40,0,0
11644,700.934579439252,4,2,1,40,1,0
11644,-138.504155124654,4,2,1,40,0,0
11760,-138.504155124654,4,2,1,5,0,0
12695,646.900269541779,4,2,1,40,1,0
13018,630.252100840336,4,2,1,40,1,0
13018,-153.846153846154,4,2,1,40,0,0
13648,-153.846153846154,4,2,1,50,0,0
14015,630.252100840336,4,2,1,50,1,0
14278,630.252100840336,4,2,1,50,1,0
14278,-153.846153846154,4,2,1,50,0,0
14908,645.161290322581,4,2,1,50,1,0
14908,-150.375939849624,4,2,1,50,0,0
15553,634.249471458774,4,2,1,50,1,0
15553,-152.905198776758,4,2,1,50,0,0
16081,-152.905198776758,4,2,1,5,0,0
16292,-152.905198776758,4,2,1,50,0,0
16821,645.161290322581,4,2,1,50,1,0
16821,-150.375939849624,4,2,1,50,0,0
21229,-150.375939849624,4,2,1,5,0,0
21982,-150.375939849624,4,2,1,50,0,0
22519,-150.375939849624,4,2,1,5,0,0
22627,693.64161849711,4,2,1,50,1,0
22973,552.995391705069,4,2,1,50,1,0
23249,645.161290322581,4,2,1,60,1,0
23249,-100.250626566416,4,2,1,60,0,0
41851,-100.250626566416,4,2,1,5,0,0
41958,-100.250626566416,4,2,1,60,0,0
45378,681.818181818182,4,2,1,55,1,0
45688,714.285714285714,4,2,1,55,1,0
46017,714.285714285714,4,2,1,55,1,0
46328,714.285714285714,4,2,1,55,1,0
46474,645.161290322581,4,2,1,70,1,0
46474,-50.125313283208,4,2,1,70,0,0
67119,-75.0187546886722,4,2,1,70,0,0
68409,-50.125313283208,4,2,1,70,0,0
69135,-50.125313283208,4,2,1,5,0,0
69215,-50.125313283208,4,2,1,70,0,0
69296,-50.125313283208,4,2,1,5,0,0
69377,-50.125313283208,4,2,1,70,0,0
69457,-50.125313283208,4,2,1,5,0,0
69538,-50.125313283208,4,2,1,70,0,0
69619,-50.125313283208,4,2,1,5,0,0
69699,-37.593984962406,4,2,1,65,0,1
70129,-37.593984962406,4,2,1,85,0,0
74215,-50.125313283208,4,2,1,85,0,0
74538,-42.9645542427497,4,2,1,85,0,0
74861,-37.593984962406,4,2,1,85,0,0
79377,600,4,2,1,85,1,0
79377,-37.593984962406,4,2,1,85,0,0
79677,-50.125313283208,4,2,1,85,0,0
80022,645.161290322581,4,2,1,85,1,1
80022,-37.593984962406,4,2,1,65,0,1
80452,-37.593984962406,4,2,1,85,0,0
89888,912.54752851711,4,2,1,85,1,0
90344,645.161290322581,4,2,1,85,1,0
90344,-150.375939849624,4,2,1,85,0,0
98085,-150.375939849624,4,2,1,55,0,0
98623,-150.375939849624,4,2,1,5,0,0
98838,-150.375939849624,4,2,1,55,0,0
99558,750,4,2,1,55,1,0
99891,750,4,2,1,55,1,0
100202,750,4,2,1,55,1,0
100520,879.765395894428,4,2,1,55,1,0
100666,645.161290322581,4,2,1,65,1,0
100666,-75.187969924812,4,2,1,65,0,0
121311,-60.1503759398496,4,2,1,65,0,0
123246,-60.1503759398496,4,2,1,60,0,0
123327,-60.1503759398496,4,2,1,5,0,0
123407,-60.1503759398496,4,2,1,60,0,0
123488,-60.1503759398496,4,2,1,5,0,0
123569,-60.1503759398496,4,2,1,60,0,0
123649,-60.1503759398496,4,2,1,5,0,0
123730,-60.1503759398496,4,2,1,60,0,0
123811,-60.1503759398496,4,2,1,5,0,0
123891,-50.125313283208,4,2,1,70,0,0
144536,-75.187969924812,4,2,1,70,0,0
145827,-50.125313283208,4,2,1,70,0,0
146553,-50.125313283208,4,2,1,5,0,0
146633,-50.125313283208,4,2,1,70,0,0
146714,-50.125313283208,4,2,1,5,0,0
146795,-50.125313283208,4,2,1,70,0,0
146875,-50.125313283208,4,2,1,5,0,0
146956,-50.125313283208,4,2,1,70,0,0
147036,-50.125313283208,4,2,1,5,0,0
147117,-37.593984962406,4,2,1,65,0,1
147547,-37.593984962406,4,2,1,85,0,0
151633,-50.125313283208,4,2,1,85,0,0
151956,-42.9645542427497,4,2,1,85,0,0
152278,-37.593984962406,4,2,1,85,0,0
157440,-37.593984962406,4,2,1,65,0,1
157870,-37.593984962406,4,2,1,85,0,0
167306,912.54752851711,4,2,1,85,1,0
167762,645.161290322581,4,2,1,70,1,1
167762,-50.125313283208,4,2,1,70,0,1
189052,600,4,2,1,70,1,1
189394,545.454545454546,4,2,1,70,1,1
189698,625,4,2,1,70,1,1
189889,714.285714285714,4,2,1,70,1,1
190025,582.52427184466,4,2,1,70,1,1
190025,-50,4,2,1,70,0,1
190351,582.52427184466,4,2,1,70,1,1
190351,-50,4,2,1,70,0,1
190659,594.059405940594,4,2,1,70,1,1
190988,645.161290322581,4,2,1,60,1,0
190988,-151.515151515152,4,2,1,60,0,0
200020,-60.2409638554217,4,2,1,60,0,0
201310,-60.2409638554217,4,2,1,65,0,0
211956,-53.763440860215,4,2,1,65,0,0
212278,-48.5436893203883,4,2,1,65,0,0
212601,-44.2477876106195,4,2,1,65,0,0
212924,-40.650406504065,4,2,1,75,0,0
213246,-37.593984962406,4,2,1,85,0,0
213568,-37.593984962406,4,2,1,95,0,0
213776,722.89156626506,4,2,1,65,1,0
214093,722.89156626506,4,2,1,65,1,0
214215,645.161290322581,4,2,1,50,1,0
224536,-60.2409638554217,4,2,1,60,0,0
233569,-48.5436893203883,4,2,1,70,0,0
236149,-40.650406504065,4,2,1,70,0,0
236795,-50,4,2,1,70,0,0
236875,-50.125313283208,4,2,1,5,0,0
236956,-50.125313283208,4,2,1,70,0,0
237036,-50.125313283208,4,2,1,5,0,0
237117,-50.125313283208,4,2,1,70,0,0
237198,-50.125313283208,4,2,1,5,0,0
237278,-50.125313283208,4,2,1,70,0,0
237359,-50.125313283208,4,2,1,5,0,0
237440,-37.593984962406,4,2,1,75,0,1
237870,-37.593984962406,4,2,1,95,0,0
241956,-50.125313283208,4,2,1,95,0,0
242278,-42.9645542427497,4,2,1,95,0,0
242601,-37.593984962406,4,2,1,95,0,0
247763,-37.593984962406,4,2,1,75,0,1
248193,-37.593984962406,4,2,1,95,0,0
255290,-37.593984962406,4,2,1,5,0,0
255397,-37.593984962406,4,2,1,95,0,0
257628,912.54752851711,4,2,1,95,1,0
258085,645.161290322581,4,2,1,95,1,0
259375,-100,4,2,1,65,0,0
259697,-149.253731343284,4,2,1,40,0,0
261095,-149.253731343284,4,2,1,5,0,0
261955,-149.253731343284,4,2,1,40,0,0
262493,-149.253731343284,4,2,1,5,0,0
262601,600,4,2,1,40,1,0
262601,-149.253731343284,4,2,1,40,0,0
263249,697.674418604651,4,2,1,40,1,0
263249,-149.253731343284,4,2,1,40,0,0
263597,-149.253731343284,4,2,1,5,0,0
264644,-149.253731343284,4,2,1,40,0,0
265690,1000,4,2,1,40,1,0
265955,666.666666666667,4,2,1,40,1,0
266190,960,4,2,1,40,1,0
266190,-149.253731343284,4,2,1,40,0,0
266510,-149.253731343284,4,2,1,5,0,0
267630,745.341614906832,4,2,1,40,1,0
267810,631.578947368421,4,2,1,40,1,0
268007,789.473684210526,4,2,1,40,1,0
268007,-100,4,2,1,30,0,0
268796,-100,4,2,1,25,0,0
269585,-100,4,2,1,22,0,0
270375,-100,4,2,1,19,0,0
271164,-100,4,2,1,16,0,0
271954,-100,4,2,1,13,0,0
272743,-100,4,2,1,11,0,0
273533,-100,4,2,1,8,0,0
273730,-100,4,2,72,50,0,0

[Colours]
Combo1 : 210,166,255
Combo2 : 255,189,157
Combo3 : 217,211,202
Combo4 : 255,187,221

[HitObjects]
64,320,1744,5,0,0:0:0:0:
130,364,1959,2,0,P|183:344|249:348,1,106.666666666667,0|0,0:0|0:0,0:0:0:0:
156,207,2604,6,0,P|102:206|53:187,1,106.666666666667,2|0,0:0|0:0,0:0:0:0:
53,187,3894,2,0,B|64:137|64:137|32:86,1,106.399995616455,0|0,0:0|0:0,0:0:0:0:
113,19,4876,1,0,0:0:0:0:
225,120,5246,6,0,P|207:176|204:229,1,106.399995616455,2|0,0:0|0:0,0:0:0:0:
287,314,6308,1,0,0:0:0:0:
356,263,6536,6,0,L|431:276,1,63.6000000970459,2|0,0:0|0:0,0:0:0:0:
512,345,7164,2,0,L|437:358,1,67.0933326986003,0|0,0:0|0:0,0:0:0:0:
428,180,7774,6,0,P|460:141|518:147,1,106.399995616455,2|0,0:0|0:0,0:0:0:0:
389,11,8849,5,0,0:0:0:0:
338,65,9064,2,0,L|357:133,1,70.9333304109702,0|0,0:0|0:0,0:0:0:0:
248,59,9709,2,0,P|252:31|276:-2,1,62.0666641095989,2|0,0:0|0:0,0:0:0:0:
155,144,10335,6,0,B|119:166|119:166|42:146,1,106.399995616455,2|0,0:0|0:0,0:0:0:0:
20,72,11381,1,0,0:0:0:0:
0,229,11644,6,0,B|101:209|70:284|164:268,1,173.280005922656,2|0,0:0|0:0,0:0:0:0:
246,347,13018,6,0,P|284:330|356:301,1,103.999995239258,0|2,0:0|0:0,0:0:0:0:
378,213,14015,1,0,0:0:0:0:
483,280,14278,6,0,P|500:309|512:342,1,69.3333301595054,2|0,0:0|0:0,0:0:0:0:
390,230,14908,2,0,P|397:205|422:164,1,70.9333304109702,2|0,0:0|0:0,0:0:0:0:
512,73,15553,6,0,P|490:108|369:102,1,174.400001862793,2|0,0:0|0:0,0:0:0:0:
242,20,16821,6,0,L|257:91,1,70.9333304109702,2|0,0:0|0:0,0:0:0:0:
142,199,17466,2,0,L|156:129,1,70.9333304109702,2|0,0:0|0:0,0:0:0:0:
208,254,18111,1,2,0:0:0:0:
218,272,18756,6,0,P|239:259|296:245,1,70.9333304109702,0|0,0:0|0:0,0:0:0:0:
362,362,19401,2,0,P|341:349|284:335,1,70.9333304109702,0|0,0:0|0:0,0:0:0:0:
189,382,20046,2,0,B|113:366,1,70.9333304109702,2|0,0:0|0:0,0:0:0:0:
21,218,20691,6,0,P|40:250|193:253,1,195.066658630168,2|0,0:0|0:0,0:0:0:0:
179,241,21982,2,0,P|188:225|262:206,1,88.6666630137127,2|0,0:0|0:0,0:0:0:0:
266,215,22627,5,0,0:0:0:0:
345,293,22973,1,0,0:0:0:0:
412,241,23249,6,0,P|420:169|434:79,1,159.600001522064,2|2,1:2|3:0,0:0:0:0:
330,9,24216,1,0,3:0:0:0:
330,9,24378,1,0,3:0:0:0:
330,9,24539,6,0,P|272:34|223:47,1,106.400001014709,2|0,3:0|0:0,0:0:0:0:
116,206,25184,2,0,P|173:196|216:226,1,106.400001014709,0|0,3:0|0:0,0:0:0:0:
108,119,25829,6,0,P|45:105|-2:194,1,159.600001522064,2|2,0:0|3:0,0:0:0:0:
80,284,26797,1,2,3:0:0:0:
80,284,26958,1,0,3:0:0:0:
80,284,27119,6,0,P|124:269|186:256,1,106.400001014709,2|0,3:0|0:0,0:0:0:0:
291,329,27765,2,0,P|343:339|393:356,1,106.400001014709,0|0,3:0|0:0,0:0:0:0:
493,384,28410,6,0,B|516:260,1,106.400001014709,2|0,0:0|0:0,0:0:0:0:
425,142,29055,6,0,P|402:161|401:249,1,106.400001014709,2|0,3:0|0:0,0:0:0:0:
512,106,29700,2,0,P|507:76|463:30,1,79.8000007610321,0|2,3:0|3:0,0:0:0:0:
376,0,30345,2,0,P|341:19|276:31,1,106.400001014709,2|0,3:0|0:0,0:0:0:0:
213,157,30990,6,0,P|119:128|102:120,1,106.400001014709,2|0,0:0|0:0,0:0:0:0:
56,40,31636,1,2,3:0:0:0:
16,204,31958,1,0,3:0:0:0:
16,204,32119,1,0,3:0:0:0:
16,204,32281,6,0,P|42:189|101:167,1,79.8000007610321,0|2,3:0|3:0,0:0:0:0:
232,313,32926,2,0,P|177:275|128:265,1,106.400001014709,2|0,3:0|0:0,0:0:0:0:
71,317,33571,1,2,0:0:0:0:
80,331,34216,1,2,3:0:0:0:
159,294,34539,5,0,3:0:0:0:
159,294,34700,1,0,3:0:0:0:
159,294,34861,6,0,P|197:306|250:314,1,79.8000007610321,2|2,3:2|3:0,0:0:0:0:
310,384,35507,2,0,P|368:373|425:355,1,106.400001014709,0|0,3:0|0:0,0:0:0:0:
496,236,36152,6,0,L|459:126,1,106.400001014709,2|0,0:0|0:0,0:0:0:0:
352,193,36797,2,0,L|318:292,1,79.8000007610321,0|2,3:0|3:0,0:0:0:0:
261,306,37281,1,0,3:0:0:0:
261,306,37442,6,0,P|197:293|172:259,1,106.400001014709,2|0,3:2|0:0,0:0:0:0:
62,200,38087,2,0,P|29:196|15:266,1,106.400001014709,2|0,0:0|0:0,0:0:0:0:
43,324,38732,5,2,0:0:0:0:
146,208,39378,2,0,L|128:100,1,106.400001014709,2|0,3:0|0:0,0:0:0:0:
20,35,40023,2,0,L|2:143,1,106.400001014709,2|0,0:0|0:0,0:0:0:0:
66,248,40668,2,0,P|96:227|166:227,1,106.400001014709,0|0,3:0|0:0,0:0:0:0:
231,64,41313,6,0,P|285:102|373:96,1,133.000001268387,2|0,0:0|0:0,0:0:0:0:
384,66,41958,1,2,3:0:0:0:
496,182,42281,1,0,3:0:0:0:
496,182,42442,1,0,3:0:0:0:
496,182,42603,6,0,P|481:232|478:276,1,79.8000007610321,0|2,3:0|3:0,0:0:0:0:
333,346,43249,2,0,P|327:306|315:268,1,79.8000007610321,2|2,0:0|3:0,0:0:0:0:
247,226,43732,1,0,3:0:0:0:
247,226,43894,1,0,3:0:0:0:
146,319,44216,6,0,L|52:302,1,79.8000007610321,2|0,3:0|3:0,0:0:0:0:
7,219,44861,1,0,3:0:0:0:
7,219,45023,1,0,3:0:0:0:
7,219,45184,1,0,1:0:0:0:
130,121,45378,5,8,0:0:0:0:
168,144,45491,1,8,0:0:0:0:
219,248,45688,5,8,3:0:0:0:
249,238,45807,1,8,3:0:0:0:
309,169,46017,5,4,3:0:0:0:
321,178,46136,1,4,3:0:0:0:
365,240,46328,5,0,1:0:0:0:
460,172,46474,6,0,B|471:136|471:136|439:62,1,106.400001014709,6|0,1:2|0:0,0:0:0:0:
374,41,46796,1,2,1:2:0:0:
281,121,47011,1,0,0:0:0:0:
222,66,47119,2,0,P|138:51|99:49,1,106.400001014709,10|0,0:0|0:0,0:0:0:0:
40,69,47441,1,2,1:2:0:0:
142,154,47656,1,0,1:0:0:0:
97,212,47763,6,0,P|149:200|201:195,1,106.400001014709,2|0,1:2|0:0,0:0:0:0:
268,241,48086,1,2,3:0:0:0:
353,143,48301,1,0,0:0:0:0:
416,190,48409,2,0,B|437:223|437:223|424:297,1,106.400001014709,10|0,0:0|0:0,0:0:0:0:
405,362,48732,1,0,0:0:0:0:
286,321,48947,1,0,0:0:0:0:
224,375,49054,6,0,P|173:361|120:351,1,106.400001014709,2|0,1:2|0:0,0:0:0:0:
48,379,49377,1,2,1:2:0:0:
7,232,49592,1,0,0:0:0:0:
70,185,49699,2,0,P|125:218|178:207,1,106.400001014709,10|0,0:0|0:0,0:0:0:0:
209,280,50022,1,2,1:2:0:0:
322,210,50237,1,0,1:0:0:0:
389,257,50344,6,0,P|374:320|369:361,1,106.400001014709,2|0,1:2|0:0,0:0:0:0:
446,384,50667,1,2,3:0:0:0:
512,274,50882,1,0,0:0:0:0:
457,215,50990,2,0,P|442:152|437:111,1,106.400001014709,8|0,0:0|0:0,0:0:0:0:
482,48,51312,1,0,0:0:0:0:
329,106,51527,1,0,0:0:0:0:
286,38,51635,6,0,P|242:38|180:-22,1,106.400001014709,2|0,1:2|0:0,0:0:0:0:
192,111,51957,2,0,P|151:143|99:146,1,106.400001014709,2|0,1:2|0:0,0:0:0:0:
53,83,52280,1,10,0:0:0:0:
11,215,52495,5,0,0:0:0:0:
17,232,52603,1,2,1:2:0:0:
101,314,52818,1,0,1:0:0:0:
107,297,52925,6,0,P|148:264|200:262,1,106.400001014709,2|0,1:2|0:0,0:0:0:0:
265,306,53248,1,2,3:0:0:0:
338,188,53463,1,0,0:0:0:0:
366,262,53571,2,0,P|406:294|458:297,1,106.400001014709,8|0,0:0|0:0,0:0:0:0:
512,239,53893,1,0,0:0:0:0:
452,121,54108,1,0,0:0:0:0:
512,80,54215,6,0,P|457:74|404:61,1,106.400001014709,2|0,1:2|0:0,0:0:0:0:
347,13,54538,1,2,1:2:0:0:
268,109,54753,5,0,0:0:0:0:
277,139,54861,1,10,0:0:0:0:
382,209,55076,5,0,0:0:0:0:
355,280,55184,1,2,1:2:0:0:
238,326,55398,5,0,1:0:0:0:
301,384,55506,2,0,P|239:366|186:356,1,106.400001014709,2|0,0:0|0:0,0:0:0:0:
126,384,55828,1,2,3:0:0:0:
32,290,56043,5,0,0:0:0:0:
0,355,56151,1,8,0:0:0:0:
96,249,56366,5,8,3:0:0:0:
114,277,56474,1,4,3:0:0:0:
27,128,56689,5,0,1:0:0:0:
0,194,56796,6,0,P|71:171|118:163,1,106.400001014709,6|0,1:2|0:0,0:0:0:0:
173,203,57119,1,2,1:2:0:0:
243,310,57334,5,0,0:0:0:0:
316,277,57441,1,10,0:0:0:0:
383,199,57656,5,0,0:0:0:0:
409,217,57764,1,2,1:2:0:0:
480,299,57979,5,0,1:0:0:0:
512,230,58086,6,0,B|523:187|523:187|490:90,1,106.400001014709,2|0,0:0|0:0,0:0:0:0:
438,87,58409,1,2,3:0:0:0:
325,35,58624,5,0,0:0:0:0:
259,73,58732,1,8,0:0:0:0:
136,103,58947,5,0,0:0:0:0:
165,127,59054,1,0,0:0:0:0:
229,189,59269,5,0,0:0:0:0:
206,264,59377,6,0,P|153:269|101:281,1,106.400001014709,2|0,1:2|0:0,0:0:0:0:
56,344,59699,1,2,1:2:0:0:
9,222,59914,5,0,0:0:0:0:
60,158,60022,2,0,P|71:106|76:53,1,106.400001014709,10|0,0:0|0:0,0:0:0:0:
178,0,60344,2,0,P|182:52|194:104,1,106.400001014709,2|0,0:0|0:0,0:0:0:0:
258,152,60667,1,2,1:2:0:0:
352,83,60882,5,0,0:0:0:0:
411,35,60990,2,0,P|478:64|522:95,1,106.400001014709,2|0,3:0|0:0,0:0:0:0:
439,170,61312,2,0,P|372:199|328:230,1,106.400001014709,8|0,0:0|0:0,0:0:0:0:
282,167,61635,1,0,0:0:0:0:
217,262,61850,1,0,0:0:0:0:
206,283,61957,6,0,P|217:341|267:370,1,106.400001014709,2|0,1:2|0:0,0:0:0:0:
321,327,62280,1,2,0:0:0:0:
416,384,62603,2,0,P|471:353|518:338,1,106.400001014709,10|0,0:0|0:0,0:0:0:0:
512,261,62925,1,2,0:0:0:0:
407,165,63140,6,0,P|356:147|266:93,1,159.600001522064,0|0,0:0|0:0,0:0:0:0:
219,192,63570,2,0,P|171:216|101:265,1,106.400001014709,2|0,3:0|0:0,0:0:0:0:
14,203,63893,6,0,B|-4:166|-4:166|18:96,1,106.400001014709,8|0,0:0|0:0,0:0:0:0:
204,14,64377,5,0,0:0:0:0:
157,89,64538,6,0,P|203:113|278:99,1,106.400001014709,2|0,1:2|0:0,0:0:0:0:
363,237,64861,2,0,P|310:233|263:257,1,106.400001014709,2|0,0:0|0:0,0:0:0:0:
232,329,65183,1,10,0:0:0:0:
104,382,65398,5,0,0:0:0:0:
44,329,65506,2,0,P|60:267|60:223,1,106.400001014709,2|0,0:0|0:0,0:0:0:0:
182,112,65828,2,0,P|183:165|198:216,1,106.400001014709,2|0,1:2|0:0,0:0:0:0:
263,256,66151,1,2,3:0:0:0:
347,377,66474,6,0,P|383:345|450:345,1,106.400001014709,8|0,0:0|0:0,0:0:0:0:
505,378,66796,1,0,0:0:0:0:
441,215,67011,1,0,0:0:0:0:
380,261,67119,6,0,P|327:241|260:221,1,106.400001014709,2|2,1:2|3:0,0:0:0:0:
412,142,67764,2,0,P|454:126|508:110,1,71.0933348845948,10|0,0:0|0:0,0:0:0:0:
512,49,68086,1,2,3:0:0:0:
342,0,68409,6,0,P|310:52|340:114,1,106.400001014709,2|0,1:2|0:0,0:0:0:0:
197,196,68732,2,0,P|205:144|174:102,1,106.400001014709,2|0,1:2|0:0,0:0:0:0:
105,31,69054,6,0,L|95:87,1,39.9000003805161,10|0,0:0|0:0,0:0:0:0:
17,156,69215,2,0,L|9:116,1,39.9000003805161,2|0,3:2|0:0,0:0:0:0:
113,23,69377,6,0,L|103:79,1,39.9000003805161,2|0,3:2|0:0,0:0:0:0:
9,164,69538,2,0,L|1:124,1,39.9000003805161,2|0,3:2|0:0,0:0:0:0:
117,221,69699,6,2,B|202:206|175:267|271:261,1,141.86666082194,2|2,1:0|0:1,1:1:0:0:
315,213,70022,1,2,0:1:0:0:
417,305,70237,1,2,0:0:0:0:
342,373,70344,6,0,P|409:350|479:348,1,141.86666082194,8|0,0:0|0:0,0:0:0:0:
397,179,70667,2,0,P|326:176|259:154,1,141.86666082194,0|0,1:0|0:0,0:0:0:0:
222,81,70990,1,2,0:0:0:0:
127,189,71205,5,0,1:0:0:0:
65,140,71312,2,0,B|98:213|98:213|82:274,1,141.86666082194,2|0,3:0|0:0,0:0:0:0:
224,229,71635,2,0,B|191:302|191:302|206:361,1,141.86666082194,8|0,0:0|0:0,0:0:0:0:
287,384,71957,1,0,3:0:0:0:
424,295,72172,1,0,3:0:0:0:
449,373,72280,6,0,P|473:290|501:231,1,141.86666082194,2|0,1:2|0:0,0:0:0:0:
450,166,72603,1,2,0:0:0:0:
318,272,72818,5,0,0:0:0:0:
284,195,72925,1,8,0:0:0:0:
174,152,73140,5,0,0:0:0:0:
163,176,73247,1,0,1:0:0:0:
52,245,73463,5,0,0:0:0:0:
0,186,73570,2,0,P|-2:114|67:71,1,141.86666082194,2|0,0:0|1:0,0:0:0:0:
166,0,73893,6,0,P|219:45|287:61,1,141.86666082194,2|0,3:0|0:0,0:0:0:0:
311,180,74215,2,0,P|349:143|397:122,1,106.400001014709,8|0,0:0|0:0,0:0:0:0:
496,14,74538,2,0,L|472:148,1,124.133334517161
422,254,74861,6,0,P|457:253|426:325,1,141.86666082194,2|0,1:2|0:0,0:0:0:0:
376,384,75183,2,0,P|310:356|236:340,1,141.86666082194,0|0,0:0|0:0,0:0:0:0:
120,192,75506,6,0,P|85:191|116:263,1,141.86666082194,10|0,0:0|0:0,0:0:0:0:
166,322,75828,2,0,P|232:294|306:278,1,141.86666082194,0|0,1:0|0:0,0:0:0:0:
383,173,76151,6,0,B|388:105|388:105|315:42,1,141.86666082194,2|0,0:0|1:0,0:0:0:0:
252,56,76474,1,2,3:0:0:0:
108,176,76689,5,0,1:0:0:0:
55,127,76796,2,0,P|148:140|231:149,1,141.86666082194,8|0,0:0|0:0,0:0:0:0:
281,300,77119,2,0,P|188:313|105:322,1,141.86666082194,0|0,0:0|0:0,0:0:0:0:
86,375,77441,6,0,P|39:317|83:229,1,141.86666082194,2|0,1:2|0:0,0:0:0:0:
97,99,77764,2,0,P|113:167|127:240,1,141.86666082194,0|0,0:0|0:0,0:0:0:0:
310,312,78086,6,0,P|357:254|313:166,1,141.86666082194,10|0,0:0|0:0,0:0:0:0:
299,36,78409,2,0,P|283:104|269:177,1,141.86666082194,0|0,1:0|0:0,0:0:0:0:
211,236,78732,5,2,0:0:0:0:
306,322,78947,1,0,1:0:0:0:
261,384,79054,2,0,P|328:359|416:354,1,141.86666082194,0|0,0:0|0:0,0:0:0:0:
489,191,79377,2,0,P|418:184|352:159,1,141.86666082194,8|8,0:0|3:0,0:0:0:0:
287,58,79677,2,0,P|235:101|149:113,1,106.400001014709,4|0,3:0|1:0,0:0:0:0:
105,270,80022,6,2,B|175:257|175:257|255:298,1,141.86666082194,2|2,1:0|0:1,1:1:0:0:
279,362,80344,1,2,0:1:0:0:
403,289,80560,1,2,1:2:0:0:
447,350,80668,6,0,L|466:200,1,141.86666082194,8|0,0:0|0:0,0:0:0:0:
278,85,80990,2,0,L|297:235,1,141.86666082194,0|0,1:0|0:0,0:0:0:0:
335,142,81312,1,2,0:0:0:0:
202,212,81527,5,0,1:0:0:0:
215,240,81635,1,2,3:0:0:0:
358,282,81850,5,0,0:0:0:0:
336,352,81958,1,8,0:0:0:0:
146,384,82172,5,0,0:0:0:0:
90,316,82280,2,0,P|86:234|159:187,1,141.86666082194,2|2,0:0|0:0,0:0:0:0:
287,261,82603,6,0,P|355:244|421:217,1,141.86666082194,2|0,1:2|0:0,0:0:0:0:
492,262,82925,1,2,0:0:0:0:
405,104,83140,5,0,0:0:0:0:
498,84,83248,2,0,P|429:66|363:39,1,141.86666082194,8|2,0:0|0:0,0:0:0:0:
293,177,83570,6,0,B|212:165|245:225|139:219,1,141.86666082194,0|0,1:0|0:0,0:0:0:0:
112,151,83893,1,2,0:0:0:0:
0,228,84108,5,0,1:0:0:0:
23,310,84215,1,0,0:0:0:0:
112,368,84430,5,0,0:0:0:0:
119,339,84537,1,8,0:0:0:0:
229,254,84753,5,0,0:0:0:0:
289,313,84861,2,0,P|363:347|432:359,1,141.86666082194,2|2,0:0|0:0,0:0:0:0:
512,176,85183,6,0,P|438:210|369:222,1,141.86666082194,2|0,1:2|0:0,0:0:0:0:
320,146,85506,2,0,P|284:88|358:54,1,141.86666082194,0|0,0:0|0:0,0:0:0:0:
300,256,85828,6,0,P|226:222|157:210,1,141.86666082194,10|0,0:0|0:0,0:0:0:0:
108,286,86151,2,0,P|72:344|146:378,1,141.86666082194,0|0,1:0|0:0,0:0:0:0:
192,343,86474,1,2,0:0:0:0:
82,204,86689,5,0,1:2:0:0:
26,139,86796,2,0,P|50:47|56:-3,1,141.86666082194,2|0,3:0|0:0,0:0:0:0:
201,77,87119,2,0,P|211:147|230:215,1,141.86666082194,8|0,0:0|0:0,0:0:0:0:
300,256,87441,1,2,0:0:0:0:
447,173,87656,1,0,0:0:0:0:
500,229,87764,6,0,L|345:192,1,141.86666082194,2|0,1:2|0:0,0:0:0:0:
292,50,88086,2,0,L|447:13,1,141.86666082194,2|0,0:0|0:0,0:0:0:0:
493,76,88409,1,8,0:0:0:0:
362,196,88624,5,0,0:0:0:0:
374,225,88732,1,0,1:0:0:0:
499,293,88947,5,0,0:0:0:0:
470,360,89054,2,0,P|395:330|319:320,1,141.86666082194,2|0,0:0|0:0,0:0:0:0:
267,371,89377,1,0,3:0:0:0:
188,271,89538,5,8,0:0:0:0:
188,271,89619,1,8,0:0:0:0:
188,271,89699,1,8,0:0:0:0:
99,329,89888,5,8,3:0:0:0:
70,317,90040,1,4,3:0:0:0:
114,205,90192,5,0,1:0:0:0:
193,172,90344,1,4,0:0:0:0:
193,172,98085,6,0,B|326:158|270:243|389:232,1,212.799991232911,2|2,0:0|0:0,0:0:0:0:
512,154,99558,5,8,0:0:0:0:
496,195,99683,1,8,0:0:0:0:
387,232,99891,5,8,3:0:0:0:
397,260,100016,1,8,3:0:0:0:
476,316,100202,5,4,3:0:0:0:
470,332,100327,1,4,3:0:0:0:
411,377,100520,5,0,1:0:0:0:
324,301,100666,6,0,B|281:272|281:272|220:279,1,106.399995616455,6|0,1:2|3:0,0:0:0:0:
129,352,101311,2,0,B|86:381|86:381|25:374,1,106.399995616455,10|0,0:0|3:0,0:0:0:0:
0,303,101795,1,0,1:0:0:0:
0,303,101956,2,0,P|12:232|11:186,1,106.399995616455,2|2,1:2|3:0,0:0:0:0:
134,133,102601,2,0,P|135:186|162:273,1,141.86666082194,10|0,0:0|0:0,0:0:0:0:
318,344,103246,6,0,B|379:342|351:379|428:387,1,106.399995616455,2|0,1:2|3:0,0:0:0:0:
512,309,103891,2,0,P|515:253|476:213,1,106.399995616455,10|0,0:0|3:0,0:0:0:0:
411,184,104375,1,0,1:0:0:0:
411,184,104536,2,0,P|363:203|306:213,1,106.399995616455,2|2,1:2|3:0,0:0:0:0:
195,291,105182,2,0,P|121:277|52:250,1,141.86666082194,10|0,0:0|0:0,0:0:0:0:
12,104,105827,5,2,1:2:0:0:
22,121,106472,2,0,B|69:140|69:140|88:177|88:177|142:201,1,141.86666082194,10|0,0:0|0:0,0:0:0:0:
214,275,107117,2,0,P|269:247|319:230,1,106.399995616455,2|2,1:2|3:0,0:0:0:0:
394,111,107762,2,0,P|327:87|264:54,1,141.86666082194,10|0,0:0|0:0,0:0:0:0:
126,177,108407,6,0,P|94:218|102:269,1,106.399995616455,2|0,1:2|3:0,0:0:0:0:
191,354,109053,2,0,P|225:334|291:314,1,106.399995616455,10|0,0:0|3:0,0:0:0:0:
324,245,109536,1,0,1:0:0:0:
324,245,109698,2,0,P|358:265|424:285,1,106.399995616455,2|2,1:2|3:0,0:0:0:0:
496,384,110343,5,8,0:0:0:0:
481,338,110504,1,8,3:0:0:0:
413,311,110666,1,4,3:0:0:0:
421,284,110827,1,0,1:0:0:0:
506,210,110988,6,0,P|449:197|422:140,1,106.399995616455,6|0,1:2|3:0,0:0:0:0:
328,249,111633,2,0,P|297:290|246:299,1,106.399995616455,10|0,0:0|0:0,0:0:0:0:
183,250,112117,1,0,1:0:0:0:
183,250,112278,2,0,P|121:242|55:236,1,106.399995616455,2|2,1:2|3:0,0:0:0:0:
0,99,112924,2,0,P|74:91|147:81,1,141.86666082194,10|0,0:0|0:0,0:0:0:0:
234,183,113569,6,0,P|296:203|357:221,1,106.399995616455,2|0,1:2|3:0,0:0:0:0:
431,122,114214,2,0,P|441:81|381:7,1,141.86666082194,10|0,0:0|0:0,0:0:0:0:
304,58,114859,2,0,B|245:65|263:102|206:111,1,106.399995616455,2|2,1:2|3:0,0:0:0:0:
329,228,115504,2,0,P|399:236|467:256,1,141.86666082194,10|0,0:0|0:0,0:0:0:0:
375,364,116149,6,0,P|318:370|264:387,1,106.399995616455,2|0,1:2|3:0,0:0:0:0:
169,310,116795,2,0,P|152:261|214:199,1,141.86666082194,10|0,0:0|0:0,0:0:0:0:
288,140,117440,2,0,P|339:155|392:161,1,106.399995616455,2|2,1:2|3:0,0:0:0:0:
205,36,118085,2,0,B|133:34|149:89|73:90,1,141.86666082194,10|0,0:0|0:0,0:0:0:0:
0,238,118730,6,0,P|44:249|113:275,1,106.399995616455,2|0,1:2|3:0,0:0:0:0:
196,160,119375,2,0,P|240:149|309:123,1,106.399995616455,10|0,0:0|3:0,0:0:0:0:
388,178,119913,1,0,1:0:0:0:
424,209,120020,2,0,P|443:258|423:320,1,106.399995616455,2|2,1:2|3:0,0:0:0:0:
329,384,120666,2,0,B|290:365|290:365|267:366|267:366|225:348,1,106.399995616455,10|0,0:0|3:0,0:0:0:0:
128,188,121311,6,0,P|209:196|248:141,1,133.000001268387,6|0,1:2|0:0,0:0:0:0:
378,78,121848,5,0,1:0:0:0:
444,140,121956,2,0,P|429:190|411:294,1,133.000001268387,6|0,1:2|0:0,0:0:0:0:
264,384,122493,5,0,1:0:0:0:
194,335,122601,2,0,P|182:281|161:212,1,88.6666675122579,6|0,1:2|0:0,0:0:0:0:
329,152,122924,5,10,0:0:0:0:
343,170,123246,6,0,L|303:152,1,33.2500003170967,10|0,0:0|0:0,0:0:0:0:
347,182,123407,2,0,L|307:164,1,33.2500003170967,2|0,3:2|0:0,0:0:0:0:
203,235,123569,6,0,L|163:253,1,33.2500003170967,2|0,3:2|0:0,0:0:0:0:
207,223,123730,2,0,L|167:241,1,33.2500003170967,2|0,3:2|0:0,0:0:0:0:
97,176,123891,6,0,P|95:121|151:83,1,106.400001014709,2|0,1:2|0:0,0:0:0:0:
208,67,124214,1,0,0:0:0:0:
309,147,124429,1,0,0:0:0:0:
362,90,124536,2,0,P|412:73|459:48,1,106.400001014709,10|0,0:0|0:0,0:0:0:0:
512,105,124859,1,0,0:0:0:0:
401,209,125074,6,0,P|448:208|490:258,1,106.400001014709,2|0,3:0|0:0,0:0:0:0:
474,325,125397,1,0,0:0:0:0:
379,384,125504,2,0,P|332:358|283:338,1,106.400001014709,2|0,3:0|0:0,0:0:0:0:
258,268,125827,1,10,0:0:0:0:
319,160,126042,1,0,0:0:0:0:
310,138,126149,1,0,3:0:0:0:
220,91,126364,1,0,0:0:0:0:
285,35,126472,6,0,P|251:73|199:72,1,106.400001014709,2|0,1:2|0:0,0:0:0:0:
141,18,126795,1,0,0:0:0:0:
70,153,127010,1,0,0:0:0:0:
120,209,127117,2,0,P|172:218|222:234,1,106.400001014709,8|0,0:0|0:0,0:0:0:0:
263,304,127440,1,0,0:0:0:0:
167,358,127655,6,0,P|114:367|64:383,1,106.400001014709,2|0,1:2|0:0,0:0:0:0:
1,333,127977,1,0,0:0:0:0:
31,227,128085,2,0,P|79:260|135:230,1,106.400001014709,2|0,3:0|0:0,0:0:0:0:
169,184,128407,1,8,0:0:0:0:
90,91,128622,1,0,0:0:0:0:
99,69,128729,1,0,3:0:0:0:
202,2,128945,1,0,0:0:0:0:
224,45,129053,1,2,1:2:0:0:
340,165,129375,6,0,P|270:149|231:143,1,106.400001014709,0|0,0:0|0:0,0:0:0:0:
181,200,129698,2,0,P|149:251|173:290,1,106.400001014709,10|0,0:0|0:0,0:0:0:0:
227,338,130020,1,2,0:0:0:0:
326,277,130235,1,2,3:0:0:0:
381,336,130343,6,0,B|422:350|422:350|491:327,1,106.400001014709,2|0,0:0|0:0,0:0:0:0:
512,256,130666,1,2,3:0:0:0:
435,139,130881,1,2,0:0:0:0:
375,186,130988,2,0,B|334:200|334:200|265:177,1,106.400001014709,8|0,0:0|0:0,0:0:0:0:
230,114,131311,1,0,0:0:0:0:
170,193,131526,1,0,0:0:0:0:
179,215,131633,5,2,1:2:0:0:
46,160,131848,2,0,L|73:29,1,133.000001268387,0|0,0:0|0:0,0:0:0:0:
224,0,132278,2,0,L|248:116,1,106.400001014709,10|0,0:0|0:0,0:0:0:0:
317,137,132601,1,0,3:0:0:0:
395,56,132816,6,0,P|459:39|509:33,1,106.400001014709,2|0,3:0|0:0,0:0:0:0:
512,111,133139,1,8,0:0:0:0:
452,235,133246,2,0,P|388:218|338:212,1,106.400001014709,0|0,0:0|0:0,0:0:0:0:
300,152,133569,1,8,0:0:0:0:
223,255,133784,5,0,1:0:0:0:
194,262,133891,1,0,0:0:0:0:
108,192,134106,5,2,0:0:0:0:
36,164,134214,6,0,P|0:198|43:271,1,106.400001014709,2|0,1:2|0:0,0:0:0:0:
68,295,134536,1,0,0:0:0:0:
180,241,134751,1,0,1:0:0:0:
245,283,134859,2,0,P|295:264|346:250,1,106.400001014709,10|0,0:0|0:0,0:0:0:0:
403,303,135182,1,0,3:0:0:0:
493,211,135397,6,0,P|475:161|464:108,1,106.400001014709,0|0,1:0|0:0,0:0:0:0:
399,70,135719,1,0,0:0:0:0:
308,183,135827,2,0,P|297:235|279:285,1,106.400001014709,2|0,3:0|0:0,0:0:0:0:
209,320,136149,2,0,P|158:323|130:280,1,106.400001014709,8|0,0:0|0:0,0:0:0:0:
134,200,136472,1,0,0:0:0:0:
2,117,136687,6,0,P|30:74|80:77,1,106.400001014709,0|0,0:0|0:0,0:0:0:0:
151,117,137010,1,0,0:0:0:0:
225,34,137117,2,0,P|297:48|353:53,1,106.400001014709,2|0,0:0|0:0,0:0:0:0:
368,121,137440,1,10,0:0:0:0:
459,26,137655,1,0,0:0:0:0:
512,86,137762,2,0,B|522:140|522:140|494:196,1,106.400001014709,2|0,0:0|1:0,0:0:0:0:
400,257,138085,6,0,P|347:243|288:232,1,106.400001014709,2|0,1:2|3:0,0:0:0:0:
254,166,138407,1,2,3:0:0:0:
162,254,138622,1,0,0:0:0:0:
89,220,138729,2,0,P|57:180|73:115,1,106.400001014709,10|0,0:0|0:0,0:0:0:0:
114,70,139053,1,2,0:0:0:0:
232,142,139268,1,0,0:0:0:0:
309,129,139375,6,0,P|341:89|325:24,1,106.400001014709,2|0,1:2|0:0,0:0:0:0:
266,0,139698,1,0,0:0:0:0:
131,53,140020,2,0,P|79:38|26:27,1,106.400001014709,10|0,0:0|0:0,0:0:0:0:
0,101,140343,1,0,0:0:0:0:
91,212,140558,6,0,B|187:209|146:269|243:273,1,159.600001522064,2|0,3:0|3:0,0:0:0:0:
294,340,140988,2,0,P|347:313|402:289,1,106.400001014709,2|0,3:0|0:0,0:0:0:0:
462,192,141311,6,0,P|451:138|399:119,1,106.400001014709,10|0,0:0|0:0,0:0:0:0:
278,194,141795,5,0,0:0:0:0:
235,256,141956,6,0,P|177:245|117:230,1,106.400001014709,2|0,1:2|0:0,0:0:0:0:
44,112,142278,2,0,P|102:101|162:86,1,106.400001014709,2|0,0:0|0:0,0:0:0:0:
185,19,142601,1,10,0:0:0:0:
296,89,142816,5,0,0:0:0:0:
358,45,142924,2,0,P|399:93|377:159,1,106.400001014709,2|2,0:0|3:0,0:0:0:0:
245,186,143246,2,0,P|207:222|207:274,1,106.400001014709,0|0,0:0|3:0,0:0:0:0:
261,328,143569,1,2,3:0:0:0:
489,293,143891,6,0,P|409:280|374:273,1,106.400001014709,10|0,0:0|0:0,0:0:0:0:
329,216,144214,1,0,3:0:0:0:
241,325,144429,1,0,0:0:0:0:
166,302,144536,6,0,B|139:258|139:258|157:199,1,106.399995616455,6|0,1:2|3:0,0:0:0:0:
269,89,145074,1,0,1:0:0:0:
286,99,145182,6,0,B|313:143|313:143|295:202,1,106.399995616455,10|0,0:0|3:0,0:0:0:0:
400,273,145719,1,0,1:0:0:0:
462,224,145827,6,0,P|454:152|447:91,1,106.400001014709,2|0,3:2|1:0,0:0:0:0:
314,216,146149,2,0,P|306:288|299:349,1,106.400001014709,2|0,0:0|1:0,0:0:0:0:
374,376,146472,6,0,L|430:366,1,39.9000003805161,10|0,0:0|0:0,0:0:0:0:
289,301,146633,2,0,L|233:291,1,39.9000003805161,2|0,3:2|0:0,0:0:0:0:
382,384,146795,6,0,L|438:374,1,39.9000003805161,2|0,3:2|0:0,0:0:0:0:
281,293,146956,2,0,L|225:283,1,39.9000003805161,2|0,3:2|0:0,0:0:0:0:
142,384,147117,6,2,P|89:342|136:247,1,141.86666082194,2|2,0:1|0:1,0:1:0:0:
156,216,147440,1,2,0:1:0:0:
308,139,147655,1,2,0:0:0:0:
367,67,147762,6,0,B|289:57|316:127|216:106,1,141.86666082194,8|0,0:0|0:0,0:0:0:0:
29,67,148085,2,0,P|55:139|138:144,1,141.86666082194,0|0,1:0|0:0,0:0:0:0:
159,87,148407,1,2,0:0:0:0:
295,189,148622,5,0,1:0:0:0:
374,221,148730,2,0,P|389:294|356:376,1,141.86666082194,2|0,3:0|0:0,0:0:0:0:
511,234,149053,2,0,P|491:166|506:98,1,141.86666082194,8|0,0:0|0:0,0:0:0:0:
441,44,149375,1,0,3:0:0:0:
265,56,149590,1,0,3:0:0:0:
307,150,149698,6,0,P|258:90|166:130,1,141.86666082194,2|0,1:2|0:0,0:0:0:0:
139,153,150020,1,2,0:0:0:0:
42,269,150235,5,0,0:0:0:0:
76,346,150342,1,8,0:0:0:0:
194,261,150558,5,0,0:0:0:0:
205,237,150666,1,0,1:0:0:0:
329,193,150880,5,0,0:0:0:0:
381,252,150987,2,0,P|383:324|314:367,1,141.86666082194,2|0,0:0|1:0,0:0:0:0:
187,327,151311,6,0,L|155:171,1,141.86666082194,2|0,3:0|0:0,0:0:0:0:
98,36,151633,6,0,P|45:71|51:125,1,106.400001014709,8|0,0:0|0:0,0:0:0:0:
78,183,151956,1,0,0:0:0:0:
268,73,152171,5,0,0:0:0:0:
221,136,152278,2,0,B|288:110|288:110|363:120,1,141.86666082194,2|0,1:2|0:0,0:0:0:0:
414,182,152601,1,0,0:0:0:0:
352,356,152816,5,0,0:0:0:0:
435,315,152924,1,10,0:0:0:0:
328,233,153139,5,0,0:0:0:0:
238,216,153246,2,0,P|176:253|126:326,1,141.86666082194,0|0,1:0|0:0,0:0:0:0:
62,170,153569,6,0,B|31:109|31:109|83:43,1,141.86666082194,2|0,0:0|1:0,0:0:0:0:
152,90,153891,1,2,3:0:0:0:
238,216,154106,5,0,1:0:0:0:
276,138,154214,2,0,P|350:149|420:143,1,141.86666082194,8|0,0:0|0:0,0:0:0:0:
512,296,154536,2,0,P|441:290|371:301,1,141.86666082194,0|0,0:0|0:0,0:0:0:0:
298,350,154859,6,0,P|240:359|218:288,1,141.86666082194,2|0,1:2|0:0,0:0:0:0:
295,182,155182,2,0,B|219:166|246:242|131:217,1,141.86666082194,0|0,0:0|0:0,0:0:0:0:
92,180,155504,1,10,0:0:0:0:
191,28,155719,5,0,0:0:0:0:
246,85,155827,2,0,P|308:106|398:110,1,141.86666082194,0|0,1:0|0:0,0:0:0:0:
455,63,156149,1,2,0:0:0:0:
507,208,156364,5,0,1:0:0:0:
450,274,156472,2,0,P|459:214|365:231,1,141.86666082194,0|0,0:0|0:0,0:0:0:0:
344,260,156795,1,8,0:0:0:0:
272,384,157010,5,8,3:0:0:0:
234,301,157117,1,4,3:0:0:0:
114,254,157332,5,0,1:0:0:0:
58,320,157440,2,2,P|86:259|50:183,1,141.86666082194,2|2,1:0|0:1,1:1:0:0:
0,141,157762,1,2,0:1:0:0:
136,56,157977,1,2,1:2:0:0:
50,78,158085,6,0,B|131:55|105:148|226:105,1,141.86666082194,8|0,0:0|0:0,0:0:0:0:
372,243,158407,2,0,B|291:220|317:313|196:270,1,141.86666082194,0|0,1:0|0:0,0:0:0:0:
176,335,158730,1,2,0:0:0:0:
250,206,158945,5,0,1:0:0:0:
237,178,159053,1,2,3:0:0:0:
353,14,159268,5,0,0:0:0:0:
330,93,159376,1,8,0:0:0:0:
504,175,159590,5,0,0:0:0:0:
448,113,159698,2,0,L|477:283,1,141.86666082194,2|2,0:0|0:0,0:0:0:0:
350,342,160020,6,0,B|279:353|295:289|215:304,1,141.86666082194,2|0,1:2|0:0,0:0:0:0:
162,359,160343,1,2,0:0:0:0:
61,230,160558,5,0,0:0:0:0:
3,175,160666,2,0,P|67:194|176:195,1,141.86666082194,8|2,0:0|0:0,0:0:0:0:
285,60,160988,6,0,P|216:28|173:107,1,141.86666082194,0|0,1:0|0:0,0:0:0:0:
202,141,161310,1,2,0:0:0:0:
333,258,161526,5,0,1:0:0:0:
353,179,161633,1,0,0:0:0:0:
468,130,161848,5,0,0:0:0:0:
477,157,161956,1,8,0:0:0:0:
477,341,162171,5,0,0:0:0:0:
420,286,162278,2,0,P|347:295|271:325,1,141.86666082194,2|2,0:0|0:0,0:0:0:0:
97,333,162601,6,0,P|44:288|78:235,1,141.86666082194,2|0,1:2|0:0,0:0:0:0:
139,194,162924,2,0,B|232:193|187:245|279:237,1,141.86666082194,0|0,0:0|0:0,0:0:0:0:
436,253,163246,6,0,P|489:208|455:155,1,141.86666082194,10|0,0:0|0:0,0:0:0:0:
394,114,163569,2,0,B|301:113|346:165|254:157,1,141.86666082194,0|0,1:0|0:0,0:0:0:0:
202,98,163891,1,2,0:0:0:0:
55,94,164106,5,0,1:2:0:0:
109,38,164214,2,0,P|100:109|63:195,1,141.86666082194,2|0,3:0|0:0,0:0:0:0:
224,334,164536,2,0,P|233:263|270:177,1,141.86666082194,8|0,0:0|0:0,0:0:0:0:
211,135,164859,1,2,0:0:0:0:
134,314,165074,5,0,0:0:0:0:
188,243,165182,2,0,B|104:246|149:296|44:302,1,141.86666082194,2|0,1:2|0:0,0:0:0:0:
298,134,165504,2,0,B|382:137|337:187|442:193,1,141.86666082194,2|0,0:0|0:0,0:0:0:0:
485,137,165827,1,8,0:0:0:0:
453,318,166042,5,0,0:0:0:0:
462,343,166149,1,0,1:0:0:0:
282,296,166364,5,0,0:0:0:0:
297,216,166472,2,0,P|229:213|157:246,1,141.86666082194,2|0,0:0|0:0,0:0:0:0:
86,207,166795,1,0,3:0:0:0:
50,352,166956,5,8,0:0:0:0:
50,352,167036,1,8,0:0:0:0:
50,352,167117,1,8,0:0:0:0:
162,241,167306,5,8,3:0:0:0:
192,258,167458,1,4,3:0:0:0:
308,205,167610,5,0,1:0:0:0:
229,156,167762,2,0,P|217:70|174:14,2,159.600001522064,6|2|10,1:2|3:2|0:0,0:0:0:0:
374,42,168730,5,2,3:2:0:0:
413,122,168891,1,2,0:0:0:0:
465,66,169053,2,0,B|382:55|398:139|304:110,2,159.600001522064,2|2|10,3:2|1:2|0:0,0:0:0:0:
457,283,170020,5,2,3:2:0:0:
373,222,170182,1,2,0:0:0:0:
457,283,170343,2,0,B|411:215|411:215|461:139,2,159.600001522064,2|2|10,3:2|1:2|0:0,0:0:0:0:
241,301,171311,5,2,0:0:0:0:
322,249,171472,1,2,0:0:0:0:
305,364,171633,2,0,P|264:337|149:343,1,159.600001522064,2|2,3:2|0:0,0:0:0:0:
18,324,172117,5,2,0:0:0:0:
85,281,172278,2,0,P|100:243|95:185,1,79.8000007610321,10|0,0:0|0:0,0:0:0:0:
53,129,172601,5,2,0:0:0:0:
64,95,172762,1,0,0:0:0:0:
10,37,172924,6,0,B|102:35|52:103|171:86,1,159.600001522064,2|0,3:2|3:0,0:0:0:0:
231,155,173407,1,2,0:0:0:0:
304,97,173569,2,0,P|251:159|249:253,1,159.600001522064,10|0,0:0|3:0,0:0:0:0:
397,224,174106,5,2,0:0:0:0:
373,253,174214,2,0,P|427:262|478:287,1,106.400001014709,0|0,3:2|0:0,0:0:0:0:
366,336,174536,2,0,P|313:344|265:366,1,106.400001014709,2|2,1:2|0:0,0:0:0:0:
155,303,174859,6,0,B|56:309|110:252|6:252,1,159.600001522064,10|0,0:0|0:0,0:0:0:0:
128,109,175397,5,2,0:0:0:0:
110,129,175504,2,0,L|228:151,1,106.400001014709,0|0,3:2|0:0,0:0:0:0:
334,47,175827,2,0,L|216:69,1,106.400001014709,2|0,0:0|0:0,0:0:0:0:
346,139,176149,5,10,0:0:0:0:
419,167,176311,1,2,0:0:0:0:
471,264,176472,5,2,0:0:0:0:
365,315,176633,1,2,0:0:0:0:
249,220,176795,6,0,P|175:232|79:265,1,159.600001522064,2|2,3:2|0:0,0:0:0:0:
23,203,177278,1,2,0:0:0:0:
130,368,177440,5,10,0:0:0:0:
175,250,177601,1,2,0:0:0:0:
278,298,177762,5,2,3:2:0:0:
308,363,177924,1,2,0:0:0:0:
439,372,178085,6,0,P|493:320|461:252,1,159.600001522064,2|2,1:2|1:2,0:0:0:0:
384,270,178569,1,0,0:0:0:0:
280,128,178730,6,0,B|366:116|340:185|433:175,1,159.600001522064,10|2,0:0|3:2,0:0:0:0:
312,37,179214,1,2,0:0:0:0:
205,72,179375,6,0,P|260:159|232:269,1,159.600001522064,2|2,1:2|1:2,0:0:0:0:
125,288,179859,1,2,0:0:0:0:
160,381,180020,6,0,L|184:186,1,159.600001522064,10|2,0:0|0:0,0:0:0:0:
76,119,180504,1,0,1:0:0:0:
109,48,180666,6,0,P|150:41|218:101,1,106.400001014709,2|0,1:2|0:0,0:0:0:0:
247,140,180988,2,0,P|288:147|356:87,1,106.400001014709,0|0,3:0|0:0,0:0:0:0:
482,122,181311,6,0,P|456:175|455:238,1,106.400001014709,10|0,0:0|0:0,0:0:0:0:
412,287,181633,2,0,P|406:234|382:187,1,106.400001014709,2|0,3:2|1:0,0:0:0:0:
247,140,181956,6,0,P|194:166|152:177,1,79.8000007610321,2|0,3:2|0:0,0:0:0:0:
35,217,182278,2,0,P|72:230|107:249,1,79.8000007610321,2|0,1:2|0:0,0:0:0:0:
162,376,182601,5,10,0:0:0:0:
185,303,182762,1,2,0:0:0:0:
297,247,182924,5,2,3:2:0:0:
247,140,183085,1,2,0:0:0:0:
110,96,183246,6,0,B|191:109|176:32|261:47,1,159.600001522064,2|2,1:2|3:0,0:0:0:0:
333,112,183730,1,0,0:0:0:0:
391,25,183891,6,0,L|366:182,1,159.600001522064,10|0,0:0|3:0,0:0:0:0:
401,310,184375,1,0,0:0:0:0:
485,237,184536,6,0,B|407:224|429:296|315:264,1,159.600001522064,2|2,1:2|3:0,0:0:0:0:
194,264,185020,1,0,0:0:0:0:
269,178,185182,6,0,P|302:263|240:320,1,159.600001522064,10|0,0:0|3:0,0:0:0:0:
194,264,185666,1,0,0:0:0:0:
48,379,185827,5,2,1:2:0:0:
1,288,185988,1,2,0:0:0:0:
81,239,186149,5,2,0:0:0:0:
102,168,186311,1,2,0:0:0:0:
32,74,186472,6,0,P|26:31|1:-5,1,79.8000007610321,10|2,0:0|0:0,0:0:0:0:
127,94,186795,2,0,P|106:127|101:167,1,79.8000007610321,2|2,3:2|1:2,0:0:0:0:
167,296,187117,6,0,L|253:303,1,79.8000007610321,2|2,1:2|0:0,0:0:0:0:
325,219,187440,2,0,L|239:226,1,79.8000007610321,2|2,1:2|0:0,0:0:0:0:
373,360,187762,6,0,P|387:321|384:272,1,79.8000007610321,10|2,0:0|0:0,0:0:0:0:
412,197,188085,2,0,P|411:236|425:273,1,79.8000007610321,2|2,0:0|0:0,0:0:0:0:
469,85,188407,6,0,B|378:81|420:147|300:131,1,159.600001522064,2|2,1:2|0:0,0:0:0:0:
169,183,188891,1,2,0:0:0:0:
229,27,189053,5,10,0:0:0:0:
322,133,189252,5,2,0:0:0:0:
305,169,189394,1,2,3:2:0:0:
239,284,189575,5,2,1:2:0:0:
258,326,189698,1,2,1:2:0:0:
97,368,189889,5,8,0:0:0:0:
97,368,190025,2,0,P|74:314|112:264,1,106.400001014709,10|8,0:0|3:0,0:0:0:0:
165,232,190351,2,0,P|188:178|150:128,1,106.400001014709,4|0,3:0|1:0,0:0:0:0:
101,98,190659,1,2,1:2:0:0:
230,57,190857,5,0,0:0:0:0:
294,8,190988,2,0,B|393:-1|356:89|470:69,1,184.799999436035,6|0,1:2|0:0,0:0:0:0:
512,209,192278,6,0,P|426:233|339:280,1,184.799999436035,6|0,1:2|0:0,0:0:0:0:
89,255,193569,6,0,P|73:201|169:214,1,184.799999436035,6|0,1:2|0:0,0:0:0:0:
237,360,194859,6,0,L|267:156,1,184.799999436035,6|0,1:2|0:0,0:0:0:0:
210,285,196149,6,0,P|164:295|136:314,1,79.1999997583008,6|0,1:2|0:0,0:0:0:0:
41,270,196795,5,2,1:2:0:0:
0,160,197117,1,2,1:2:0:0:
41,50,197440,6,0,B|146:42|96:127|220:111,1,184.799999436035,6|0,1:2|0:0,0:0:0:0:
393,112,198730,6,0,P|376:39|293:71,1,184.799999436035,6|0,1:2|0:0,0:0:0:0:
233,192,200020,6,0,P|254:233|258:292,1,88.5333346166992,6|0,1:2|0:0,0:0:0:0:
237,345,200343,2,0,P|198:364|169:330,1,88.5333346166992,0|0,3:0|0:0,0:0:0:0:
170,260,200666,1,8,0:0:0:0:
340,307,200881,5,0,1:0:0:0:
349,328,200988,1,0,0:0:0:0:
465,354,201203,5,0,0:0:0:0:
506,288,201311,2,0,P|488:241|495:181,1,88.5333346166992,6|0,1:2|0:0,0:0:0:0:
435,151,201633,1,0,0:0:0:0:
478,49,201848,5,0,0:0:0:0:
400,22,201956,2,0,B|346:21|367:46|304:45,1,88.5333346166992,10|0,0:0|0:0,0:0:0:0:
239,22,202278,1,0,0:0:0:0:
116,130,202493,5,0,1:0:0:0:
177,79,202601,2,0,P|157:141|191:187,1,88.5333346166992,2|0,3:0|0:0,0:0:0:0:
232,202,202924,2,0,P|239:244|219:283,1,88.5333346166992,0|0,0:0|0:0,0:0:0:0:
149,319,203246,1,10,0:0:0:0:
18,317,203461,5,0,0:0:0:0:
32,341,203569,1,0,0:0:0:0:
60,225,203784,5,0,0:0:0:0:
107,163,203891,2,0,P|105:119|96:62,1,88.5333346166992,2|0,3:0|0:0,0:0:0:0:
43,21,204214,1,0,0:0:0:0:
204,95,204429,5,0,0:0:0:0:
252,32,204536,2,0,L|352:44,1,88.5333346166992,10|0,0:0|0:0,0:0:0:0:
403,90,204859,2,0,P|415:127|376:167,1,88.5333346166992,0|0,0:0|0:0,0:0:0:0:
314,186,205182,1,2,3:0:0:0:
441,303,205397,5,0,0:0:0:0:
450,329,205504,1,0,1:0:0:0:
340,267,205719,5,0,0:0:0:0:
295,331,205827,2,0,B|237:335|270:362|192:361,1,88.5333346166992,10|0,0:0|0:0,0:0:0:0:
135,335,206149,1,0,0:0:0:0:
116,160,206364,5,0,0:0:0:0:
186,199,206472,2,0,P|202:244|198:291,1,88.5333346166992,2|0,3:0|0:0,0:0:0:0:
302,130,206795,2,0,P|286:175|290:222,1,88.5333346166992,8|0,0:0|0:0,0:0:0:0:
231,93,207117,1,2,1:2:0:0:
92,35,207332,5,0,0:0:0:0:
81,57,207440,1,2,1:2:0:0:
0,148,207655,5,0,0:0:0:0:
63,198,207762,2,0,P|52:253|57:317,1,88.5333346166992,6|0,1:2|0:0,0:0:0:0:
80,355,208085,1,0,0:0:0:0:
248,315,208300,5,0,0:0:0:0:
197,259,208407,2,0,L|314:271,1,88.5333346166992,10|0,0:0|0:0,0:0:0:0:
362,270,208730,2,0,P|374:231|352:189,1,88.5333346166992,0|0,0:0|0:0,0:0:0:0:
419,33,209053,6,0,P|405:85|407:132,1,88.5333346166992,2|0,3:0|0:0,0:0:0:0:
416,135,209375,1,0,0:0:0:0:
480,274,209590,5,0,0:0:0:0:
489,257,209698,2,0,P|455:233|406:253,1,88.5333346166992,10|0,0:0|0:0,0:0:0:0:
385,317,210020,2,0,P|351:341|302:321,1,88.5333346166992,0|0,0:0|1:0,0:0:0:0:
258,270,210343,1,2,3:0:0:0:
86,280,210558,5,0,0:0:0:0:
98,306,210666,1,0,1:0:0:0:
180,205,210881,5,0,0:0:0:0:
218,139,210988,2,0,B|269:140|257:173|305:172,1,88.5333346166992,10|0,0:0|0:0,0:0:0:0:
355,120,211311,1,0,0:0:0:0:
442,237,211526,5,0,0:0:0:0:
500,183,211633,2,0,P|508:132|477:100,1,88.5333346166992,2|0,1:2|0:0,0:0:0:0:
409,26,211956,6,0,P|360:53|299:67,1,99.2000031030274,0|0,1:0|0:0,0:0:0:0:
214,128,212278,6,0,P|150:89|96:85,1,109.866665744629,0|0,1:0|0:0,0:0:0:0:
17,170,212601,6,0,L|55:313,1,120.533333701172,0|0,1:0|0:0,0:0:0:0:
202,206,212924,6,0,B|279:211|242:166|335:173,1,131.200002001953,10|0,0:0|0:0,0:0:0:0:
479,275,213246,6,0,P|463:342|390:327,1,141.86666082194,8|0,0:0|0:0,0:0:0:0:
313,247,213569,5,8,0:0:0:0:
395,100,213776,5,8,3:0:0:0:
425,174,213896,1,4,3:0:0:0:
278,27,214093,5,0,1:0:0:0:
268,57,214214,1,2,0:0:0:0:
76,121,215504,5,2,0:0:0:0:
228,244,216795,5,2,0:0:0:0:
35,329,218085,5,2,0:0:0:0:
149,42,219375,5,2,0:0:0:0:
252,195,220666,5,2,0:0:0:0:
362,29,221956,5,2,0:0:0:0:
459,204,223246,5,2,0:0:0:0:
138,328,224537,6,0,P|201:299|278:293,2,132.800001925049,2|0|0,0:0|0:0|3:0,0:0:0:0:
47,243,225397,5,0,0:0:0:0:
37,219,225504,1,0,0:0:0:0:
101,101,225719,5,0,0:0:0:0:
117,76,225827,2,0,B|192:66|159:114|243:101,2,132.800001925049,2|0|0,0:0|0:0|3:0,0:0:0:0:
297,45,226795,1,0,0:0:0:0:
396,124,227010,5,0,0:0:0:0:
415,154,227117,2,0,P|408:88|416:22,2,132.800001925049,2|0|0,0:0|0:0|3:0,0:0:0:0:
377,279,227977,5,0,0:0:0:0:
351,263,228085,1,0,0:0:0:0:
256,165,228300,5,0,0:0:0:0:
237,187,228407,2,0,P|197:169|153:173,1,88.5333346166992,2|0,0:0|0:0,0:0:0:0:
116,246,228730,2,0,P|72:249|32:231,1,88.5333346166992,0|0,0:0|0:0,0:0:0:0:
0,163,229053,1,0,3:0:0:0:
42,358,229268,5,0,0:0:0:0:
55,333,229375,1,0,0:0:0:0:
215,273,229590,5,0,0:0:0:0:
235,303,229698,2,0,P|278:304|321:281,1,88.5333346166992,2|0,0:0|0:0,0:0:0:0:
366,351,230020,2,0,P|409:350|452:373,1,88.5333346166992,0|0,0:0|0:0,0:0:0:0:
501,305,230343,1,0,3:0:0:0:
392,186,230558,5,0,0:0:0:0:
378,218,230666,1,0,0:0:0:0:
489,141,230881,5,0,0:0:0:0:
426,92,230988,2,0,L|448:-12,1,88.5333346166992,2|0,0:0|0:0,0:0:0:0:
336,75,231311,2,0,L|354:161,1,88.5333346166992,0|0,0:0|0:0,0:0:0:0:
289,216,231633,1,0,3:0:0:0:
211,49,231848,5,0,0:0:0:0:
190,23,231956,2,0,B|103:37|149:75|64:84,1,132.800001925049,0|2,0:0|0:0,0:0:0:0:
4,158,232440,5,0,0:0:0:0:
77,219,232601,1,0,0:0:0:0:
26,295,232762,1,0,0:0:0:0:
202,156,232924,6,0,P|243:159|279:191,1,88.5333346166992,2|0,3:0|0:0,0:0:0:0:
263,294,233246,2,0,P|295:265|338:261,1,88.5333346166992,0|0,0:0|0:0,0:0:0:0:
422,365,233569,6,0,L|450:190,1,164.799998616943,2|0,1:2|0:0,0:0:0:0:
408,29,234106,5,0,0:0:0:0:
363,108,234214,1,0,3:0:0:0:
230,251,234429,6,0,P|223:226|185:191,1,54.9333328723145,2|0,1:2|0:0,0:0:0:0:
257,139,234644,2,0,P|235:124|183:121,1,54.9333328723145,2|0,1:2|0:0,0:0:0:0:
205,35,234859,6,0,P|134:59|40:63,1,164.799998616943,6|0,1:2|0:0,0:0:0:0:
38,213,235397,1,0,0:0:0:0:
67,143,235504,2,0,L|87:283,1,109.866665744629,2|0,3:0|0:0,0:0:0:0:
118,333,235827,1,0,0:0:0:0:
295,223,236042,1,0,0:0:0:0:
231,271,236149,6,0,P|289:268|398:302,1,131.200002001953,0|0,1:0|1:0,0:0:0:0:
484,136,236472,2,0,P|426:139|317:105,1,131.200002001953,0|0,0:0|1:0,0:0:0:0:
262,40,236795,6,0,L|252:96,1,39.9000003805161,10|0,0:0|0:0,0:0:0:0:
174,165,236956,2,0,L|166:125,1,39.9000003805161,2|0,3:2|0:0,0:0:0:0:
270,32,237117,6,0,L|260:88,1,39.9000003805161,2|0,3:2|0:0,0:0:0:0:
166,173,237279,2,0,L|158:133,1,39.9000003805161,2|0,3:2|0:0,0:0:0:0:
25,44,237440,6,2,P|-20:94|16:161,1,141.86666082194,2|2,1:0|0:1,1:1:0:0:
77,190,237762,1,2,0:1:0:0:
102,344,237977,1,2,0:0:0:0:
171,300,238085,6,0,P|96:304|11:322,1,141.86666082194,8|0,0:0|0:0,0:0:0:0:
197,177,238407,2,0,P|266:190|337:193,1,141.86666082194,0|0,1:0|0:0,0:0:0:0:
375,120,238730,1,2,0:0:0:0:
483,329,238945,5,0,1:0:0:0:
415,369,239053,2,0,P|382:313|426:239,1,141.86666082194,2|0,3:0|0:0,0:0:0:0:
507,85,239375,2,0,B|429:71|467:144|339:114,1,141.86666082194,8|0,0:0|0:0,0:0:0:0:
312,69,239698,1,0,3:0:0:0:
194,137,239913,1,0,3:0:0:0:
144,196,240020,6,0,B|166:138|166:138|129:51,1,141.86666082194,2|0,1:2|0:0,0:0:0:0:
59,99,240343,1,2,0:0:0:0:
44,268,240558,5,0,0:0:0:0:
80,352,240666,1,8,0:0:0:0:
207,245,240881,5,0,0:0:0:0:
220,212,240988,1,0,1:0:0:0:
363,135,241203,5,0,0:0:0:0:
424,197,241311,2,0,P|470:140|438:68,1,141.86666082194,2|0,0:0|1:0,0:0:0:0:
302,23,241633,6,0,B|223:15|247:84|143:56,1,141.86666082194,2|0,3:0|0:0,0:0:0:0:
8,109,241956,2,0,P|68:126|119:176,1,106.400001014709,8|0,0:0|0:0,0:0:0:0:
192,279,242278,2,0,L|230:153,1,124.133334517161
333,58,242601,6,0,P|397:47|395:115,1,141.86666082194,2|0,1:2|0:0,0:0:0:0:
315,166,242924,2,0,B|397:161|372:222|470:207,1,141.86666082194,0|0,0:0|0:0,0:0:0:0:
310,355,243246,6,0,P|246:366|248:298,1,141.86666082194,10|0,0:0|0:0,0:0:0:0:
328,247,243569,2,0,B|246:252|271:191|173:206,1,141.86666082194,0|0,1:0|0:0,0:0:0:0:
53,346,243891,6,0,B|13:289|13:289|51:217,1,141.86666082194,2|0,0:0|1:0,0:0:0:0:
126,249,244214,1,2,3:0:0:0:
122,58,244429,5,0,1:0:0:0:
200,88,244536,2,0,P|145:93|43:107,1,141.86666082194,8|0,0:0|0:0,0:0:0:0:
215,271,244859,2,0,P|285:280|355:287,1,141.86666082194,0|0,0:0|0:0,0:0:0:0:
454,369,245182,6,0,P|517:313|477:258,1,141.86666082194,2|0,1:2|0:0,0:0:0:0:
447,96,245505,2,0,L|425:239,1,141.86666082194,0|0,0:0|0:0,0:0:0:0:
260,315,245827,6,0,P|197:259|237:204,1,141.86666082194,10|0,0:0|0:0,0:0:0:0:
267,42,246150,2,0,L|289:185,1,141.86666082194,0|0,1:0|0:0,0:0:0:0:
346,245,246472,5,2,0:0:0:0:
414,98,246687,1,0,1:0:0:0:
462,28,246795,2,0,B|379:24|425:94|307:75,1,141.86666082194,0|0,0:0|0:0,0:0:0:0:
267,42,247117,1,8,0:0:0:0:
182,144,247332,5,8,3:0:0:0:
146,66,247440,1,4,3:0:0:0:
26,169,247655,5,0,1:0:0:0:
0,259,247763,2,2,P|78:237|156:224,1,141.86666082194,2|2,1:0|0:1,1:1:0:0:
195,281,248085,1,2,0:1:0:0:
257,185,248300,1,2,1:2:0:0:
398,339,248408,6,0,P|437:286|406:208,1,141.86666082194,8|0,0:0|0:0,0:0:0:0:
221,103,248731,2,0,P|200:168|240:224,1,141.86666082194,0|0,1:0|0:0,0:0:0:0:
301,174,249052,1,2,0:0:0:0:
237,348,249267,5,0,1:0:0:0:
209,361,249375,1,2,3:0:0:0:
328,257,249590,5,0,0:0:0:0:
258,235,249698,1,8,0:0:0:0:
94,333,249912,5,0,0:0:0:0:
14,258,250020,2,0,P|34:183|45:109,1,141.86666082194,2|2,0:0|0:0,0:0:0:0:
167,19,250343,6,0,P|184:87|211:153,1,141.86666082194,2|0,1:2|0:0,0:0:0:0:
304,205,250665,1,2,0:0:0:0:
404,107,250881,5,0,0:0:0:0:
498,84,250989,2,0,P|429:66|363:39,1,141.86666082194,8|0,0:0|0:0,0:0:0:0:
293,177,251310,6,0,B|212:165|245:225|139:219,1,141.86666082194,0|0,1:0|0:0,0:0:0:0:
84,158,251633,1,2,0:0:0:0:
101,39,251848,5,0,1:0:0:0:
183,16,251955,1,0,0:0:0:0:
247,140,252170,5,0,0:0:0:0:
276,147,252279,1,8,0:0:0:0:
128,283,252493,5,0,0:0:0:0:
201,316,252601,2,0,P|275:282|344:270,1,141.86666082194,2|2,0:0|0:0,0:0:0:0:
448,121,252924,6,0,P|378:106|315:75,1,141.86666082194,2|0,1:2|0:0,0:0:0:0:
219,1,253247,2,0,P|243:120|257:189,1,141.86666082194,0|0,0:0|0:0,0:0:0:0:
55,242,253569,6,0,B|136:236|110:309|236:289,1,141.86666082194,10|0,0:0|0:0,0:0:0:0:
250,247,253892,1,0,1:0:0:0:
309,369,254107,2,0,P|367:313|349:235,1,141.86666082194,0|0,0:0|0:0,0:0:0:0:
229,165,254429,5,0,1:2:0:0:
150,71,254536,2,0,P|58:95|8:101,1,141.86666082194,2|0,3:0|0:0,0:0:0:0:
0,180,254860,1,8,0:0:0:0:
86,331,255075,5,0,0:0:0:0:
143,260,255182,2,0,P|177:272|213:276,1,70.9333304109702,2|0,0:0|0:0,0:0:0:0:
312,339,255396,1,0,0:0:0:0:
421,213,255505,6,0,B|330:223|394:285|253:293,1,141.86666082194,2|0,1:2|0:0,0:0:0:0:
157,125,255827,2,0,B|248:135|184:197|325:205,1,141.86666082194,2|0,0:0|0:0,0:0:0:0:
322,130,256149,1,8,0:0:0:0:
403,17,256364,5,0,0:0:0:0:
415,46,256472,1,0,1:0:0:0:
512,185,256687,5,0,0:0:0:0:
480,253,256794,2,0,P|405:223|329:213,1,141.86666082194,2|0,0:0|0:0,0:0:0:0:
284,288,257117,1,0,3:0:0:0:
216,129,257278,5,8,0:0:0:0:
216,129,257359,1,8,0:0:0:0:
216,129,257439,1,8,0:0:0:0:
126,213,257628,5,8,3:0:0:0:
138,242,257780,1,4,3:0:0:0:
20,58,257932,5,0,1:0:0:0:
3,138,258084,1,4,0:0:0:0:
256,192,258192,12,0,259375,0:0:0:0:
32,75,259697,6,0,P|25:121|20:143,2,53.5999974645997,2|2|2,0:0|0:0|0:0,0:0:0:0:
82,233,260665,2,0,L|95:237,1,8.93333291076662,2|2,0:0|0:0,0:0:0:0:
103,256,260773,6,0,B|206:258|150:320|271:322,1,178.666658215332,2|0,0:0|0:0,0:0:0:0:
348,137,261955,6,0,P|307:107|272:121,1,89.3333291076662,2|0,0:0|0:0,0:0:0:0:
174,256,262601,2,0,P|215:266|247:237,1,89.3333291076662,2|2,0:0|0:0,0:0:0:0:
373,53,263249,6,0,P|388:129|410:253,1,196.533324036866,2|0,0:0|0:0,0:0:0:0:
330,354,264644,6,0,P|281:337|264:333,1,53.5999974645997,2|0,0:0|0:0,0:0:0:0:
210,217,265342,2,0,P|161:234|144:238,1,53.5999974645997,2|0,0:0|0:0,0:0:0:0:
47,327,265955,6,0,L|29:324,3,13.3333333333333,2|2|2|2,0:0|0:0|0:0|0:0,0:0:0:0:
66,341,266190,6,0,P|71:299|-10:242,1,142.933326572266,2|0,0:0|0:0,0:0:0:0:
85,119,267630,6,0,L|108:116,1,13.3333333333333,2|2,0:0|0:0,0:0:0:0:
134,43,267810,22,0,L|166:47,1,26.6666666666667,2|2,0:0|0:0,0:0:0:0:
277,105,268007,38,0,B|351:37|437:65|459:243|259:334|259:334|69:241|38:47|79:-1|464:-20|234:289|183:358|71:296,1,1160,2|2,0:0|0:2,0:0:0:0:
