osu file format v14

[General]
AudioFilename: audio.mp3
AudioLeadIn: 0
PreviewTime: 49407
Countdown: 0
SampleSet: Soft
StackLeniency: 0.7
Mode: 0
LetterboxInBreaks: 0
WidescreenStoryboard: 1

[Editor]
Bookmarks: 243150,246081,251081
DistanceSpacing: 0.7
BeatDivisor: 4
GridSize: 32
TimelineZoom: 1

[Metadata]
Title:Sorairo Days
TitleUnicode:空色デイズ
Artist:Natsuiro Matsuri & Gawr Gura
ArtistUnicode:夏色まつり&Gawr Gura
Creator:PotatoDew
Version:Insane
Source:天元突破グレンラガン
Tags:japanese pop j-pop jpop rock j-rock jrock tengen toppa gurren lagann opening op cover anime nakagawa shoko 中川翔子 hololive ホロライブ vtuber virtual youtuber
BeatmapID:3025378
BeatmapSetID:1462382

[Difficulty]
HPDrainRate:5
CircleSize:3.9
OverallDifficulty:8.5
ApproachRate:9
SliderMultiplier:1.5
SliderTickRate:1

[Events]
//Background and Video events
0,0,"SorairoDays.jpg",0,0
Video,46,"sorairodays.mp4"
//Break Periods
2,183744,188117
//Storyboard Layer 0 (Background)
//Storyboard Layer 1 (Fail)
//Storyboard Layer 2 (Pass)
//Storyboard Layer 3 (Foreground)
//Storyboard Layer 4 (Overlay)
//Storyboard Sound Samples

[TimingPoints]
1476,344.827586206897,4,2,1,50,1,0
1476,-125,4,2,1,50,0,0
6993,-111.111111111111,4,2,1,70,0,0
14407,-166.666666666666,4,2,1,70,0,0
16648,-142.857142857143,4,2,1,60,0,0
24924,-125,4,2,1,60,0,0
25786,-166.666666666667,4,2,1,60,0,0
27682,-111.111111111111,4,2,1,70,0,0
38717,-117.647058823529,4,2,1,65,0,0
46993,-111.111111111111,4,2,1,70,0,0
48372,-111.111111111111,4,2,1,75,0,0
49751,-83.3333333333333,4,2,1,85,0,1
50010,-83.3333333333333,4,2,1,30,0,1
50096,-83.3333333333333,4,2,1,85,0,1
50269,-90.9090909090909,4,2,1,85,0,1
51217,-90.9090909090909,4,2,1,30,0,1
51303,-90.9090909090909,4,2,1,85,0,1
52769,-90.9090909090909,4,2,1,30,0,1
52855,-90.9090909090909,4,2,1,85,0,1
53372,-250,4,2,1,85,0,1
53631,-250,4,2,1,30,0,1
53717,-83.3333333333333,4,2,1,85,0,1
54234,-90.9090909090909,4,2,1,85,0,1
55527,-90.9090909090909,4,2,1,30,0,1
55613,-90.9090909090909,4,2,1,85,0,1
56734,-90.9090909090909,4,2,1,30,0,1
56820,-90.9090909090909,4,2,1,85,0,1
58286,-90.9090909090909,4,2,1,30,0,1
58544,-90.9090909090909,4,2,1,85,0,1
58631,-90.9090909090909,4,2,1,30,0,1
58889,-90.9090909090909,4,2,1,85,0,1
58976,-90.9090909090909,4,2,1,30,0,1
59234,-83.3333333333333,4,2,1,85,0,1
59751,-90.9090909090909,4,2,1,85,0,1
60441,-90.9090909090909,4,2,1,85,0,0
60786,-83.3333333333333,4,2,1,85,0,1
61044,-83.3333333333333,4,2,1,30,0,1
61131,-83.3333333333333,4,2,1,85,0,1
61303,-90.9090909090909,4,2,1,85,0,1
62251,-90.9090909090909,4,2,1,30,0,1
62338,-90.9090909090909,4,2,1,85,0,1
63803,-90.9090909090909,4,2,1,30,0,1
63889,-90.9090909090909,4,2,1,85,0,1
64407,-250,4,2,1,85,0,1
64665,-250,4,2,1,30,0,1
64751,-83.3333333333333,4,2,1,85,0,1
65269,-90.9090909090909,4,2,1,85,0,1
66562,-90.9090909090909,4,2,1,30,0,1
66648,-90.9090909090909,4,2,1,85,0,1
67769,-90.9090909090909,4,2,1,30,0,1
67855,-90.9090909090909,4,2,1,85,0,1
69493,-90.9090909090909,4,2,1,30,0,1
69579,-90.9090909090909,4,2,1,85,0,1
69838,-90.9090909090909,4,2,1,30,0,1
69924,-90.9090909090909,4,2,1,85,0,1
70182,-90.9090909090909,4,2,1,30,0,1
70269,-83.3333333333333,4,2,1,85,0,1
70786,-90.9090909090909,4,2,1,85,0,1
71820,-166.666666666667,4,2,1,70,0,0
74579,-111.111111111111,4,2,1,65,0,0
75786,-142.857142857143,4,2,1,65,0,0
77338,-125,4,2,1,55,0,0
82165,-125,4,2,1,70,0,0
82855,-111.111111111111,4,2,1,70,0,0
89751,-142.857142857143,4,2,1,60,0,0
92510,-125,4,2,1,60,0,0
95269,-117.647058823529,4,2,1,65,0,0
100786,-111.111111111111,4,2,1,70,0,0
111820,-117.647058823529,4,2,1,65,0,0
120096,-111.111111111111,4,2,1,70,0,0
121476,-111.111111111111,4,2,1,75,0,0
122855,-83.3333333333333,4,2,1,85,0,1
123113,-83.3333333333333,4,2,1,30,0,1
123200,-83.3333333333333,4,2,1,85,0,1
123372,-90.9090909090909,4,2,1,85,0,1
124320,-90.9090909090909,4,2,1,30,0,1
124407,-90.9090909090909,4,2,1,85,0,1
125872,-90.9090909090909,4,2,1,30,0,1
125958,-90.9090909090909,4,2,1,85,0,1
126476,-250,4,2,1,85,0,1
126734,-250,4,2,1,30,0,1
126820,-83.3333333333333,4,2,1,85,0,1
127338,-90.9090909090909,4,2,1,85,0,1
128631,-90.9090909090909,4,2,1,30,0,1
128717,-90.9090909090909,4,2,1,85,0,1
129838,-90.9090909090909,4,2,1,30,0,1
129924,-90.9090909090909,4,2,1,85,0,1
131389,-90.9090909090909,4,2,1,30,0,1
131648,-90.9090909090909,4,2,1,85,0,1
131734,-90.9090909090909,4,2,1,30,0,1
131993,-90.9090909090909,4,2,1,85,0,1
132079,-90.9090909090909,4,2,1,30,0,1
132338,-83.3333333333333,4,2,1,85,0,1
132855,-90.9090909090909,4,2,1,85,0,1
133544,-90.9090909090909,4,2,1,85,0,0
133889,-83.3333333333333,4,2,1,85,0,1
134148,-83.3333333333333,4,2,1,30,0,1
134234,-83.3333333333333,4,2,1,85,0,1
134407,-90.9090909090909,4,2,1,85,0,1
135355,-90.9090909090909,4,2,1,30,0,1
135441,-90.9090909090909,4,2,1,85,0,1
136907,-90.9090909090909,4,2,1,30,0,1
136993,-90.9090909090909,4,2,1,85,0,1
137510,-250,4,2,1,85,0,1
137769,-250,4,2,1,30,0,1
137855,-83.3333333333333,4,2,1,85,0,1
138372,-90.9090909090909,4,2,1,85,0,1
139665,-90.9090909090909,4,2,1,30,0,1
139751,-90.9090909090909,4,2,1,85,0,1
140872,-90.9090909090909,4,2,1,30,0,1
140958,-90.9090909090909,4,2,1,85,0,1
142596,-90.9090909090909,4,2,1,30,0,1
142682,-90.9090909090909,4,2,1,85,0,1
142941,-90.9090909090909,4,2,1,30,0,1
143027,-90.9090909090909,4,2,1,85,0,1
143286,-90.9090909090909,4,2,1,30,0,1
143372,-83.3333333333333,4,2,1,85,0,1
143889,-90.9090909090909,4,2,1,85,0,1
144924,-166.666666666667,4,2,1,70,0,0
147682,-111.111111111111,4,2,1,65,0,0
148889,-142.857142857143,4,2,1,65,0,0
150441,-125,4,2,1,60,0,0
160958,-125,4,2,1,75,0,0
161476,-62.5,4,2,1,85,0,1
161734,-62.5,4,2,1,30,0,1
161820,-71.4285714285714,4,2,1,85,0,1
161907,-71.4285714285714,4,2,1,30,0,1
161993,-71.4285714285714,4,2,1,85,0,1
162079,-71.4285714285714,4,2,1,30,0,1
162165,-71.4285714285714,4,2,1,85,0,1
162251,-71.4285714285714,4,2,1,30,0,1
162338,-71.4285714285714,4,2,1,85,0,1
162424,-71.4285714285714,4,2,1,30,0,1
162510,-71.4285714285714,4,2,1,85,0,1
162941,-71.4285714285714,4,2,1,30,0,1
163027,-71.4285714285714,4,2,1,85,0,1
163113,-71.4285714285714,4,2,1,30,0,1
163200,-71.4285714285714,4,2,1,85,0,1
163631,-71.4285714285714,4,2,1,30,0,1
163717,-71.4285714285714,4,2,1,85,0,1
163803,-71.4285714285714,4,2,1,30,0,1
163889,-71.4285714285714,4,2,1,85,0,1
164320,-71.4285714285714,4,2,1,30,0,1
164407,-71.4285714285714,4,2,1,85,0,1
164493,-71.4285714285714,4,2,1,30,0,1
164579,-71.4285714285714,4,2,1,85,0,1
164665,-71.4285714285714,4,2,1,30,0,1
164751,-71.4285714285714,4,2,1,85,0,1
165441,-62.5,4,2,1,85,0,1
165958,-71.4285714285714,4,2,1,85,0,1
166993,-62.5,4,2,1,85,0,1
167338,-71.4285714285714,4,2,1,85,0,1
167769,-71.4285714285714,4,2,1,30,0,1
167855,-71.4285714285714,4,2,1,85,0,1
168113,-71.4285714285714,4,2,1,30,0,1
168200,-71.4285714285714,4,2,1,85,0,1
168286,-71.4285714285714,4,2,1,30,0,1
168372,-71.4285714285714,4,2,1,85,0,1
168458,-71.4285714285714,4,2,1,30,0,1
168544,-71.4285714285714,4,2,1,85,0,1
168631,-71.4285714285714,4,2,1,30,0,1
168717,-71.4285714285714,4,2,1,85,0,1
168803,-71.4285714285714,4,2,1,30,0,1
168889,-71.4285714285714,4,2,1,85,0,1
168976,-71.4285714285714,4,2,1,30,0,1
169062,-71.4285714285714,4,2,1,85,0,1
169148,-71.4285714285714,4,2,1,30,0,1
169234,-71.4285714285714,4,2,1,85,0,1
169320,-71.4285714285714,4,2,1,30,0,1
169407,-71.4285714285714,4,2,1,85,0,1
169493,-71.4285714285714,4,2,1,30,0,1
169579,-71.4285714285714,4,2,1,85,0,1
169665,-71.4285714285714,4,2,1,30,0,1
169751,-71.4285714285714,4,2,1,85,0,1
169838,-71.4285714285714,4,2,1,30,0,1
169924,-71.4285714285714,4,2,1,85,0,1
170010,-71.4285714285714,4,2,1,30,0,1
170096,-71.4285714285714,4,2,1,85,0,1
170182,-71.4285714285714,4,2,1,30,0,1
170269,-71.4285714285714,4,2,1,85,0,1
170700,-71.4285714285714,4,2,1,30,0,1
170786,-71.4285714285714,4,2,1,85,0,1
170872,-71.4285714285714,4,2,1,30,0,1
170958,-62.5,4,2,1,85,0,1
172510,-71.4285714285714,4,2,1,85,0,1
177079,-71.4285714285714,4,2,1,30,0,1
177165,-71.4285714285714,4,2,1,85,0,1
177251,-71.4285714285714,4,2,1,30,0,1
177338,-71.4285714285714,4,2,1,85,0,1
177424,-71.4285714285714,4,2,1,30,0,1
177510,-71.4285714285714,4,2,1,85,0,1
177596,-71.4285714285714,4,2,1,30,0,1
177682,-71.4285714285714,4,2,1,85,0,1
177769,-71.4285714285714,4,2,1,30,0,1
177855,-71.4285714285714,4,2,1,85,0,1
177941,-71.4285714285714,4,2,1,30,0,1
178027,-71.4285714285714,4,2,1,85,0,1
178113,-71.4285714285714,4,2,1,30,0,1
178200,-71.4285714285714,4,2,1,85,0,1
178286,-71.4285714285714,4,2,1,30,0,1
178372,-71.4285714285714,4,2,1,85,0,1
178458,-71.4285714285714,4,2,1,30,0,1
178544,-71.4285714285714,4,2,1,85,0,1
181993,-62.5,4,2,1,85,0,1
182510,-71.4285714285714,4,2,1,85,0,1
183544,-71.4285714285714,4,2,1,65,0,0
188717,-142.857142857143,4,2,1,65,0,0
194407,-125,4,2,1,65,0,0
194579,-125,4,2,1,70,0,0
202855,-111.111111111111,4,2,1,70,0,0
205269,-111.111111111111,4,2,1,75,0,0
205613,-83.3333333333333,4,2,1,85,0,1
205872,-83.3333333333333,4,2,1,30,0,1
205958,-83.3333333333333,4,2,1,85,0,1
206131,-90.9090909090909,4,2,1,85,0,1
207079,-90.9090909090909,4,2,1,30,0,1
207165,-90.9090909090909,4,2,1,85,0,1
208631,-90.9090909090909,4,2,1,30,0,1
208717,-90.9090909090909,4,2,1,85,0,1
209234,-250,4,2,1,85,0,1
209493,-250,4,2,1,30,0,1
209579,-83.3333333333333,4,2,1,85,0,1
210096,-90.9090909090909,4,2,1,85,0,1
211389,-90.9090909090909,4,2,1,30,0,1
211476,-90.9090909090909,4,2,1,85,0,1
212596,-90.9090909090909,4,2,1,30,0,1
212682,-90.9090909090909,4,2,1,85,0,1
214148,-90.9090909090909,4,2,1,30,0,1
214407,-90.9090909090909,4,2,1,85,0,1
214493,-90.9090909090909,4,2,1,30,0,1
214751,-90.9090909090909,4,2,1,85,0,1
214838,-90.9090909090909,4,2,1,30,0,1
215096,-83.3333333333333,4,2,1,85,0,1
215613,-90.9090909090909,4,2,1,85,0,1
216303,-90.9090909090909,4,2,1,85,0,0
216648,-83.3333333333333,4,2,1,85,0,1
216907,-83.3333333333333,4,2,1,30,0,1
216993,-83.3333333333333,4,2,1,85,0,1
217165,-90.9090909090909,4,2,1,85,0,1
218113,-90.9090909090909,4,2,1,30,0,1
218200,-90.9090909090909,4,2,1,85,0,1
219665,-90.9090909090909,4,2,1,30,0,1
219751,-90.9090909090909,4,2,1,85,0,1
220269,-250,4,2,1,85,0,1
220527,-250,4,2,1,30,0,1
220613,-83.3333333333333,4,2,1,85,0,1
221131,-90.9090909090909,4,2,1,85,0,1
222424,-90.9090909090909,4,2,1,30,0,1
222510,-90.9090909090909,4,2,1,85,0,1
223631,-90.9090909090909,4,2,1,30,0,1
223717,-90.9090909090909,4,2,1,85,0,1
225355,-90.9090909090909,4,2,1,30,0,1
225441,-90.9090909090909,4,2,1,85,0,1
225700,-90.9090909090909,4,2,1,30,0,1
225786,-90.9090909090909,4,2,1,85,0,1
226044,-90.9090909090909,4,2,1,30,0,1
226131,-83.3333333333333,4,2,1,85,0,1
226648,-90.9090909090909,4,2,1,85,0,1
227682,-166.666666666667,4,2,1,70,0,0
230441,-111.111111111111,4,2,1,65,0,0
231648,-142.857142857143,4,2,1,65,0,0
233200,-111.111111111111,4,2,1,70,0,0
246131,-166.666666666666,4,2,1,75,0,0
246648,-166.666666666666,4,2,1,70,0,0
246993,-166.666666666666,4,2,1,65,0,0
247338,-166.666666666666,4,2,1,60,0,0
247682,-166.666666666666,4,2,1,55,0,0
248027,-166.666666666666,4,2,1,50,0,0
248372,-166.666666666666,4,2,1,45,0,0
248717,-166.666666666666,4,2,1,50,0,0
249062,-166.666666666666,4,2,1,55,0,0
249407,-166.666666666666,4,2,1,60,0,0
249751,-166.666666666666,4,2,1,65,0,0
250096,-166.666666666666,4,2,1,70,0,0
250441,-166.666666666666,4,2,1,75,0,0
250786,-166.666666666666,4,2,1,80,0,0
251131,-166.666666666666,4,2,1,40,0,0

[Colours]
Combo1 : 160,230,150
Combo2 : 103,192,226
Combo3 : 255,230,130
Combo4 : 170,255,255

[HitObjects]
82,16,1648,5,2,0:1:0:0:
28,122,1820,1,0,0:0:0:0:
121,93,1993,2,0,L|102:25,2,60,2|0|2,0:1|0:0|0:1,0:0:0:0:
276,64,2682,5,2,0:1:0:0:
330,170,2854,1,0,0:0:0:0:
237,141,3027,2,0,L|253:83,1,60,2|0,0:1|0:0,0:0:0:0:
127,224,3544,5,2,0:1:0:0:
40,262,3717,2,0,L|99:246,2,60,0|0|2,0:1|0:1|0:1,0:0:0:0:
196,321,4407,5,2,0:1:0:0:
311,368,4579,1,0,0:0:0:0:
280,282,4751,2,0,L|196:301,2,60,2|0|2,0:1|0:0|0:1,0:0:0:0:
483,169,5441,5,2,0:1:0:0:
368,216,5613,1,0,0:0:0:0:
399,130,5786,2,0,L|483:149,2,60,2|0|0,0:1|0:1|0:0,0:0:0:0:
332,32,6303,6,0,P|287:62|206:68,1,120,2|2,0:1|0:1,0:1:0:0:
150,22,6820,1,0,0:0:0:0:
81,155,6993,5,4,3:2:0:0:
126,264,7165,1,0,0:1:0:0:
175,153,7338,2,0,L|93:173,1,67.4999979400635,10|0,0:1|3:0,0:0:0:0:
81,155,7596,1,8,0:0:0:0:
81,155,7682,1,2,3:1:0:0:
20,254,7855,2,0,L|38:331,1,67.4999979400635,0|8,3:1|0:0,0:0:0:0:
176,354,8200,5,2,3:1:0:0:
245,285,8372,2,0,L|321:302,1,67.4999979400635,0|2,0:1|3:1,0:0:0:0:
361,384,8717,1,8,0:1:0:0:
498,164,9062,5,2,3:1:0:0:
419,207,9234,1,0,3:1:0:0:
489,246,9407,1,8,0:0:0:0:
429,122,9579,2,0,L|342:141,1,67.4999979400635,2|0,0:1|3:0,0:0:0:0:
247,84,9924,5,0,0:1:0:0:
200,207,10096,2,0,L|177:125,1,67.4999979400635,10|0,0:1|3:0,0:0:0:0:
147,116,10354,1,8,0:0:0:0:
147,116,10440,1,2,3:1:0:0:
174,7,10613,2,0,L|78:28,1,67.4999979400635,0|8,3:1|0:0,0:0:0:0:
19,125,10958,5,0,3:1:0:0:
65,210,11131,2,0,L|40:115,1,67.4999979400635,2|0,0:1|3:0,0:0:0:0:
136,287,11476,2,0,L|111:382,1,67.4999979400635,10|0,0:1|3:0,0:0:0:0:
232,210,11820,6,0,P|270:231|371:239,1,134.999995880127,2|10,0:1|0:1,0:0:0:0:
440,197,12338,1,0,0:0:0:0:
297,1,12510,5,2,3:1:0:0:
402,45,12682,1,8,0:1:0:0:
357,151,12855,1,10,0:1:0:0:
252,106,13027,1,8,0:1:0:0:
432,36,13200,5,10,0:1:0:0:
223,116,13372,1,2,3:1:0:0:
316,332,13717,5,0,3:0:0:0:
298,321,13804,1,8,3:2:0:0:
278,316,13890,5,10,3:1:0:0:
171,379,14062,1,10,0:1:0:0:
82,279,14235,1,10,0:1:0:0:
273,216,14407,6,0,B|224:211|171:285|171:285|189:135|97:202|109:31|197:-13|282:39,1,494.999984893799,6|8,3:1|3:1,0:0:0:0:
393,126,16648,6,0,P|371:175|373:281,1,157.499995193482,6|0,3:2|0:0,0:0:0:0:
311,342,17338,2,0,P|259:324|196:333,1,104.999996795654,2|0,0:0|0:0,0:0:0:0:
110,281,17855,6,0,L|134:397,2,104.999996795654,2|2|2,0:0|0:0|0:0,0:0:0:0:
50,220,18717,2,0,P|37:185|45:113,1,104.999996795654,2|0,0:0|0:0,0:0:0:0:
171,30,19407,6,0,B|261:8|240:81|337:55,1,157.499995193482,2|0,0:0|0:0,0:0:0:0:
398,21,20096,2,0,P|446:17|486:68,1,104.999996795654,2|0,0:0|0:0,0:0:0:0:
426,163,20613,6,0,P|378:149|302:144,1,104.999996795654,2|0,0:0|0:0,0:0:0:0:
250,208,21131,2,0,P|202:222|126:227,1,104.999996795654,2|0,0:0|0:0,0:0:0:0:
26,142,21820,1,8,0:0:0:0:
6,309,22165,6,0,P|61:297|150:349,1,157.499995193482,6|0,3:2|0:0,0:0:0:0:
227,380,22855,2,0,P|280:372|325:345,1,104.999996795654,2|0,0:0|0:0,0:0:0:0:
417,269,23372,6,0,L|402:386,2,104.999996795654,2|2|2,0:0|0:0|0:0,0:0:0:0:
366,199,24234,2,0,P|356:155|368:90,1,104.999996795654,2|0,0:0|0:0,0:0:0:0:
288,20,24751,1,10,0:0:0:0:
218,125,24924,6,0,L|84:148,1,120,6|10,3:2|0:0,0:0:0:0:
28,228,25441,1,2,3:2:0:0:
175,362,25786,5,10,0:0:0:0:
241,286,25958,2,0,P|224:246|362:89,1,269.999991760254,6|0,3:2|3:0,0:0:0:0:
432,159,27165,5,8,3:2:0:0:
441,181,27251,1,8,3:2:0:0:
445,205,27338,1,8,3:2:0:0:
444,229,27424,1,8,3:2:0:0:
438,252,27510,1,8,3:2:0:0:
426,273,27596,1,8,3:2:0:0:
414,293,27682,6,0,B|338:264|386:233|314:205,1,134.999995880127,6|8,3:2|0:0,0:0:0:0:
221,120,28200,1,2,0:0:0:0:
199,128,28286,1,8,0:0:0:0:
176,134,28372,2,0,P|134:128|96:112,1,67.4999979400635,2|0,3:2|3:0,0:0:0:0:
47,55,28717,1,8,0:0:0:0:
32,202,28889,5,2,3:2:0:0:
175,49,29234,2,0,L|247:32,1,67.4999979400635,2|8,3:2|0:0,0:0:0:0:
313,93,29579,1,2,3:2:0:0:
229,209,29751,5,2,0:0:0:0:
190,284,29924,1,8,0:0:0:0:
284,347,30096,1,8,0:2:0:0:
277,330,30182,1,8,0:0:0:0:
141,199,30441,6,0,B|129:126|68:188|51:81,1,134.999995880127,6|8,3:2|0:0,0:0:0:0:
158,26,30958,1,2,0:0:0:0:
179,35,31044,1,8,0:0:0:0:
200,37,31131,2,0,P|233:34|280:12,1,67.4999979400635,2|0,3:2|3:0,0:0:0:0:
338,73,31476,1,10,0:0:0:0:
459,15,31648,6,0,B|478:80|478:80|455:150,1,134.999995880127,6|2,3:2|3:2,0:0:0:0:
374,200,32165,2,0,P|327:177|281:177,1,67.4999979400635,10|0,0:0|3:0,0:0:0:0:
190,114,32510,5,2,0:0:0:0:
217,197,32682,1,8,0:0:0:0:
131,178,32855,1,8,3:2:0:0:
71,278,33027,1,8,3:2:0:0:
72,304,33113,1,8,3:2:0:0:
81,327,33200,6,0,P|145:303|225:301,1,134.999995880127,6|8,3:2|0:0,0:0:0:0:
318,360,33717,1,2,0:0:0:0:
339,365,33803,1,8,0:0:0:0:
359,367,33889,2,0,P|394:358|426:331,1,67.4999979400635,2|0,3:2|3:0,0:0:0:0:
488,267,34234,1,8,0:0:0:0:
418,137,34407,5,2,3:2:0:0:
291,263,34751,2,0,L|270:188,1,67.4999979400635,2|8,3:2|0:0,0:0:0:0:
316,120,35096,1,2,3:2:0:0:
231,35,35269,5,2,0:0:0:0:
159,73,35441,1,8,0:0:0:0:
40,10,35613,1,8,0:0:0:0:
68,12,35700,1,8,0:0:0:0:
91,22,35786,1,2,3:2:0:0:
224,129,35958,6,0,L|77:101,1,134.999995880127,6|8,3:2|0:0,0:0:0:0:
0,249,36476,2,0,L|147:221,1,134.999995880127,6|10,3:2|0:0,0:0:0:0:
164,244,36907,1,8,0:0:0:0:
164,244,36993,1,10,0:0:0:0:
250,329,37165,6,0,L|285:173,1,134.999995880127,6|0,3:2|3:0,0:0:0:0:
359,134,37682,2,0,P|355:91|337:53,1,67.4999979400635,8|0,0:0|3:0,0:0:0:0:
213,17,38027,6,0,L|224:66,3,33.7499989700318,10|8|8|8,0:0|0:0|0:0|0:0,0:0:0:0:
189,86,38372,5,10,0:0:0:0:
178,107,38458,1,8,0:0:0:0:
173,130,38544,1,8,0:0:0:0:
171,153,38631,1,8,0:0:0:0:
177,178,38717,6,0,P|156:237|95:238,1,127.50000243187,6|10,3:2|0:0,0:0:0:0:
35,178,39234,1,2,3:2:0:0:
90,53,39407,2,0,P|131:69|237:75,1,127.50000243187,2|10,0:0|0:0,0:0:0:0:
380,55,39924,6,0,P|339:58|313:148,1,127.50000243187,2|2,3:2|3:2,0:0:0:0:
360,194,40441,2,0,P|375:226|376:260,1,63.7500012159348,10|2,0:0|3:2,0:0:0:0:
307,330,40786,2,0,L|385:351,2,63.7500012159348,2|0|0,3:2|3:0|0:0,0:0:0:0:
239,281,41303,1,2,3:2:0:0:
161,366,41476,6,0,P|117:343|34:334,1,127.50000243187,2|10,3:2|0:0,0:0:0:0:
108,247,41993,2,0,P|118:216|116:164,1,63.7500012159348,2|0,3:2|0:0,0:0:0:0:
45,108,42338,1,10,0:0:0:0:
40,129,42424,1,8,0:0:0:0:
40,151,42510,1,8,0:0:0:0:
141,47,42682,6,0,L|276:75,1,127.50000243187,6|2,3:2|3:2,0:0:0:0:
340,23,43200,2,0,P|376:18|412:29,1,63.7500012159348,8|0,0:0|3:0,0:0:0:0:
474,89,43544,1,8,0:0:0:0:
391,212,43803,1,8,0:0:0:0:
403,194,43889,5,0,3:0:0:0:
338,145,44062,1,10,0:0:0:0:
265,233,44234,6,0,P|292:279|306:360,1,127.50000243187,6|10,3:2|0:0,0:0:0:0:
391,384,44751,1,2,0:0:0:0:
485,299,44924,2,0,P|440:286|442:206,1,127.50000243187,2|10,3:2|0:0,0:0:0:0:
492,85,45441,6,0,L|356:117,1,127.50000243187,2|2,3:2|3:2,0:0:0:0:
297,60,45958,2,0,P|263:49|227:51,1,63.7500012159348,10|10,0:0|0:0,0:0:0:0:
200,72,46217,1,8,0:0:0:0:
200,72,46303,1,10,0:0:0:0:
76,153,46562,1,0,3:2:0:0:
96,139,46648,5,2,3:2:0:0:
12,214,46821,1,10,0:0:0:0:
22,238,46907,1,8,0:0:0:0:
25,264,46993,6,0,L|14:334,1,67.4999979400635,14|8,3:2|0:0,0:0:0:0:
95,384,47338,1,8,0:0:0:0:
209,261,47510,5,10,0:0:0:0:
323,360,47682,2,0,L|249:342,1,67.4999979400635,10|8,0:0|0:0,0:0:0:0:
395,248,48027,2,0,L|469:230,1,67.4999979400635,8|8,0:0|0:0,0:0:0:0:
217,115,48372,5,10,3:2:0:0:
309,231,48544,1,8,3:2:0:0:
345,92,48717,1,8,3:2:0:0:
220,222,48889,1,8,3:2:0:0:
340,318,49062,5,2,3:2:0:0:
227,365,49234,1,0,3:0:0:0:
148,345,49407,5,2,0:0:0:0:
456,217,49751,6,0,B|391:220|389:177|389:167|389:160|378:105|311:120,1,179.999994506836,6|10,3:2|0:0,0:0:0:0:
182,19,50269,2,0,P|234:31|266:60,1,82.5000025177003,2|0,0:0|3:0,0:0:0:0:
86,135,50613,2,0,P|101:87|95:42,1,82.5000025177003,2|8,3:2|0:0,0:0:0:0:
246,210,50958,6,0,L|212:375,1,165.000005035401,2|0,3:2|3:0,0:0:0:0:
106,305,51476,1,8,0:0:0:0:
258,293,51648,2,0,P|306:317|360:323,1,82.5000025177003,0|0,3:0|0:0,0:0:0:0:
501,204,51993,5,2,3:2:0:0:
379,232,52165,1,10,0:0:0:0:
481,331,52338,1,2,0:0:0:0:
414,128,52510,6,0,P|381:187|275:184,1,165.000005035401,2|10,3:2|0:0,0:0:0:0:
155,53,53027,1,10,0:0:0:0:
194,67,53114,1,8,0:0:0:0:
226,95,53200,1,8,0:0:0:0:
167,202,53372,6,0,P|168:187|164:155,1,45,2|0,3:2|0:0,0:0:0:0:
155,140,53717,6,0,B|118:222|118:222|145:328,1,179.999994506836,6|0,3:2|3:0,0:0:0:0:
226,370,54234,2,0,L|322:346,1,82.5000025177003,8|0,0:2|3:0,0:0:0:0:
437,246,54579,6,0,P|389:243|347:212,1,82.5000025177003,2|0,3:2|3:0,0:0:0:0:
435,82,54924,2,0,P|475:83|512:102,1,82.5000025177003,10|0,0:0|0:0,0:0:0:0:
287,265,55269,6,0,P|331:222|312:104,1,165.000005035401,2|10,3:2|0:0,0:0:0:0:
219,31,55786,2,0,P|169:62|57:77,1,165.000005035401,2|2,3:2|3:2,0:0:0:0:
0,0,56303,1,8,0:0:0:0:
56,182,56476,6,0,P|116:179|138:276,1,165.000005035401,2|0,3:2|3:0,0:0:0:0:
225,354,56993,1,10,0:0:0:0:
300,215,57165,2,0,P|368:210|470:247,1,165.000005035401,2|2,3:2|3:2,0:0:0:0:
512,160,57682,1,8,0:0:0:0:
420,77,57855,5,2,0:0:0:0:
279,116,58027,1,0,3:0:0:0:
207,86,58200,6,0,L|274:100,1,41.2500012588501,2|0,3:1|0:0,0:0:0:0:
65,186,58544,6,0,L|-2:200,1,41.2500012588501,2|0,3:1|0:0,0:0:0:0:
209,326,58889,6,0,L|223:259,1,41.2500012588501,2|0,3:1|0:0,0:0:0:0:
80,80,59234,6,0,B|105:166|105:166|101:179|101:179|127:280,1,179.999994506836,6|0,3:2|3:0,0:0:0:0:
57,326,59751,1,8,0:0:0:0:
57,326,60096,1,0,3:0:0:0:
190,367,60269,1,8,0:2:0:0:
291,324,60441,5,10,0:0:0:0:
271,317,60527,1,8,0:0:0:0:
211,190,60700,1,0,3:0:0:0:
246,168,60786,6,0,B|353:189|296:231|405:252,1,179.999994506836,6|10,3:2|0:0,0:0:0:0:
463,107,61303,2,0,P|481:161|484:206,1,82.5000025177003,2|0,3:2|0:0,0:0:0:0:
306,89,61648,2,0,P|317:33|336:-1,1,82.5000025177003,2|8,3:2|0:0,0:0:0:0:
306,238,61993,6,0,P|222:267|143:263,1,165.000005035401,2|0,3:2|3:0,0:0:0:0:
89,183,62510,1,8,0:0:0:0:
173,74,62682,2,0,P|194:123|191:176,1,82.5000025177003,0|0,3:0|0:0,0:0:0:0:
233,289,63027,5,2,3:2:0:0:
333,356,63200,1,10,0:0:0:0:
174,384,63372,1,2,0:0:0:0:
42,275,63544,6,0,P|62:209|21:117,1,165.000005035401,2|10,3:2|0:0,0:0:0:0:
222,9,64062,1,10,0:0:0:0:
201,45,64149,1,8,0:0:0:0:
194,87,64235,1,8,0:0:0:0:
331,131,64407,6,0,P|316:113|286:102,1,45,2|0,3:2|0:0,0:0:0:0:
282,81,64751,6,0,P|337:103|468:115,1,179.999994506836,6|0,3:2|3:0,0:0:0:0:
499,196,65269,2,0,L|483:291,1,82.5000025177003,8|0,0:2|3:0,0:0:0:0:
368,383,65613,6,0,P|345:342|344:302,1,82.5000025177003,2|0,3:2|3:0,0:0:0:0:
246,221,65958,2,0,P|276:185|313:170,1,82.5000025177003,10|0,0:0|0:0,0:0:0:0:
147,368,66303,6,0,B|44:348|113:300|-7:286,1,165.000005035401,2|10,3:2|0:0,0:0:0:0:
13,132,66820,2,0,P|61:166|168:174,1,165.000005035401,2|2,3:2|3:2,0:0:0:0:
235,98,67338,1,8,0:0:0:0:
392,254,67510,6,0,P|405:194|298:151,1,165.000005035401,2|0,3:2|3:0,0:0:0:0:
279,9,68027,2,0,P|321:37|369:42,1,82.5000025177003,10|0,0:0|3:0,0:0:0:0:
209,263,68372,2,0,P|240:224|248:176,1,82.5000025177003,2|0,0:0|3:0,0:0:0:0:
470,329,68717,2,0,P|430:338|397:362,1,82.5000025177003,10|0,0:0|0:0,0:0:0:0:
229,377,69062,5,2,3:2:0:0:
116,243,69234,2,0,L|150:116,1,123.75000377655,2|0,3:1|0:0,0:0:0:0:
168,95,69579,2,0,P|207:67|282:64,1,123.75000377655,2|0,3:1|0:0,0:0:0:0:
312,78,69924,2,0,P|351:106|454:99,1,123.75000377655,2|0,3:1|0:0,0:0:0:0:
474,34,70269,6,0,B|454:116|454:116|459:131|459:131|437:220,1,179.999994506836,6|0,3:2|3:0,0:0:0:0:
362,285,70786,1,8,0:2:0:0:
362,285,71131,1,0,3:0:0:0:
281,218,71303,1,8,0:0:0:0:
250,206,71389,1,8,0:0:0:0:
216,202,71476,1,10,0:0:0:0:
183,205,71562,1,8,0:0:0:0:
152,217,71648,1,8,0:0:0:0:
129,241,71734,1,8,0:0:0:0:
110,268,71820,6,0,B|159:355|268:324|236:294|331:258|399:343|399:343|532:293|531:156|441:93,1,629.999980773926,6|8,3:2|0:0,0:0:0:0:
269,10,74579,6,0,L|305:144,1,134.999995880127,2|8,3:2|0:0,0:0:0:0:
245,213,75096,1,2,3:2:0:0:
102,119,75441,1,2,3:2:0:0:
39,304,75786,6,0,P|111:260|192:47,1,314.999990386963,4|8,3:2|0:0,0:0:0:0:
269,1,76993,2,0,L|333:17,1,52.4999983978272,8|0,0:0|3:0,0:0:0:0:
382,98,77338,5,4,3:2:0:0:
312,180,77510,6,0,L|240:162,2,60,2|0|2,0:1|0:1|0:1,0:0:0:0:
266,276,78027,1,0,0:1:0:0:
227,194,78200,1,2,0:1:0:0:
112,289,78544,6,0,L|184:271,2,60,2|0|2,0:1|0:1|0:1,0:0:0:0:
42,226,79062,1,0,0:1:0:0:
143,88,79407,5,2,0:1:0:0:
132,2,79579,2,0,L|116:69,1,60,0|0,0:1|0:0,0:0:0:0:
44,111,79924,1,2,0:1:0:0:
251,209,80269,6,0,L|182:193,2,60,2|0|2,0:1|0:1|0:1,0:0:0:0:
236,90,80786,1,0,0:1:0:0:
171,170,80958,1,2,0:1:0:0:
352,269,81303,6,0,L|421:253,2,60,2|0|2,0:1|0:1|0:1,0:0:0:0:
367,150,81820,1,0,0:1:0:0:
432,230,81992,1,0,0:0:0:0:
384,351,82165,6,0,P|330:373|256:376,1,120,2|10,0:1|0:1,0:0:0:0:
193,330,82682,1,0,0:0:0:0:
231,203,82855,5,4,3:2:0:0:
166,117,83027,1,0,0:1:0:0:
130,252,83200,2,0,L|206:230,1,67.4999979400635,10|0,0:1|3:0,0:0:0:0:
231,203,83458,1,8,0:0:0:0:
231,203,83544,1,2,3:1:0:0:
258,89,83717,2,0,L|237:19,1,67.4999979400635,0|8,3:1|0:0,0:0:0:0:
66,15,84062,5,2,3:1:0:0:
15,141,84234,2,0,L|0:75,1,67.4999979400635,0|2,0:1|3:1,0:0:0:0:
99,169,84579,1,8,0:1:0:0:
67,372,84924,5,2,3:1:0:0:
40,296,85096,1,0,3:1:0:0:
116,269,85269,1,8,0:0:0:0:
156,355,85441,2,0,L|248:377,1,67.4999979400635,2|0,0:1|3:0,0:0:0:0:
334,279,85786,5,0,0:1:0:0:
432,378,85958,2,0,L|412:305,1,67.4999979400635,10|0,0:1|3:0,0:0:0:0:
439,281,86217,1,8,0:0:0:0:
439,281,86303,1,2,3:1:0:0:
350,174,86476,2,0,L|438:197,1,67.4999979400635,0|8,3:1|0:0,0:0:0:0:
472,16,86820,5,0,3:1:0:0:
460,111,86993,2,0,L|443:38,1,67.4999979400635,2|0,0:1|3:0,0:0:0:0:
307,75,87338,2,0,L|322:9,1,67.4999979400635,10|0,0:1|3:0,0:0:0:0:
334,193,87682,6,0,P|301:234|209:242,1,134.999995880127,2|10,0:1|0:1,0:0:0:0:
150,305,88200,1,0,0:0:0:0:
171,99,88372,5,2,3:1:0:0:
60,74,88544,1,8,0:1:0:0:
145,212,88717,1,10,0:1:0:0:
34,185,88889,1,8,0:1:0:0:
41,48,89062,5,10,0:1:0:0:
196,80,89234,1,2,3:1:0:0:
320,251,89751,6,0,P|365:267|475:273,1,157.499995193482,6|0,3:2|0:0,0:0:0:0:
511,194,90441,2,0,P|498:154|421:127,1,104.999996795654,2|0,0:0|0:0,0:0:0:0:
347,65,90958,6,0,L|369:179,2,104.999996795654,2|2|2,0:0|0:0|0:0,0:0:0:0:
275,9,91820,2,0,P|246:31|162:38,1,104.999996795654,2|0,0:0|0:0,0:0:0:0:
96,166,92510,6,0,L|77:97,2,60,6|0|0,3:2|3:0|3:0,0:0:0:0:
49,261,93027,5,2,3:2:0:0:
116,326,93200,2,0,L|199:343,1,60,2|0,3:2|3:0,0:0:0:0:
262,262,93544,5,10,0:2:0:0:
366,357,93717,2,0,P|347:318|347:289,1,60,10|8,0:2|0:0,0:0:0:0:
384,155,94062,5,8,0:0:0:0:
512,225,94234,1,10,0:0:0:0:
422,256,94407,1,8,0:0:0:0:
480,123,94579,5,10,0:0:0:0:
483,108,94665,1,2,0:0:0:0:
481,93,94751,2,0,P|461:74|448:72,1,30,10|10,0:0|0:0,0:0:0:0:
373,12,94924,5,10,0:0:0:0:
376,30,95010,1,2,0:0:0:0:
374,48,95096,2,0,P|349:71|332:74,1,30,10|10,0:0|0:0,0:0:0:0:
291,148,95269,6,0,P|260:107|177:95,1,127.50000243187,6|8,3:2|0:0,0:0:0:0:
116,144,95786,1,2,0:0:0:0:
195,212,95958,2,0,P|204:256|198:344,1,127.50000243187,2|8,3:2|0:0,0:0:0:0:
116,384,96476,5,2,3:2:0:0:
293,286,96820,2,0,L|360:301,1,63.7500012159348,2|8,3:2|0:0,0:0:0:0:
426,352,97165,1,2,3:2:0:0:
490,251,97338,2,0,P|475:211|473:171,1,63.7500012159348,2|8,0:0|0:0,0:0:0:0:
495,98,97682,1,8,0:0:0:0:
473,92,97769,1,8,0:0:0:0:
451,87,97855,1,10,0:0:0:0:
429,82,97941,1,8,0:0:0:0:
405,76,98027,6,0,L|260:113,1,127.50000243187,6|10,3:2|0:0,0:0:0:0:
191,213,98544,2,0,L|154:68,1,127.50000243187,6|10,3:2|0:0,0:0:0:0:
134,68,98976,1,8,0:0:0:0:
134,68,99062,6,0,P|80:51|20:161,1,191.250003647804,6|0,3:2|3:0,0:0:0:0:
67,219,99751,2,0,P|75:251|71:292,1,63.7500012159348,8|0,0:0|3:0,0:0:0:0:
167,371,100096,2,0,P|159:339|163:298,1,63.7500012159348,0|0,3:0|3:0,0:0:0:0:
242,238,100441,1,8,0:0:0:0:
267,234,100527,1,8,0:0:0:0:
291,239,100613,1,8,0:0:0:0:
438,269,100786,6,0,P|392:248|381:147,1,134.999995880127,6|8,3:2|0:0,0:0:0:0:
299,77,101303,1,2,0:0:0:0:
276,65,101389,1,8,0:0:0:0:
256,56,101476,2,0,P|217:52|183:59,1,67.4999979400635,2|0,3:2|3:0,0:0:0:0:
115,116,101820,1,8,0:0:0:0:
213,229,101993,6,0,L|198:158,1,67.4999979400635,2|0,3:2|0:0,0:0:0:0:
60,270,102338,2,0,L|74:199,1,67.4999979400635,2|8,3:2|0:0,0:0:0:0:
17,127,102682,1,2,3:2:0:0:
115,17,102855,5,2,0:0:0:0:
189,56,103027,1,8,0:0:0:0:
282,17,103200,1,8,0:2:0:0:
261,10,103286,1,8,0:0:0:0:
425,99,103544,6,0,B|443:174|364:144|388:237,1,134.999995880127,6|8,3:2|0:0,0:0:0:0:
320,318,104062,1,2,0:0:0:0:
299,332,104148,1,8,0:0:0:0:
276,342,104234,2,0,P|245:347|200:340,1,67.4999979400635,2|0,3:2|3:0,0:0:0:0:
140,280,104579,1,10,0:0:0:0:
237,185,104751,6,0,B|258:119|258:119|220:42,1,134.999995880127,6|2,3:2|3:2,0:0:0:0:
147,8,105269,2,0,P|106:31|72:35,1,67.4999979400635,10|0,0:0|3:0,0:0:0:0:
27,178,105613,5,2,0:0:0:0:
13,91,105785,1,8,0:0:0:0:
95,124,105958,1,8,3:2:0:0:
46,261,106131,1,8,3:2:0:0:
43,283,106217,1,8,3:2:0:0:
48,305,106303,6,0,B|135:328|89:359|174:382,1,134.999995880127,6|8,3:2|0:0,0:0:0:0:
258,311,106820,1,2,0:0:0:0:
280,300,106907,1,8,0:0:0:0:
304,292,106993,2,0,P|338:288|380:294,1,67.4999979400635,2|0,3:2|3:0,0:0:0:0:
446,341,107338,1,8,0:0:0:0:
500,222,107510,6,0,L|484:152,1,67.4999979400635,2|0,3:2|0:0,0:0:0:0:
339,197,107855,2,0,L|355:127,1,67.4999979400635,2|8,3:2|0:0,0:0:0:0:
430,81,108200,1,2,3:2:0:0:
318,3,108372,5,2,0:0:0:0:
255,64,108544,1,8,0:0:0:0:
135,23,108717,1,8,0:0:0:0:
163,21,108804,1,8,0:0:0:0:
186,11,108890,1,2,3:2:0:0:
95,131,109062,6,0,L|129:264,1,134.999995880127,6|8,3:2|0:0,0:0:0:0:
240,345,109579,2,0,L|373:311,1,134.999995880127,6|10,3:2|0:0,0:0:0:0:
410,336,110010,1,8,0:0:0:0:
410,336,110096,1,10,0:0:0:0:
498,213,110269,6,0,L|365:179,1,134.999995880127,6|0,3:2|3:0,0:0:0:0:
298,111,110786,2,0,P|262:104|228:111,1,67.4999979400635,8|0,0:0|3:0,0:0:0:0:
158,191,111131,6,0,L|168:236,3,33.7499989700318,10|8|8|8,0:0|0:0|0:0|0:0,0:0:0:0:
203,257,111476,5,10,0:0:0:0:
224,265,111562,1,8,0:0:0:0:
247,267,111648,1,8,0:0:0:0:
270,265,111734,1,8,0:0:0:0:
294,258,111820,6,0,P|341:258|366:339,1,127.50000243187,6|10,3:2|0:0,0:0:0:0:
450,378,112338,1,2,3:2:0:0:
506,251,112510,2,0,P|476:217|463:126,1,127.50000243187,2|10,0:0|0:0,0:0:0:0:
375,11,113027,6,0,P|374:57|292:63,1,127.50000243187,2|2,3:2|3:2,0:0:0:0:
237,25,113544,2,0,P|204:16|161:18,1,63.7500012159348,10|2,0:0|3:2,0:0:0:0:
95,81,113889,6,0,L|82:7,2,63.7500012159348,2|0|0,3:2|3:0|0:0,0:0:0:0:
43,166,114407,1,2,3:2:0:0:
155,238,114579,6,0,P|194:210|287:196,1,127.50000243187,2|10,3:2|0:0,0:0:0:0:
359,250,115096,2,0,P|397:263|443:261,1,63.7500012159348,2|0,3:2|0:0,0:0:0:0:
492,192,115441,1,10,0:0:0:0:
489,171,115527,1,8,0:0:0:0:
490,149,115613,1,8,0:0:0:0:
381,32,115786,6,0,L|349:176,1,127.50000243187,6|2,3:2|3:2,0:0:0:0:
277,206,116303,2,0,P|263:245|266:281,1,63.7500012159348,8|0,0:0|3:0,0:0:0:0:
324,346,116648,1,8,0:0:0:0:
146,381,116907,1,8,0:0:0:0:
170,376,116993,5,0,3:0:0:0:
79,325,117165,1,10,0:0:0:0:
186,232,117338,6,0,P|127:226|111:145,1,127.50000243187,6|10,3:2|0:0,0:0:0:0:
62,85,117855,1,2,0:0:0:0:
212,16,118027,2,0,P|193:69|192:162,1,127.50000243187,2|10,3:2|0:0,0:0:0:0:
275,259,118544,6,0,P|309:204|381:195,1,127.50000243187,2|2,3:2|3:2,0:0:0:0:
442,126,119062,2,0,P|450:86|445:59,1,63.7500012159348,10|10,0:0|0:0,0:0:0:0:
416,31,119320,1,8,0:0:0:0:
416,31,119407,1,8,0:0:0:0:
280,110,119665,1,0,3:2:0:0:
303,98,119751,5,2,3:2:0:0:
229,16,119924,1,10,0:0:0:0:
204,23,120010,1,8,0:0:0:0:
178,27,120096,6,0,L|101:9,1,67.4999979400635,14|8,3:2|0:0,0:0:0:0:
42,76,120441,1,8,0:0:0:0:
145,182,120613,5,10,0:0:0:0:
66,307,120786,2,0,L|48:226,1,67.4999979400635,10|8,0:0|0:0,0:0:0:0:
200,363,121131,2,0,L|218:281,1,67.4999979400635,8|8,0:0|0:0,0:0:0:0:
274,133,121476,5,10,3:2:0:0:
434,210,121648,1,8,3:2:0:0:
305,278,121820,1,8,3:2:0:0:
378,122,121993,1,8,3:2:0:0:
250,25,122165,5,2,3:2:0:0:
393,0,122338,1,0,3:0:0:0:
471,29,122510,5,2,0:0:0:0:
139,79,122855,6,0,B|204:82|203:125|208:135|205:144|210:198|281:182,1,179.999994506836,6|10,3:2|0:0,0:0:0:0:
340,330,123372,2,0,P|344:284|334:240,1,82.5000025177003,2|0,0:0|3:0,0:0:0:0:
178,372,123717,2,0,P|224:368|268:378,1,82.5000025177003,2|8,3:2|0:0,0:0:0:0:
76,234,124062,6,0,L|41:55,1,165.000005035401,2|0,3:2|3:0,0:0:0:0:
137,2,124579,1,8,0:0:0:0:
243,125,124751,2,0,P|281:102|319:95,1,82.5000025177003,0|0,3:0|0:0,0:0:0:0:
490,186,125096,5,2,3:2:0:0:
351,224,125269,1,10,0:0:0:0:
420,86,125441,1,2,0:0:0:0:
425,289,125613,6,0,P|354:255|250:242,1,165.000005035401,2|10,3:2|0:0,0:0:0:0:
76,266,126131,1,10,0:0:0:0:
116,272,126217,1,8,0:0:0:0:
153,290,126303,1,8,0:0:0:0:
281,329,126476,6,0,P|249:340|235:357,1,45,2|0,3:2|0:0,0:0:0:0:
223,367,126820,6,0,B|243:277|243:277|200:173,1,179.999994506836,6|0,3:2|3:0,0:0:0:0:
163,107,127338,2,0,L|185:15,1,82.5000025177003,8|0,0:2|3:0,0:0:0:0:
51,205,127682,6,0,P|93:225|149:226,1,82.5000025177003,2|0,3:2|3:0,0:0:0:0:
80,49,128027,2,0,P|39:54|2:72,1,82.5000025177003,10|0,0:0|0:0,0:0:0:0:
66,303,128372,6,0,P|154:258|239:235,1,165.000005035401,2|10,3:2|0:0,0:0:0:0:
360,326,128889,2,0,B|381:239|313:259|340:160,1,165.000005035401,2|2,3:2|3:2,0:0:0:0:
411,93,129407,1,8,0:0:0:0:
283,14,129579,6,0,P|225:19|187:113,1,165.000005035401,2|0,3:2|3:0,0:0:0:0:
110,182,130096,1,10,0:0:0:0:
203,312,130269,2,0,P|142:275|38:274,1,165.000005035401,2|2,3:2|3:2,0:0:0:0:
3,177,130786,1,8,0:0:0:0:
92,73,130958,5,2,0:0:0:0:
268,130,131131,1,0,3:0:0:0:
324,192,131303,6,0,L|307:122,1,41.2500012588501,2|0,3:1|0:0,0:0:0:0:
185,322,131648,6,0,L|168:392,1,41.2500012588501,2|0,3:1|0:0,0:0:0:0:
431,372,131993,6,0,L|390:381,1,41.2500012588501,2|0,3:1|0:0,0:0:0:0:
108,266,132338,6,0,B|189:284|189:284|205:278|205:278|308:299,1,179.999994506836,6|0,3:2|3:0,0:0:0:0:
386,262,132855,1,8,0:0:0:0:
386,262,133200,1,0,3:0:0:0:
445,127,133372,1,8,0:2:0:0:
388,37,133544,5,10,0:0:0:0:
396,54,133631,1,8,0:0:0:0:
291,141,133803,1,0,3:0:0:0:
307,102,133889,6,0,P|227:94|196:194,1,179.999994506836,6|10,3:2|0:0,0:0:0:0:
129,323,134407,2,0,P|136:273|132:237,1,82.5000025177003,2|0,3:2|0:0,0:0:0:0:
59,140,134751,2,0,P|52:90|56:54,1,82.5000025177003,2|8,3:2|0:0,0:0:0:0:
249,11,135096,6,0,P|292:65|398:61,1,165.000005035401,2|0,3:2|3:0,0:0:0:0:
486,0,135613,1,8,0:0:0:0:
500,177,135786,2,0,P|460:160|405:154,1,82.5000025177003,0|0,3:0|0:0,0:0:0:0:
263,276,136131,5,2,3:2:0:0:
188,118,136303,1,10,0:0:0:0:
323,168,136476,1,2,0:0:0:0:
344,335,136648,6,0,P|267:306|185:312,1,165.000005035401,2|10,3:2|0:0,0:0:0:0:
15,195,137165,1,10,0:0:0:0:
54,205,137251,1,8,0:0:0:0:
95,203,137338,1,8,0:0:0:0:
183,116,137510,6,0,P|154:115|132:109,1,45,2|0,3:2|0:0,0:0:0:0:
113,96,137855,6,0,P|175:83|306:108,1,179.999994506836,6|0,3:2|3:0,0:0:0:0:
370,30,138372,2,0,L|473:5,1,82.5000025177003,8|0,0:2|3:0,0:0:0:0:
497,183,138717,6,0,P|480:139|481:92,1,82.5000025177003,2|0,3:2|3:0,0:0:0:0:
345,225,139062,2,0,P|362:181|361:134,1,82.5000025177003,10|0,0:0|0:0,0:0:0:0:
512,384,139407,6,0,P|468:334|364:342,1,165.000005035401,2|10,3:2|0:0,0:0:0:0:
242,232,139924,2,0,B|153:272|214:315|110:359,1,165.000005035401,2|2,3:2|3:2,0:0:0:0:
31,289,140441,1,8,0:0:0:0:
186,160,140613,6,0,P|129:177|90:72,1,165.000005035401,2|0,3:2|3:0,0:0:0:0:
239,0,141131,2,0,P|222:41|224:83,1,82.5000025177003,10|0,0:0|3:0,0:0:0:0:
399,240,141476,2,0,P|371:204|334:185,1,82.5000025177003,2|0,0:0|3:0,0:0:0:0:
103,365,141820,2,0,P|130:329|167:310,1,82.5000025177003,10|0,0:0|0:0,0:0:0:0:
373,361,142165,5,2,3:2:0:0:
497,229,142338,2,0,P|473:180|469:96,1,123.75000377655,2|0,3:1|0:0,0:0:0:0:
450,78,142682,2,0,L|321:54,1,123.75000377655,2|0,3:1|0:0,0:0:0:0:
295,72,143027,2,0,L|166:96,1,123.75000377655,2|0,3:1|0:0,0:0:0:0:
161,4,143372,6,0,B|145:85|145:85|134:96|134:96|113:196,1,179.999994506836,6|0,3:2|3:0,0:0:0:0:
188,260,143889,1,8,0:2:0:0:
188,260,144234,1,0,3:0:0:0:
282,189,144407,1,8,0:0:0:0:
310,205,144493,1,8,0:0:0:0:
341,214,144579,1,10,0:0:0:0:
373,212,144665,1,8,0:0:0:0:
403,200,144751,1,8,0:0:0:0:
427,177,144838,1,8,0:0:0:0:
442,147,144924,6,0,B|465:107|454:57|386:39|344:69|315:132|324:212|368:249|437:286|437:286|292:251|349:359|203:312,1,629.999980773926,6|8,3:2|0:0,0:0:0:0:
85,197,147682,6,0,L|112:53,1,134.999995880127,2|8,3:2|0:0,0:0:0:0:
176,5,148200,1,2,3:2:0:0:
308,99,148544,1,2,3:2:0:0:
119,282,148889,6,0,B|300:261|223:394|412:362,1,314.999990386963,4|8,3:2|0:0,0:0:0:0:
471,290,150096,2,0,L|450:230,1,52.4999983978272,8|0,0:0|3:0,0:0:0:0:
390,92,150441,6,0,P|374:153|298:168,3,120,6|0|0|0,3:2|3:0|3:0|3:0,0:0:0:0:
255,92,151648,1,2,0:0:0:0:
255,92,151820,2,0,L|132:69,1,120,0|0,3:0|3:0,0:0:0:0:
73,201,152510,5,0,3:0:0:0:
5,124,152682,1,8,0:0:0:0:
10,122,152769,1,8,0:0:0:0:
15,121,152855,1,0,3:0:0:0:
60,290,153200,6,0,P|121:276|162:218,3,120,2|0|0|0,3:2|3:0|3:0|3:0,0:0:0:0:
283,154,154579,2,0,L|415:189,1,120,0|0,3:0|3:0,0:0:0:0:
508,315,155269,5,2,3:2:0:0:
423,270,155441,1,8,0:0:0:0:
421,275,155527,1,8,0:0:0:0:
419,280,155613,1,0,3:0:0:0:
231,354,155958,6,0,P|269:315|275:227,3,120,2|0|0|0,3:2|3:0|3:0|3:0,0:0:0:0:
207,172,157165,1,2,0:0:0:0:
207,172,157338,2,0,L|182:54,1,120,0|0,3:0|3:0,0:0:0:0:
318,0,158027,5,0,3:0:0:0:
373,86,158200,1,8,0:0:0:0:
367,84,158286,1,8,0:0:0:0:
361,82,158372,1,0,3:0:0:0:
467,247,158717,6,0,P|448:191|459:116,3,120,2|0|0|0,3:2|3:0|3:0|3:0,0:0:0:0:
318,166,160096,5,2,3:2:0:0:
318,166,160441,1,2,3:2:0:0:
210,288,160786,1,0,3:0:0:0:
97,195,160958,1,10,0:1:0:0:
117,177,161044,1,8,0:0:0:0:
143,173,161131,5,10,0:1:0:0:
173,132,161217,1,8,0:0:0:0:
173,81,161303,1,8,0:0:0:0:
144,39,161389,1,8,0:0:0:0:
97,17,161476,6,0,B|49:14|46:70|96:107|174:89|229:8,1,240,6|10,3:1|0:1,0:0:0:0:
299,58,161993,1,2,3:1:0:0:
411,194,162165,5,2,0:1:0:0:
497,160,162338,1,2,3:1:0:0:
402,8,162510,6,0,L|370:126,1,104.999996795654,10|0,0:1|3:0,0:0:0:0:
277,255,162855,5,2,0:1:0:0:
191,221,163027,1,2,3:1:0:0:
65,126,163200,6,0,L|166:98,1,104.999996795654,10|0,0:1|3:0,0:0:0:0:
121,282,163544,5,2,0:1:0:0:
35,313,163717,1,2,3:1:0:0:
221,384,163889,6,0,L|249:283,1,104.999996795654,10|0,0:1|3:0,0:0:0:0:
462,232,164234,5,2,3:1:0:0:
390,282,164407,1,2,3:1:0:0:
332,213,164579,1,10,0:1:0:0:
269,76,164751,5,8,0:0:0:0:
264,49,164838,1,8,0:0:0:0:
273,24,164924,6,0,P|338:7|406:15,1,104.999996795654,10|0,0:1|3:0,0:0:0:0:
470,59,165269,1,2,0:1:0:0:
232,177,165441,6,0,B|95:135|186:79|36:35,1,240,6|0,3:1|3:0,0:0:0:0:
5,143,165958,2,0,P|29:192|26:244,1,104.999996795654,8|0,0:0|3:0,0:0:0:0:
8,276,166217,1,2,0:0:0:0:
8,276,166303,6,0,L|123:298,1,104.999996795654,2|0,0:1|3:0,0:0:0:0:
153,333,166562,1,2,0:0:0:0:
153,333,166648,2,0,L|268:311,1,104.999996795654,10|0,0:1|0:0,0:0:0:0:
437,343,166993,6,0,B|383:389|383:389|434:203,1,240,2|8,3:1|0:0,0:0:0:0:
364,148,167510,1,0,3:0:0:0:
424,15,167682,5,2,0:1:0:0:
346,57,167855,1,2,3:1:0:0:
328,53,167941,1,2,0:0:0:0:
310,49,168027,1,10,0:2:0:0:
241,99,168200,1,2,3:2:0:0:
171,9,168372,5,2,0:2:0:0:
179,40,168544,1,2,3:2:0:0:
43,109,168717,5,10,0:2:0:0:
54,47,168889,1,2,3:2:0:0:
210,180,169062,5,2,0:2:0:0:
229,263,169234,1,2,3:2:0:0:
0,335,169407,5,10,0:2:0:0:
27,208,169579,1,2,3:2:0:0:
264,360,169751,6,0,L|137:326,1,104.999996795654,2|2,3:1|3:1,0:0:0:0:
108,181,170096,1,10,0:1:0:0:
327,81,170269,5,2,0:1:0:0:
376,101,170355,1,10,0:0:0:0:
406,145,170441,1,10,0:0:0:0:
340,292,170613,1,2,3:1:0:0:
305,178,170786,1,2,0:1:0:0:
118,1,170958,6,0,B|151:100|151:100|238:70|238:70|184:50,1,240,6|0,3:1|3:0,0:0:0:0:
80,165,171476,1,8,0:0:0:0:
219,327,171648,2,0,B|265:352|307:323|307:323|347:346|347:346|392:304|477:336,1,240,2|10,0:1|0:1,0:0:0:0:
504,222,172165,1,10,0:1:0:0:
495,193,172251,1,8,0:0:0:0:
486,163,172338,1,0,3:0:0:0:
393,3,172510,5,6,3:1:0:0:
299,73,172682,2,0,P|242:56|176:57,1,104.999996795654,2|8,3:1|0:0,0:0:0:0:
64,144,173027,5,2,3:1:0:0:
158,214,173199,2,0,P|215:197|281:198,1,104.999996795654,2|0,0:1|3:0,0:0:0:0:
422,278,173544,5,10,0:1:0:0:
340,384,173717,2,0,P|379:310|389:169,1,209.999993591309,2|0,3:1|3:0,0:0:0:0:
240,108,174234,5,8,0:0:0:0:
158,214,174407,2,0,P|197:140|207:-1,1,209.999993591309,0|0,3:0|3:0,0:0:0:0:
27,47,174924,2,0,P|62:104|67:182,1,104.999996795654,8|0,0:0|0:0,0:0:0:0:
143,314,175269,5,2,3:1:0:0:
259,249,175441,2,0,P|317:250|385:271,1,104.999996795654,2|8,3:1|0:0,0:0:0:0:
484,198,175786,5,8,0:1:0:0:
479,155,175872,1,10,0:0:0:0:
451,126,175958,2,0,P|393:127|325:148,1,104.999996795654,10|0,0:1|3:0,0:0:0:0:
181,100,176303,5,6,3:1:0:0:
20,233,176476,2,0,P|47:327|187:329,1,209.999993591309,10|2,3:1|3:1,0:0:0:0:
388,263,176993,5,10,0:1:0:0:
185,217,177165,1,2,0:1:0:0:
257,175,177338,5,2,3:1:0:0:
319,311,177510,1,2,3:1:0:0:
244,277,177682,5,10,0:1:0:0:
324,219,177855,1,2,0:1:0:0:
438,346,178027,5,2,3:2:0:0:
497,297,178199,1,2,3:2:0:0:
511,369,178372,1,10,0:2:0:0:
418,237,178544,6,0,B|449:142|449:142|409:35,1,209.999993591309,2|0,3:1|3:0,0:0:0:0:
220,67,179062,2,0,L|340:96,1,104.999996795654,10|0,0:1|3:0,0:0:0:0:
294,253,179407,5,2,0:1:0:0:
288,227,179493,1,2,0:0:0:0:
269,208,179579,1,2,3:2:0:0:
245,197,179665,1,2,0:0:0:0:
219,192,179751,6,0,L|160:206,3,52.4999983978272,10|2|2|2,0:0|0:0|3:2|0:0,0:0:0:0:
68,329,180096,5,2,0:1:0:0:
101,313,180182,1,2,0:0:0:0:
138,310,180269,1,2,3:2:0:0:
172,321,180355,1,2,0:0:0:0:
199,345,180441,6,0,L|267:364,3,52.4999983978272,10|2|2|2,0:0|0:0|0:2|0:0,0:0:0:0:
389,292,180786,5,2,3:1:0:0:
434,280,180872,1,2,0:0:0:0:
464,244,180958,2,0,L|482:183,1,52.4999983978272,2|2,3:2|0:0,0:0:0:0:
304,164,181131,2,0,L|323:233,1,52.4999983978272,10|2,0:1|0:0,0:0:0:0:
408,30,181303,5,10,0:0:0:0:
453,51,181389,1,10,0:0:0:0:
475,99,181476,5,10,0:1:0:0:
437,119,181562,1,2,0:0:0:0:
395,120,181648,1,2,3:1:0:0:
359,99,181734,1,2,0:0:0:0:
322,79,181820,1,2,0:1:0:0:
279,76,181907,1,2,0:0:0:0:
241,96,181993,6,0,B|147:117|147:117|115:142|115:142|6:165,1,240,6|0,3:1|3:0,0:0:0:0:
137,259,182510,2,0,L|162:129,1,104.999996795654,8|0,0:0|3:0,0:0:0:0:
76,65,182855,1,0,3:0:0:0:
58,248,183027,5,8,0:0:0:0:
60,284,183113,1,8,0:0:0:0:
75,317,183200,1,8,0:0:0:0:
104,338,183286,1,8,0:0:0:0:
140,343,183372,1,8,0:0:0:0:
176,336,183458,1,8,0:0:0:0:
201,310,183544,5,2,3:2:0:0:
344,72,188717,5,10,0:0:0:0:
262,144,189062,2,0,L|241:32,1,104.999996795654,6|0,3:2|3:0,0:0:0:0:
176,197,189924,2,0,L|163:254,1,52.4999983978272,0|2,3:2|3:2,0:0:0:0:
251,340,190441,6,0,P|286:298|398:283,1,157.499995193482,6|0,3:2|3:0,0:0:0:0:
476,167,191303,1,0,3:0:0:0:
412,114,191476,2,0,P|338:75|189:62,1,209.999993591309,6|10,3:2|0:0,0:0:0:0:
81,136,192682,5,2,3:2:0:0:
23,39,192855,2,0,L|87:304,1,262.499991989136,6|0,3:2|0:0,0:0:0:0:
33,375,193889,1,8,0:0:0:0:
33,375,194407,5,2,0:0:0:0:
115,313,194579,2,0,P|150:339|244:339,1,120,2|2,3:2|0:0,0:0:0:0:
284,270,195096,2,0,P|263:214|262:151,1,120,2|0,3:2|3:0,0:0:0:0:
350,58,195613,6,0,B|254:95|264:34|173:70,1,180,6|0,3:2|3:0,0:0:0:0:
65,138,196303,2,0,L|81:75,1,60,8|0,0:0|0:0,0:0:0:0:
24,17,196648,1,0,3:0:0:0:
148,166,196993,2,0,P|161:198|164:229,1,60,2|2,3:2|0:0,0:0:0:0:
115,352,197338,6,0,P|154:315|236:298,1,120,2|10,3:2|0:0,0:0:0:0:
294,346,197855,1,2,3:2:0:0:
390,215,198200,1,8,0:0:0:0:
455,288,198372,2,0,P|427:227|423:114,1,180,14|0,3:2|3:0,0:0:0:0:
350,21,199062,6,0,P|309:47|283:53,1,60,10|0,0:0|0:0,0:0:0:0:
194,91,199407,2,0,P|221:102|245:120,1,60,2|0,3:2|3:0,0:0:0:0:
301,220,199751,1,10,0:0:0:0:
306,199,199838,1,8,0:0:0:0:
311,178,199924,1,8,0:0:0:0:
206,242,200096,6,0,L|239:371,1,120,2|8,3:2|0:0,0:0:0:0:
402,255,200786,2,0,L|387:317,1,60,0|0,3:0|3:0,0:0:0:0:
466,375,201131,1,8,0:0:0:0:
510,264,201303,2,0,P|483:230|464:134,1,120,0|0,3:2|3:0,0:0:0:0:
496,78,201820,1,8,0:0:0:0:
356,2,202165,6,0,L|288:21,1,60,2|0,0:0|3:0,0:0:0:0:
230,70,202510,1,8,0:0:0:0:
312,133,202682,1,8,0:0:0:0:
325,151,202769,1,8,0:0:0:0:
334,168,202855,5,10,0:0:0:0:
251,271,203027,1,8,0:0:0:0:
389,277,203200,1,8,0:0:0:0:
238,184,203372,1,8,0:0:0:0:
76,276,203544,5,8,0:0:0:0:
158,128,203717,1,8,0:0:0:0:
166,296,203889,1,8,0:0:0:0:
228,355,204062,6,0,P|287:374|366:350,1,134.999995880127,8|0,3:2|3:0,0:0:0:0:
389,277,204579,1,0,3:0:0:0:
389,277,205269,1,2,0:0:0:0:
278,28,205613,6,0,B|220:38|221:81|216:91|219:100|214:154|146:152,1,179.999994506836,6|10,3:2|0:0,0:0:0:0:
142,305,206131,2,0,P|137:254|111:223,1,82.5000025177003,2|0,0:0|3:0,0:0:0:0:
291,315,206476,2,0,P|255:348|209:357,1,82.5000025177003,2|8,3:2|0:0,0:0:0:0:
323,135,206820,6,0,L|496:172,1,165.000005035401,2|0,3:2|3:0,0:0:0:0:
425,293,207338,1,8,0:0:0:0:
402,115,207510,2,0,P|395:64|366:30,1,82.5000025177003,0|0,3:0|0:0,0:0:0:0:
178,75,207855,5,2,3:2:0:0:
246,192,208027,1,10,0:0:0:0:
280,32,208200,1,2,0:0:0:0:
173,263,208372,6,0,P|248:223|353:228,1,165.000005035401,2|10,3:2|0:0,0:0:0:0:
452,368,208889,1,10,0:0:0:0:
449,326,208976,1,8,0:0:0:0:
427,291,209062,1,8,0:0:0:0:
482,171,209234,6,0,P|473:196|476:224,1,45,2|0,3:2|0:0,0:0:0:0:
489,238,209579,6,0,P|494:153|447:55,1,179.999994506836,6|0,3:2|3:0,0:0:0:0:
369,12,210096,2,0,L|270:39,1,82.5000025177003,8|0,0:2|3:0,0:0:0:0:
169,181,210441,6,0,P|186:128|183:85,1,82.5000025177003,2|0,3:2|3:0,0:0:0:0:
49,42,210786,2,0,P|32:95|35:138,1,82.5000025177003,10|0,0:0|0:0,0:0:0:0:
251,236,211131,6,0,P|189:213|97:272,1,165.000005035401,2|10,3:2|0:0,0:0:0:0:
230,370,211648,2,0,B|329:390|290:317|411:351,1,165.000005035401,2|2,3:2|3:2,0:0:0:0:
460,286,212165,1,8,0:0:0:0:
413,144,212338,6,0,P|415:82|312:64,1,165.000005035401,2|0,3:2|3:0,0:0:0:0:
229,0,212855,1,10,0:0:0:0:
76,86,213027,2,0,P|98:129|121:256,1,165.000005035401,2|2,3:2|3:2,0:0:0:0:
199,306,213544,1,8,0:0:0:0:
256,193,213717,5,2,0:0:0:0:
187,74,213889,1,0,3:0:0:0:
229,0,214062,6,0,L|215:67,1,41.2500012588501,2|0,3:1|0:0,0:0:0:0:
394,170,214407,6,0,L|380:103,1,41.2500012588501,2|0,3:1|0:0,0:0:0:0:
129,150,214751,6,0,L|196:164,1,41.2500012588501,2|0,3:1|0:0,0:0:0:0:
461,65,215096,6,0,B|381:84|381:84|371:96|371:96|283:116,1,179.999994506836,6|0,3:2|3:0,0:0:0:0:
256,207,215613,1,8,0:0:0:0:
256,207,215958,1,0,3:0:0:0:
307,320,216131,1,8,0:2:0:0:
216,381,216303,5,10,0:0:0:0:
220,358,216389,1,8,0:0:0:0:
106,248,216562,1,0,3:0:0:0:
118,285,216648,6,0,P|62:300|20:194,1,179.999994506836,6|10,3:2|0:0,0:0:0:0:
108,69,217165,2,0,P|96:120|98:164,1,82.5000025177003,2|0,3:2|0:0,0:0:0:0:
265,198,217510,2,0,P|263:156|253:117,1,82.5000025177003,2|8,3:2|0:0,0:0:0:0:
191,346,217855,6,0,P|247:318|370:303,1,165.000005035401,2|0,3:2|3:0,0:0:0:0:
428,361,218372,1,8,0:0:0:0:
498,249,218544,2,0,P|475:194|475:147,1,82.5000025177003,0|0,3:0|0:0,0:0:0:0:
284,54,218889,5,2,3:2:0:0:
354,189,219062,1,10,0:0:0:0:
414,84,219234,1,2,0:0:0:0:
236,181,219407,6,0,B|146:147|225:104|108:68,1,165.000005035401,2|10,3:2|0:0,0:0:0:0:
8,241,219924,1,10,0:0:0:0:
49,238,220010,1,8,0:0:0:0:
85,218,220096,1,8,0:0:0:0:
208,299,220269,6,0,P|184:286|157:283,1,45,2|0,3:2|0:0,0:0:0:0:
134,293,220613,6,0,B|211:343|211:343|335:303,1,179.999994506836,6|0,3:2|3:0,0:0:0:0:
388,261,221131,2,0,L|492:288,1,82.5000025177003,8|0,0:2|3:0,0:0:0:0:
503,87,221476,6,0,P|457:99|429:127,1,82.5000025177003,2|0,3:2|3:0,0:0:0:0:
338,0,221820,2,0,P|310:38|307:78,1,82.5000025177003,10|0,0:0|0:0,0:0:0:0:
132,164,222165,6,0,B|232:138|193:208|313:183,1,165.000005035401,2|10,3:2|0:0,0:0:0:0:
380,329,222682,2,0,P|324:311|206:327,1,165.000005035401,2|2,3:2|3:2,0:0:0:0:
121,376,223200,1,8,0:0:0:0:
0,247,223372,6,0,P|31:197|27:73,1,165.000005035401,2|0,3:2|3:0,0:0:0:0:
173,10,223889,2,0,P|135:30|85:25,1,82.5000025177003,10|0,0:0|3:0,0:0:0:0:
337,146,224234,2,0,P|357:108|352:58,1,82.5000025177003,2|0,0:0|3:0,0:0:0:0:
106,251,224579,2,0,P|110:294|136:333,1,82.5000025177003,10|0,0:0|0:0,0:0:0:0:
323,228,224924,5,2,3:2:0:0:
416,384,225096,2,0,L|290:357,1,123.75000377655,2|0,3:1|0:0,0:0:0:0:
257,334,225441,2,0,P|229:287|231:208,1,123.75000377655,2|0,3:1|0:0,0:0:0:0:
241,185,225786,2,0,P|241:123|211:70,1,123.75000377655,2|0,3:1|0:0,0:0:0:0:
293,13,226131,6,0,B|207:34|207:34|198:44|198:44|115:64,1,179.999994506836,6|0,3:2|3:0,0:0:0:0:
47,150,226648,1,8,0:2:0:0:
47,150,226993,1,0,3:0:0:0:
128,232,227165,1,8,0:0:0:0:
158,245,227251,1,8,0:0:0:0:
190,253,227338,1,10,0:0:0:0:
222,255,227424,1,8,0:0:0:0:
254,251,227510,1,8,0:0:0:0:
285,240,227596,1,8,0:0:0:0:
313,223,227682,6,0,B|365:166|353:62|277:18|277:18|237:105|143:130|66:56|66:56|108:-10|186:7,1,629.999980773926,6|8,3:2|0:0,0:0:0:0:
206,211,230441,6,0,L|63:178,1,134.999995880127,2|8,3:2|0:0,0:0:0:0:
0,259,230958,1,2,3:2:0:0:
138,382,231303,1,2,3:2:0:0:
338,320,231648,6,0,P|451:317|427:147,1,314.999990386963,4|8,3:2|0:0,0:0:0:0:
373,83,232855,2,0,L|306:98,1,52.4999983978272,8|8,0:0|0:0,0:0:0:0:
287,74,233113,1,8,0:0:0:0:
287,74,233200,5,4,3:2:0:0:
214,185,233372,1,0,0:1:0:0:
201,31,233544,2,0,L|271:48,1,67.4999979400635,10|0,0:1|0:0,0:0:0:0:
287,74,233802,1,8,0:0:0:0:
287,74,233889,1,2,3:1:0:0:
356,171,234062,2,0,L|339:248,1,67.4999979400635,0|8,3:1|0:0,0:0:0:0:
258,352,234407,5,2,3:1:0:0:
176,283,234579,2,0,L|98:301,1,67.4999979400635,0|2,0:1|3:1,0:0:0:0:
58,383,234924,1,8,0:1:0:0:
14,130,235269,5,2,3:1:0:0:
82,204,235441,1,0,3:1:0:0:
3,214,235613,1,8,0:0:0:0:
101,116,235786,2,0,L|173:133,1,67.4999979400635,2|0,0:1|3:0,0:0:0:0:
274,23,236131,5,0,0:1:0:0:
401,72,236303,2,0,L|326:91,1,67.4999979400635,10|0,0:1|3:0,0:0:0:0:
307,122,236562,1,8,0:0:0:0:
307,122,236648,1,2,3:1:0:0:
397,191,236820,2,0,L|378:264,1,67.4999979400635,0|8,3:1|0:0,0:0:0:0:
280,359,237165,5,0,3:1:0:0:
189,314,237338,2,0,L|271:332,1,67.4999979400635,2|0,0:1|3:0,0:0:0:0:
110,229,237682,2,0,L|44:243,1,67.4999979400635,10|0,0:1|3:0,0:0:0:0:
226,74,238027,6,0,B|209:142|209:142|251:209,1,134.999995880127,2|10,0:1|0:1,0:0:0:0:
261,206,238458,1,8,0:0:0:0:
280,211,238544,1,8,0:0:0:0:
300,213,238631,1,8,0:0:0:0:
320,212,238717,5,4,3:2:0:0:
429,284,238889,1,0,0:1:0:0:
274,308,239062,2,0,L|292:226,1,67.4999979400635,10|0,0:1|3:0,0:0:0:0:
320,212,239320,1,8,0:0:0:0:
320,212,239407,1,2,3:1:0:0:
245,113,239579,2,0,L|163:95,1,67.4999979400635,0|8,3:1|0:0,0:0:0:0:
109,273,239924,5,2,3:1:0:0:
183,257,240096,1,0,0:1:0:0:
166,181,240269,1,2,3:1:0:0:
69,185,240441,2,0,L|-13:203,1,67.4999979400635,8|0,0:1|0:0,0:0:0:0:
80,369,240786,5,2,3:1:0:0:
182,345,240958,2,0,L|272:367,1,67.4999979400635,0|8,3:1|0:0,0:0:0:0:
336,307,241303,1,2,0:1:0:0:
479,143,241648,5,0,0:1:0:0:
437,279,241820,2,0,L|417:203,1,67.4999979400635,10|0,0:1|3:0,0:0:0:0:
386,186,242079,1,8,0:0:0:0:
386,186,242165,1,2,3:1:0:0:
428,71,242338,2,0,L|353:96,1,67.4999979400635,0|8,3:1|0:0,0:0:0:0:
276,226,242682,5,0,3:1:0:0:
231,132,242855,2,0,L|250:217,1,67.4999979400635,2|0,0:1|3:0,0:0:0:0:
148,67,243200,2,0,L|167:-18,1,67.4999979400635,10|0,0:1|3:0,0:0:0:0:
49,146,243544,6,0,P|17:209|28:297,1,134.999995880127,2|10,0:1|0:1,0:0:0:0:
69,356,244062,1,0,0:0:0:0:
246,215,244234,5,2,3:1:0:0:
136,247,244406,1,8,0:1:0:0:
170,357,244579,1,10,0:1:0:0:
279,324,244751,1,8,0:1:0:0:
108,235,244924,5,10,0:1:0:0:
307,337,245096,1,2,3:1:0:0:
492,205,245441,5,0,3:0:0:0:
474,195,245527,1,8,3:2:0:0:
454,191,245613,5,10,3:1:0:0:
340,212,245786,1,10,0:1:0:0:
227,232,245958,1,10,0:1:0:0:
267,67,246131,6,0,B|251:132|285:192|304:167|336:231|305:323|305:323|221:351|124:328|105:256|105:256|105:124|-68:182|21:308|103:256|103:256|147:198|213:208|213:208|156:142|185:38|185:38|165:-2|121:-3|85:-5|42:24|7:72|90:106|97:42,1,1304.99996017456,6|0,3:1|0:0,0:0:0:0:
