osu file format v14

[General]
AudioFilename: audio.mp3
AudioLeadIn: 0
PreviewTime: 49407
Countdown: 0
SampleSet: Soft
StackLeniency: 0.7
Mode: 0
LetterboxInBreaks: 0
WidescreenStoryboard: 1

[Editor]
Bookmarks: 246081,251081
DistanceSpacing: 1.3
BeatDivisor: 4
GridSize: 32
TimelineZoom: 1

[Metadata]
Title:Sorairo Days
TitleUnicode:空色デイズ
Artist:Natsuiro Matsuri & Gawr Gura
ArtistUnicode:夏色まつり&Gawr Gura
Creator:PotatoDew
Version:Hard
Source:天元突破グレンラガン
Tags:japanese pop j-pop jpop rock j-rock jrock tengen toppa gurren lagann opening op cover anime nakagawa shoko 中川翔子 hololive ホロライブ vtuber virtual youtuber
BeatmapID:3030078
BeatmapSetID:1462382

[Difficulty]
HPDrainRate:4
CircleSize:3.7
OverallDifficulty:7
ApproachRate:7.6
SliderMultiplier:1.3
SliderTickRate:1

[Events]
//Background and Video events
0,0,"SorairoDays.jpg",0,0
Video,46,"sorairodays.mp4"
//Break Periods
2,16848,21010
2,22365,23941
2,77538,81700
2,89951,91700
2,150641,159286
2,183744,187907
//Storyboard Layer 0 (Background)
//Storyboard Layer 1 (Fail)
//Storyboard Layer 2 (Pass)
//Storyboard Layer 3 (Foreground)
//Storyboard Layer 4 (Overlay)
//Storyboard Sound Samples

[TimingPoints]
1476,344.827586206897,4,2,1,50,1,0
6993,-99.9999999999999,4,2,1,70,0,0
16648,-125,4,2,1,60,0,0
24751,-111.111111111111,4,2,1,60,0,0
25958,-125,4,2,1,60,0,0
27165,-111.111111111111,4,2,1,60,0,0
27682,-111.111111111111,4,2,1,70,0,0
38717,-111.111111111111,4,2,1,65,0,0
46993,-111.111111111111,4,2,1,70,0,0
48372,-111.111111111111,4,2,1,75,0,0
49751,-90.9090909090908,4,2,1,85,0,1
50010,-90.9090909090908,4,2,1,30,0,1
50096,-90.9090909090908,4,2,1,85,0,1
51217,-90.9090909090908,4,2,1,30,0,1
51303,-90.9090909090908,4,2,1,85,0,1
52769,-90.9090909090908,4,2,1,30,0,1
52855,-90.9090909090908,4,2,1,85,0,1
53631,-90.9090909090908,4,2,1,30,0,1
53717,-90.9090909090908,4,2,1,85,0,1
55527,-90.9090909090908,4,2,1,30,0,1
55613,-90.9090909090908,4,2,1,85,0,1
56734,-90.9090909090908,4,2,1,30,0,1
56820,-90.9090909090908,4,2,1,85,0,1
58286,-90.9090909090908,4,2,1,30,0,1
58544,-90.9090909090908,4,2,1,85,0,1
58631,-90.9090909090908,4,2,1,30,0,1
58889,-90.9090909090908,4,2,1,85,0,1
58976,-90.9090909090908,4,2,1,30,0,1
59234,-90.9090909090908,4,2,1,85,0,1
60441,-90.9090909090908,4,2,1,85,0,0
60786,-90.9090909090908,4,2,1,85,0,1
61044,-90.9090909090908,4,2,1,30,0,1
61131,-90.9090909090908,4,2,1,85,0,1
62251,-90.9090909090908,4,2,1,30,0,1
62338,-90.9090909090908,4,2,1,85,0,1
63803,-90.9090909090908,4,2,1,30,0,1
63889,-90.9090909090908,4,2,1,85,0,1
64665,-90.9090909090908,4,2,1,30,0,1
64751,-90.9090909090908,4,2,1,85,0,1
66562,-90.9090909090908,4,2,1,30,0,1
66648,-90.9090909090908,4,2,1,85,0,1
67769,-90.9090909090908,4,2,1,30,0,1
67855,-90.9090909090908,4,2,1,85,0,1
69493,-90.9090909090908,4,2,1,30,0,1
69579,-90.9090909090908,4,2,1,85,0,1
69838,-90.9090909090908,4,2,1,30,0,1
69924,-90.9090909090908,4,2,1,85,0,1
70182,-90.9090909090908,4,2,1,30,0,1
70269,-90.9090909090908,4,2,1,85,0,1
71820,-142.857142857143,4,2,1,70,0,0
74579,-111.111111111111,4,2,1,65,0,0
75786,-125,4,2,1,65,0,0
77338,-125,4,2,1,55,0,0
82165,-111.111111111111,4,2,1,70,0,0
82510,-100,4,2,1,70,0,0
89751,-100,4,2,1,60,0,0
92510,-111.111111111111,4,2,1,60,0,0
95269,-111.111111111111,4,2,1,65,0,0
100786,-111.111111111111,4,2,1,70,0,0
111820,-111.111111111111,4,2,1,65,0,0
120096,-111.111111111111,4,2,1,70,0,0
121476,-111.111111111111,4,2,1,75,0,0
122855,-90.9090909090908,4,2,1,85,0,1
123113,-90.9090909090908,4,2,1,30,0,1
123200,-90.9090909090908,4,2,1,85,0,1
124320,-90.9090909090908,4,2,1,30,0,1
124407,-90.9090909090908,4,2,1,85,0,1
125872,-90.9090909090908,4,2,1,30,0,1
125958,-90.9090909090908,4,2,1,85,0,1
126734,-90.9090909090908,4,2,1,30,0,1
126820,-90.9090909090908,4,2,1,85,0,1
128631,-90.9090909090908,4,2,1,30,0,1
128717,-90.9090909090908,4,2,1,85,0,1
129838,-90.9090909090908,4,2,1,30,0,1
129924,-90.9090909090908,4,2,1,85,0,1
131389,-90.9090909090908,4,2,1,30,0,1
131648,-90.9090909090908,4,2,1,85,0,1
131734,-90.9090909090908,4,2,1,30,0,1
131993,-90.9090909090908,4,2,1,85,0,1
132079,-90.9090909090908,4,2,1,30,0,1
132338,-90.9090909090908,4,2,1,85,0,1
133544,-90.9090909090908,4,2,1,85,0,0
133889,-90.9090909090908,4,2,1,85,0,1
134148,-90.9090909090908,4,2,1,30,0,1
134234,-90.9090909090908,4,2,1,85,0,1
135355,-90.9090909090908,4,2,1,30,0,1
135441,-90.9090909090908,4,2,1,85,0,1
136907,-90.9090909090908,4,2,1,30,0,1
136993,-90.9090909090908,4,2,1,85,0,1
137769,-90.9090909090908,4,2,1,30,0,1
137855,-90.9090909090908,4,2,1,85,0,1
139665,-90.9090909090908,4,2,1,30,0,1
139751,-90.9090909090908,4,2,1,85,0,1
140872,-90.9090909090908,4,2,1,30,0,1
140958,-90.9090909090908,4,2,1,85,0,1
142596,-90.9090909090908,4,2,1,30,0,1
142682,-90.9090909090908,4,2,1,85,0,1
142941,-90.9090909090908,4,2,1,30,0,1
143027,-90.9090909090908,4,2,1,85,0,1
143286,-90.9090909090908,4,2,1,30,0,1
143372,-90.9090909090908,4,2,1,85,0,1
144924,-142.857142857143,4,2,1,70,0,0
147682,-111.111111111111,4,2,1,65,0,0
148889,-125,4,2,1,65,0,0
150441,-111.111111111111,4,2,1,60,0,0
160096,-111.111111111111,4,2,1,60,0,0
160958,-111.111111111111,4,2,1,75,0,0
161476,-90.9090909090908,4,2,1,85,0,1
161734,-90.9090909090908,4,2,1,30,0,1
161820,-90.9090909090908,4,2,1,85,0,1
161907,-90.9090909090908,4,2,1,30,0,1
161993,-90.9090909090908,4,2,1,85,0,1
162079,-90.9090909090908,4,2,1,30,0,1
162165,-90.9090909090908,4,2,1,85,0,1
162251,-90.9090909090908,4,2,1,30,0,1
162338,-90.9090909090908,4,2,1,85,0,1
162424,-90.9090909090908,4,2,1,30,0,1
162510,-90.9090909090908,4,2,1,85,0,1
162941,-90.9090909090908,4,2,1,30,0,1
163027,-90.9090909090908,4,2,1,85,0,1
163113,-90.9090909090908,4,2,1,30,0,1
163200,-90.9090909090908,4,2,1,85,0,1
163631,-90.9090909090908,4,2,1,30,0,1
163717,-90.9090909090908,4,2,1,85,0,1
163803,-90.9090909090908,4,2,1,30,0,1
163889,-90.9090909090908,4,2,1,85,0,1
164320,-90.9090909090908,4,2,1,30,0,1
164407,-90.9090909090908,4,2,1,85,0,1
164493,-90.9090909090908,4,2,1,30,0,1
164579,-90.9090909090908,4,2,1,85,0,1
164665,-90.9090909090908,4,2,1,30,0,1
164751,-90.9090909090908,4,2,1,85,0,1
167769,-90.9090909090908,4,2,1,30,0,1
167855,-90.9090909090908,4,2,1,85,0,1
168113,-90.9090909090908,4,2,1,30,0,1
168200,-90.9090909090908,4,2,1,85,0,1
168286,-90.9090909090908,4,2,1,30,0,1
168372,-90.9090909090908,4,2,1,85,0,1
168458,-90.9090909090908,4,2,1,30,0,1
168544,-90.9090909090908,4,2,1,85,0,1
168631,-90.9090909090908,4,2,1,30,0,1
168717,-90.9090909090908,4,2,1,85,0,1
168803,-90.9090909090908,4,2,1,30,0,1
168889,-90.9090909090908,4,2,1,85,0,1
168976,-90.9090909090908,4,2,1,30,0,1
169062,-90.9090909090908,4,2,1,85,0,1
169148,-90.9090909090908,4,2,1,30,0,1
169234,-90.9090909090908,4,2,1,85,0,1
169320,-90.9090909090908,4,2,1,30,0,1
169407,-90.9090909090908,4,2,1,85,0,1
169493,-90.9090909090908,4,2,1,30,0,1
169579,-90.9090909090908,4,2,1,85,0,1
169665,-90.9090909090908,4,2,1,30,0,1
169751,-90.9090909090908,4,2,1,85,0,1
169838,-90.9090909090908,4,2,1,30,0,1
169924,-90.9090909090908,4,2,1,85,0,1
170010,-90.9090909090908,4,2,1,30,0,1
170096,-90.9090909090908,4,2,1,85,0,1
170182,-90.9090909090908,4,2,1,30,0,1
170269,-90.9090909090908,4,2,1,85,0,1
170700,-90.9090909090908,4,2,1,30,0,1
170786,-90.9090909090908,4,2,1,85,0,1
170872,-90.9090909090908,4,2,1,30,0,1
170958,-90.9090909090908,4,2,1,85,0,1
177079,-90.9090909090908,4,2,1,30,0,1
177165,-90.9090909090908,4,2,1,85,0,1
177251,-90.9090909090908,4,2,1,30,0,1
177338,-90.9090909090908,4,2,1,85,0,1
177424,-90.9090909090908,4,2,1,30,0,1
177510,-90.9090909090908,4,2,1,85,0,1
177596,-90.9090909090908,4,2,1,30,0,1
177682,-90.9090909090908,4,2,1,85,0,1
177769,-90.9090909090908,4,2,1,30,0,1
177855,-90.9090909090908,4,2,1,85,0,1
177941,-90.9090909090908,4,2,1,30,0,1
178027,-90.9090909090908,4,2,1,85,0,1
178113,-90.9090909090908,4,2,1,30,0,1
178200,-90.9090909090908,4,2,1,85,0,1
178286,-90.9090909090908,4,2,1,30,0,1
178372,-90.9090909090908,4,2,1,85,0,1
178458,-90.9090909090908,4,2,1,30,0,1
178544,-90.9090909090908,4,2,1,85,0,1
183544,-90.9090909090908,4,2,1,65,0,0
188717,-125,4,2,1,65,0,0
194579,-111.111111111111,4,2,1,70,0,0
205269,-111.111111111111,4,2,1,75,0,0
205613,-90.9090909090908,4,2,1,85,0,1
205872,-90.9090909090908,4,2,1,30,0,1
205958,-90.9090909090908,4,2,1,85,0,1
207079,-90.9090909090908,4,2,1,30,0,1
207165,-90.9090909090908,4,2,1,85,0,1
208631,-90.9090909090908,4,2,1,30,0,1
208717,-90.9090909090908,4,2,1,85,0,1
209493,-90.9090909090908,4,2,1,30,0,1
209579,-90.9090909090908,4,2,1,85,0,1
211389,-90.9090909090908,4,2,1,30,0,1
211476,-90.9090909090908,4,2,1,85,0,1
212596,-90.9090909090908,4,2,1,30,0,1
212682,-90.9090909090908,4,2,1,85,0,1
214148,-90.9090909090908,4,2,1,30,0,1
214407,-90.9090909090908,4,2,1,85,0,1
214493,-90.9090909090908,4,2,1,30,0,1
214751,-90.9090909090908,4,2,1,85,0,1
214838,-90.9090909090908,4,2,1,30,0,1
215096,-90.9090909090908,4,2,1,85,0,1
216303,-90.9090909090908,4,2,1,85,0,0
216648,-90.9090909090908,4,2,1,85,0,1
216907,-90.9090909090908,4,2,1,30,0,1
216993,-90.9090909090908,4,2,1,85,0,1
218113,-90.9090909090908,4,2,1,30,0,1
218200,-90.9090909090908,4,2,1,85,0,1
219665,-90.9090909090908,4,2,1,30,0,1
219751,-90.9090909090908,4,2,1,85,0,1
220527,-90.9090909090908,4,2,1,30,0,1
220613,-90.9090909090908,4,2,1,85,0,1
222424,-90.9090909090908,4,2,1,30,0,1
222510,-90.9090909090908,4,2,1,85,0,1
223631,-90.9090909090908,4,2,1,30,0,1
223717,-90.9090909090908,4,2,1,85,0,1
225355,-90.9090909090908,4,2,1,30,0,1
225441,-90.9090909090908,4,2,1,85,0,1
225700,-90.9090909090908,4,2,1,30,0,1
225786,-90.9090909090908,4,2,1,85,0,1
226044,-90.9090909090908,4,2,1,30,0,1
226131,-90.9090909090908,4,2,1,85,0,1
227682,-142.857142857143,4,2,1,70,0,0
230441,-111.111111111111,4,2,1,65,0,0
231648,-125,4,2,1,65,0,0
233200,-100,4,2,1,70,0,0
246131,-142.857142857143,4,2,1,75,0,0
246648,-142.857142857143,4,2,1,70,0,0
246993,-142.857142857143,4,2,1,65,0,0
247338,-142.857142857143,4,2,1,60,0,0
247682,-142.857142857143,4,2,1,55,0,0
248027,-142.857142857143,4,2,1,50,0,0
248372,-142.857142857143,4,2,1,45,0,0
248717,-142.857142857143,4,2,1,50,0,0
249062,-142.857142857143,4,2,1,55,0,0
249407,-142.857142857143,4,2,1,60,0,0
249751,-142.857142857143,4,2,1,65,0,0
250096,-142.857142857143,4,2,1,70,0,0
250441,-142.857142857143,4,2,1,75,0,0
250786,-142.857142857143,4,2,1,80,0,0
251131,-142.857142857143,4,2,1,40,0,0

[Colours]
Combo1 : 160,230,150
Combo2 : 103,192,226
Combo3 : 255,230,130
Combo4 : 170,255,255

[HitObjects]
37,329,6993,6,0,L|108:307,1,65,4|0,3:2|0:0,0:0:0:0:
140,235,7338,2,0,L|120:167,1,65,10|0,0:1|0:0,0:0:0:0:
143,138,7596,1,8,0:0:0:0:
143,138,7682,2,0,L|123:69,1,65,2|0,3:1|0:0,0:0:0:0:
277,2,8200,5,2,3:1:0:0:
341,56,8372,2,0,L|409:37,2,65,0|2|8,0:1|3:1|0:1,0:0:0:0:
268,209,9062,5,2,3:1:0:0:
211,272,9234,2,0,P|174:280|136:276,1,65,0|8,3:1|0:0,0:0:0:0:
90,341,9579,1,2,0:1:0:0:
15,191,9924,5,0,0:1:0:0:
77,134,10096,2,0,L|153:155,1,65,10|0,0:1|3:0,0:0:0:0:
170,120,10355,1,8,0:0:0:0:
170,120,10441,2,0,L|246:99,1,65,2|0,3:1|3:1,0:0:0:0:
353,220,10958,5,0,3:1:0:0:
391,295,11131,2,0,P|426:305|474:293,1,65,2|0,0:1|3:0,0:0:0:0:
505,234,11476,2,0,P|515:199|503:151,1,65,10|0,0:1|3:0,0:0:0:0:
453,102,11820,2,0,P|401:130|325:128,1,130,2|10,0:1|0:1,0:0:0:0:
190,38,12510,5,2,3:1:0:0:
208,120,12682,1,8,0:1:0:0:
126,138,12855,1,10,0:1:0:0:
108,56,13027,1,8,0:1:0:0:
203,20,13200,2,0,L|270:36,1,65,10|2,0:1|3:1,0:0:0:0:
386,168,13717,5,0,3:0:0:0:
386,168,13803,1,8,3:2:0:0:
386,168,13889,2,0,L|406:254,1,65,10|10,3:1|0:1,0:0:0:0:
350,299,14234,1,10,0:1:0:0:
265,263,14407,1,6,3:1:0:0:
256,192,14493,12,8,16303,3:1:0:0:
256,192,16648,5,6,3:2:0:0:
113,182,21820,5,8,0:0:0:0:
167,311,22165,1,6,3:2:0:0:
512,126,24751,5,10,0:0:0:0:
451,79,24924,2,0,P|403:75|337:123,1,116.999996429443,6|10,3:2|0:0,0:0:0:0:
285,155,25441,2,0,L|167:129,1,116.999996429443,2|10,3:2|0:0,0:0:0:0:
103,179,25958,6,0,B|31:214|43:304|43:304|146:342|186:246,1,312,6|0,3:2|3:0,0:0:0:0:
240,210,27165,1,8,3:2:0:0:
240,210,27251,1,8,3:2:0:0:
240,210,27338,2,0,L|288:222,3,29.2499991073609,8|8|8|8,3:2|3:2|3:2|3:2,0:0:0:0:
298,193,27682,6,0,P|329:130|321:64,1,116.999996429443,6|8,3:2|0:0,0:0:0:0:
273,30,28200,1,2,0:0:0:0:
203,61,28372,2,0,L|85:40,1,116.999996429443,2|8,3:2|0:0,0:0:0:0:
31,92,28889,1,2,3:2:0:0:
136,201,29234,1,2,3:2:0:0:
60,332,29579,1,2,3:2:0:0:
128,364,29751,2,0,L|194:346,1,58.4999982147217,2|8,0:0|0:0,0:0:0:0:
233,290,30096,2,0,L|276:278,1,29.2499991073609,8|8,0:2|0:0,0:0:0:0:
367,353,30441,6,0,P|394:296|461:288,1,116.999996429443,6|8,3:2|0:0,0:0:0:0:
482,217,30958,1,2,0:0:0:0:
437,154,31131,2,0,P|447:97|440:35,1,116.999996429443,2|10,3:2|0:0,0:0:0:0:
371,7,31648,2,0,L|252:33,1,116.999996429443,6|2,3:2|3:2,0:0:0:0:
216,96,32165,1,10,0:0:0:0:
323,203,32510,2,0,L|336:269,1,58.4999982147217,2|8,0:0|0:0,0:0:0:0:
312,333,32855,1,8,3:2:0:0:
237,293,33027,1,8,3:2:0:0:
237,293,33113,1,8,3:2:0:0:
237,293,33200,6,0,P|177:307|118:299,1,116.999996429443,6|8,3:2|0:0,0:0:0:0:
71,244,33717,1,2,0:0:0:0:
99,173,33889,2,0,L|69:50,1,116.999996429443,2|8,3:2|0:0,0:0:0:0:
128,8,34407,1,2,3:2:0:0:
265,72,34751,1,2,3:2:0:0:
404,10,35096,1,2,3:2:0:0:
462,59,35269,2,0,L|474:125,1,58.4999982147217,2|8,0:0|0:0,0:0:0:0:
425,176,35613,1,8,0:0:0:0:
425,176,35700,1,8,0:0:0:0:
425,176,35786,1,2,3:2:0:0:
484,234,35958,6,0,P|425:221|343:231,1,116.999996429443,6|8,3:2|0:0,0:0:0:0:
297,251,36476,1,6,3:2:0:0:
179,173,36820,1,10,0:0:0:0:
179,173,36907,1,8,0:0:0:0:
179,173,36993,1,10,0:0:0:0:
127,228,37165,2,0,P|112:275|38:292,1,116.999996429443,6|0,3:2|3:0,0:0:0:0:
3,237,37682,1,8,0:0:0:0:
71,100,38027,2,0,L|110:88,3,29.2499991073609,10|8|8|8,0:0|0:0|0:0|0:0,0:0:0:0:
122,60,38372,2,0,L|149:51,3,29.2499991073609,10|8|8|8,0:0|0:0|0:0|0:0,0:0:0:0:
184,67,38717,6,0,P|214:101|220:177,1,116.999996429443,6|10,3:2|0:0,0:0:0:0:
172,227,39234,1,2,3:2:0:0:
217,288,39407,1,2,0:0:0:0:
358,342,39751,1,10,0:0:0:0:
396,276,39924,2,0,P|387:231|397:161,1,116.999996429443,2|2,3:2|3:2,0:0:0:0:
451,107,40441,2,0,L|509:118,2,58.4999982147217,10|2|2,0:0|3:2|3:2,0:0:0:0:
247,4,41303,1,2,3:2:0:0:
191,55,41476,6,0,P|130:110|80:107,1,116.999996429443,2|10,3:2|0:0,0:0:0:0:
47,168,41993,2,0,L|75:291,1,116.999996429443,2|10,3:2|0:0,0:0:0:0:
191,376,42682,2,0,P|241:334|306:325,1,116.999996429443,6|2,3:2|3:2,0:0:0:0:
347,272,43200,1,8,0:0:0:0:
482,340,43544,2,0,L|504:238,1,87.7499973220826,8|8,0:0|0:0,0:0:0:0:
477,223,43889,2,0,L|465:155,1,58.4999982147217,0|10,3:0|0:0,0:0:0:0:
497,80,44234,6,0,P|442:62|377:82,1,116.999996429443,6|10,3:2|0:0,0:0:0:0:
326,123,44751,1,2,0:0:0:0:
359,191,44924,1,2,3:2:0:0:
235,280,45269,1,10,0:0:0:0:
171,238,45441,2,0,P|135:230|48:233,1,116.999996429443,2|2,3:2|3:2,0:0:0:0:
10,169,45958,2,0,L|22:108,1,58.4999982147217,10|10,0:0|0:0,0:0:0:0:
49,86,46217,1,8,0:0:0:0:
49,86,46303,1,10,0:0:0:0:
181,11,46648,2,0,L|248:26,1,58.4999982147217,2|10,3:2|0:0,0:0:0:0:
264,51,46907,1,8,0:0:0:0:
264,51,46993,6,0,L|340:34,2,58.4999982147217,14|8|8,3:2|0:0|0:0,0:0:0:0:
210,113,47510,1,10,0:0:0:0:
265,173,47682,2,0,L|281:244,1,58.4999982147217,10|8,0:0|0:0,0:0:0:0:
191,269,48027,2,0,L|175:340,1,58.4999982147217,8|8,0:0|0:0,0:0:0:0:
253,382,48372,5,10,3:2:0:0:
326,321,48544,1,8,3:2:0:0:
414,375,48717,2,0,L|485:387,1,58.4999982147217,8|8,3:2|3:2,0:0:0:0:
512,283,49062,2,0,L|441:295,1,58.4999982147217,2|0,3:2|3:0,0:0:0:0:
395,243,49407,1,2,0:0:0:0:
485,49,49751,6,0,P|430:17|348:25,1,143.000004364014,6|10,3:2|0:0,0:0:0:0:
274,74,50269,2,0,L|191:59,1,71.5000021820069,2|0,0:0|3:0,0:0:0:0:
123,15,50613,2,0,L|40:30,1,71.5000021820069,2|8,3:2|0:0,0:0:0:0:
0,123,50958,6,0,B|-18:199|35:177|14:274,1,143.000004364014,2|0,3:2|3:0,0:0:0:0:
87,322,51476,1,8,0:0:0:0:
155,259,51648,2,0,P|192:277|239:279,1,71.5000021820069,0|0,3:0|0:0,0:0:0:0:
309,333,51993,1,2,3:2:0:0:
375,268,52165,1,10,0:0:0:0:
423,347,52338,1,2,0:0:0:0:
488,261,52510,6,0,P|467:221|464:111,1,143.000004364014,2|10,3:2|0:0,0:0:0:0:
384,51,53027,1,10,0:0:0:0:
353,59,53113,1,8,0:0:0:0:
321,67,53200,1,8,0:0:0:0:
270,144,53372,1,2,3:2:0:0:
358,330,53717,6,0,L|199:295,1,143.000004364014,6|0,3:2|3:0,0:0:0:0:
135,342,54234,1,8,0:2:0:0:
14,200,54579,2,0,L|27:125,1,71.5000021820069,2|0,3:2|3:0,0:0:0:0:
104,78,54924,2,0,L|179:91,1,71.5000021820069,10|0,0:0|0:0,0:0:0:0:
250,18,55269,6,0,P|300:69|380:70,1,143.000004364014,2|10,3:2|0:0,0:0:0:0:
447,25,55786,2,0,P|460:88|446:188,1,143.000004364014,2|2,3:2|3:2,0:0:0:0:
395,239,56303,1,8,0:0:0:0:
451,324,56476,6,0,P|409:354|302:360,1,143.000004364014,2|0,3:2|3:0,0:0:0:0:
249,304,56993,1,10,0:0:0:0:
296,224,57165,2,0,B|319:153|271:158|296:73,1,143.000004364014,2|2,3:2|3:2,0:0:0:0:
219,25,57682,1,8,0:0:0:0:
143,79,57855,2,0,L|60:97,1,71.5000021820069,2|0,0:0|3:0,0:0:0:0:
21,171,58200,5,2,3:1:0:0:
203,202,58544,1,2,3:1:0:0:
386,234,58889,1,2,3:1:0:0:
228,366,59234,6,0,P|169:322|83:308,1,143.000004364014,6|0,3:2|3:0,0:0:0:0:
15,341,59751,1,8,0:0:0:0:
1,155,60096,2,0,L|89:127,1,71.5000021820069,0|8,3:0|0:2,0:0:0:0:
146,81,60441,1,10,0:0:0:0:
175,94,60527,2,0,P|221:100|255:91,1,71.5000021820069,8|0,0:0|3:0,0:0:0:0:
280,74,60786,6,0,L|256:227,1,143.000004364014,6|10,3:2|0:0,0:0:0:0:
320,284,61303,2,0,P|358:276|406:279,1,71.5000021820069,2|0,3:2|0:0,0:0:0:0:
453,207,61648,2,0,P|445:169|448:121,1,71.5000021820069,2|8,3:2|0:0,0:0:0:0:
489,42,61993,6,0,P|410:14|343:18,1,143.000004364014,2|0,3:2|3:0,0:0:0:0:
276,71,62510,1,8,0:0:0:0:
191,31,62682,2,0,L|116:47,1,71.5000021820069,0|0,3:0|0:0,0:0:0:0:
70,131,63027,1,2,3:2:0:0:
138,194,63200,1,10,0:0:0:0:
83,269,63372,1,2,0:0:0:0:
169,328,63544,6,0,P|208:299|306:279,1,143.000004364014,2|10,3:2|0:0,0:0:0:0:
352,201,64062,1,10,0:0:0:0:
340,171,64148,1,8,0:0:0:0:
328,140,64234,1,8,0:0:0:0:
364,54,64407,1,2,3:2:0:0:
504,206,64751,6,0,L|470:353,1,143.000004364014,6|0,3:2|3:0,0:0:0:0:
385,381,65269,1,8,0:2:0:0:
238,266,65613,2,0,P|207:282|160:280,1,71.5000021820069,2|0,3:2|3:0,0:0:0:0:
86,323,65958,2,0,P|51:315|17:283,1,71.5000021820069,10|0,0:0|0:0,0:0:0:0:
55,201,66303,6,0,P|62:163|15:58,1,143.000004364014,2|10,3:2|0:0,0:0:0:0:
99,9,66820,2,0,P|181:36|238:38,1,143.000004364014,2|2,3:2|3:2,0:0:0:0:
300,106,67338,1,8,0:0:0:0:
240,192,67510,2,0,P|286:242|372:231,1,143.000004364014,2|0,3:2|3:0,0:0:0:0:
422,174,68027,6,0,L|440:89,1,71.5000021820069,10|0,0:0|3:0,0:0:0:0:
372,24,68372,2,0,L|287:6,1,71.5000021820069,2|0,0:0|3:0,0:0:0:0:
205,75,68717,2,0,L|120:93,1,71.5000021820069,10|0,0:0|0:0,0:0:0:0:
64,181,69062,5,2,3:2:0:0:
123,253,69234,1,2,3:1:0:0:
287,166,69579,1,2,3:1:0:0:
280,351,69924,1,2,3:1:0:0:
60,322,70269,6,0,P|100:338|199:306,1,143.000004364014,6|0,3:2|3:0,0:0:0:0:
211,220,70786,1,8,0:2:0:0:
359,107,71131,2,0,L|434:91,1,71.5000021820069,0|8,3:0|0:0,0:0:0:0:
508,141,71476,1,10,0:0:0:0:
503,161,71562,1,8,0:0:0:0:
498,181,71648,1,8,0:0:0:0:
493,201,71734,1,8,0:0:0:0:
487,219,71820,6,0,B|477:301|417:353|339:345|339:345|266:305|278:226|293:243|330:157|219:124|219:124|234:214|157:257,1,636.999980560303,6|8,3:2|0:0,0:0:0:0:
47,151,74579,6,0,L|77:15,1,116.999996429443,2|8,3:2|0:0,0:0:0:0:
145,4,75096,2,0,P|195:22|266:19,1,116.999996429443,2|2,3:2|3:2,0:0:0:0:
366,103,75786,6,0,P|442:182|306:192,1,312,4|8,3:2|0:0,0:0:0:0:
246,146,76993,1,8,0:0:0:0:
149,240,77338,5,4,3:2:0:0:
325,91,82510,5,10,0:1:0:0:
448,206,82855,2,0,L|467:288,1,65,4|0,3:2|0:1,0:0:0:0:
404,332,83200,2,0,L|322:351,1,65,10|0,0:1|3:0,0:0:0:0:
308,321,83458,1,8,0:0:0:0:
308,321,83544,2,0,L|226:340,1,65,2|0,3:1|3:1,0:0:0:0:
109,233,84062,5,2,3:1:0:0:
49,292,84234,2,0,L|73:370,2,65,0|2|8,0:1|3:1|0:1,0:0:0:0:
3,128,84924,5,2,3:1:0:0:
60,66,85096,2,0,P|96:75|138:66,1,65,0|8,3:1|0:0,0:0:0:0:
194,25,85441,1,2,0:1:0:0:
341,108,85786,5,0,0:1:0:0:
395,172,85958,2,0,L|413:248,1,65,10|0,0:1|3:0,0:0:0:0:
382,267,86217,1,8,0:0:0:0:
382,267,86303,2,0,L|400:343,1,65,2|0,3:1|3:1,0:0:0:0:
234,377,86820,5,0,3:1:0:0:
184,307,86993,2,0,P|177:270|183:233,1,65,2|0,0:1|3:0,0:0:0:0:
241,184,87338,2,0,P|248:147|242:110,1,65,10|0,0:1|3:0,0:0:0:0:
312,58,87682,2,0,P|352:78|442:76,1,130,2|10,0:1|0:1,0:0:0:0:
505,233,88372,5,2,3:1:0:0:
429,270,88544,1,8,0:1:0:0:
365,213,88717,1,10,0:1:0:0:
291,255,88889,1,8,0:1:0:0:
246,173,89062,2,0,L|267:95,1,65,10|2,0:1|3:1,0:0:0:0:
499,19,89751,5,6,3:2:0:0:
408,245,92510,6,0,L|485:262,2,58.4999982147217,6|0|0,3:2|3:0|3:0,0:0:0:0:
345,289,93027,1,2,3:2:0:0:
295,230,93200,2,0,P|284:190|287:156,1,58.4999982147217,2|0,3:2|3:0,0:0:0:0:
320,106,93544,1,10,0:2:0:0:
255,49,93717,6,0,L|178:69,1,58.4999982147217,10|8,0:2|0:0,0:0:0:0:
122,32,94062,1,8,0:0:0:0:
69,106,94234,2,0,L|58:167,1,58.4999982147217,10|8,0:0|0:0,0:0:0:0:
104,238,94579,2,0,L|113:273,3,29.2499991073609,10|2|10|10,0:0|0:0|0:0|0:0,0:0:0:0:
95,301,94924,2,0,L|104:336,3,29.2499991073609,10|2|10|10,0:0|0:0|0:0|0:0,0:0:0:0:
131,354,95269,6,0,P|178:368|248:354,1,116.999996429443,6|8,3:2|0:0,0:0:0:0:
315,381,95786,1,2,0:0:0:0:
363,322,95958,2,0,L|332:198,1,116.999996429443,2|8,3:2|0:0,0:0:0:0:
372,141,96476,1,2,3:2:0:0:
280,19,96820,1,2,3:2:0:0:
157,108,97165,1,2,3:2:0:0:
108,49,97338,2,0,L|31:64,1,58.4999982147217,2|8,0:0|0:0,0:0:0:0:
10,124,97682,2,0,L|2:169,3,29.2499991073609,8|8|10|8,0:0|0:0|0:0|0:0,0:0:0:0:
30,181,98027,6,0,P|52:227|54:314,1,116.999996429443,6|10,3:2|0:0,0:0:0:0:
121,333,98544,1,6,3:2:0:0:
199,203,98889,1,10,0:0:0:0:
258,250,99062,2,0,L|435:204,1,175.499994644165,6|0,3:2|3:0,0:0:0:0:
463,139,99751,2,0,P|471:107|466:76,1,58.4999982147217,8|0,0:0|3:0,0:0:0:0:
412,29,100096,2,0,P|380:21|349:26,1,58.4999982147217,0|0,3:0|3:0,0:0:0:0:
288,67,100441,1,8,0:0:0:0:
288,67,100527,1,8,0:0:0:0:
288,67,100613,1,8,0:0:0:0:
207,12,100786,6,0,P|160:41|94:40,1,116.999996429443,6|8,3:2|0:0,0:0:0:0:
52,101,101303,1,2,0:0:0:0:
103,157,101476,2,0,L|140:285,1,116.999996429443,2|8,3:2|0:0,0:0:0:0:
88,329,101993,1,2,3:2:0:0:
230,381,102338,2,0,P|262:364|307:366,1,58.4999982147217,2|8,3:2|0:0,0:0:0:0:
334,305,102682,1,2,3:2:0:0:
280,251,102855,2,0,L|257:170,1,58.4999982147217,2|8,0:0|0:0,0:0:0:0:
206,144,103200,2,0,L|193:107,1,29.2499991073609,8|8,0:2|0:0,0:0:0:0:
277,14,103544,6,0,P|317:58|377:53,1,116.999996429443,6|8,3:2|0:0,0:0:0:0:
420,114,104062,1,2,0:0:0:0:
377,177,104234,2,0,P|395:250|393:310,1,116.999996429443,2|10,3:2|0:0,0:0:0:0:
335,339,104751,2,0,L|218:313,1,116.999996429443,6|2,3:2|3:2,0:0:0:0:
170,255,105269,1,10,0:0:0:0:
266,137,105613,2,0,L|284:63,1,58.4999982147217,2|8,0:0|0:0,0:0:0:0:
219,32,105958,1,8,3:2:0:0:
144,85,106131,1,8,3:2:0:0:
144,85,106217,1,8,3:2:0:0:
144,85,106303,6,0,P|95:82|21:129,1,116.999996429443,6|8,3:2|0:0,0:0:0:0:
1,179,106820,1,2,0:0:0:0:
39,244,106993,2,0,L|170:266,1,116.999996429443,2|8,3:2|0:0,0:0:0:0:
216,308,107510,1,2,3:2:0:0:
320,197,107855,2,0,P|353:188|383:184,1,58.4999982147217,2|8,3:2|0:0,0:0:0:0:
444,219,108200,1,2,3:2:0:0:
489,158,108372,2,0,L|470:82,1,58.4999982147217,2|8,0:0|0:0,0:0:0:0:
512,34,108717,1,8,0:0:0:0:
512,34,108803,1,8,0:0:0:0:
512,34,108889,1,2,3:2:0:0:
421,8,109062,6,0,P|396:55|330:52,1,116.999996429443,6|8,3:2|0:0,0:0:0:0:
273,15,109579,1,6,3:2:0:0:
193,144,109924,1,10,0:0:0:0:
193,144,110010,1,8,0:0:0:0:
193,144,110096,1,10,0:0:0:0:
239,204,110269,2,0,P|254:249|252:344,1,116.999996429443,6|0,3:2|3:0,0:0:0:0:
317,364,110786,1,8,0:0:0:0:
428,260,111131,2,0,L|436:227,3,29.2499991073609,10|8|8|8,0:0|0:0|0:0|0:0,0:0:0:0:
412,200,111476,2,0,L|404:167,3,29.2499991073609,10|8|8|8,0:0|0:0|0:0|0:0,0:0:0:0:
423,138,111820,6,0,P|360:120|301:117,1,116.999996429443,6|10,3:2|0:0,0:0:0:0:
245,73,112338,1,2,3:2:0:0:
180,112,112510,1,2,0:0:0:0:
246,248,112855,1,10,0:0:0:0:
173,271,113027,2,0,P|120:250|54:257,1,116.999996429443,2|2,3:2|3:2,0:0:0:0:
11,312,113544,2,0,L|31:389,2,58.4999982147217,10|2|2,0:0|3:2|3:2,0:0:0:0:
86,95,114407,1,2,3:2:0:0:
136,151,114579,6,0,P|201:165|249:145,1,116.999996429443,2|10,3:2|0:0,0:0:0:0:
297,90,115096,2,0,L|426:119,1,116.999996429443,2|10,3:2|0:0,0:0:0:0:
503,237,115786,2,0,P|469:289|474:351,1,116.999996429443,6|2,3:2|3:2,0:0:0:0:
405,381,116303,1,8,0:0:0:0:
303,267,116648,2,0,P|242:258|200:265,1,87.7499973220826,8|8,0:0|0:0,0:0:0:0:
186,284,116993,2,0,L|118:298,1,58.4999982147217,0|10,3:0|0:0,0:0:0:0:
69,247,117338,6,0,P|47:205|69:127,1,116.999996429443,6|10,3:2|0:0,0:0:0:0:
109,81,117855,1,2,0:0:0:0:
179,107,118027,1,2,3:2:0:0:
305,21,118372,1,10,0:0:0:0:
347,83,118544,2,0,P|375:106|461:119,1,116.999996429443,2|2,3:2|3:2,0:0:0:0:
501,179,119062,2,0,L|483:241,1,58.4999982147217,10|10,0:0|0:0,0:0:0:0:
499,270,119320,1,8,0:0:0:0:
499,270,119407,1,8,0:0:0:0:
373,355,119751,2,0,L|298:338,1,58.4999982147217,2|10,3:2|0:0,0:0:0:0:
289,313,120010,1,8,0:0:0:0:
289,313,120096,6,0,L|214:330,2,58.4999982147217,14|8|8,3:2|0:0|0:0,0:0:0:0:
334,251,120613,1,10,0:0:0:0:
274,187,120786,2,0,L|261:116,1,58.4999982147217,10|8,0:0|0:0,0:0:0:0:
325,72,121131,2,0,L|399:86,1,58.4999982147217,8|8,0:0|0:0,0:0:0:0:
467,40,121476,5,10,3:2:0:0:
512,129,121648,1,8,3:2:0:0:
485,229,121820,2,0,L|420:241,1,58.4999982147217,8|8,3:2|3:2,0:0:0:0:
354,296,122165,2,0,L|289:284,1,58.4999982147217,2|0,3:2|3:0,0:0:0:0:
235,331,122510,1,2,0:0:0:0:
75,183,122855,6,0,B|165:181|126:141|208:140,1,143.000004364014,6|10,3:2|0:0,0:0:0:0:
272,72,123372,2,0,P|325:50|372:56,1,71.5000021820069,2|0,0:0|3:0,0:0:0:0:
416,100,123717,2,0,P|438:153|432:200,1,71.5000021820069,2|8,3:2|0:0,0:0:0:0:
388,261,124062,6,0,P|339:238|234:253,1,143.000004364014,2|0,3:2|3:0,0:0:0:0:
192,315,124579,1,8,0:0:0:0:
112,267,124751,2,0,L|15:245,1,71.5000021820069,0|0,3:0|0:0,0:0:0:0:
3,155,125096,1,2,3:2:0:0:
84,109,125269,1,10,0:0:0:0:
3,63,125441,1,2,0:0:0:0:
92,11,125613,6,0,P|142:35|247:34,1,143.000004364014,2|10,3:2|0:0,0:0:0:0:
294,105,126131,1,10,0:0:0:0:
286,136,126217,1,8,0:0:0:0:
278,167,126303,1,8,0:0:0:0:
207,227,126476,1,2,3:2:0:0:
355,370,126820,6,0,P|368:303|458:301,1,143.000004364014,6|0,3:2|3:0,0:0:0:0:
495,216,127338,1,8,0:2:0:0:
398,57,127682,2,0,P|352:54|311:72,1,71.5000021820069,2|0,3:2|3:0,0:0:0:0:
246,105,128027,2,0,P|200:108|159:90,1,71.5000021820069,10|0,0:0|0:0,0:0:0:0:
90,42,128372,6,0,L|61:213,1,143.000004364014,2|10,3:2|0:0,0:0:0:0:
8,256,128889,2,0,P|22:311|105:327,1,143.000004364014,2|2,3:2|3:2,0:0:0:0:
171,271,129407,1,8,0:0:0:0:
266,319,129579,6,0,B|346:290|303:248|392:225,1,143.000004364014,2|0,3:2|3:0,0:0:0:0:
457,272,130096,1,10,0:0:0:0:
499,188,130269,2,0,P|502:143|461:37,1,143.000004364014,2|2,3:2|3:2,0:0:0:0:
388,9,130786,1,8,0:0:0:0:
312,62,130958,2,0,L|232:46,1,71.5000021820069,2|0,0:0|3:0,0:0:0:0:
157,8,131303,5,2,3:1:0:0:
181,192,131648,1,2,3:1:0:0:
206,376,131993,1,2,3:1:0:0:
357,230,132338,6,0,P|413:230|428:142,1,143.000004364014,6|0,3:2|3:0,0:0:0:0:
479,73,132855,1,8,0:0:0:0:
302,13,133200,2,0,L|226:29,1,71.5000021820069,0|8,3:0|0:2,0:0:0:0:
167,94,133544,1,10,0:0:0:0:
138,78,133631,2,0,P|94:67|53:74,1,71.5000021820069,8|0,0:0|3:0,0:0:0:0:
30,48,133889,6,0,L|65:213,1,143.000004364014,6|10,3:2|0:0,0:0:0:0:
126,254,134407,2,0,L|228:230,1,71.5000021820069,2|0,3:2|0:0,0:0:0:0:
271,291,134751,2,0,L|373:315,1,71.5000021820069,2|8,3:2|0:0,0:0:0:0:
394,220,135096,6,0,P|411:172|375:76,1,143.000004364014,2|0,3:2|3:0,0:0:0:0:
313,26,135613,1,8,0:0:0:0:
232,73,135786,2,0,P|188:77|144:61,1,71.5000021820069,0|0,3:0|0:0,0:0:0:0:
89,152,136131,1,2,3:2:0:0:
157,214,136303,1,10,0:0:0:0:
91,279,136476,1,2,0:0:0:0:
5,215,136648,6,0,L|-18:55,1,143.000004364014,2|10,3:2|0:0,0:0:0:0:
58,15,137165,1,10,0:0:0:0:
89,23,137251,1,8,0:0:0:0:
120,31,137338,1,8,0:0:0:0:
176,104,137510,1,2,3:2:0:0:
174,307,137855,6,0,L|319:267,1,143.000004364014,6|0,3:2|3:0,0:0:0:0:
391,317,138372,1,8,0:2:0:0:
488,158,138717,2,0,P|496:123|480:78,1,71.5000021820069,2|0,3:2|3:0,0:0:0:0:
405,44,139062,2,0,P|378:19|331:10,1,71.5000021820069,10|0,0:0|0:0,0:0:0:0:
295,98,139407,6,0,B|219:121|249:60|129:98,1,143.000004364014,2|10,3:2|0:0,0:0:0:0:
88,25,139924,2,0,P|26:46|19:128,1,143.000004364014,2|2,3:2|3:2,0:0:0:0:
71,188,140441,1,8,0:0:0:0:
13,280,140613,6,0,P|104:317|168:319,1,143.000004364014,2|0,3:2|3:0,0:0:0:0:
230,364,141131,2,0,L|318:344,1,71.5000021820069,10|0,0:0|3:0,0:0:0:0:
356,259,141476,2,0,L|333:182,1,71.5000021820069,2|0,0:0|3:0,0:0:0:0:
262,101,141820,2,0,L|285:24,1,71.5000021820069,10|0,0:0|0:0,0:0:0:0:
395,6,142165,5,2,3:2:0:0:
469,62,142338,1,2,3:1:0:0:
335,190,142682,1,2,3:1:0:0:
473,313,143027,1,2,3:1:0:0:
260,375,143372,6,0,B|282:294|231:319|261:218,1,143.000004364014,6|0,3:2|3:0,0:0:0:0:
199,161,143889,1,8,0:2:0:0:
372,94,144234,2,0,L|299:72,1,71.5000021820069,0|8,3:0|0:0,0:0:0:0:
237,8,144579,1,10,0:0:0:0:
216,14,144665,1,8,0:0:0:0:
195,20,144751,1,8,0:0:0:0:
174,26,144838,1,8,0:0:0:0:
153,31,144924,6,0,B|110:78|39:75|-4:21|-4:21|38:76|38:171|-10:151|-18:230|72:291|72:291|144:201|95:150,1,636.999980560303,6|8,3:2|0:0,0:0:0:0:
262,117,147682,6,0,L|379:145,1,116.999996429443,2|8,3:2|0:0,0:0:0:0:
413,211,148200,2,0,P|381:271|389:330,1,116.999996429443,2|2,3:2|3:2,0:0:0:0:
264,380,148889,6,0,B|206:336|136:362|136:362|71:274|126:190,1,312,4|8,3:2|0:0,0:0:0:0:
180,142,150096,1,8,0:0:0:0:
73,33,150441,5,4,3:2:0:0:
265,89,160096,6,0,L|382:114,2,116.999996429443,2|2|0,3:2|3:2|3:0,0:0:0:0:
192,48,160958,1,10,0:1:0:0:
192,48,161044,1,8,0:0:0:0:
192,48,161131,2,0,L|139:63,3,29.2499991073609,10|8|8|8,0:1|0:0|0:0|0:0,0:0:0:0:
139,81,161476,6,0,B|161:153|161:153|131:233,1,143.000004364014,6|10,3:1|0:1,0:0:0:0:
198,286,161993,1,2,3:1:0:0:
273,232,162165,2,0,B|310:222|310:222|365:244,2,71.5000021820069,2|2|10,0:1|3:1|0:1,0:0:0:0:
123,343,162855,5,2,0:1:0:0:
43,294,163027,1,2,3:1:0:0:
53,201,163200,1,10,0:1:0:0:
193,80,163544,2,0,B|205:44|205:44|200:4,2,71.5000021820069,2|2|10,0:1|3:1|0:1,0:0:0:0:
370,136,164234,5,2,3:1:0:0:
440,197,164407,1,2,3:1:0:0:
397,279,164579,1,10,0:1:0:0:
310,214,164751,1,8,0:0:0:0:
310,214,164838,1,8,0:0:0:0:
310,214,164924,2,0,B|293:251|293:251|298:302,2,71.5000021820069,10|0|2,0:1|3:0|0:1,0:0:0:0:
269,113,165441,6,0,B|198:131|198:131|193:137|193:137|118:157,1,143.000004364014,6|0,3:1|3:0,0:0:0:0:
71,223,165958,1,8,0:0:0:0:
193,363,166303,2,0,B|226:349|226:349|276:358,1,71.5000021820069,2|0,0:1|3:0,0:0:0:0:
305,336,166562,1,2,0:0:0:0:
305,336,166648,2,0,B|340:334|340:334|384:359,1,71.5000021820069,10|0,0:1|0:0,0:0:0:0:
471,336,166993,6,0,B|493:247|432:272|458:175,1,143.000004364014,2|8,3:1|0:0,0:0:0:0:
482,14,167682,2,0,B|445:30|445:30|401:26,1,71.5000021820069,2|2,0:1|3:1,0:0:0:0:
378,56,167941,1,2,0:0:0:0:
378,56,168027,2,0,B|341:40|341:40|297:44,1,71.5000021820069,10|2,0:2|3:2,0:0:0:0:
252,116,168372,6,0,L|272:193,1,71.5000021820069,2|2,0:2|3:2,0:0:0:0:
202,249,168717,2,0,L|182:326,1,71.5000021820069,10|2,0:2|3:2,0:0:0:0:
100,359,169062,2,0,P|58:368|19:350,1,71.5000021820069,2|2,0:2|3:2,0:0:0:0:
7,269,169407,2,0,P|49:260|88:278,1,71.5000021820069,10|2,0:2|3:2,0:0:0:0:
121,175,169751,6,0,B|104:141|104:141|113:92,1,71.5000021820069,2|2,3:1|3:1,0:0:0:0:
165,24,170096,1,10,0:1:0:0:
235,95,170269,1,2,0:1:0:0:
270,101,170355,1,10,0:0:0:0:
304,108,170441,1,10,0:0:0:0:
396,54,170613,1,2,3:1:0:0:
461,148,170786,1,2,0:1:0:0:
356,204,170958,6,0,B|389:269|389:269|356:350,1,143.000004364014,6|0,3:1|3:0,0:0:0:0:
278,376,171476,1,8,0:0:0:0:
212,282,171648,2,0,B|131:251|200:213|88:177,1,143.000004364014,2|10,0:1|0:1,0:0:0:0:
51,117,172165,1,10,0:1:0:0:
57,89,172251,1,8,0:0:0:0:
64,61,172338,1,0,3:0:0:0:
152,8,172510,5,6,3:1:0:0:
218,73,172682,2,0,P|271:63|310:45,1,71.5000021820069,2|8,3:1|0:0,0:0:0:0:
369,13,173027,1,2,3:1:0:0:
442,70,173200,1,2,0:1:0:0:
328,216,173544,1,10,0:1:0:0:
252,160,173717,6,0,P|172:164|110:211,1,143.000004364014,2|0,3:1|3:0,0:0:0:0:
62,270,174234,1,8,0:0:0:0:
122,340,174407,2,0,P|191:346|266:369,1,143.000004364014,0|0,3:0|3:0,0:0:0:0:
340,317,174924,1,8,0:0:0:0:
474,189,175269,5,2,3:1:0:0:
415,117,175441,2,0,P|388:99|336:93,1,71.5000021820069,2|8,3:1|0:0,0:0:0:0:
279,48,175786,1,8,0:1:0:0:
279,48,175872,1,10,0:0:0:0:
279,48,175958,1,10,0:1:0:0:
99,98,176303,1,6,3:1:0:0:
158,169,176476,6,0,B|204:187|257:166|257:166|280:189|272:228,1,143.000004364014,10|2,3:1|3:1,0:0:0:0:
205,285,176993,2,0,P|166:313|130:315,1,71.5000021820069,10|2,0:1|0:1,0:0:0:0:
67,263,177338,2,0,P|23:243|3:213,1,71.5000021820069,2|2,3:1|3:1,0:0:0:0:
17,131,177682,2,0,P|12:83|28:51,1,71.5000021820069,10|2,0:1|0:1,0:0:0:0:
96,8,178027,5,2,3:2:0:0:
176,55,178200,1,2,3:2:0:0:
251,0,178372,1,10,0:2:0:0:
314,83,178544,2,0,B|299:148|299:148|293:155|293:155|275:229,1,143.000004364014,2|0,3:1|3:0,0:0:0:0:
330,297,179062,2,0,P|359:313|406:310,1,71.5000021820069,10|0,0:1|3:0,0:0:0:0:
464,248,179407,6,0,L|452:207,3,35.7500010910034,2|2|2|2,0:1|0:0|3:2|0:0,0:0:0:0:
478,174,179751,2,0,L|490:133,3,35.7500010910034,10|2|2|2,0:0|0:0|3:2|0:0,0:0:0:0:
463,99,180096,2,0,L|422:87,3,35.7500010910034,2|2|2|2,0:1|0:0|3:2|0:0,0:0:0:0:
390,61,180441,2,0,L|349:73,3,35.7500010910034,10|2|2|2,0:0|0:0|0:2|0:0,0:0:0:0:
312,50,180786,6,0,P|258:32|217:36,1,71.5000021820069,2|2,3:1|3:2,0:0:0:0:
156,90,181131,1,10,0:1:0:0:
227,167,181303,1,10,0:0:0:0:
224,191,181389,1,10,0:0:0:0:
221,216,181476,1,10,0:1:0:0:
218,240,181562,1,2,0:0:0:0:
215,266,181648,2,0,L|223:305,2,35.7500010910034,2|2|2,3:1|0:0|0:1,0:0:0:0:
135,226,181993,6,0,P|80:229|32:144,1,143.000004364014,6|0,3:1|3:0,0:0:0:0:
71,80,182510,2,0,L|46:3,2,71.5000021820069,8|0|0,0:0|3:0|3:0,0:0:0:0:
165,137,183027,1,8,0:0:0:0:
165,137,183113,1,8,0:0:0:0:
165,137,183200,2,0,L|215:122,3,35.7500010910034,8|8|8|8,0:0|0:0|0:0|0:0,0:0:0:0:
229,92,183544,5,2,3:2:0:0:
165,95,188717,5,10,0:0:0:0:
270,179,189062,6,0,P|255:210|237:292,1,104,6|0,3:2|3:0,0:0:0:0:
54,364,189924,2,0,L|39:305,1,52,0|2,3:2|3:2,0:0:0:0:
101,192,190441,6,0,P|84:144|180:125,1,156,6|0,3:2|3:0,0:0:0:0:
268,24,191303,1,0,3:0:0:0:
329,67,191476,6,0,P|337:124|372:285,1,208,6|10,3:2|0:0,0:0:0:0:
486,83,192682,1,2,3:2:0:0:
451,150,192855,6,0,P|391:143|240:263,1,260,6|0,3:2|0:0,0:0:0:0:
271,330,193889,1,8,0:0:0:0:
81,226,194407,5,2,0:0:0:0:
113,157,194579,2,0,P|150:155|228:116,1,116.999996429443,2|2,3:2|0:0,0:0:0:0:
295,160,195096,1,2,3:2:0:0:
389,40,195441,1,0,3:0:0:0:
437,98,195613,2,0,P|406:179|400:274,1,175.499994644165,6|0,3:2|3:0,0:0:0:0:
437,332,196303,2,0,L|503:351,2,58.4999982147217,8|0|0,0:0|0:0|3:0,0:0:0:0:
301,262,196993,2,0,P|260:274|230:278,1,58.4999982147217,2|2,3:2|0:0,0:0:0:0:
188,224,197338,6,0,P|212:172|196:103,1,116.999996429443,2|10,3:2|0:0,0:0:0:0:
248,53,197855,1,2,3:2:0:0:
102,9,198200,1,8,0:0:0:0:
53,67,198372,2,0,P|27:126|42:251,1,175.499994644165,14|0,3:2|3:0,0:0:0:0:
4,304,199062,1,10,0:0:0:0:
147,353,199407,2,0,L|223:333,1,58.4999982147217,2|0,3:2|3:0,0:0:0:0:
270,373,199751,1,10,0:0:0:0:
376,263,200096,6,0,P|391:208|370:132,1,116.999996429443,2|8,3:2|0:0,0:0:0:0:
487,41,200786,2,0,L|503:117,2,58.4999982147217,0|0|8,3:0|3:0|0:0,0:0:0:0:
417,8,201303,1,0,3:2:0:0:
277,69,201648,2,0,L|196:48,1,58.4999982147217,0|8,3:0|0:0,0:0:0:0:
104,159,202165,2,0,L|28:175,2,58.4999982147217,2|0|8,0:0|3:0|0:0,0:0:0:0:
171,212,202682,1,8,0:0:0:0:
171,212,202769,1,8,0:0:0:0:
171,212,202855,6,0,L|158:283,1,58.4999982147217,10|8,0:0|0:0,0:0:0:0:
219,335,203200,2,0,L|290:348,1,58.4999982147217,8|8,0:0|0:0,0:0:0:0:
353,282,203544,1,8,0:0:0:0:
291,202,203717,1,8,0:0:0:0:
361,123,203889,1,8,0:0:0:0:
297,65,204062,6,0,P|252:83|164:89,1,116.999996429443,8|0,3:2|3:0,0:0:0:0:
118,51,204579,1,0,3:0:0:0:
118,51,205269,1,2,0:0:0:0:
9,237,205613,6,0,B|95:265|67:199|173:232,1,143.000004364014,6|10,3:2|0:0,0:0:0:0:
218,285,206131,2,0,P|274:303|311:295,1,71.5000021820069,2|0,0:0|3:0,0:0:0:0:
366,349,206476,2,0,P|422:331|459:339,1,71.5000021820069,2|8,3:2|0:0,0:0:0:0:
510,253,206820,6,0,P|485:216|492:116,1,143.000004364014,2|0,3:2|3:0,0:0:0:0:
428,50,207338,1,8,0:0:0:0:
347,95,207510,2,0,L|256:74,1,71.5000021820069,0|0,3:0|0:0,0:0:0:0:
189,138,207855,1,2,3:2:0:0:
212,227,208027,1,10,0:0:0:0:
141,287,208200,1,2,0:0:0:0:
193,376,208372,6,0,P|253:373|334:305,1,143.000004364014,2|10,3:2|0:0,0:0:0:0:
387,262,208889,1,10,0:0:0:0:
377,230,208976,1,8,0:0:0:0:
368,199,209062,1,8,0:0:0:0:
418,121,209234,1,2,3:2:0:0:
252,0,209579,6,0,L|93:29,1,143.000004364014,6|0,3:2|3:0,0:0:0:0:
56,100,210096,1,8,0:2:0:0:
197,221,210441,2,0,P|209:258|204:295,1,71.5000021820069,2|0,3:2|3:0,0:0:0:0:
147,363,210786,2,0,P|110:375|73:370,1,71.5000021820069,10|0,0:0|0:0,0:0:0:0:
23,283,211131,6,0,P|25:236|121:201,1,143.000004364014,2|10,3:2|0:0,0:0:0:0:
159,120,211648,2,0,P|227:125|321:96,1,143.000004364014,2|2,3:2|3:2,0:0:0:0:
363,40,212165,1,8,0:0:0:0:
430,117,212338,6,0,P|381:136|403:232,1,143.000004364014,2|0,3:2|3:0,0:0:0:0:
321,288,212855,1,10,0:0:0:0:
255,222,213027,2,0,B|173:203|199:256|92:222,1,143.000004364014,2|2,3:2|3:2,0:0:0:0:
43,168,213544,1,8,0:0:0:0:
7,254,213717,2,0,L|22:336,1,71.5000021820069,2|0,0:0|3:0,0:0:0:0:
93,381,214062,5,2,3:1:0:0:
274,341,214407,1,2,3:1:0:0:
455,301,214751,1,2,3:1:0:0:
344,128,215096,6,0,P|291:81|209:71,1,143.000004364014,6|0,3:2|3:0,0:0:0:0:
153,5,215613,1,8,0:0:0:0:
10,124,215958,2,0,L|26:199,1,71.5000021820069,0|8,3:0|0:2,0:0:0:0:
99,250,216303,1,10,0:0:0:0:
125,268,216389,2,0,P|169:293|211:294,1,71.5000021820069,8|0,0:0|3:0,0:0:0:0:
225,319,216648,6,0,L|199:166,1,143.000004364014,6|10,3:2|0:0,0:0:0:0:
260,105,217165,2,0,P|296:86|346:84,1,71.5000021820069,2|0,3:2|0:0,0:0:0:0:
400,139,217510,2,0,P|419:175|421:225,1,71.5000021820069,2|8,3:2|0:0,0:0:0:0:
476,303,217855,6,0,P|405:318|323:287,1,143.000004364014,2|0,3:2|3:0,0:0:0:0:
256,341,218372,1,8,0:0:0:0:
191,274,218544,2,0,L|175:186,1,71.5000021820069,0|0,3:0|0:0,0:0:0:0:
226,117,218889,1,2,3:2:0:0:
316,138,219062,1,10,0:0:0:0:
373,65,219234,1,2,0:0:0:0:
273,30,219407,6,0,P|188:18|108:29,1,143.000004364014,2|10,3:2|0:0,0:0:0:0:
71,95,219924,1,10,0:0:0:0:
79,126,220010,1,8,0:0:0:0:
87,157,220096,1,8,0:0:0:0:
45,240,220269,1,2,3:2:0:0:
222,344,220613,6,0,P|231:288|327:262,1,143.000004364014,6|0,3:2|3:0,0:0:0:0:
354,175,221131,1,8,0:2:0:0:
250,20,221476,2,0,P|299:3|337:4,1,71.5000021820069,2|0,3:2|3:0,0:0:0:0:
408,23,221820,2,0,P|447:56|465:90,1,71.5000021820069,10|0,0:0|0:0,0:0:0:0:
445,177,222165,6,0,B|460:268|500:215|515:328,1,143.000004364014,2|10,3:2|0:0,0:0:0:0:
438,360,222682,2,0,P|371:319|288:318,1,143.000004364014,2|2,3:2|3:2,0:0:0:0:
230,366,223200,1,8,0:0:0:0:
189,266,223372,6,0,P|217:214|226:100,1,143.000004364014,2|0,3:2|3:0,0:0:0:0:
170,60,223889,2,0,L|85:44,1,71.5000021820069,10|0,0:0|3:0,0:0:0:0:
21,110,224234,2,0,L|5:195,1,71.5000021820069,2|0,0:0|3:0,0:0:0:0:
92,261,224579,2,0,L|108:346,1,71.5000021820069,10|0,0:0|0:0,0:0:0:0:
205,378,224924,5,2,3:2:0:0:
270,312,225096,1,2,3:1:0:0:
449,360,225441,1,2,3:1:0:0:
402,181,225786,1,2,3:1:0:0:
188,116,226131,6,0,P|155:56|77:46,1,143.000004364014,6|0,3:2|3:0,0:0:0:0:
20,109,226648,1,8,0:2:0:0:
64,289,226993,2,0,L|138:306,1,71.5000021820069,0|8,3:0|0:0,3:0:0:0:
206,247,227338,1,10,0:0:0:0:
226,241,227424,1,8,0:0:0:0:
246,235,227510,1,8,0:0:0:0:
266,229,227596,1,8,0:0:0:0:
285,222,227682,6,0,B|339:276|407:243|407:243|471:212|534:212|561:304|482:348|427:310|407:243|407:243|400:191|425:156|445:179|478:94|425:29,1,636.999980560303,6|8,3:2|0:0,0:0:0:0:
275,11,230441,6,0,L|139:42,1,116.999996429443,2|8,3:2|0:0,0:0:0:0:
114,97,230958,2,0,P|143:167|132:229,1,116.999996429443,2|2,3:2|3:2,0:0:0:0:
199,328,231648,6,0,B|284:303|331:379|331:379|308:288|384:238,1,312,4|8,3:2|0:0,0:0:0:0:
336,168,232855,2,0,L|262:181,1,52,8|8,0:0|0:0,0:0:0:0:
256,192,233113,1,8,0:0:0:0:
256,192,233200,6,0,L|179:175,1,65,4|0,3:2|0:1,0:0:0:0:
144,108,233544,2,0,L|158:41,1,65,10|0,0:1|3:0,0:0:0:0:
190,18,233803,1,8,0:0:0:0:
190,18,233889,2,0,L|253:32,1,65,2|0,3:1|3:1,0:0:0:0:
397,121,234407,5,2,3:1:0:0:
469,78,234579,2,0,L|486:0,2,65,0|2|8,0:1|3:1|0:1,0:0:0:0:
447,246,235269,5,2,3:1:0:0:
381,298,235441,2,0,P|336:298|303:305,1,65,0|8,3:1|0:0,0:0:0:0:
244,346,235786,1,2,0:1:0:0:
284,181,236131,5,0,0:1:0:0:
222,123,236303,2,0,L|157:109,1,65,10|0,0:1|3:0,0:0:0:0:
132,75,236562,1,8,0:0:0:0:
132,75,236648,2,0,L|67:61,1,65,2|0,3:1|3:1,0:0:0:0:
1,216,237165,5,0,3:1:0:0:
60,276,237338,2,0,P|100:287|139:283,1,65,2|0,0:1|3:0,0:0:0:0:
192,333,237682,2,0,P|232:322|271:326,1,65,10|0,0:1|3:0,0:0:0:0:
336,365,238027,2,0,P|342:292|341:221,1,130,2|10,0:1|0:1,0:0:0:0:
317,207,238458,1,8,0:0:0:0:
317,207,238544,1,8,0:0:0:0:
386,149,238717,6,0,L|475:159,1,65,4|0,3:2|0:1,0:0:0:0:
503,224,239062,2,0,L|492:296,1,65,10|0,0:1|3:0,0:0:0:0:
460,314,239320,1,8,0:0:0:0:
460,314,239407,2,0,L|449:386,1,65,2|0,3:1|3:1,0:0:0:0:
293,314,239924,5,2,3:1:0:0:
224,363,240096,2,0,L|137:380,2,65,0|2|8,0:1|3:1|0:1,0:0:0:0:
237,193,240786,5,2,3:1:0:0:
288,126,240958,2,0,P|293:83|288:54,1,65,0|8,3:1|0:0,0:0:0:0:
227,4,241303,1,2,0:1:0:0:
83,93,241648,5,0,0:1:0:0:
25,154,241820,2,0,L|42:227,1,65,10|0,0:1|3:0,0:0:0:0:
76,238,242079,1,8,0:0:0:0:
76,238,242165,2,0,L|93:311,1,65,2|0,3:1|3:1,0:0:0:0:
239,381,242682,5,0,3:1:0:0:
281,307,242855,2,0,P|316:297|359:300,1,65,2|0,0:1|3:0,0:0:0:0:
395,229,243200,2,0,P|430:239|473:236,1,65,10|0,0:1|3:0,0:0:0:0:
510,162,243544,2,0,P|491:113|495:32,1,130,2|10,0:1|0:1,0:0:0:0:
332,88,244234,5,2,3:1:0:0:
250,106,244406,1,8,0:1:0:0:
232,24,244579,1,10,0:1:0:0:
314,6,244751,1,8,0:1:0:0:
350,101,244924,2,0,L|334:168,1,65,10|2,0:1|3:1,0:0:0:0:
222,290,245441,5,0,3:0:0:0:
222,290,245527,1,8,3:2:0:0:
222,290,245613,2,0,L|133:268,1,65,10|10,3:1|0:1,0:0:0:0:
105,207,245958,1,10,0:1:0:0:
176,134,246131,6,0,B|246:86|333:140|278:177|375:239|459:178|459:178|507:284|412:382|412:382|279:268|344:152|380:209|446:101|526:24|379:-7|278:-21|245:-15|152:7|213:58|106:92|10:40,1,1319.49995973206,6|0,3:1|0:0,0:0:0:0:
