osu file format v14

[General]
AudioFilename: audio.mp3
AudioLeadIn: 0
PreviewTime: 56616
Countdown: 0
SampleSet: Soft
StackLeniency: 0.5
Mode: 0
LetterboxInBreaks: 0
WidescreenStoryboard: 1

[Editor]
Bookmarks: 1232,6506,14418,35517,38649,40792,56616,77715,88264,98814,119913,122880
DistanceSpacing: 1
BeatDivisor: 4
GridSize: 8
TimelineZoom: 3.499999

[Metadata]
Title:Sore wa Hanabi no Youna Koi
TitleUnicode:それは花火のような恋
Artist:Natsuiro Burning Love*Prim
ArtistUnicode:夏色バーニングラブ☆Prim
Creator:Yooh
Version:Normal
Source:BeatStream アニムトライヴ
Tags:KONAMI beatmania IIDX 22 PENDUAL jubeat plus qubell sdvx sound voltex IV heavenly heaven animtrive anim trive T.Kakuta megafan down integertempest electronic japanese
BeatmapID:2958705
BeatmapSetID:1419210

[Difficulty]
HPDrainRate:3
CircleSize:3
OverallDifficulty:3
ApproachRate:4
SliderMultiplier:1.1
SliderTickRate:1

[Events]
//Background and Video events
0,0,"01-04-2021-13-06_GBWZHhMdkY_waifu2x_art_noise1_tta_1.png",0,0
//Break Periods
2,88464,92219
//Storyboard Layer 0 (Background)
//Storyboard Layer 1 (Fail)
//Storyboard Layer 2 (Pass)
//Storyboard Layer 3 (Foreground)
//Storyboard Layer 4 (Overlay)
//Storyboard Sound Samples

[TimingPoints]
1232,329.67032967033,4,2,1,70,1,0
1232,-100,4,2,1,70,0,0
6012,-100,4,2,1,70,0,0
14418,-111.111111111111,4,2,1,60,0,0
35517,-111.111111111111,4,2,1,65,0,0
40792,-111.111111111111,4,2,1,70,0,0
41945,-111.111111111111,4,2,1,60,0,0
55297,-111.111111111111,4,2,1,80,0,0
56616,-90.9090909090909,4,2,1,80,0,1
77715,-100,4,2,1,70,0,0
93539,-100,4,2,1,70,0,0
96177,-99.9999999999999,4,2,1,80,0,0
98814,-90.9090909090909,4,2,1,80,0,1
119913,-90.9090909090909,4,2,1,80,0,0

[Colours]
Combo1 : 255,206,255
Combo2 : 255,255,83
Combo3 : 121,255,255

[HitObjects]
115,27,1232,6,0,P|148:55|219:78,1,110,8|4,3:2|3:3,0:0:0:0:
372,44,2056,6,0,P|399:24|434:25,1,55,0|8,0:0|3:2,0:0:0:0:
474,29,2385,2,0,L|443:153,1,110
490,170,2880,2,0,L|507:239,1,55,8|0,3:2|0:0,0:0:0:0:
457,254,3210,2,0,L|426:378,1,110,8|8,3:2|3:2,0:0:0:0:
322,383,3869,6,0,P|305:314|253:301,1,110,8|4,3:2|3:3,0:0:0:0:
112,316,4693,2,0,P|81:309|58:282,1,55,0|8,0:0|3:2,0:0:0:0:
31,248,5023,2,0,L|1:364,2,110,4|4|4,3:3|3:3|3:3,0:0:0:0:
54,140,6012,2,0,L|0:153,2,55,0|8|2,0:0|3:2|3:2,0:0:0:0:
72,88,6506,6,0,L|188:117,1,110,8|4,3:2|3:3,0:0:0:0:
274,59,7166,2,0,L|380:32,1,110,8|4,3:2|3:3,0:0:0:0:
434,22,7660,1,2,0:0:0:0:
434,22,7825,2,0,P|494:58|504:109,1,110,8|4,3:2|3:3,0:0:0:0:
468,197,8484,2,0,L|405:181,1,55,8|0,3:2|0:0,0:0:0:0:
360,171,8814,2,0,P|324:186|312:207,1,55,4|0,3:3|0:0,0:0:0:0:
297,250,9144,6,0,L|267:366,1,110,8|4,3:2|3:3,0:0:0:0:
161,373,9803,2,0,P|125:358|113:337,1,55,8|2,3:2|0:0,0:0:0:0:
105,291,10133,1,8,3:2:0:0:
105,291,10297,2,0,B|55:303|55:303|49:301|49:301|-18:318,2,110,2|4|4,0:0|3:3|3:3,0:0:0:0:
150,190,11286,2,0,L|134:127,1,55,0|8,0:0|3:2,0:0:0:0:
90,105,11616,2,0,P|106:42|162:29,1,110,2|2,0:0|0:0,0:0:0:0:
305,57,12440,6,0,L|320:-5,2,55,8|2|8,3:2|0:0|3:2,0:0:0:0:
348,91,12935,2,0,B|357:118|357:118|334:211,1,110,2|0,0:0|3:2,0:0:0:0:
317,248,13429,1,2,3:2:0:0:
397,322,13759,2,0,P|440:313|470:272,2,82.5,4|4|4,3:3|3:3|3:3,0:0:0:0:
359,354,14418,6,0,L|250:381,1,98.9999969787599,8|4,3:2|3:3,0:0:0:0:
185,316,15078,2,0,L|88:292,1,98.9999969787599,8|4,3:2|3:3,0:0:0:0:
49,322,15572,1,2,0:0:0:0:
49,322,15737,2,0,B|29:310|29:310|-3:178,1,148.49999546814,8|2,3:2|0:0,0:0:0:0:
14,141,16396,2,0,P|52:99|137:123,1,148.49999546814,8|2,3:2|0:0,0:0:0:0:
163,158,17056,2,0,P|141:202|139:231,2,74.2499977340699,8|2|2,3:2|0:0|0:0,0:0:0:0:
245,102,17880,5,2,0:0:0:0:
245,102,18045,2,0,L|227:32,1,49.4999984893799,4|0,3:3|3:2,0:0:0:0:
262,14,18374,2,0,B|291:9|312:22|304:24|328:44|370:34,1,98.9999969787599,10|4,0:0|3:3,0:0:0:0:
405,29,18869,1,0,3:2:0:0:
473,100,19199,6,0,L|445:208,1,98.9999969787599,2|2,0:0|0:0,0:0:0:0:
473,239,19693,2,0,P|430:290|392:293,1,98.9999969787599,8|4,3:2|3:3,0:0:0:0:
282,208,20517,2,0,L|257:303,1,98.9999969787599,2|2,0:0|0:0,0:0:0:0:
239,350,21012,1,8,3:2:0:0:
239,350,21177,2,0,P|191:380|132:370,1,98.9999969787599
120,339,21671,6,0,L|93:230,1,98.9999969787599,8|4,3:2|3:3,0:0:0:0:
9,193,22330,2,0,L|36:84,1,98.9999969787599,8|4,3:2|3:3,0:0:0:0:
49,52,22825,6,0,B|106:19|149:58|138:61|176:107|248:76,1,197.99999395752,0|2,0:0|0:0,0:0:0:0:
269,47,23649,2,0,P|282:23|306:11,1,49.4999984893799,8|2,3:2|0:0,0:0:0:0:
349,5,23979,1,4,3:3:0:0:
349,5,24144,2,0,L|387:160,1,148.49999546814,2|0,0:0|0:0,0:0:0:0:
464,203,24968,6,0,P|447:247|388:273,1,98.9999969787599,8|4,3:2|3:3,0:0:0:0:
354,273,25462,1,2,0:0:0:0:
354,273,25627,2,0,P|305:276|269:310,1,98.9999969787599,8|4,3:2|3:3,0:0:0:0:
265,359,26122,1,2,0:0:0:0:
265,359,26286,1,8,3:2:0:0:
168,337,26616,6,0,L|113:323,1,49.4999984893799,4|0,3:3|0:0,0:0:0:0:
71,312,26946,2,0,L|47:405,2,74.2499977340699,8|2|2,3:2|0:0|0:0,0:0:0:0:
55,264,27605,2,0,B|25:246|25:246|-5:122,1,148.49999546814,8|2,3:2|0:0,0:0:0:0:
11,87,28264,2,0,P|45:70|97:105,1,98.9999969787599,8|4,3:2|3:3,0:0:0:0:
146,182,28924,2,0,B|192:170|192:170|198:173|198:173|257:158,1,98.9999969787599,8|4,3:2|3:3,0:0:0:0:
289,151,29418,1,2,0:0:0:0:
352,75,29748,6,0,L|338:20,2,49.4999984893799,2|4|2,0:0|3:3|0:0,0:0:0:0:
394,100,30242,2,0,L|423:216,1,98.9999969787599,8|4,3:2|3:3,0:0:0:0:
440,292,30902,2,0,P|479:323|494:358,2,74.2499977340699,8|0|2,3:2|0:0|0:0,0:0:0:0:
316,374,31891,5,4,3:3:0:0:
236,314,32221,2,0,L|257:230,2,74.2499977340699,8|0|2,3:2|0:0|0:0,0:0:0:0:
188,329,32880,2,0,B|91:352|91:352|67:255,1,197.99999395752,8|8,3:2|3:2,0:0:0:0:
1,183,33869,1,4,3:3:0:0:
49,96,34199,2,0,L|111:111,1,49.4999984893799,8|2,3:2|0:0,0:0:0:0:
135,139,34528,2,0,L|197:123,1,49.4999984893799,8|2,3:2|0:0,0:0:0:0:
230,112,34858,2,0,B|249:100|249:100|270:14,1,98.9999969787599,8|8,3:2|3:2,0:0:0:0:
364,3,35517,5,12,3:3:0:0:
492,78,36012,1,8,3:2:0:0:
492,78,36177,1,4,3:3:0:0:
403,196,36671,2,0,P|382:158|317:141,2,98.9999969787599,4|4|8,3:3|3:3|3:2,0:0:0:0:
421,242,37495,2,0,L|506:220,2,74.2499977340699,4|4|4,3:3|3:3|3:3,0:0:0:0:
412,291,38155,5,12,3:3:0:0:
292,379,38649,1,8,3:2:0:0:
292,379,38814,1,4,3:3:0:0:
176,286,39308,2,0,L|150:386,2,98.9999969787599,4|4|8,3:3|3:3|3:2,0:0:0:0:
152,241,40133,2,0,P|185:225|208:191,2,74.2499977340699,4|4|4,3:3|0:3|3:3,0:0:0:0:
102,236,40792,6,0,L|74:127,1,98.9999969787599,8|4,3:2|3:3,0:0:0:0:
0,77,41451,1,8,3:2:0:0:
0,77,41616,1,2,0:0:0:0:
87,28,41946,2,0,L|250:68,1,148.49999546814,2|4,0:0|3:3,0:0:0:0:
279,74,42605,1,2,0:0:0:0:
279,74,42770,2,0,L|255:-19,2,74.2499977340699,8|2|2,3:2|0:0|0:0,0:0:0:0:
322,97,43429,6,0,P|344:132|400:141,1,98.9999969787599,8|4,3:2|3:3,0:0:0:0:
496,126,44089,2,0,L|468:234,1,98.9999969787599,8|4,3:2|3:3,0:0:0:0:
447,318,44748,2,0,P|423:326|401:346,1,49.4999984893799,8|2,3:2|0:0,0:0:0:0:
367,374,45078,2,0,L|312:360,1,49.4999984893799,8|2,3:2|0:0,0:0:0:0:
271,348,45407,2,0,L|243:239,1,98.9999969787599,8|8,3:2|3:2,0:0:0:0:
225,155,46067,6,0,P|266:152|302:167,2,74.2499977340699,8|0|2,3:2|0:0|0:0,0:0:0:0:
177,170,46726,2,0,P|143:211|81:212,1,98.9999969787599,8|4,3:2|3:3,0:0:0:0:
42,130,47385,2,0,P|55:67|137:50,1,148.49999546814,8|0,3:2|0:0,0:0:0:0:
172,71,48045,6,0,L|152:-6,2,74.2499977340699,8|2|2,3:2|0:0|0:0,0:0:0:0:
215,93,48704,2,0,L|195:170,2,74.2499977340699,8|2|2,3:2|0:0|0:0,0:0:0:0:
262,77,49363,2,0,B|279:73|279:73|364:94,1,98.9999969787599,8|4,3:2|3:3,0:0:0:0:
443,42,50023,2,0,B|454:55|454:55|475:140,1,98.9999969787599,8|4,3:2|3:3,0:0:0:0:
495,230,50682,6,0,B|453:221|427:251|437:251|411:282|336:263,1,148.49999546814,8|0,3:2|0:0,0:0:0:0:
308,256,51341,2,0,L|282:356,1,98.9999969787599,8|4,3:2|3:3,0:0:0:0:
187,374,52001,2,0,L|163:277,1,98.9999969787599,8|4,3:2|3:3,0:0:0:0:
143,180,52660,1,8,3:2:0:0:
50,143,52990,6,0,L|63:88,1,49.4999984893799,8|2,3:2|0:0,0:0:0:0:
74,47,53319,2,0,P|113:13|164:12,1,98.9999969787599,8|8,3:2|3:2,0:0:0:0:
189,49,53814,1,2,0:0:0:0:
189,49,53979,2,0,L|289:74,1,98.9999969787599,8|8,3:2|3:2,0:0:0:0:
380,47,54638,5,8,3:2:0:0:
380,47,54803,2,0,L|362:-22,2,49.4999984893799,2|8|2,3:2|3:2|3:2,0:0:0:0:
391,95,55297,2,0,B|373:166|373:166|445:184,1,148.49999546814,8|4,3:2|0:3,0:0:0:0:
494,195,55957,1,12,3:3:0:0:
510,292,56286,1,8,3:2:0:0:
427,380,56616,6,0,L|289:345,1,121.000003692627,8|4,3:2|3:3,0:0:0:0:
303,289,57111,1,2,0:0:0:0:
303,289,57275,2,0,B|256:300|256:300|241:299|241:299|185:313,1,121.000003692627,8|4,3:2|3:3,0:0:0:0:
78,370,57935,6,0,P|30:353|23:272,1,121.000003692627,8|0,3:2|0:0,0:0:0:0:
32,232,58429,1,2,0:0:0:0:
32,232,58594,2,0,L|60:114,1,121.000003692627,8|0,3:2|0:0,0:0:0:0:
131,31,59253,6,0,L|160:151,1,121.000003692627,8|4,3:2|3:3,0:0:0:0:
210,183,59748,1,2,0:0:0:0:
210,183,59913,2,0,P|254:170|287:92,1,121.000003692627,8|4,3:2|3:3,0:0:0:0:
378,26,60572,2,0,P|422:39|455:117,1,121.000003692627,8|4,3:2|3:3,0:0:0:0:
451,223,61232,2,0,P|422:227|396:251,1,60.5000018463135,8|2,3:2|0:0,0:0:0:0:
338,241,61561,2,0,P|326:268|334:302,1,60.5000018463135,8|2,3:2|3:2,0:0:0:0:
348,356,61891,6,0,L|223:325,1,121.000003692627,8|4,3:2|3:3,0:0:0:0:
185,366,62385,1,2,0:0:0:0:
185,366,62550,2,0,B|161:351|161:351|132:234,1,121.000003692627,8|0,3:2|0:0,0:0:0:0:
30,206,63210,2,0,L|45:143,1,60.5000018463135,8|2,3:2|0:0,0:0:0:0:
28,89,63539,2,0,L|43:26,1,60.5000018463135,4|2,3:3|0:0,0:0:0:0:
100,11,63869,2,0,P|151:12|207:123,1,181.500005538941,8|2,3:2|3:2,0:0:0:0:
257,151,64528,5,8,3:2:0:0:
343,66,64858,2,0,L|405:50,1,60.5000018463135,4|2,3:3|0:0,0:0:0:0:
461,39,65188,2,0,B|478:68|478:68|441:215,1,181.500005538941,8|6,3:2|3:3,0:0:0:0:
414,329,66012,2,0,L|483:346,2,60.5000018463135,0|8|0,0:0|3:2|0:0,0:0:0:0:
355,344,66506,2,0,B|266:366|266:366|243:273,1,181.500005538941,8|4,3:2|3:3,0:0:0:0:
228,219,67166,6,0,P|191:218|133:278,1,121.000003692627,8|4,3:2|3:3,0:0:0:0:
89,314,67660,1,2,0:0:0:0:
89,314,67825,2,0,P|62:254|22:211,1,121.000003692627,8|0,3:2|0:0,0:0:0:0:
39,93,68484,1,8,3:2:0:0:
124,6,68814,6,0,P|157:23|172:57,1,60.5000018463135,4|2,3:3|0:0,0:0:0:0:
191,98,69144,2,0,B|269:79|269:79|294:81|294:81|387:58,1,181.500005538941,8|2,3:2|3:2,0:0:0:0:
427,50,69803,2,0,P|457:12|498:5,2,90.7500027694703,8|2|2,3:2|2:2|3:2,0:0:0:0:
418,170,70627,2,0,P|451:180|476:199,1,60.5000018463135,2|4,0:0|3:3,0:0:0:0:
495,251,70957,2,0,B|408:236|351:307|390:308|323:387|220:335,1,302.500009231568,2|8,0:0|3:2,0:0:0:0:
172,315,71946,6,0,L|156:377,2,60.5000018463135,2|4|2,0:0|3:3|0:0,0:0:0:0:
187,256,72440,1,8,3:2:0:0:
216,139,72770,1,4,3:3:0:0:
131,51,73100,2,0,P|94:79|41:78,2,90.7500027694703,8|2|2,3:2|3:2|3:2,0:0:0:0:
164,0,73759,1,12,3:3:0:0:
389,86,74418,6,0,L|489:60,2,90.7500027694703,8|6|2,3:2|3:3|3:2,0:0:0:0:
375,145,75078,2,0,P|433:178|443:237,1,121.000003692627,8|8,3:2|3:2,0:0:0:0:
423,346,75737,2,0,L|298:315,1,121.000003692627,8|8,3:2|3:2,0:0:0:0:
246,301,76232,1,4,3:3:0:0:
127,325,76561,2,0,L|142:387,2,60.5000018463135,2|8|2,0:0|3:2|0:0,0:0:0:0:
89,277,77056,2,0,B|72:241|72:241|110:86|110:86|96:42,1,242.000007385254,8|8,3:2|3:2,0:0:0:0:
198,1,78045,5,0,0:0:0:0:
287,65,78374,2,0,L|395:92,1,110
438,58,78869,2,0,P|480:72|488:145,1,110
480,183,79363,1,0,0:0:0:0:
432,282,79693,6,0,L|512:301,2,82.5
389,316,80352,2,0,B|375:330|375:330|282:353,1,110
181,325,81012,2,0,L|204:231,2,82.5
129,344,81671,2,0,P|63:343|31:201,1,220
76,120,82660,1,0,0:0:0:0:
62,10,82990,1,0,0:0:0:0:
262,100,83649,6,0,L|238:193,2,82.5
277,47,84308,1,0,0:0:0:0:
438,79,84803,1,0,0:0:0:0:
438,79,84968,2,0,L|414:-14,2,82.5
485,106,85627,6,0,B|494:133|494:133|471:226,1,110
505,317,86286,2,0,P|430:333|390:360,1,110
295,377,86946,2,0,L|265:260,1,110
256,216,87440,1,0,0:0:0:0:
256,216,87605,2,0,P|181:200|141:173,1,110
66,115,88264,1,12,3:3:0:0:
66,115,93539,6,0,P|102:62|156:62,1,110,8|4,3:2|3:3,0:0:0:0:
249,22,94199,2,0,L|219:146,1,110,8|4,3:2|3:3,0:0:0:0:
195,291,95023,2,0,P|243:257|306:246,1,110,2|2,0:0|0:0,0:0:0:0:
347,244,95517,2,0,L|325:329,2,82.5,8|2|2,3:2|0:0|0:0,0:0:0:0:
399,227,96177,6,0,L|424:126,1,82.5,8|4,3:2|3:3,0:0:0:0:
439,67,96671,1,6,3:3:0:0:
439,67,96836,2,0,L|356:46,1,82.5,8|4,3:2|3:3,0:0:0:0:
278,27,97330,1,6,3:3:0:0:
278,27,97495,1,12,3:3:0:0:
13,100,98319,6,0,L|-2:162,2,55,2|0|2,0:0|3:2|0:0,0:0:0:0:
73,92,98814,2,0,B|94:111|94:111|119:212,1,121.000003692627,8|4,3:2|3:3,0:0:0:0:
84,251,99308,1,2,0:0:0:0:
84,251,99473,2,0,P|54:297|91:360,1,121.000003692627,8|4,3:2|3:3,0:0:0:0:
200,356,100133,6,0,P|224:295|265:255,1,121.000003692627,8|4,3:2|3:3,0:0:0:0:
322,268,100627,1,2,0:0:0:0:
322,268,100792,2,0,B|375:254|375:254|390:244|390:244|461:226,1,121.000003692627,8|0,3:2|0:0,0:0:0:0:
498,129,101451,6,0,L|366:96,1,121.000003692627,8|4,3:2|3:3,0:0:0:0:
365,40,101946,1,2,0:0:0:0:
365,40,102111,2,0,L|233:72,1,121.000003692627,8|4,3:2|3:3,0:0:0:0:
139,13,102770,2,0,P|96:34|77:116,1,121.000003692627,8|4,3:2|3:3,0:0:0:0:
120,212,103429,2,0,P|82:226|68:261,1,60.5000018463135,8|2,3:2|0:0,0:0:0:0:
17,269,103759,2,0,P|10:308|33:338,1,60.5000018463135,8|2,3:2|3:2,0:0:0:0:
72,354,104089,6,0,L|196:384,1,121.000003692627,8|4,3:2|3:3,0:0:0:0:
226,335,104583,1,2,0:0:0:0:
226,335,104748,2,0,L|368:299,1,121.000003692627,8|4,3:2|3:3,0:0:0:0:
464,315,105407,6,0,P|504:280|502:200,1,121.000003692627,8|4,3:2|3:3,0:0:0:0:
486,159,105902,1,2,0:0:0:0:
486,159,106067,2,0,L|349:124,1,121.000003692627,8|0,3:2|0:0,0:0:0:0:
251,100,106726,5,8,3:2:0:0:
166,12,107056,2,0,L|103:27,1,60.5000018463135,4|2,3:3|0:0,0:0:0:0:
50,6,107385,2,0,P|5:68|17:169,1,181.500005538941,8|6,3:2|3:3,0:0:0:0:
130,208,108210,2,0,L|149:130,2,60.5000018463135,0|8|8,0:0|3:2|3:2,0:0:0:0:
112,266,108704,2,0,B|133:353|133:353|222:331,1,181.500005538941,8|6,3:2|3:3,0:0:0:0:
262,285,109363,6,0,L|386:315,1,121.000003692627,8|4,3:2|3:3,0:0:0:0:
437,333,109858,1,2,0:0:0:0:
437,333,110023,2,0,B|458:320|458:320|483:217,1,121.000003692627,8|0,3:2|0:0,0:0:0:0:
508,108,110682,1,8,3:2:0:0:
413,32,111012,6,0,P|378:45|359:71,1,60.5000018463135,4|2,3:3|0:0,0:0:0:0:
345,119,111341,2,0,P|248:130|163:73,1,181.500005538941,8|2,3:2|3:2,0:0:0:0:
116,87,112001,2,0,L|141:-13,2,90.7500027694703,8|2|2,3:2|2:2|3:2,0:0:0:0:
4,134,112825,2,0,L|23:211,1,60.5000018463135,2|4,0:0|3:3,0:0:0:0:
30,252,113155,2,0,B|117:237|174:308|135:309|202:388|305:336,1,302.500009231568,2|8,0:0|3:2,0:0:0:0:
352,316,114144,6,0,L|368:378,2,60.5000018463135,2|4|2,0:0|3:3|0:0,0:0:0:0:
337,257,114638,1,8,3:2:0:0:
308,140,114968,1,8,3:2:0:0:
391,52,115297,2,0,B|410:73|410:73|488:92,2,90.7500027694703,8|4|2,3:2|3:3|0:0,0:0:0:0:
353,4,115957,1,12,3:3:0:0:
118,62,116616,6,0,P|79:39|58:0,2,90.7500027694703,8|4|4,3:2|3:3|3:3,0:0:0:0:
178,62,117275,2,0,L|143:201,1,121.000003692627,8|8,3:2|3:2,0:0:0:0:
32,213,117935,2,0,B|22:240|22:240|47:341,1,121.000003692627,8|8,3:2|3:2,0:0:0:0:
95,362,118429,1,2,3:2:0:0:
213,334,118759,2,0,L|197:271,2,60.5000018463135,2|8|2,0:0|3:2|3:2,0:0:0:0:
267,360,119253,2,0,P|341:353|377:240,1,181.500005538941,8|2,3:2|3:2,0:0:0:0:
356,145,120078,5,12,3:3:0:0:
191,68,120572,2,0,L|171:-9,2,60.5000018463135,8|2|8,3:2|0:0|3:2,0:0:0:0:
156,118,121067,2,0,P|111:89|42:80,1,121.000003692627,2|2,0:0|0:0,0:0:0:0:
25,136,121561,2,0,L|5:213,1,60.5000018463135,8|2,3:2|3:2,0:0:0:0:
1,255,121891,2,0,P|94:241|203:237,1,181.500005538941,8|12,3:2|3:3,0:0:0:0:
362,239,122880,1,12,3:3:0:0:
