osu file format v14

[General]
AudioFilename: audio.mp3
AudioLeadIn: 0
PreviewTime: 56616
Countdown: 0
SampleSet: Soft
StackLeniency: 0.2
Mode: 0
LetterboxInBreaks: 0
WidescreenStoryboard: 1

[Editor]
DistanceSpacing: 1.6
BeatDivisor: 4
GridSize: 8
TimelineZoom: 3.099999

[Metadata]
Title:Sore wa Hanabi no Youna Koi
TitleUnicode:それは花火のような恋
Artist:Natsuiro Burning Love*Prim
ArtistUnicode:夏色バーニングラブ☆Prim
Creator:Yooh
Version:Megafan's Hard
Source:BeatStream アニムトライヴ
Tags:KONAMI beatmania IIDX 22 PENDUAL jubeat plus qubell sdvx sound voltex IV heavenly heaven animtrive anim trive T.Kakuta megafan down integertempest electronic japanese
BeatmapID:2955403
BeatmapSetID:1419210

[Difficulty]
HPDrainRate:4
CircleSize:3.5
OverallDifficulty:5
ApproachRate:7.8
SliderMultiplier:1.3
SliderTickRate:1

[Events]
//Background and Video events
0,0,"01-04-2021-13-06_GBWZHhMdkY_waifu2x_art_noise1_tta_1.png",0,0
//Break Periods
2,77915,84773
//Storyboard Layer 0 (Background)
//Storyboard Layer 1 (Fail)
//Storyboard Layer 2 (Pass)
//Storyboard Layer 3 (Foreground)
//Storyboard Layer 4 (Overlay)
//Storyboard Sound Samples

[TimingPoints]
1232,329.67032967033,4,2,1,70,1,0
14418,-111.111111111111,4,2,1,60,0,0
15325,-111.111111111111,4,2,2,60,0,0
15407,-111.111111111111,4,2,1,60,0,0
16644,-111.111111111111,4,2,2,5,0,0
16726,-111.111111111111,4,2,1,60,0,0
17303,-111.111111111111,4,2,2,5,0,0
17385,-111.111111111111,4,2,1,60,0,0
25874,-111.111111111111,4,2,2,5,0,0
25957,-111.111111111111,4,2,1,60,0,0
27193,-111.111111111111,4,2,2,5,0,0
27275,-111.111111111111,4,2,1,60,0,0
27852,-111.111111111111,4,2,2,5,0,0
27935,-111.111111111111,4,2,1,60,0,0
31149,-111.111111111111,4,2,2,5,0,0
31232,-111.111111111111,4,2,1,60,0,0
35517,-100,4,2,1,65,0,0
40792,-111.111111111111,4,2,1,70,0,0
43017,-111.111111111111,4,2,2,5,0,0
43100,-111.111111111111,4,2,1,70,0,0
48292,-111.111111111111,4,2,2,5,0,0
48374,-111.111111111111,4,2,1,70,0,0
48951,-111.111111111111,4,2,2,5,0,0
49034,-111.111111111111,4,2,1,70,0,0
49611,-111.111111111111,4,2,2,5,0,0
49693,-111.111111111111,4,2,1,70,0,0
55297,-100,4,2,1,80,0,0
56616,-90.9090909090909,4,2,1,80,0,1
62138,-90.9090909090909,4,2,2,5,0,1
62221,-90.9090909090909,4,2,1,80,0,1
73759,-90.9090909090909,4,2,1,80,0,0
75078,-90.9090909090909,4,2,1,80,0,1
77715,-100,4,2,1,70,0,0
93539,-111.111111111111,4,2,1,70,0,0
96177,-100,4,2,1,80,0,0
98814,-90.9090909090909,4,2,1,80,0,1
104995,-90.9090909090909,4,2,2,5,0,1
105078,-90.9090909090909,4,2,1,80,0,1
115957,-90.9090909090909,4,2,1,80,0,0
117275,-90.9090909090909,4,2,1,80,0,1
119913,-100,4,2,1,80,0,0

[Colours]
Combo1 : 255,206,255
Combo2 : 255,255,83
Combo3 : 121,255,255

[HitObjects]
107,275,1232,6,0,L|164:286,3,32.5,8|2|2|2,3:2|3:2|3:2|3:2,0:0:0:0:
98,281,1561,1,4,3:3:0:0:
256,355,2056,6,0,L|351:340,2,65,0|8|0,0:0|3:2|0:0,0:0:0:0:
229,267,2550,2,0,P|246:229|345:208,1,130,8|8,3:2|3:2,0:0:0:0:
410,176,3045,1,0,0:0:0:0:
474,240,3210,2,0,P|490:266|481:314,1,65,8|2,3:2|3:2,0:0:0:0:
400,323,3539,2,0,P|384:297|393:249,1,65,8|2,3:2|3:2,0:0:0:0:
497,147,3869,6,0,L|486:90,3,32.5,8|2|2|2,3:2|3:2|3:2|3:2,0:0:0:0:
491,156,4199,1,4,3:3:0:0:
345,117,4693,6,0,L|361:35,1,65,0|8,0:0|3:2,0:0:0:0:
292,0,5023,5,4,3:3:0:0:
287,5,5352,5,4,3:3:0:0:
282,10,5682,5,4,3:3:0:0:
277,15,6012,5,0,0:0:0:0:
221,79,6177,6,0,P|196:62|152:59,1,65,8|2,3:2|3:2,0:0:0:0:
148,66,6424,1,0,0:0:0:0:
142,81,6506,2,0,P|139:111|159:150,1,65,8|0,3:2|0:0,0:0:0:0:
232,207,6836,5,4,3:3:0:0:
232,207,6918,1,0,0:0:0:0:
232,207,7001,1,0,0:0:0:0:
163,267,7166,2,0,P|150:296|152:328,1,65,8|2,3:2|0:0,0:0:0:0:
230,376,7495,2,0,P|242:346|240:314,1,65,4|2,3:3|0:0,0:0:0:0:
163,259,7825,6,0,P|107:241|36:278,1,130,8|4,3:2|3:3,0:0:0:0:
44,268,8237,1,0,0:0:0:0:
44,268,8319,1,2,0:0:0:0:
57,171,8484,2,0,P|86:157|117:160,1,65,8|0,3:2|0:0,0:0:0:0:
192,106,8814,1,4,3:3:0:0:
249,176,8979,1,0,0:0:0:0:
322,121,9144,6,0,P|353:117|409:207,1,130,8|4,3:2|3:3,0:0:0:0:
409,189,9556,1,0,0:0:0:0:
405,193,9638,1,0,0:0:0:0:
479,245,9803,2,0,L|488:328,1,65,8|2,3:2|0:0,0:0:0:0:
399,339,10133,1,8,3:2:0:0:
329,281,10297,5,2,0:0:0:0:
324,276,10627,5,4,3:3:0:0:
319,271,10957,5,4,3:3:0:0:
314,266,11286,6,0,P|263:268|241:300,2,65,0|8|2,0:0|3:2|0:0,0:0:0:0:
296,355,11781,5,0,0:0:0:0:
205,346,11946,2,0,L|118:335,1,65,2|4,0:0|3:3,0:0:0:0:
57,375,12275,5,0,0:0:0:0:
66,284,12440,2,0,L|76:197,1,65,8|2,3:2|0:0,0:0:0:0:
141,158,12770,1,8,3:2:0:0:
165,245,12935,5,2,0:0:0:0:
170,250,13264,5,0,3:2:0:0:
240,181,13429,2,0,L|267:151,2,32.5,2|2|2,3:2|0:0|0:0,0:0:0:0:
343,183,13759,2,0,P|385:185|432:227,2,97.5,4|4|4,3:3|3:3|3:3,0:0:0:0:
324,93,14418,6,0,B|293:66|293:66|195:79,1,116.999996429443,8|4,3:2|3:3,0:0:0:0:
141,43,14913,1,2,0:0:0:0:
147,124,15078,2,0,L|35:137,1,87.7499973220826,8|0,3:2|0:0,0:0:0:0:
45,136,15407,2,0,L|53:202,1,58.4999982147217,4|2,3:3|0:0,0:0:0:0:
3,261,15737,6,0,P|65:259|101:310,1,116.999996429443,8|4,3:2|3:3,0:0:0:0:
149,362,16232,1,2,0:0:0:0:
174,282,16396,2,0,P|198:240|247:229,1,87.7499973220826,8|2,3:2|0:0,0:0:0:0:
247,232,16726,2,0,P|262:262|247:296,1,58.4999982147217,4|2,3:3|0:0,0:0:0:0:
233,364,17056,6,0,L|320:369,1,87.7499973220826,8|2,3:2|0:0,0:0:0:0:
335,370,17385,2,0,L|398:313,1,58.4999982147217,4|2,3:3|0:0,0:0:0:0:
455,359,17715,2,0,L|460:273,1,58.4999982147217,8|2,3:2|0:0,0:0:0:0:
466,218,18045,1,4,3:3:0:0:
398,170,18210,5,0,3:2:0:0:
403,88,18374,2,0,L|407:24,1,58.4999982147217,10|0,0:0|0:0,0:0:0:0:
484,57,18704,2,0,L|480:121,1,58.4999982147217,4|0,3:3|3:2,0:0:0:0:
470,210,19034,1,8,3:2:0:0:
394,175,19199,2,0,L|330:171,2,58.4999982147217,2|4|2,0:0|3:3|0:0,0:0:0:0:
321,88,19693,6,0,P|260:75|213:117,1,116.999996429443,8|4,3:2|3:3,0:0:0:0:
182,180,20188,1,0,0:0:0:0:
104,142,20352,2,0,P|92:164|99:205,1,58.4999982147217,8|2,3:2|0:0,0:0:0:0:
80,278,20682,2,0,P|102:300|134:305,1,58.4999982147217,4|2,3:3|0:0,0:0:0:0:
208,343,21012,1,8,3:2:0:0:
283,277,21177,2,0,P|270:247|242:231,2,58.4999982147217,0|4|0,0:0|3:3|0:0,0:0:0:0:
217,340,21671,5,8,3:2:0:0:
295,363,21836,1,2,0:0:0:0:
360,313,22001,2,0,P|386:295|418:296,1,58.4999982147217,4|2,3:3|0:0,0:0:0:0:
486,328,22330,6,0,L|492:245,1,58.4999982147217,8|0,3:2|0:0,0:0:0:0:
444,200,22660,1,4,3:3:0:0:
510,152,22825,2,0,L|499:8,1,116.999996429443
443,94,23319,5,4,3:3:0:0:
397,25,23484,1,2,0:0:0:0:
355,97,23649,2,0,P|345:137|318:170,1,58.4999982147217,8|2,3:2|0:0,0:0:0:0:
261,116,23979,2,0,P|233:132|201:138,1,58.4999982147217,4|2,3:3|0:0,0:0:0:0:
153,221,24308,6,0,B|199:98|107:121|111:35,1,175.499994644165,8|2,3:3|3:2,0:0:0:0:
109,54,24885,1,0,0:0:0:0:
105,45,24968,2,0,P|48:36|34:45,1,58.4999982147217,8|0,3:2|0:0,0:0:0:0:
0,100,25297,1,4,3:3:0:0:
0,183,25462,1,2,0:0:0:0:
66,231,25627,2,0,P|108:241|150:228,1,87.7499973220826,8|2,3:2|0:0,0:0:0:0:
161,219,25957,2,0,P|189:190|220:186,1,58.4999982147217,4|2,3:3|0:0,0:0:0:0:
226,106,26286,6,0,P|266:130|281:214,1,116.999996429443,8|4,3:2|3:3,0:0:0:0:
370,181,26781,1,0,0:0:0:0:
352,261,26946,2,0,P|322:305|331:350,1,87.7499973220826,8|2,3:2|0:0,0:0:0:0:
333,349,27275,2,0,P|365:345|386:321,1,58.4999982147217,4|2,3:3|0:0,0:0:0:0:
273,276,27605,6,0,L|177:288,1,87.7499973220826,8|2,3:2|0:0,0:0:0:0:
171,287,27935,2,0,L|180:207,1,58.4999982147217,4|2,3:3|0:0,0:0:0:0:
98,198,28264,2,0,L|88:118,1,58.4999982147217,8|0,3:2|0:0,0:0:0:0:
155,89,28594,2,0,L|164:9,1,58.4999982147217,4|0,3:3|0:0,0:0:0:0:
242,17,28924,6,0,L|227:146,1,116.999996429443,8|4,3:2|3:3,0:0:0:0:
302,168,29418,1,2,0:0:0:0:
316,87,29583,2,0,L|325:7,1,58.4999982147217,8|2,3:2|0:0,0:0:0:0:
408,0,29913,5,4,3:3:0:0:
401,81,30078,1,2,0:0:0:0:
390,161,30242,2,0,P|387:218|450:262,1,116.999996429443,8|4,3:2|3:3,0:0:0:0:
487,313,30737,1,0,0:0:0:0:
410,335,30902,2,0,P|365:350|345:385,1,87.7499973220826,8|0,3:2|0:0,0:0:0:0:
330,383,31232,2,0,P|298:376|274:355,1,58.4999982147217,4|2,3:3|0:0,0:0:0:0:
245,285,31561,6,0,L|264:151,2,116.999996429443,8|4|8,3:2|3:3|3:2,0:0:0:0:
194,349,32385,1,0,0:0:0:0:
161,273,32550,2,0,P|130:236|107:234,1,58.4999982147217,4|2,3:3|0:0,0:0:0:0:
89,313,32880,5,8,3:2:0:0:
89,313,32962,1,2,0:0:0:0:
89,313,33045,1,2,0:0:0:0:
11,262,33210,2,0,P|10:194|52:132,1,116.999996429443,4|8,3:3|3:2,0:0:0:0:
66,77,33704,1,0,0:0:0:0:
125,133,33869,2,0,P|157:137|189:132,1,58.4999982147217,4|0,3:3|0:0,0:0:0:0:
226,63,34199,5,8,3:2:0:0:
278,127,34363,1,2,0:0:0:0:
326,56,34528,2,0,P|370:44|406:52,1,58.4999982147217,8|2,3:2|0:0,0:0:0:0:
481,9,34858,5,8,3:2:0:0:
485,99,35023,1,2,3:2:0:0:
485,99,35105,1,0,0:0:0:0:
485,99,35188,1,8,3:2:0:0:
411,148,35352,1,2,3:2:0:0:
411,148,35435,1,0,0:0:0:0:
411,148,35517,1,12,3:3:0:0:
133,237,36012,5,8,3:2:0:0:
222,228,36177,1,4,3:3:0:0:
495,279,36671,6,0,L|341:264,2,130,4|4|8,3:3|3:3|3:2,0:0:0:0:
454,357,37495,2,0,L|356:347,2,97.5,4|4|4,3:3|3:3|3:3,0:0:0:0:
495,279,38155,5,12,3:3:0:0:
133,237,38649,5,8,3:2:0:0:
222,228,38814,1,4,3:3:0:0:
454,182,39308,6,0,L|300:167,2,130,4|4|8,3:3|3:3|3:2,0:0:0:0:
432,96,40133,2,0,L|334:86,2,97.5,4|4|4,3:3|0:3|3:3,0:0:0:0:
454,182,40792,6,0,P|464:211|446:262,1,58.4999982147217,8|2,3:2|0:0,0:0:0:0:
506,306,41122,2,0,P|492:333|443:356,1,58.4999982147217,4|2,3:3|0:0,0:0:0:0:
387,348,41451,1,8,3:2:0:0:
387,266,41616,2,0,L|323:260,1,58.4999982147217,2|4,0:0|3:3,0:0:0:0:
246,253,41946,1,2,0:0:0:0:
213,175,42111,6,0,P|186:192|169:219,1,58.4999982147217,8|0,3:2|0:0,0:0:0:0:
135,287,42440,2,0,P|107:269|90:242,1,58.4999982147217,4|2,3:3|0:0,0:0:0:0:
13,221,42770,2,0,P|31:182|71:166,1,87.7499973220826,8|2,3:2|0:0,0:0:0:0:
85,163,43100,2,0,P|119:136|125:99,1,58.4999982147217,4|2,3:3|0:0,0:0:0:0:
123,41,43429,5,8,3:2:0:0:
197,74,43594,1,2,0:0:0:0:
263,26,43759,1,4,3:3:0:0:
332,68,43924,1,2,0:0:0:0:
398,20,44089,2,0,L|380:160,1,116.999996429443,8|4,3:2|3:3,0:0:0:0:
341,213,44583,5,0,0:0:0:0:
259,206,44748,2,0,L|194:201,2,58.4999982147217,8|2|8,3:2|0:0|3:2,0:0:0:0:
134,273,45242,1,2,0:0:0:0:
215,283,45407,2,0,L|279:288,1,58.4999982147217,8|2,3:2|3:2,0:0:0:0:
309,372,45737,1,8,3:2:0:0:
309,372,45819,1,2,3:2:0:0:
309,372,45902,1,2,3:2:0:0:
354,295,46067,6,0,P|379:282|408:282,1,58.4999982147217,8|2,3:2|0:0,0:0:0:0:
489,242,46396,2,0,P|465:225|449:201,1,58.4999982147217,4|2,3:3|0:0,0:0:0:0:
482,125,46726,2,0,L|340:110,1,116.999996429443,8|4,3:2|3:3,0:0:0:0:
309,54,47221,5,2,0:0:0:0:
309,54,47303,1,2,0:0:0:0:
309,54,47385,2,0,P|315:111|246:135,1,116.999996429443,8|4,3:2|3:3,0:0:0:0:
213,79,47880,1,0,0:0:0:0:
160,16,48045,2,0,P|118:36|107:82,1,87.7499973220826,8|2,3:2|0:0,0:0:0:0:
107,87,48374,2,0,L|120:168,1,58.4999982147217,4|2,3:3|0:0,0:0:0:0:
81,235,48704,6,0,L|167:223,1,87.7499973220826,8|2,3:2|0:0,0:0:0:0:
182,223,49034,2,0,P|213:241|226:273,1,58.4999982147217,4|2,3:3|0:0,0:0:0:0:
254,341,49363,2,0,P|260:309|317:277,1,87.7499973220826,8|2,3:2|0:0,0:0:0:0:
317,278,49693,1,4,3:3:0:0:
385,354,49858,5,2,0:0:0:0:
385,354,49940,1,2,0:0:0:0:
385,354,50023,2,0,L|407:283,1,58.4999982147217,8|0,3:2|0:0,0:0:0:0:
459,239,50352,2,0,L|437:168,1,58.4999982147217,4|0,3:3|0:0,0:0:0:0:
493,119,50682,6,0,L|359:133,1,116.999996429443,8|4,3:2|3:3,0:0:0:0:
294,142,51177,1,0,0:0:0:0:
232,88,51341,2,0,P|213:116|223:160,1,58.4999982147217,8|0,3:2|0:0,0:0:0:0:
136,168,51671,2,0,P|151:197|193:210,1,58.4999982147217,4|2,3:3|0:0,0:0:0:0:
147,287,52001,2,0,P|179:297|218:276,1,58.4999982147217,8|2,3:2|0:0,0:0:0:0:
277,257,52330,1,4,3:3:0:0:
298,177,52495,1,2,0:0:0:0:
362,258,52660,6,0,P|343:313|291:335,1,116.999996429443,8|8,3:2|3:2,0:0:0:0:
215,308,53155,1,2,0:0:0:0:
157,365,53319,1,8,3:2:0:0:
81,333,53484,1,0,0:0:0:0:
138,274,53649,2,0,P|141:245|138:215,1,58.4999982147217,8|2,3:2|0:0,0:0:0:0:
128,210,53896,1,2,0:0:0:0:
116,206,53979,2,0,L|36:180,1,58.4999982147217,8|2,3:2|0:0,0:0:0:0:
108,118,54308,2,0,L|28:92,1,58.4999982147217,8|2,3:2|0:0,0:0:0:0:
187,101,54638,2,0,L|227:88,6,29.2499991073609,8|2|2|2|8|2|2,3:2|3:2|3:2|3:2|3:2|3:2|3:2,0:0:0:0:
129,37,55297,6,0,B|92:0|92:0|42:13,2,97.5,8|4|4,3:2|0:3|0:3,0:0:0:0:
223,102,55957,2,0,P|235:10|281:0,1,130,12|8,3:3|3:2,0:0:0:0:
320,81,56451,5,2,3:2:0:0:
320,81,56534,1,0,0:0:0:0:
320,81,56616,2,0,L|346:190,1,107.25000327301,8|2,3:2|0:0,0:0:0:0:
350,202,56946,2,0,L|329:278,1,71.5000021820069,4|2,3:3|0:0,0:0:0:0:
400,361,57275,2,0,L|428:257,1,107.25000327301,8|0,3:2|0:0,0:0:0:0:
431,239,57605,2,0,L|481:187,1,71.5000021820069,4|2,3:3|3:2,0:0:0:0:
449,77,57935,6,0,P|419:66|338:94,1,107.25000327301,8|2,3:2|0:0,0:0:0:0:
336,97,58264,2,0,L|357:179,1,71.5000021820069,4|2,3:3|0:0,0:0:0:0:
273,249,58594,2,0,P|243:260|162:232,1,107.25000327301,8|2,3:2|2:2,0:0:0:0:
159,229,58924,2,0,L|185:130,1,71.5000021820069,4|2,3:3|3:2,0:0:0:0:
196,46,59253,6,0,B|162:7|162:7|92:9,1,107.25000327301,8|0,3:2|0:0,0:0:0:0:
88,11,59583,1,4,3:3:0:0:
0,130,59748,1,2,0:0:0:0:
0,130,59830,1,2,0:0:0:0:
0,130,59913,2,0,P|38:93|122:123,1,143.000004364014,8|4,3:2|3:3,0:0:0:0:
157,224,60407,1,2,0:0:0:0:
249,155,60572,2,0,P|316:166|340:230,1,143.000004364014,8|4,3:2|3:3,0:0:0:0:
266,318,61067,5,2,0:0:0:0:
178,243,61232,2,0,L|98:259,1,71.5000021820069,8|2,3:2|0:0,0:0:0:0:
53,357,61561,2,0,L|122:341,1,71.5000021820069,8|2,3:2|3:2,0:0:0:0:
191,242,61891,6,0,P|240:264|269:326,1,107.25000327301,8|0,3:2|0:0,0:0:0:0:
275,324,62221,2,0,L|351:290,1,71.5000021820069,4|2,3:3|0:0,0:0:0:0:
416,209,62550,2,0,P|369:177|311:181,2,107.25000327301,8|2|2,3:2|2:2|3:2,0:0:0:0:
483,280,63210,6,0,P|505:256|509:211,1,71.5000021820069,8|2,3:2|0:0,0:0:0:0:
487,106,63539,2,0,P|464:80|422:73,1,71.5000021820069,4|2,3:3|0:0,0:0:0:0:
314,88,63869,2,0,P|278:56|273:-17,2,107.25000327301,8|2|2,3:2|2:2|3:2,0:0:0:0:
199,93,64528,6,0,P|160:110|147:136,2,71.5000021820069,8|2|4,3:2|0:0|3:3,0:0:0:0:
234,202,65023,1,2,0:0:0:0:
126,241,65188,2,0,P|68:217|51:173,2,107.25000327301,8|0|6,3:2|0:0|3:3,0:0:0:0:
126,241,66012,6,0,L|109:323,2,71.5000021820069,0|8|0,0:0|3:2|0:0,0:0:0:0:
234,204,66506,2,0,L|260:342,2,107.25000327301,8|4|4,3:2|3:3|3:3,0:0:0:0:
256,317,67166,6,0,P|304:320|340:299,1,71.5000021820069,8|2,3:2|0:0,0:0:0:0:
427,362,67495,1,4,3:3:0:0:
484,262,67660,1,2,0:0:0:0:
380,214,67825,2,0,P|358:169|384:92,2,107.25000327301,8|2|2,3:2|2:2|3:2,0:0:0:0:
475,151,68484,6,0,L|508:0,1,143.000004364014,8|4,3:2|3:3,0:0:0:0:
390,6,68979,1,2,0:0:0:0:
358,116,69144,2,0,P|311:103|271:47,2,107.25000327301,8|2|2,3:2|2:2|3:2,0:0:0:0:
254,163,69803,6,0,P|204:161|153:214,1,107.25000327301,8|2,3:2|2:2,0:0:0:0:
158,213,70133,2,0,L|145:304,1,71.5000021820069,4|2,3:3|3:2,0:0:0:0:
258,313,70462,2,0,L|270:404,2,71.5000021820069,8|2|4,3:2|0:0|3:3,0:0:0:0:
158,370,70957,1,2,0:0:0:0:
169,256,71122,2,0,L|191:83,2,143.000004364014,8|4|8,3:2|3:3|3:2,0:0:0:0:
64,302,71946,1,2,0:0:0:0:
45,188,72111,2,0,L|34:117,1,71.5000021820069,4|2,3:3|0:0,0:0:0:0:
14,4,72440,5,8,3:2:0:0:
128,4,72605,1,2,0:0:0:0:
169,110,72770,2,0,P|206:118|238:105,1,71.5000021820069,4|2,3:3|0:0,0:0:0:0:
306,18,73100,2,0,P|353:12|413:56,2,107.25000327301,8|2|2,3:2|3:2|3:2,0:0:0:0:
301,24,73677,1,0,0:0:0:0:
297,29,73759,1,12,3:3:0:0:
306,18,74418,6,0,P|353:12|413:56,2,107.25000327301,8|6|2,3:2|3:3|3:2,0:0:0:0:
243,114,75078,6,0,L|254:188,1,71.5000021820069,8|2,3:2|0:0,0:0:0:0:
367,175,75407,2,0,L|356:249,1,71.5000021820069,8|2,3:2|0:0,0:0:0:0:
336,359,75737,1,8,3:2:0:0:
268,266,75902,1,2,0:0:0:0:
174,332,76067,2,0,L|83:310,1,71.5000021820069,8|4,3:2|3:3,0:0:0:0:
54,212,76396,5,0,0:0:0:0:
167,194,76561,2,0,P|171:157|146:120,2,71.5000021820069,2|8|2,0:0|3:2|0:0,0:0:0:0:
54,212,77056,5,8,3:2:0:0:
54,212,77138,1,2,3:2:0:0:
54,212,77221,1,2,3:2:0:0:
13,132,77385,1,8,3:2:0:0:
13,132,77468,1,2,3:2:0:0:
13,132,77550,1,2,3:2:0:0:
84,75,77715,1,8,3:2:0:0:
256,192,85627,12,12,88264,3:3:0:0:
144,236,90737,5,8,3:2:0:0:
190,167,90902,1,4,3:3:0:0:
190,167,92221,5,12,3:3:0:0:
144,236,92880,5,0,3:2:0:0:
190,167,93045,1,2,3:2:0:0:
259,213,93210,1,0,3:2:0:0:
223,292,93374,5,2,0:0:0:0:
223,292,93457,1,0,0:0:0:0:
223,292,93539,2,0,B|266:319|266:319|332:293,1,116.999996429443,8|4,3:2|3:3,0:0:0:0:
351,216,94034,1,0,0:0:0:0:
409,153,94199,2,0,P|450:165|483:191,1,58.4999982147217,8|0,3:2|0:0,0:0:0:0:
482,270,94528,2,0,P|440:257|407:231,1,58.4999982147217,4|0,3:3|0:0,0:0:0:0:
345,210,94858,5,8,0:0:0:0:
326,130,95023,2,0,P|292:131|260:162,2,58.4999982147217,2|4|2,0:0|3:3|0:0,0:0:0:0:
301,16,95517,2,0,P|246:44|200:38,2,87.7499973220826,8|2|2,3:2|0:0|0:0,0:0:0:0:
377,60,96177,6,0,B|410:23|410:23|457:32,2,97.5,8|4|6,3:2|3:3|3:3,0:0:0:0:
408,145,96836,2,0,B|455:153|455:153|488:117,2,97.5,8|4|6,3:2|3:3|3:3,0:0:0:0:
402,142,97413,1,0,0:0:0:0:
396,139,97495,1,12,3:3:0:0:
504,281,98319,6,0,P|512:250|512:218,2,65,2|0|2,0:0|3:2|0:0,0:0:0:0:
498,285,98732,1,0,0:0:0:0:
491,286,98814,2,0,L|382:254,1,107.25000327301,8|0,3:2|0:0,0:0:0:0:
370,251,99144,2,0,P|318:263|307:275,1,71.5000021820069,4|2,3:3|0:0,0:0:0:0:
237,366,99473,2,0,L|130:332,1,107.25000327301,8|2,3:2|2:2,0:0:0:0:
117,329,99803,2,0,P|79:290|77:274,1,71.5000021820069,4|2,3:3|3:2,0:0:0:0:
166,202,100133,6,0,L|178:78,1,107.25000327301,8|0,3:2|0:0,0:0:0:0:
179,77,100462,2,0,P|155:41|155:4,1,71.5000021820069,4|2,3:3|0:0,0:0:0:0:
268,11,100792,2,0,L|256:123,1,107.25000327301,8|2,3:2|2:2,0:0:0:0:
258,135,101122,2,0,P|281:171|281:208,1,71.5000021820069,4|2,3:3|3:2,0:0:0:0:
350,292,101451,6,0,P|319:334|256:345,1,107.25000327301,8|2,3:2|2:2,0:0:0:0:
249,344,101781,1,4,3:3:0:0:
136,362,101946,1,2,0:0:0:0:
150,248,102111,6,0,L|166:94,1,143.000004364014,8|4,3:2|3:3,0:0:0:0:
101,10,102605,1,2,0:0:0:0:
35,103,102770,2,0,L|53:272,1,143.000004364014,8|4,3:2|3:3,0:0:0:0:
164,258,103264,1,0,0:0:0:0:
253,186,103429,2,0,L|242:85,2,71.5000021820069,8|2|8,3:2|0:0|3:2,0:0:0:0:
355,239,103924,1,2,3:2:0:0:
367,125,104089,6,0,P|421:109|449:122,1,71.5000021820069,8|2,3:2|0:0,0:0:0:0:
457,0,104418,2,0,P|506:26|517:55,1,71.5000021820069,4|2,3:3|0:0,0:0:0:0:
505,153,104748,2,0,L|497:278,1,107.25000327301,8|2,3:2|2:2,0:0:0:0:
497,278,105078,2,0,L|411:270,1,71.5000021820069,4|2,3:3|3:2,0:0:0:0:
346,353,105407,5,8,3:2:0:0:
253,285,105572,1,2,0:0:0:0:
167,361,105737,2,0,L|81:353,1,71.5000021820069,4|2,3:3|0:0,0:0:0:0:
18,269,106067,2,0,P|23:200|54:177,1,107.25000327301,8|2,3:2|2:2,0:0:0:0:
65,171,106396,2,0,P|96:148|107:103,1,71.5000021820069,4|2,3:3|3:2,0:0:0:0:
158,15,106726,6,0,P|122:-1|78:12,2,71.5000021820069,8|2|4,3:2|0:0|3:3,0:0:0:0:
202,121,107221,1,2,0:0:0:0:
312,95,107385,2,0,P|319:56|284:2,2,107.25000327301,8|0|6,3:2|0:0|3:3,0:0:0:0:
312,95,108210,6,0,P|342:68|372:61,2,71.5000021820069,0|8|8,0:0|3:2|3:2,0:0:0:0:
444,0,108704,2,0,P|471:20|503:109,2,107.25000327301,8|6|6,3:2|3:3|3:3,0:0:0:0:
427,131,109363,6,0,L|419:219,1,71.5000021820069,8|2,3:2|0:0,0:0:0:0:
506,278,109693,2,0,L|514:366,1,71.5000021820069,4|2,3:3|0:0,0:0:0:0:
401,379,110023,2,0,P|363:346|307:338,2,107.25000327301,8|2|2,3:2|2:2|3:2,0:0:0:0:
506,352,110682,6,0,L|494:232,1,107.25000327301,8|0,3:2|0:0,0:0:0:0:
489,228,111012,2,0,L|516:138,1,71.5000021820069,4|2,3:3|0:0,0:0:0:0:
424,82,111341,6,0,L|390:197,1,107.25000327301,8|2,3:2|2:2,0:0:0:0:
383,200,111671,2,0,L|392:293,1,71.5000021820069,4|2,3:3|3:2,0:0:0:0:
345,377,112001,6,0,P|300:362|275:286,2,107.25000327301,8|2|2,3:2|2:2|3:2,0:0:0:0:
381,265,112660,2,0,L|373:187,1,71.5000021820069,8|2,3:2|0:0,0:0:0:0:
263,163,112990,2,0,L|269:75,1,71.5000021820069,4|2,3:3|0:0,0:0:0:0:
342,3,113319,2,0,L|185:19,2,143.000004364014,8|4|8,3:2|3:3|3:2,0:0:0:0:
453,30,114144,1,2,0:0:0:0:
493,136,114308,2,0,L|501:219,1,71.5000021820069,4|2,3:3|0:0,0:0:0:0:
399,264,114638,5,8,3:2:0:0:
313,187,114803,1,2,0:0:0:0:
203,219,114968,2,0,L|195:299,1,71.5000021820069,8|2,3:2|0:0,0:0:0:0:
310,294,115297,2,0,P|350:267|419:278,2,107.25000327301,8|4|2,3:2|3:3|0:0,0:0:0:0:
308,301,115874,1,2,0:0:0:0:
306,307,115957,1,12,3:3:0:0:
310,294,116616,6,0,P|350:267|419:278,2,107.25000327301,8|4|4,3:2|3:3|3:3,0:0:0:0:
224,370,117275,6,0,P|214:339|182:315,1,71.5000021820069,8|2,3:2|0:0,0:0:0:0:
243,217,117605,2,0,P|214:201|173:201,1,71.5000021820069,8|2,3:2|0:0,0:0:0:0:
106,108,117935,2,0,P|89:116|75:135,7,35.7500010910034,8|2|2|2|8|2|2|2,3:2|3:2|3:2|3:2|3:2|3:2|3:2|3:2,0:0:0:0:
78,128,118759,6,0,L|87:215,2,71.5000021820069,2|8|2,0:0|3:2|3:2,0:0:0:0:
18,73,119253,1,8,3:2:0:0:
18,73,119336,1,0,3:2:0:0:
18,73,119418,1,2,3:2:0:0:
65,0,119583,1,8,3:2:0:0:
65,0,119666,1,0,3:2:0:0:
65,0,119748,1,2,3:2:0:0:
358,57,120078,6,0,L|222:78,1,130,12|0,3:3|0:0,0:0:0:0:
224,81,120490,1,0,0:0:0:0:
219,85,120572,2,0,P|217:130|228:156,2,65,8|2|8,3:2|0:0|3:2,0:0:0:0:
310,76,121067,6,0,L|438:56,1,130,2|2,0:0|0:0,0:0:0:0:
512,127,121561,1,8,3:2:0:0:
512,127,121644,1,2,0:0:0:0:
512,127,121726,1,2,3:2:0:0:
425,164,121891,2,0,B|396:194|396:194|391:218|416:269,2,97.5,8|12|12,3:2|3:3|3:3,0:0:0:0:
502,231,122550,5,0,3:2:0:0:
502,231,122633,1,0,0:0:0:0:
502,231,122715,1,0,3:2:0:0:
467,345,122880,1,12,3:3:0:0:
