osu file format v14

[General]
AudioFilename: audio.mp3
AudioLeadIn: 0
PreviewTime: 56616
Countdown: 0
SampleSet: Soft
StackLeniency: 0.4
Mode: 0
LetterboxInBreaks: 0
WidescreenStoryboard: 1

[Editor]
DistanceSpacing: 0.5
BeatDivisor: 6
GridSize: 8
TimelineZoom: 3.899998

[Metadata]
Title:Sore wa Hanabi no Youna Koi
TitleUnicode:それは花火のような恋
Artist:Natsuiro Burning Love*Prim
ArtistUnicode:夏色バーニングラブ☆Prim
Creator:Yooh
Version:IntegerTempest's Extra
Source:BeatStream アニムトライヴ
Tags:KONAMI beatmania IIDX 22 PENDUAL jubeat plus qubell sdvx sound voltex IV heavenly heaven animtrive anim trive T.Kakuta megafan down integertempest electronic japanese
BeatmapID:2947754
BeatmapSetID:1419210

[Difficulty]
HPDrainRate:6
CircleSize:4
OverallDifficulty:8.6
ApproachRate:9.2
SliderMultiplier:2.1
SliderTickRate:1

[Events]
//Background and Video events
0,0,"01-04-2021-13-06_GBWZHhMdkY_waifu2x_art_noise1_tta_1.png",0,0
//Break Periods
2,88464,90167
//Storyboard Layer 0 (Background)
//Storyboard Layer 1 (Fail)
//Storyboard Layer 2 (Pass)
//Storyboard Layer 3 (Foreground)
//Storyboard Layer 4 (Overlay)
//Storyboard Sound Samples

[TimingPoints]
1232,329.67032967033,4,2,1,70,1,0
6671,-142.857142857143,4,2,1,70,0,0
8484,-100,4,2,1,70,0,0
12935,-100,4,2,1,70,0,0
13429,-76.9230769230769,4,2,1,70,0,0
14418,-100,4,2,1,60,0,0
14666,-100,4,2,2,5,0,0
14748,-100,4,2,1,60,0,0
15325,-100,4,2,2,5,0,0
15407,-100,4,2,1,60,0,0
16231,-100,4,2,1,60,0,0
17797,-100,4,2,2,5,0,0
17879,-100,4,2,1,60,0,0
18622,-100,4,2,2,5,0,0
18704,-100,4,2,1,60,0,0
19116,-100,4,2,2,5,0,0
19198,-100,4,2,1,60,0,0
22660,-100,4,2,1,60,0,0
23154,-100,4,2,1,60,0,0
24638,-100,4,2,1,60,0,0
26534,-100,4,2,2,5,0,0
26616,-100,4,2,1,60,0,0
29171,-100,4,2,2,5,0,0
29253,-100,4,2,1,60,0,0
29748,-100,4,2,1,60,0,0
32138,-100,4,2,2,5,0,0
32220,-100,4,2,1,60,0,0
35517,-83.3333333333333,4,2,1,65,0,0
40792,-100,4,2,1,70,0,0
41945,-100,4,2,1,70,0,0
44171,-100,4,2,2,5,0,0
44253,-100,4,2,1,70,0,0
50929,-100,4,2,2,5,0,0
51011,-100,4,2,1,70,0,0
52907,-100,4,2,2,5,0,0
52989,-100,4,2,1,70,0,0
55297,-66.6666666666667,4,2,1,80,0,0
56616,-76.9230769230769,4,2,1,80,0,1
59501,-76.9230769230769,4,2,1,5,0,1
59583,-76.9230769230769,4,2,1,80,0,1
60242,-142.857142857143,4,2,1,80,0,1
60572,-76.9230769230769,4,2,1,80,0,1
60819,-76.9230769230769,4,2,1,5,0,1
60902,-76.9230769230769,4,2,1,80,0,1
62138,-76.9230769230769,4,2,2,5,0,1
62221,-76.9230769230769,4,2,1,80,0,1
66506,-66.6666666666667,4,2,1,80,0,1
67166,-76.9230769230769,4,2,1,80,0,1
68732,-76.9230769230769,4,2,2,5,0,1
68815,-76.9230769230769,4,2,1,80,0,1
70545,-76.9230769230769,4,2,2,5,0,1
70628,-76.9230769230769,4,2,1,80,0,1
73759,-76.9230769230769,4,2,1,80,0,0
74418,-66.6666666666667,4,2,1,80,0,0
75078,-66.6666666666667,4,2,1,80,0,1
77715,-90.9090909090909,4,2,1,70,0,0
82248,-90.9090909090909,4,2,2,5,0,0
82330,-90.9090909090909,4,2,1,70,0,0
88264,-142.857142857143,4,2,1,70,0,0
93539,-90.909090909091,4,2,1,70,0,0
96177,-66.6666666666667,4,2,1,80,0,0
98814,-76.9230769230769,4,2,1,80,0,1
100380,-76.9230769230769,4,2,1,5,0,1
100462,-76.9230769230769,4,2,1,80,0,1
108704,-66.6666666666667,4,2,1,80,0,1
109363,-76.9230769230769,4,2,1,80,0,1
110929,-76.9230769230769,4,2,2,5,0,1
111012,-76.9230769230769,4,2,1,80,0,1
112742,-76.9230769230769,4,2,2,5,0,1
112825,-76.9230769230769,4,2,1,80,0,1
115297,-66.6666666666667,4,2,1,80,0,1
115957,-66.6666666666667,4,2,1,80,0,0
117275,-66.6666666666667,4,2,1,80,0,1
119913,-66.6666666666667,4,2,1,80,0,0
121396,-58.8235294117647,4,2,1,80,0,0

[Colours]
Combo1 : 255,206,255
Combo2 : 255,255,83
Combo3 : 121,255,255

[HitObjects]
8,20,1232,5,8,3:2:0:0:
14,50,1314,1,2,3:2:0:0:
21,81,1396,1,2,3:2:0:0:
28,112,1479,1,2,3:2:0:0:
34,143,1561,1,4,3:3:0:0:
34,143,2056,5,0,0:0:0:0:
140,151,2221,1,8,3:2:0:0:
211,242,2385,1,0,0:0:0:0:
211,242,2550,2,0,L|326:224,1,105,8|0,3:2|0:0,0:0:0:0:
423,322,2880,2,0,L|319:305,1,105,8|0,3:2|0:0,0:0:0:0:
236,375,3210,5,8,3:2:0:0:
236,375,3292,1,0,0:0:0:0:
236,375,3374,2,0,L|248:308,1,52.5,2|0,3:2|0:0,0:0:0:0:
124,228,3539,1,8,3:2:0:0:
124,228,3622,1,0,0:0:0:0:
124,228,3704,2,0,L|133:280,1,52.5,2|0,3:2|0:0,0:0:0:0:
45,373,3869,1,8,3:2:0:0:
15,363,3951,1,2,3:2:0:0:
15,331,4034,1,2,3:2:0:0:
45,322,4116,1,2,3:2:0:0:
63,347,4199,1,4,3:3:0:0:
42,144,4693,5,0,0:0:0:0:
186,166,4858,1,8,3:2:0:0:
329,186,5023,2,0,L|311:78,1,105,4|0,3:3|0:0,0:0:0:0:
329,186,5352,6,0,L|311:78,1,105,4|0,3:3|0:0,0:0:0:0:
329,186,5682,6,0,L|311:78,1,105,4|0,3:3|0:0,0:0:0:0:
253,11,6012,5,0,0:0:0:0:
177,70,6177,1,8,3:2:0:0:
186,166,6341,2,0,L|233:158,3,35,2|2|2|8,3:2|3:2|3:2|3:2,0:0:0:0:
44,187,6671,5,0,0:0:0:0:
81,191,6753,1,0,0:0:0:0:
116,211,6836,1,4,3:3:0:0:
139,242,6918,1,0,0:0:0:0:
151,280,7001,2,0,L|194:272,1,36.749998878479
283,204,7166,5,8,3:2:0:0:
336,378,7330,1,2,0:0:0:0:
348,248,7495,1,4,3:3:0:0:
261,328,7660,1,2,0:0:0:0:
220,160,7825,1,8,3:2:0:0:
348,248,7990,5,2,0:0:0:0:
385,244,8072,1,0,0:0:0:0:
420,224,8155,1,4,3:3:0:0:
443,193,8237,1,0,0:0:0:0:
454,156,8320,2,0,L|444:110,1,36.749998878479,2|0,0:0|0:0,0:0:0:0:
478,28,8484,6,0,L|371:50,1,105,8|0,3:2|0:0,0:0:0:0:
283,204,8814,1,4,3:3:0:0:
216,0,8979,1,0,0:0:0:0:
38,90,9144,2,0,L|159:109,1,105,8|0,3:2|0:0,0:0:0:0:
283,204,9473,5,4,3:3:0:0:
288,247,9555,1,0,0:0:0:0:
268,284,9638,1,0,0:0:0:0:
231,303,9720,1,0,0:0:0:0:
192,300,9803,1,8,3:2:0:0:
6,177,9968,5,2,0:0:0:0:
85,384,10133,1,8,3:2:0:0:
216,141,10297,2,0,L|336:106,1,105,2|0,0:0|0:0,0:0:0:0:
216,141,10627,6,0,L|336:106,1,105,4|0,3:3|0:0,0:0:0:0:
216,141,10957,6,0,L|336:106,1,105,4|0,3:3|0:0,0:0:0:0:
494,56,11286,5,0,0:0:0:0:
351,0,11451,1,8,3:2:0:0:
402,165,11616,2,0,L|431:265,1,105,2|0,0:0|0:0,0:0:0:0:
472,381,11946,5,2,0:0:0:0:
235,286,12111,2,0,L|335:257,1,105,4|0,3:3|0:0,0:0:0:0:
504,203,12440,5,8,3:2:0:0:
311,134,12605,1,2,0:0:0:0:
264,372,12770,1,8,3:2:0:0:
59,270,12935,2,0,L|159:241,1,105,2|0,0:0|0:0,0:0:0:0:
410,165,13264,5,0,3:2:0:0:
474,66,13429,6,0,L|466:100,2,34.1249984378815,2|2|2,0:0|0:0|0:0,0:0:0:0:
400,45,13594,2,0,L|392:79,2,34.1249984378815,2|2|2,0:0|0:0|0:0,0:0:0:0:
310,46,13759,6,0,P|242:73|229:160,1,136.499993751526,4|0,3:3|0:0,0:0:0:0:
258,221,14006,2,0,L|393:260,1,136.499993751526,4|0,3:3|0:0,0:0:0:0:
475,145,14253,2,0,L|409:164,1,68.2499968757631,4|0,3:3|0:0,0:0:0:0:
431,357,14418,6,0,B|468:348|468:348|511:221,1,157.5,8|0,3:2|0:0,0:0:0:0:
389,168,14748,1,4,3:3:0:0:
408,264,14913,1,2,0:0:0:0:
335,326,15078,6,0,L|170:278,1,157.5,8|0,3:2|0:0,0:0:0:0:
87,326,15407,1,4,3:3:0:0:
53,227,15572,1,2,0:0:0:0:
13,120,15737,6,0,B|54:104|54:104|216:151,1,210,8|4,3:2|3:3,0:0:0:0:
293,93,16232,1,2,0:0:0:0:
380,133,16396,2,0,L|413:246,1,105,8|0,3:2|0:0,0:0:0:0:
445,311,16644,1,2,0:0:0:0:
427,330,16726,2,0,L|376:313,1,52.5,4|0,3:3|0:0,0:0:0:0:
289,336,16891,1,2,0:0:0:0:
265,244,17056,6,0,L|155:209,1,105,8|0,3:2|0:0,0:0:0:0:
116,146,17303,1,2,0:0:0:0:
91,153,17385,2,0,L|73:207,1,52.5,4|0,3:3|0:0,0:0:0:0:
0,251,17550,2,0,P|-3:300|92:338,1,157.5,2|0,0:0|0:0,0:0:0:0:
175,348,17880,6,0,L|160:297,1,52.5,2|0,0:0|0:0,0:0:0:0:
280,194,18045,2,0,L|265:245,1,52.5,4|0,3:3|0:0,0:0:0:0:
383,335,18210,2,0,L|368:284,1,52.5,0|0,3:2|0:0,0:0:0:0:
398,162,18374,2,0,P|453:172|466:274,1,157.5,10|0,0:0|0:0,0:0:0:0:
383,335,18704,6,0,L|332:320,1,52.5,4|0,3:3|0:0,0:0:0:0:
280,194,18869,2,0,P|208:180|148:259,1,157.5,0|0,3:2|0:0,0:0:0:0:
167,322,19199,5,2,0:0:0:0:
230,258,19363,1,4,3:3:0:0:
51,201,19528,1,2,0:0:0:0:
12,363,19693,6,0,P|55:349|86:301,1,105,8|0,3:2|0:0,0:0:0:0:
151,234,20023,2,0,L|48:201,2,105,4|0|8,3:3|0:0|3:2,0:0:0:0:
250,343,20517,5,2,0:0:0:0:
338,304,20682,1,4,3:3:0:0:
426,267,20847,1,2,0:0:0:0:
494,338,21012,1,8,3:2:0:0:
338,304,21177,6,0,P|331:242|357:202,1,105,0|4,0:0|3:3,0:0:0:0:
433,176,21506,1,0,0:0:0:0:
399,90,21671,2,0,L|296:57,1,105,8|2,3:2|0:0,0:0:0:0:
170,182,22001,2,0,L|269:149,1,105,4|2,3:3|0:0,0:0:0:0:
234,0,22330,5,8,3:2:0:0:
170,176,22495,1,0,0:0:0:0:
196,87,22660,2,0,P|109:34|16:73,1,210,4|8,3:3|3:2,0:0:0:0:
269,148,23155,5,0,0:0:0:0:
170,176,23319,1,4,3:3:0:0:
234,0,23484,1,2,0:0:0:0:
368,116,23649,2,0,L|351:224,1,105,8|2,3:2|0:0,0:0:0:0:
420,310,23979,1,4,3:3:0:0:
420,310,24144,2,0,P|369:303|329:335,1,105,2|8,0:0|3:3,0:0:0:0:
248,320,24473,5,2,0:0:0:0:
171,303,24638,1,8,3:2:0:0:
94,281,24803,2,0,L|84:316,2,35,2|2|2,3:2|3:2|3:2,0:0:0:0:
72,183,24968,5,8,3:2:0:0:
52,93,25133,1,2,0:0:0:0:
173,21,25297,1,4,3:3:0:0:
154,107,25462,1,2,0:0:0:0:
227,193,25627,6,0,L|329:172,1,105,8|0,3:2|0:0,0:0:0:0:
417,205,25874,1,2,0:0:0:0:
429,186,25957,2,0,L|417:130,1,52.5,4|0,3:3|0:0,0:0:0:0:
501,240,26122,1,2,0:0:0:0:
432,296,26286,2,0,L|277:264,1,157.5,8|0,3:2|0:0,0:0:0:0:
198,313,26616,5,4,3:3:0:0:
110,339,26781,1,0,0:0:0:0:
22,364,26946,2,0,L|36:289,1,52.5,8|0,3:2|0:0,0:0:0:0:
128,246,27111,1,0,0:0:0:0:
142,230,27193,2,0,L|116:127,1,105,2|0,0:0|0:0,0:0:0:0:
112,114,27440,1,2,0:0:0:0:
30,53,27605,6,0,L|130:26,1,105,8|0,3:2|0:0,0:0:0:0:
152,24,27852,1,2,0:0:0:0:
152,24,27935,1,4,3:3:0:0:
259,78,28100,2,0,P|291:116|288:167,1,105,2|8,0:0|3:2,0:0:0:0:
213,241,28347,1,0,0:0:0:0:
213,241,28429,2,0,L|111:208,2,105,0|4|0,0:0|3:3|0:0,0:0:0:0:
283,305,28924,6,0,B|359:287|359:287|368:288|368:288|445:271,1,157.5,8|0,3:2|0:0,0:0:0:0:
505,329,29253,2,0,P|477:368|414:349,1,105,4|2,3:3|0:0,0:0:0:0:
370,255,29583,5,8,3:2:0:0:
370,255,29666,1,0,0:0:0:0:
370,255,29748,1,2,0:0:0:0:
283,305,29913,1,4,3:3:0:0:
505,329,30078,1,2,0:0:0:0:
370,255,30242,6,0,L|336:135,1,105,8|0,3:2|0:0,0:0:0:0:
473,62,30572,2,0,L|447:169,1,105,4|0,3:3|0:0,0:0:0:0:
247,117,30902,1,8,3:2:0:0:
377,0,31067,1,0,0:0:0:0:
383,23,31149,1,2,0:0:0:0:
388,43,31232,1,4,3:3:0:0:
341,153,31396,2,0,L|364:255,2,105,2|8|0,0:0|3:2|0:0,0:0:0:0:
228,33,31891,6,0,L|66:-2,1,157.5,4|0,3:3|0:1,0:0:0:0:
0,62,32221,2,0,P|10:109|63:133,1,105,8|0,3:2|0:0,0:0:0:0:
132,96,32468,1,2,0:0:0:0:
157,103,32550,2,0,L|170:165,1,52.5,4|0,3:3|0:0,0:0:0:0:
101,230,32715,1,2,0:0:0:0:
164,295,32880,1,8,3:2:0:0:
196,287,32962,1,2,0:0:0:0:
231,278,33045,1,2,0:0:0:0:
313,355,33210,6,0,L|426:377,1,105,4|0,3:3|0:0,0:0:0:0:
511,261,33539,2,0,L|398:283,1,105,8|0,3:2|0:0,0:0:0:0:
275,182,33869,2,0,L|388:204,1,105,4|0,3:3|0:0,0:0:0:0:
458,142,34199,5,8,3:2:0:0:
432,48,34363,1,2,0:0:0:0:
275,182,34528,1,8,3:2:0:0:
319,0,34693,1,2,0:0:0:0:
483,238,34858,1,8,3:2:0:0:
300,91,35023,6,0,L|259:82,2,35,2|2|2,3:2|3:2|3:2,0:0:0:0:
368,160,35188,1,8,3:2:0:0:
458,142,35352,2,0,L|499:133,2,35,2|2|2,3:2|3:2|3:2,0:0:0:0:
275,182,35517,5,12,3:3:0:0:
39,230,36012,1,8,3:2:0:0:
39,230,36177,1,4,3:3:0:0:
137,360,36671,1,4,3:3:0:0:
160,260,37001,1,4,3:3:0:0:
204,32,37330,5,8,3:2:0:0:
204,32,37495,2,0,P|144:48|126:125,1,125.999996154785,4|0,3:3|0:0,0:0:0:0:
186,167,37742,2,0,L|319:145,1,125.999996154785,4|0,3:3|0:0,0:0:0:0:
402,128,37990,1,4,3:3:0:0:
492,114,38155,5,12,3:3:0:0:
204,32,38649,1,8,3:2:0:0:
204,32,38814,1,4,3:3:0:0:
67,276,39308,1,4,3:3:0:0:
164,257,39638,1,4,3:3:0:0:
362,226,39968,5,8,3:2:0:0:
362,226,40133,2,0,L|332:364,1,125.999996154785,4|0,3:3|0:0,0:0:0:0:
231,384,40380,2,0,L|93:354,1,125.999996154785,4|0,0:3|0:0,0:0:0:0:
67,276,40627,1,4,3:3:0:0:
95,178,40792,5,8,3:2:0:0:
95,178,40874,1,0,0:0:0:0:
95,178,40957,1,2,0:0:0:0:
160,260,41122,1,4,3:3:0:0:
208,71,41286,1,2,0:0:0:0:
186,160,41451,1,8,3:2:0:0:
39,95,41616,5,2,0:0:0:0:
75,90,41699,1,0,0:0:0:0:
117,83,41781,1,4,3:3:0:0:
186,160,41946,1,2,0:0:0:0:
222,165,42029,1,0,0:0:0:0:
264,172,42111,1,8,3:2:0:0:
331,99,42275,2,0,L|320:33,2,52.5,0|0|4,0:0|0:0|3:3,0:0:0:0:
389,181,42605,5,2,0:0:0:0:
480,151,42770,2,0,L|495:47,1,105,8|0,3:2|0:0,0:0:0:0:
416,0,43017,1,2,0:0:0:0:
416,0,43100,1,4,3:3:0:0:
389,181,43264,1,2,0:0:0:0:
331,99,43430,5,8,3:2:0:0:
360,278,43594,1,2,0:0:0:0:
480,151,43759,1,4,3:3:0:0:
286,203,43924,6,0,B|218:193|218:193|212:189|212:189|128:176,1,157.5,2|0,0:0|0:0,0:0:0:0:
68,247,44253,2,0,L|16:256,2,52.5,0|0|4,0:0|0:0|3:3,0:0:0:0:
132,317,44583,2,0,L|183:325,1,52.5
277,345,44748,5,8,3:2:0:0:
239,91,44913,2,0,L|231:142,1,52.5,2|0,0:0|0:0,0:0:0:0:
211,236,45078,1,8,3:2:0:0:
391,315,45242,5,2,0:0:0:0:
386,278,45325,1,0,0:0:0:0:
381,241,45407,1,8,3:2:0:0:
376,204,45490,1,2,3:2:0:0:
370,167,45572,2,0,L|296:149,1,52.5,2|2,3:2|3:2,0:0:0:0:
211,236,45737,2,0,L|171:245,2,26.25,8|2|2,3:2|3:2|3:2,0:0:0:0:
299,258,45902,1,2,3:2:0:0:
239,91,46067,5,8,3:2:0:0:
147,56,46232,2,0,L|177:179,1,105,2|4,0:0|3:3,0:0:0:0:
216,325,46561,1,2,0:0:0:0:
112,384,46726,2,0,L|136:281,1,105,8|0,3:2|0:0,0:0:0:0:
211,236,46973,1,2,0:0:0:0:
211,236,47056,1,4,3:3:0:0:
386,278,47221,1,2,0:0:0:0:
420,271,47303,1,2,0:0:0:0:
456,262,47385,2,0,L|471:152,2,105,8|0|4,3:2|0:0|3:3,0:0:0:0:
512,315,47880,5,0,0:0:0:0:
308,358,48045,2,0,L|286:235,1,105,8|0,3:2|0:0,0:0:0:0:
271,172,48292,2,0,L|249:49,1,105,2|0,0:0|0:0,0:0:0:0:
197,13,48539,1,2,0:0:0:0:
75,77,48704,6,0,P|122:76|168:121,1,105,8|0,3:2|0:0,0:0:0:0:
182,198,48951,2,0,L|160:321,1,105,2|0,0:0|0:0,0:0:0:0:
102,375,49199,1,2,0:0:0:0:
25,248,49363,6,0,L|6:144,1,105,8|0,3:2|0:0,0:0:0:0:
75,77,49611,2,0,P|122:76|168:121,1,105,2|0,0:0|0:0,0:0:0:0:
182,198,49858,1,2,0:0:0:0:
176,233,49940,1,2,0:0:0:0:
170,267,50023,6,0,L|393:231,1,210,8|4,3:2|3:3,0:0:0:0:
508,210,50517,1,0,0:0:0:0:
430,308,50682,2,0,P|351:323|296:275,1,157.5,8|0,3:2|0:0,0:0:0:0:
304,167,51012,5,4,3:3:0:0:
267,29,51177,1,0,0:0:0:0:
160,99,51341,5,8,3:2:0:0:
54,73,51506,1,2,0:0:0:0:
156,203,51671,5,4,3:3:0:0:
304,167,51836,1,2,0:0:0:0:
129,0,52001,5,8,3:2:0:0:
73,224,52166,1,2,0:0:0:0:
31,384,52330,5,4,3:3:0:0:
193,338,52495,1,2,0:0:0:0:
226,328,52578,1,2,0:0:0:0:
258,317,52660,2,0,L|303:166,1,157.5,8|0,3:2|0:0,0:0:0:0:
253,68,52990,5,8,3:2:0:0:
418,21,53155,1,2,0:0:0:0:
372,196,53319,5,8,3:2:0:0:
323,0,53484,1,0,0:0:0:0:
157,42,53649,5,8,3:2:0:0:
353,91,53814,1,2,0:0:0:0:
353,91,53896,1,2,0:0:0:0:
353,91,53979,1,8,3:2:0:0:
190,318,54144,5,2,0:0:0:0:
253,68,54309,1,8,3:2:0:0:
394,285,54473,1,2,0:0:0:0:
192,176,54638,5,8,3:2:0:0:
153,165,54721,1,2,3:2:0:0:
114,154,54803,1,2,3:2:0:0:
76,144,54885,1,2,3:2:0:0:
37,133,54968,2,0,L|48:197,1,52.5,8|2,3:2|3:2,0:0:0:0:
64,290,55133,2,0,L|73:344,1,52.5,2|2,3:2|3:2,0:0:0:0:
289,299,55297,6,0,L|326:124,1,157.500006008148,8|0,3:2|0:0,0:0:0:0:
283,55,55545,2,0,P|207:28|150:78,1,157.500006008148,4|0,0:3|0:0,0:0:0:0:
114,154,55792,2,0,L|138:248,1,78.7500030040742,4|0,0:3|0:0,0:0:0:0:
157,320,55957,1,12,3:3:0:0:
157,320,56286,5,8,3:2:0:0:
325,230,56451,2,0,L|271:218,2,52.5000020027161,2|2|2,3:2|3:2|3:2,0:0:0:0:
376,296,56616,6,0,B|441:279|441:279|423:211,1,136.499993751526,8|0,3:2|0:0,0:0:0:0:
465,123,56863,1,2,0:0:0:0:
434,112,56946,2,0,L|367:128,1,68.2499968757631,4|0,3:3|0:0,0:0:0:0:
325,230,57111,1,2,0:0:0:0:
269,140,57275,2,0,L|302:7,2,136.499993751526,8|0|4,3:2|0:0|3:3,0:0:0:0:
161,176,57770,1,2,3:2:0:0:
38,104,57935,6,0,L|170:70,1,136.499993751526,8|0,3:2|0:0,0:0:0:0:
260,117,58182,1,2,0:0:0:0:
269,140,58264,2,0,L|252:206,1,68.2499968757631,4|0,3:3|0:0,0:0:0:0:
187,269,58429,1,2,0:0:0:0:
219,364,58594,6,0,P|262:320|345:328,1,136.499993751526,8|0,3:2|0:0,0:0:0:0:
418,373,58841,1,2,2:2:0:0:
435,351,58924,2,0,L|418:285,1,68.2499968757631,4|0,3:3|0:0,0:0:0:0:
351,239,59089,1,2,3:2:0:0:
467,188,59253,6,0,L|255:136,1,204.749990627289,8|2,3:2|3:2,0:0:0:0:
186,174,59583,1,4,3:3:0:0:
51,140,59748,1,2,0:0:0:0:
43,108,59830,1,2,0:0:0:0:
35,79,59913,1,8,3:2:0:0:
152,0,60078,1,2,0:0:0:0:
144,29,60161,1,2,0:0:0:0:
141,61,60242,2,0,L|154:102,1,36.749998878479,4|2,3:3|0:0,0:0:0:0:
268,139,60407,1,2,0:0:0:0:
260,107,60489,1,2,0:0:0:0:
254,80,60572,6,0,P|303:17|427:60,1,204.749990627289,8|0,3:2|0:0,0:0:0:0:
464,124,60902,2,0,L|443:203,1,68.2499968757631,4|0,3:3|0:0,0:0:0:0:
410,327,61067,1,2,0:0:0:0:
129,289,61232,5,8,3:2:0:0:
168,279,61314,1,2,0:0:0:0:
208,269,61396,1,2,0:0:0:0:
248,259,61479,1,2,0:0:0:0:
289,249,61561,6,0,L|303:199,2,34.1249984378815,8|0|0,3:2|0:0|0:0,0:0:0:0:
410,327,61726,2,0,L|400:294,2,34.1249984378815,2|0|0,3:2|0:0|0:0,0:0:0:0:
501,212,61891,6,0,P|382:171|376:97,1,204.749990627289,8|0,3:2|0:0,0:0:0:0:
445,46,62221,1,4,3:3:0:0:
265,0,62385,1,2,0:0:0:0:
153,128,62550,2,0,L|304:92,1,136.499993751526,8|0,3:2|0:0,0:0:0:0:
373,106,62797,1,2,2:2:0:0:
381,127,62880,2,0,L|361:196,1,68.2499968757631,4|0,3:3|0:0,0:0:0:0:
289,249,63045,1,2,3:2:0:0:
410,327,63210,5,8,3:2:0:0:
377,220,63374,1,2,0:0:0:0:
200,277,63539,1,4,3:3:0:0:
257,82,63703,1,2,0:0:0:0:
142,0,63869,6,0,B|126:29|126:29|156:140,1,136.499993751526,8|0,3:2|0:0,0:0:0:0:
229,179,64116,1,2,2:2:0:0:
247,190,64199,2,0,L|324:168,1,68.2499968757631,4|0,3:3|0:0,0:0:0:0:
407,140,64363,1,2,3:2:0:0:
512,91,64528,2,0,P|443:89|406:147,1,136.499993751526,8|2,3:2|0:0,0:0:0:0:
407,309,64858,5,4,3:3:0:0:
332,92,65023,1,2,0:0:0:0:
200,277,65188,2,0,L|59:236,1,136.499993751526,8|0,3:2|0:0,0:0:0:0:
9,294,65435,1,6,3:3:0:0:
0,314,65517,2,0,L|20:379,1,68.2499968757631
115,384,65682,2,0,L|128:338,2,45.4999979171754,6|2|2,3:3|0:0|0:0,0:0:0:0:
115,384,66012,5,0,0:0:0:0:
173,180,66177,1,8,3:2:0:0:
211,42,66341,1,0,0:0:0:0:
21,136,66506,6,0,L|187:184,1,157.500006008148,8|0,3:2|0:0,0:0:0:0:
200,277,66753,2,0,L|366:228,1,157.500006008148,4|0,3:3|0:0,0:0:0:0:
400,132,67001,2,0,L|321:109,1,78.7500030040742,4|0,3:3|0:0,0:0:0:0:
120,43,67166,5,8,3:2:0:0:
55,214,67330,1,2,0:0:0:0:
172,179,67495,1,4,3:3:0:0:
228,353,67659,1,2,0:0:0:0:
69,318,67825,6,0,L|215:272,1,136.499993751526,8|0,3:2|0:0,0:0:0:0:
310,315,68072,1,2,2:2:0:0:
333,300,68155,2,0,L|354:220,1,68.2499968757631,4|0,3:3|0:0,0:0:0:0:
287,141,68319,1,2,3:2:0:0:
311,46,68484,2,0,B|412:13|412:13|444:107,1,204.749990627289,8|0,3:2|0:0,0:0:0:0:
505,188,68814,5,4,3:3:0:0:
370,160,68979,1,2,0:0:0:0:
202,124,69144,2,0,P|167:63|92:59,1,136.499993751526,8|0,3:2|0:0,0:0:0:0:
24,21,69391,1,2,2:2:0:0:
15,45,69474,2,0,L|36:125,1,68.2499968757631,4|0,3:3|0:0,0:0:0:0:
110,159,69638,1,2,3:2:0:0:
0,319,69803,6,0,P|35:258|110:254,1,136.499993751526,8|0,3:2|0:0,0:0:0:0:
180,302,70050,1,2,3:2:0:0:
207,290,70133,2,0,L|228:210,1,68.2499968757631,4|0,3:3|0:0,0:0:0:0:
202,124,70297,2,0,B|288:98|288:98|299:100|299:100|407:67,1,204.749990627289,2|0,3:2|0:0,0:0:0:0:
489,3,70627,5,2,0:0:0:0:
450,137,70792,1,4,3:3:0:0:
409,272,70957,1,2,0:0:0:0:
453,371,71122,6,0,L|307:325,1,136.499993751526,8|0,3:2|0:0,0:0:0:0:
207,290,71451,2,0,P|167:353|90:366,2,136.499993751526,4|0|8,3:3|0:0|3:2,0:0:0:0:
135,241,71946,5,2,0:0:0:0:
113,164,72111,1,4,3:3:0:0:
91,88,72276,1,2,0:0:0:0:
36,144,72440,5,8,3:2:0:0:
189,184,72605,1,2,0:0:0:0:
207,290,72770,1,4,3:3:0:0:
370,243,72935,1,2,0:0:0:0:
512,185,73100,6,0,L|380:148,1,136.499993751526,8|0,3:2|0:0,0:0:0:0:
281,210,73347,2,0,P|276:137|216:93,1,136.499993751526,2|0,3:2|0:0,0:0:0:0:
151,46,73594,2,0,L|98:60,2,34.1249984378815,2|0|2,3:2|0:0|3:2,0:0:0:0:
26,81,73759,1,12,3:3:0:0:
26,81,74089,5,0,0:0:0:0:
62,1,74253,1,0,0:0:0:0:
110,167,74418,2,0,L|62:335,1,157.500006008148,8|0,3:2|0:0,0:0:0:0:
147,381,74666,2,0,P|233:361|248:285,1,157.500006008148,6|0,3:3|0:0,0:0:0:0:
281,210,74913,2,0,L|195:233,1,78.7500030040742,2|0,3:2|0:0,0:0:0:0:
84,255,75078,5,8,3:2:0:0:
330,317,75242,1,2,0:0:0:0:
209,135,75407,5,8,3:2:0:0:
147,381,75571,1,2,0:0:0:0:
402,174,75737,5,8,3:2:0:0:
176,238,75901,1,2,0:0:0:0:
176,238,75984,1,2,0:0:0:0:
176,238,76067,1,8,3:2:0:0:
403,384,76232,1,4,3:3:0:0:
403,384,76561,5,2,0:0:0:0:
397,360,76644,1,0,0:0:0:0:
390,339,76726,2,0,L|305:300,1,78.7500030040742,8|0,3:2|0:0,0:0:0:0:
176,238,76891,5,2,0:0:0:0:
170,218,76973,1,0,0:0:0:0:
164,199,77056,5,8,3:2:0:0:
204,187,77138,1,2,3:2:0:0:
245,175,77220,1,2,3:2:0:0:
286,163,77303,1,2,3:2:0:0:
328,151,77385,5,8,3:2:0:0:
323,96,77467,1,2,3:2:0:0:
357,53,77549,1,2,3:2:0:0:
410,45,77632,1,2,3:2:0:0:
455,72,77715,6,0,L|422:192,1,115.50000352478,8|0,3:2|0:0,0:0:0:0:
332,254,78045,2,0,P|380:283|389:338,1,115.50000352478,4|0,3:3|0:0,0:0:0:0:
306,381,78374,5,8,3:2:0:0:
277,372,78456,1,0,0:0:0:0:
249,364,78538,1,0,0:0:0:0:
220,355,78621,1,0,0:0:0:0:
203,324,78704,6,0,L|83:357,1,115.50000352478,4|0,3:3|0:0,0:0:0:0:
0,222,79034,2,0,P|36:264|97:261,1,115.50000352478,8|0,3:2|0:0,0:0:0:0:
189,195,79363,5,4,3:3:0:0:
220,74,79528,1,0,0:0:0:0:
427,41,79693,2,0,P|371:40|334:82,1,115.50000352478,8|0,3:2|0:0,0:0:0:0:
261,147,79940,1,0,0:0:0:0:
278,178,80023,2,0,L|347:193,1,57.7500017623902,4|0,3:3|0:0,0:0:0:0:
385,267,80188,1,0,0:0:0:0:
476,242,80352,6,0,L|447:112,1,115.50000352478,8|0,3:2|0:0,0:0:0:0:
427,41,80600,1,0,0:0:0:0:
422,12,80682,2,0,L|353:-3,1,57.7500017623902,4|0,3:3|0:0,0:0:0:0:
310,68,80847,1,0,0:0:0:0:
201,31,81012,6,0,L|71:59,1,115.50000352478,8|0,3:2|0:0,0:0:0:0:
7,142,81259,1,0,0:0:0:0:
24,173,81342,2,0,L|93:188,1,57.7500017623902,4|0,3:3|0:0,0:0:0:0:
163,242,81506,1,0,0:0:0:0:
169,215,81589,1,0,0:0:0:0:
175,188,81671,2,0,L|304:159,2,115.50000352478,8|0|4,3:2|0:0|3:3,0:0:0:0:
88,55,82166,5,0,0:0:0:0:
201,31,82330,2,0,L|313:56,1,115.50000352478,8|0,3:2|0:0,0:0:0:0:
389,134,82660,2,0,L|501:108,1,115.50000352478,4|0,3:3|0:0,0:0:0:0:
416,37,82990,1,12,3:3:0:0:
323,370,83649,5,8,3:2:0:0:
471,334,83896,1,8,3:2:0:0:
369,236,84144,2,0,L|363:207,2,28.8750008811951
390,314,84308,1,12,3:3:0:0:
390,314,84803,5,0,3:2:0:0:
323,370,84968,2,0,P|263:337|210:326,1,115.50000352478,8|0,3:2|0:0,0:0:0:0:
169,246,85215,2,0,P|101:237|46:246,1,115.50000352478,4|0,3:3|0:0,0:0:0:0:
0,324,85462,1,4,3:3:0:0:
69,380,85627,5,8,3:2:0:0:
21,162,85792,1,2,0:0:0:0:
264,224,85957,5,8,3:2:0:0:
80,97,86122,1,2,0:0:0:0:
296,62,86286,5,8,3:2:0:0:
169,246,86451,1,2,0:0:0:0:
369,109,86616,5,8,3:2:0:0:
401,330,86781,1,2,0:0:0:0:
502,160,86946,5,8,3:2:0:0:
468,169,87028,1,2,3:2:0:0:
434,178,87111,1,2,3:2:0:0:
400,187,87193,1,0,3:2:0:0:
367,197,87275,6,0,P|330:189|304:165,1,57.7500017623902,8|2,3:2|3:2,0:0:0:0:
244,272,87440,2,0,P|250:234|236:202,1,57.7500017623902,2|2,3:2|3:2,0:0:0:0:
240,131,87605,1,8,3:2:0:0:
161,89,87770,6,0,P|145:82|124:80,2,38.5000011749268,2|2|2,3:2|3:2|3:2,0:0:0:0:
240,131,87935,1,8,3:2:0:0:
256,41,88100,6,0,P|262:24|277:9,2,38.5000011749268,2|2|2,3:2|3:2|3:2,0:0:0:0:
240,131,88264,1,12,3:3:0:0:
122,261,90737,5,8,3:2:0:0:
122,261,90902,1,4,3:3:0:0:
203,224,92221,5,12,3:3:0:0:
287,183,92880,5,0,3:2:0:0:
283,282,93045,1,2,3:2:0:0:
209,129,93210,1,0,3:2:0:0:
293,83,93374,2,0,L|294:52,2,24.4999992523194,2|0|0,0:0|0:0|0:0,0:0:0:0:
287,183,93539,6,0,P|341:194|379:242,1,115.50000352478,8|0,3:2|0:0,0:0:0:0:
482,355,93869,2,0,L|360:341,1,115.50000352478,4|0,3:3|0:0,0:0:0:0:
283,282,94199,1,8,3:2:0:0:
187,363,94363,2,0,L|263:372,2,57.7500017623902,0|0|4,0:0|0:0|3:3,0:0:0:0:
48,251,94693,2,0,L|105:244,2,57.7500017623902,0|0|8,0:0|0:0|0:0,0:0:0:0:
70,352,95023,5,2,0:0:0:0:
187,363,95188,1,4,3:3:0:0:
319,377,95352,1,2,0:0:0:0:
497,255,95517,6,0,L|375:269,1,115.50000352478,8|0,3:2|0:0,0:0:0:0:
287,209,95764,1,2,0:0:0:0:
265,191,95847,2,0,L|272:133,1,57.7500017623902,4|0,3:3|0:0,0:0:0:0:
340,79,96012,1,2,0:0:0:0:
512,141,96177,6,0,L|335:164,1,157.500006008148,8|0,3:2|0:0,0:0:0:0:
265,191,96424,2,0,L|88:214,1,157.500006008148,4|0,3:3|0:0,0:0:0:0:
10,260,96671,2,0,L|23:175,1,78.7500030040742,6|2,3:3|3:2,0:0:0:0:
42,36,96836,6,0,P|115:36|163:109,1,157.500006008148,8|0,3:2|0:0,0:0:0:0:
192,200,97083,2,0,L|169:377,1,157.500006008148,4|0,3:3|0:0,0:0:0:0:
64,384,97330,2,0,L|55:329,2,52.5000020027161,6|2|2,3:3|0:0|0:0,0:0:0:0:
21,182,97495,1,12,3:3:0:0:
21,182,98319,5,2,0:0:0:0:
192,200,98484,1,0,3:2:0:0:
358,214,98649,2,0,L|414:220,2,52.5000020027161,2|0|0,0:0|0:0|0:0,0:0:0:0:
222,123,98814,6,0,P|257:147|264:241,1,136.499993751526,8|0,3:2|0:0,0:0:0:0:
199,303,99061,1,0,0:0:0:0:
220,333,99144,2,0,L|289:320,1,68.2499968757631,4|0,3:3|0:0,0:0:0:0:
376,302,99308,1,2,0:0:0:0:
477,376,99473,6,0,L|458:236,1,136.499993751526,8|0,3:2|0:0,0:0:0:0:
512,164,99721,1,2,2:2:0:0:
496,140,99803,2,0,L|428:131,1,68.2499968757631,4|0,3:3|0:0,0:0:0:0:
343,120,99968,1,2,3:2:0:0:
220,25,100133,6,0,P|150:15|76:124,1,204.749990627289,8|2,3:2|0:0,0:0:0:0:
50,204,100462,1,4,3:3:0:0:
50,204,100627,1,2,0:0:0:0:
249,231,100792,6,0,P|203:244|140:180,1,136.499993751526,8|0,3:2|0:0,0:0:0:0:
85,124,101039,1,2,2:2:0:0:
96,104,101122,2,0,L|164:95,1,68.2499968757631,4|0,3:3|0:0,0:0:0:0:
220,25,101286,1,2,3:2:0:0:
403,29,101451,6,0,P|355:16|289:80,1,136.499993751526,8|0,3:2|0:0,0:0:0:0:
234,134,101698,1,2,2:2:0:0:
242,145,101781,2,0,L|310:154,1,68.2499968757631,4|0,3:3|0:0,0:0:0:0:
418,121,101947,1,2,0:0:0:0:
422,154,102029,1,2,0:0:0:0:
426,188,102111,1,8,3:2:0:0:
504,265,102275,1,2,0:0:0:0:
500,298,102357,1,2,0:0:0:0:
496,332,102439,1,4,3:3:0:0:
350,369,102605,1,2,0:0:0:0:
346,335,102687,1,2,0:0:0:0:
342,302,102770,6,0,L|203:283,1,136.499993751526,8|0,3:2|0:0,0:0:0:0:
3,256,103100,1,4,3:3:0:0:
94,384,103264,1,0,0:0:0:0:
143,179,103429,1,8,3:2:0:0:
139,145,103511,1,2,0:0:0:0:
135,112,103593,1,2,0:0:0:0:
131,78,103677,1,2,0:0:0:0:
127,45,103759,6,0,L|45:33,1,68.2499968757631,8|0,3:2|0:0,0:0:0:0:
3,256,103924,2,0,L|70:246,1,68.2499968757631,2|2,3:2|3:2,0:0:0:0:
232,120,104089,5,8,3:2:0:0:
50,144,104253,1,2,0:0:0:0:
158,282,104418,1,4,3:3:0:0:
143,179,104583,1,2,0:0:0:0:
232,120,104748,6,0,L|371:99,1,136.499993751526,8|0,3:2|0:0,0:0:0:0:
449,44,104995,1,2,2:2:0:0:
470,69,105078,2,0,L|460:136,1,68.2499968757631,4|0,3:3|0:0,0:0:0:0:
382,201,105242,1,2,3:2:0:0:
512,357,105407,6,0,P|486:304|410:290,1,136.499993751526,8|2,3:2|0:0,0:0:0:0:
325,361,105655,1,0,0:0:0:0:
310,344,105737,2,0,L|320:277,1,68.2499968757631,4|0,3:3|0:0,0:0:0:0:
382,201,105902,1,2,0:0:0:0:
366,99,106067,6,0,L|232:120,1,136.499993751526,8|0,3:2|0:0,0:0:0:0:
162,59,106314,1,2,2:2:0:0:
138,74,106396,2,0,L|128:141,1,68.2499968757631,4|0,3:3|0:0,0:0:0:0:
192,210,106561,1,2,3:2:0:0:
237,16,106726,5,8,3:2:0:0:
289,204,106891,1,2,0:0:0:0:
113,159,107056,1,4,3:3:0:0:
15,384,107221,1,2,0:0:0:0:
315,384,107385,6,0,P|298:317|235:289,1,136.499993751526,8|0,3:2|0:0,0:0:0:0:
155,356,107633,1,6,3:3:0:0:
134,346,107715,2,0,L|124:279,1,68.2499968757631
192,210,107880,2,0,L|200:155,2,45.4999979171754,6|0|0,3:3|0:0|0:0,0:0:0:0:
234,371,108210,5,0,0:0:0:0:
284,115,108374,1,8,3:2:0:0:
27,181,108539,1,8,3:2:0:0:
252,287,108704,6,0,L|422:261,1,157.500006008148,8|0,3:2|0:0,0:0:0:0:
490,316,108951,2,0,B|507:287|507:287|488:162,1,157.500006008148,6|0,3:3|0:0,0:0:0:0:
387,66,109199,2,0,L|372:163,1,78.7500030040742,6|0,3:3|0:0,0:0:0:0:
347,366,109363,5,8,3:2:0:0:
304,193,109528,1,2,0:0:0:0:
252,287,109693,1,4,3:3:0:0:
197,113,109858,1,2,0:0:0:0:
27,181,110023,6,0,L|161:202,1,136.499993751526,8|0,3:2|0:0,0:0:0:0:
252,287,110270,1,2,2:2:0:0:
264,299,110352,2,0,L|331:289,1,68.2499968757631,4|0,3:3|0:0,0:0:0:0:
392,204,110517,1,2,3:2:0:0:
363,106,110682,2,0,B|277:91|277:91|252:103|252:103|151:84,1,204.749990627289,8|0,3:2|0:0,0:0:0:0:
89,20,111012,5,4,3:3:0:0:
102,193,111177,1,2,0:0:0:0:
116,351,111341,2,0,P|58:348|45:262,1,136.499993751526,8|0,3:2|0:0,0:0:0:0:
102,193,111589,1,2,2:2:0:0:
121,178,111671,2,0,L|188:188,1,68.2499968757631,4|0,3:3|0:0,0:0:0:0:
252,287,111836,1,2,3:2:0:0:
392,204,112001,6,0,L|413:70,1,136.499993751526,8|0,3:2|0:0,0:0:0:0:
332,17,112248,1,2,2:2:0:0:
309,4,112330,2,0,L|242:14,1,68.2499968757631,4|0,3:3|0:0,0:0:0:0:
195,107,112495,2,0,P|259:198|247:296,1,204.749990627289,2|0,3:2|0:0,0:0:0:0:
304,364,112825,5,2,0:0:0:0:
409,322,112990,1,4,3:3:0:0:
392,204,113155,1,2,0:0:0:0:
251,286,113319,6,0,P|168:293|117:307,1,136.499993751526,8|0,3:2|0:0,0:0:0:0:
0,167,113649,2,0,L|134:188,1,136.499993751526,4|0,3:3|0:0,0:0:0:0:
305,210,113979,5,8,3:2:0:0:
254,51,114144,1,2,0:0:0:0:
202,122,114308,1,4,3:3:0:0:
159,7,114473,5,2,0:0:0:0:
128,3,114556,1,2,0:0:0:0:
105,0,114638,1,8,3:2:0:0:
286,129,114803,1,2,0:0:0:0:
390,0,114968,1,8,3:2:0:0:
121,92,115133,1,2,0:0:0:0:
337,63,115297,6,0,P|374:128|340:196,1,157.500006008148,8|0,3:2|0:0,0:0:0:0:
277,293,115545,2,0,L|109:319,1,157.500006008148,4|0,3:3|0:0,0:0:0:0:
36,247,115792,2,0,L|48:162,2,78.7500030040742,2|2|12,0:0|0:0|3:3,0:0:0:0:
116,331,116616,6,0,L|284:305,1,157.500006008148,8|0,3:2|0:0,0:0:0:0:
340,196,116863,2,0,P|412:216|437:287,1,157.500006008148,4|0,3:3|0:0,0:0:0:0:
345,355,117111,2,0,L|359:264,1,78.7500030040742,4|0,3:3|0:0,0:0:0:0:
383,111,117275,5,8,3:2:0:0:
76,43,117440,1,2,0:0:0:0:
211,315,117605,5,8,3:2:0:0:
279,8,117770,1,2,0:0:0:0:
20,203,117935,5,8,3:2:0:0:
74,194,118017,1,2,3:2:0:0:
129,185,118099,1,2,3:2:0:0:
185,176,118182,1,2,3:2:0:0:
239,166,118264,2,0,L|263:66,3,78.7500030040742,8|2|2|2,3:2|3:2|3:2|3:2,0:0:0:0:
211,315,118759,5,2,0:0:0:0:
169,68,118924,1,8,3:2:0:0:
214,328,119089,1,2,3:2:0:0:
331,228,119253,5,8,3:2:0:0:
373,235,119335,1,0,3:2:0:0:
414,242,119418,2,0,L|403:191,2,39.3750015020371,2|2|2,3:2|3:2|3:2,0:0:0:0:
382,76,119583,5,8,3:2:0:0:
424,69,119665,1,0,3:2:0:0:
465,62,119748,2,0,L|454:113,2,39.3750015020371,2|2|2,3:2|3:2|3:2,0:0:0:0:
508,202,120078,5,12,3:3:0:0:
306,51,120407,2,0,L|295:102,2,52.5000020027161
392,0,120572,1,8,3:2:0:0:
326,202,120737,1,2,0:0:0:0:
199,31,120902,1,8,3:2:0:0:
447,105,121067,1,2,0:0:0:0:
447,105,121396,5,2,0:0:0:0:
401,188,121561,2,0,L|412:239,2,44.6250008511543,8|2|2,3:2|0:0|0:0,0:0:0:0:
326,202,121726,2,0,L|335:251,2,44.6250008511543,2|2|2,3:2|0:0|0:0,0:0:0:0:
235,229,121891,6,0,P|170:204|153:91,1,178.500003404617,8|0,3:2|0:0,0:0:0:0:
199,31,122138,2,0,B|289:45|289:45|299:43|299:43|389:56,1,178.500003404617,12|0,3:3|0:0,0:0:0:0:
447,105,122385,1,12,3:3:0:0:
282,138,122550,6,0,L|223:149,5,59.5000011348725,0|0|0|0|0|0,3:2|3:2|3:2|3:2|3:2|3:2,0:0:0:0:
146,105,122880,1,12,3:3:0:0:
