osu file format v14

[General]
AudioFilename: audio.mp3
AudioLeadIn: 0
PreviewTime: 56616
Countdown: 0
SampleSet: Soft
StackLeniency: 0.2
Mode: 0
LetterboxInBreaks: 0
WidescreenStoryboard: 1

[Editor]
DistanceSpacing: 1.1
BeatDivisor: 8
GridSize: 8
TimelineZoom: 4.699997

[Metadata]
Title:Sore wa Hanabi no Youna Koi
TitleUnicode:それは花火のような恋
Artist:Natsuiro Burning Love*Prim
ArtistUnicode:夏色バーニングラブ☆Prim
Creator:Yooh
Version:Down's Insane
Source:BeatStream アニムトライヴ
Tags:KONAMI beatmania IIDX 22 PENDUAL jubeat plus qubell sdvx sound voltex IV heavenly heaven animtrive anim trive T.Kakuta megafan down integertempest electronic japanese
BeatmapID:2936984
BeatmapSetID:1419210

[Difficulty]
HPDrainRate:5
CircleSize:4
OverallDifficulty:8
ApproachRate:9
SliderMultiplier:1.6
SliderTickRate:1

[Events]
//Background and Video events
0,0,"01-04-2021-13-06_GBWZHhMdkY_waifu2x_art_noise1_tta_1.png",0,0
//Break Periods
2,88464,90137
//Storyboard Layer 0 (Background)
//Storyboard Layer 1 (Fail)
//Storyboard Layer 2 (Pass)
//Storyboard Layer 3 (Foreground)
//Storyboard Layer 4 (Overlay)
//Storyboard Sound Samples

[TimingPoints]
1232,329.67032967033,4,2,1,70,1,0
5929,-100,4,2,2,5,0,0
6012,-100,4,2,1,70,0,0
13182,-100,4,2,2,5,0,0
13265,-100,4,2,1,70,0,0
13429,-100,4,2,1,70,0,0
14418,-100,4,2,1,60,0,0
14748,-100,4,2,1,60,0,0
15407,-100,4,2,1,60,0,0
16231,-100,4,2,1,60,0,0
17879,-100,4,2,1,60,0,0
18622,-100,4,2,2,5,0,0
18704,-100,4,2,1,60,0,0
19198,-100,4,2,1,60,0,0
22660,-100,4,2,1,60,0,0
23154,-100,4,2,1,60,0,0
24638,-100,4,2,1,60,0,0
25215,-100,4,2,2,5,0,0
25297,-100,4,2,1,60,0,0
26616,-100,4,2,1,60,0,0
29253,-100,4,2,1,60,0,0
29748,-100,4,2,1,60,0,0
32220,-100,4,2,1,60,0,0
35517,-125,4,2,1,65,0,0
37495,-100,4,2,1,65,0,0
38155,-125,4,2,1,65,0,0
40133,-100,4,2,1,65,0,0
40792,-100,4,2,1,70,0,0
41945,-100,4,2,1,60,0,0
44253,-100,4,2,1,60,0,0
51011,-100,4,2,1,60,0,0
51589,-100,4,2,2,5,0,0
51671,-100,4,2,1,60,0,0
52907,-100,4,2,2,5,0,0
52989,-100,4,2,1,60,0,0
55297,-83.3333333333333,4,2,1,80,0,0
56616,-100,4,2,1,80,0,1
62221,-100,4,2,1,80,0,1
66506,-100,4,2,1,80,0,1
67166,-100,4,2,1,80,0,1
68815,-100,4,2,1,80,0,1
70628,-100,4,2,1,80,0,1
73759,-100,4,2,1,80,0,0
74418,-100,4,2,1,80,0,0
75078,-100,4,2,1,80,0,1
77715,-100,4,2,1,70,0,0
82330,-100,4,2,1,70,0,0
88264,-100,4,2,1,70,0,0
93539,-100,4,2,1,70,0,0
96177,-83.3333333333333,4,2,1,80,0,0
98319,-100,4,2,1,80,0,0
98814,-100,4,2,1,80,0,1
108704,-100,4,2,1,80,0,1
109363,-100,4,2,1,80,0,1
111012,-100,4,2,1,80,0,1
112825,-100,4,2,1,80,0,1
115297,-100,4,2,1,80,0,1
115957,-100,4,2,1,80,0,0
117275,-100,4,2,1,80,0,1
119913,-100,4,2,1,80,0,0
121396,-100,4,2,1,80,0,0

[Colours]
Combo1 : 255,206,255
Combo2 : 255,255,83
Combo3 : 121,255,255

[HitObjects]
322,110,1232,5,8,3:2:0:0:
316,129,1314,1,2,3:2:0:0:
311,148,1396,1,2,3:2:0:0:
306,167,1479,1,2,3:2:0:0:
301,187,1561,1,4,3:3:0:0:
301,187,2056,1,0,0:0:0:0:
230,141,2221,1,8,3:2:0:0:
380,64,2385,6,0,P|374:107|367:153,1,80,0|8,0:0|3:2,0:0:0:0:
460,279,2715,1,0,0:0:0:0:
460,115,2880,1,8,3:2:0:0:
342,219,3045,1,0,0:0:0:0:
368,143,3210,5,8,3:2:0:0:
290,281,3374,2,0,L|297:319,3,26.6666666666667,2|0|0|8,3:2|0:0|0:0|3:2,0:0:0:0:
207,265,3704,2,0,L|214:303,2,26.6666666666667,2|0|0,3:2|0:0|0:0,0:0:0:0:
209,250,3869,5,8,3:2:0:0:
192,261,3951,1,2,3:2:0:0:
176,272,4033,1,2,3:2:0:0:
158,283,4116,1,2,3:2:0:0:
141,292,4198,1,4,3:3:0:0:
141,292,4693,1,0,0:0:0:0:
98,225,4858,1,8,3:2:0:0:
216,126,5023,6,0,P|235:168|252:199,1,80,4|0,3:3|0:0,0:0:0:0:
78,108,5352,2,0,P|118:92|172:60,1,80,4|0,3:3|0:0,0:0:0:0:
325,156,5682,2,0,P|377:186|452:219,1,120,4|0,3:3|0:0,0:0:0:0:
451,202,6012,1,0,0:0:0:0:
318,255,6177,1,8,3:2:0:0:
445,352,6341,2,0,P|432:360|419:379,2,26.6666666666667,2|2|2,3:2|3:2|3:2,0:0:0:0:
462,351,6506,6,0,P|479:298|497:263,1,80,8|0,3:2|0:0,0:0:0:0:
451,202,6753,1,0,0:0:0:0:
437,191,6836,1,4,3:3:0:0:
420,185,6918,1,0,0:0:0:0:
402,188,7001,2,0,P|379:200|348:215,1,40
294,294,7166,5,8,3:2:0:0:
158,220,7330,1,2,0:0:0:0:
253,147,7495,1,4,3:3:0:0:
213,279,7660,6,0,P|202:322|192:370,1,80,2|8,0:0|3:2,0:0:0:0:
90,293,7990,1,2,0:0:0:0:
73,299,8072,1,0,0:0:0:0:
58,310,8155,2,0,P|47:294|28:261,1,40,4|0,3:3|0:0,0:0:0:0:
98,178,8319,2,0,P|103:153|119:115,1,40,2|0,0:0|0:0,0:0:0:0:
38,57,8484,5,8,3:2:0:0:
189,136,8649,1,0,0:0:0:0:
18,197,8814,1,4,3:3:0:0:
225,207,8979,2,0,P|212:226|196:254,1,40
72,274,9144,6,0,P|132:290|169:309,1,80,8|0,3:2|0:0,0:0:0:0:
227,318,9391,1,0,0:0:0:0:
241,329,9474,1,4,3:3:0:0:
258,335,9556,1,0,0:0:0:0:
276,332,9639,2,0,P|298:319|330:305,1,40
490,230,9803,6,0,P|483:253|472:300,1,40,8|0,3:2|0:0,0:0:0:0:
418,199,9968,2,0,P|411:222|400:269,1,40,2|0,0:0|0:0,0:0:0:0:
337,197,10133,2,0,P|330:220|319:267,1,40,8|0,3:2|0:0,0:0:0:0:
218,99,10297,6,0,P|264:86|326:64,1,80,2|0,0:0|0:0,0:0:0:0:
140,130,10627,2,0,P|105:96|55:53,1,80,4|0,3:3|0:0,0:0:0:0:
212,180,10957,2,0,P|200:226|188:291,1,80,4|0,3:3|0:0,0:0:0:0:
357,353,11286,5,0,0:0:0:0:
473,298,11451,1,8,3:2:0:0:
318,232,11616,1,2,0:0:0:0:
373,173,11781,5,0,0:0:0:0:
207,64,11946,2,0,P|200:85|186:117,1,40,2|0,0:0|0:0,0:0:0:0:
117,124,12111,1,4,3:3:0:0:
39,16,12275,1,0,0:0:0:0:
4,167,12440,6,0,P|41:151|61:145,1,40,8|0,3:2|0:0,0:0:0:0:
102,203,12605,2,0,P|134:227|149:241,1,40,2|0,0:0|0:0,0:0:0:0:
124,304,12770,2,0,P|119:344|114:364,1,40,8|0,3:2|0:0,0:0:0:0:
302,240,12935,6,0,P|282:187|259:102,1,120,2|0,0:0|0:0,0:0:0:0:
251,114,13264,1,0,3:2:0:0:
404,242,13429,6,0,P|395:249|378:268,6,20,2|2|2|0|2|2|2,3:2|0:0|0:0|0:0|0:0|0:0|0:0,0:0:0:0:
417,243,13759,6,0,P|435:192|455:146,1,80,4|0,3:3|0:0,0:0:0:0:
463,160,14006,2,0,P|447:132|405:75,1,80,4|0,3:3|0:0,0:0:0:0:
398,87,14253,1,4,3:3:0:0:
289,151,14418,6,0,P|253:138|201:112,1,80,8|0,3:2|0:0,0:0:0:0:
140,220,14748,2,0,P|124:261|105:306,1,80,4|2,3:3|0:0,0:0:0:0:
251,257,15078,2,0,P|300:233|342:224,1,80,8|0,3:2|0:0,0:0:0:0:
324,226,15325,1,0,0:0:0:0:
324,226,15407,1,4,3:3:0:0:
425,121,15572,1,2,0:0:0:0:
510,233,15737,6,0,P|498:267|476:338,1,80,8|0,3:2|0:0,0:0:0:0:
411,276,16067,2,0,P|423:237|436:200,1,80,4|2,3:3|0:0,0:0:0:0:
354,81,16396,2,0,P|316:100|257:128,1,80,8|0,3:2|0:0,0:0:0:0:
282,116,16644,1,2,0:0:0:0:
282,116,16726,1,4,3:3:0:0:
142,54,16891,1,2,0:0:0:0:
74,171,17056,6,0,L|49:266,1,80,8|0,3:2|0:0,0:0:0:0:
53,248,17303,1,2,0:0:0:0:
53,248,17385,1,4,3:3:0:0:
31,101,17550,1,2,0:0:0:0:
150,225,17715,2,0,P|197:241|243:258,1,80,8|2,3:2|0:0,0:0:0:0:
330,222,18045,1,4,3:3:0:0:
226,330,18210,1,0,3:2:0:0:
374,367,18374,6,0,P|427:340|513:316,1,120,10|0,0:0|0:0,0:0:0:0:
491,307,18704,1,4,3:3:0:0:
330,222,18869,1,0,3:2:0:0:
449,159,19034,1,8,3:2:0:0:
450,149,19116,1,0,0:0:0:0:
452,139,19198,1,2,0:0:0:0:
453,129,19281,1,0,0:0:0:0:
455,119,19363,2,0,P|448:91|428:64,3,40,4|0|2|0,3:3|0:0|0:0|0:0,0:0:0:0:
453,66,19693,6,0,P|408:55|355:36,1,80,8|0,3:2|0:0,0:0:0:0:
212,133,20023,1,4,3:3:0:0:
295,41,20188,1,0,0:0:0:0:
347,193,20352,2,0,P|361:228|388:286,1,80,8|2,3:2|0:0,0:0:0:0:
456,369,20682,1,4,3:3:0:0:
315,318,20847,1,2,0:0:0:0:
434,190,21012,5,8,3:2:0:0:
263,253,21177,2,0,P|222:229|180:212,1,80,0|4,0:0|3:3,0:0:0:0:
162,82,21506,1,0,0:0:0:0:
237,126,21671,6,0,P|246:76|259:30,1,80,8|2,3:2|0:0,0:0:0:0:
135,157,22001,1,4,3:3:0:0:
20,98,22166,6,0,P|14:81|-2:47,2,40,2|0|8,0:0|0:0|3:2,0:0:0:0:
162,82,22495,1,0,0:0:0:0:
54,172,22660,2,0,P|42:193|26:235,1,40,4|0,3:3|0:0,0:0:0:0:
126,283,22825,1,0,0:0:0:0:
252,194,22990,1,8,3:2:0:0:
242,190,23072,1,0,0:0:0:0:
233,187,23154,1,0,0:0:0:0:
224,183,23237,1,0,0:0:0:0:
215,178,23319,2,0,P|205:155|189:125,3,40,4|0|2|0,3:3|0:0|0:0|0:0,0:0:0:0:
179,130,23649,5,8,3:2:0:0:
293,87,23814,1,2,0:0:0:0:
133,65,23979,1,4,3:3:0:0:
331,156,24144,1,2,0:0:0:0:
190,214,24308,6,0,P|179:252|161:306,1,80,8|2,3:3|0:0,0:0:0:0:
166,290,24556,1,0,0:0:0:0:
166,290,24638,1,8,3:2:0:0:
310,293,24803,6,0,P|329:301|341:309,2,26.6666666666667,2|2|2,3:2|3:2|3:2,0:0:0:0:
299,291,24968,6,0,P|359:246|406:247,1,120,8|0,3:2|0:0,0:0:0:0:
419,235,25297,1,4,3:3:0:0:
314,109,25462,1,2,0:0:0:0:
452,111,25627,5,8,3:2:0:0:
358,43,25792,1,0,0:0:0:0:
358,43,25874,1,2,0:0:0:0:
358,43,25957,1,4,3:3:0:0:
371,170,26122,1,2,0:0:0:0:
238,141,26286,6,0,P|186:127|150:84,1,80,8|0,3:2|0:0,0:0:0:0:
86,200,26616,1,4,3:3:0:0:
1,83,26781,1,0,0:0:0:0:
152,34,26946,5,8,3:2:0:0:
84,120,27111,1,0,0:0:0:0:
84,120,27193,1,2,0:0:0:0:
84,120,27275,1,4,3:3:0:0:
176,258,27440,1,2,0:0:0:0:
7,184,27605,6,0,P|60:194|109:204,1,80,8|0,3:2|0:0,0:0:0:0:
85,199,27852,1,2,0:0:0:0:
85,199,27935,1,4,3:3:0:0:
152,331,28100,1,2,0:0:0:0:
248,223,28264,2,0,P|264:176|285:138,1,80,8|0,3:2|0:0,0:0:0:0:
223,28,28594,1,4,3:3:0:0:
349,114,28759,1,0,0:0:0:0:
418,11,28924,6,0,P|387:21|336:39,1,80,8|0,3:2|0:0,0:0:0:0:
491,68,29253,1,4,3:3:0:0:
349,114,29418,1,2,0:0:0:0:
442,196,29583,2,0,P|458:218|471:248,2,40,8|0|2,3:2|0:0|0:0,0:0:0:0:
345,308,29913,1,4,3:3:0:0:
448,355,30078,1,2,0:0:0:0:
369,232,30242,6,0,P|325:224|256:206,1,80,8|0,3:2|0:0,0:0:0:0:
117,129,30572,2,0,P|149:173|164:209,1,80,4|0,3:3|0:0,0:0:0:0:
258,290,30902,1,8,3:2:0:0:
314,141,31067,2,0,P|328:91|344:65,1,80,0|4,0:0|3:3,0:0:0:0:
204,28,31396,1,2,0:0:0:0:
204,28,31479,1,0,0:0:0:0:
204,28,31561,6,0,P|166:42|123:52,1,80,8|0,3:2|0:0,0:0:0:0:
11,22,31891,1,4,3:3:0:0:
117,129,32056,1,0,0:0:0:0:
268,83,32221,2,0,P|259:125|250:166,1,80,8|0,3:2|0:0,0:0:0:0:
251,161,32468,1,2,0:0:0:0:
251,161,32550,1,4,3:3:0:0:
127,51,32715,1,2,0:0:0:0:
36,165,32880,5,8,3:2:0:0:
36,165,32962,1,2,0:0:0:0:
36,165,33045,2,0,P|20:214|8:257,1,80,2|4,0:0|3:3,0:0:0:0:
140,327,33374,1,0,0:0:0:0:
221,183,33539,2,0,P|206:163|192:152,2,40,8|0|0,3:2|0:0|0:0,0:0:0:0:
140,327,33869,2,0,P|103:316|55:310,1,80,4|0,3:3|0:0,0:0:0:0:
276,245,34199,6,0,P|325:226|340:214,1,40,8|0,3:2|0:0,0:0:0:0:
463,202,34363,2,0,P|444:194|425:189,1,40,2|0,0:0|0:0,0:0:0:0:
337,124,34528,6,0,P|356:173|368:188,1,40,8|0,3:2|0:0,0:0:0:0:
380,299,34692,2,0,P|387:280|392:261,1,40,2|0,0:0|0:0,0:0:0:0:
262,167,34858,5,8,3:2:0:0:
173,232,35023,2,0,P|167:248|164:268,3,26.6666666666667,2|2|2|8,3:2|3:2|3:2|3:2,0:0:0:0:
113,92,35352,2,0,P|107:76|104:56,2,26.6666666666667,2|2|2,3:2|3:2|3:2,0:0:0:0:
105,106,35517,6,0,P|170:93|242:75,1,128,12|0,3:3|0:0,0:0:0:0:
377,32,36012,2,0,P|404:41|421:51,1,32,8|0,3:2|0:0,0:0:0:0:
316,85,36177,6,0,P|298:127|280:196,2,96,4|0|4,3:3|0:0|3:3,0:0:0:0:
393,125,36753,1,0,0:0:0:0:
393,125,36836,5,0,0:0:0:0:
320,245,37001,2,0,P|329:271|340:314,1,64,4|0,3:3|0:0,0:0:0:0:
207,172,37330,1,8,3:2:0:0:
173,307,37495,6,0,P|107:327|69:330,1,80,4|0,3:3|0:0,0:0:0:0:
83,340,37742,2,0,P|37:325|7:302,1,80,4|0,3:3|0:0,0:0:0:0:
8,289,37990,1,4,3:3:0:0:
77,150,38155,6,0,B|96:122|96:122|50:20,1,128,12|0,3:3|0:0,0:0:0:0:
221,30,38649,2,0,L|269:47,1,32,8|0,3:2|0:0,0:0:0:0:
263,120,38814,6,0,P|226:133|163:160,2,96,4|0|4,3:3|0:0|3:3,0:0:0:0:
339,156,39391,1,0,0:0:0:0:
339,156,39473,5,0,0:0:0:0:
447,29,39638,2,0,P|442:68|433:118,1,64,4|0,3:3|0:0,0:0:0:0:
385,221,39968,1,8,3:2:0:0:
263,120,40133,6,0,P|235:138|161:153,1,80,4|0,3:3|0:0,0:0:0:0:
174,146,40380,2,0,P|164:128|98:98,1,80,4|0,0:3|0:0,0:0:0:0:
99,107,40627,1,4,3:3:0:0:
26,212,40792,6,0,P|18:229|5:275,2,40,8|0|2,3:2|0:0|0:0,0:0:0:0:
158,253,41122,2,0,P|206:268|242:278,1,80,4|2,3:3|0:0,0:0:0:0:
396,224,41451,1,8,3:2:0:0:
297,335,41616,1,2,0:0:0:0:
406,304,41781,1,4,3:3:0:0:
284,183,41946,1,2,0:0:0:0:
284,183,42028,1,0,0:0:0:0:
284,183,42111,6,0,P|292:152|298:128,1,40,8|0,3:2|0:0,0:0:0:0:
188,53,42275,2,0,P|196:84|202:108,1,40
163,163,42440,1,4,3:3:0:0:
55,30,42605,1,2,0:0:0:0:
55,30,42688,1,0,0:0:0:0:
55,30,42770,6,0,P|38:75|31:135,1,80,8|0,3:2|0:0,0:0:0:0:
32,106,43017,1,2,0:0:0:0:
32,106,43100,1,4,3:3:0:0:
163,163,43264,1,2,0:0:0:0:
64,263,43429,5,8,3:2:0:0:
201,312,43594,2,0,P|220:327|235:343,2,40,2|0|4,0:0|0:0|3:3,0:0:0:0:
83,185,43924,1,2,0:0:0:0:
223,235,44089,6,0,P|269:218|313:207,1,80,8|0,3:2|0:0,0:0:0:0:
443,116,44418,2,0,P|418:106|355:80,1,80,4|0,3:3|0:0,0:0:0:0:
233,20,44748,6,0,P|240:40|255:73,1,40,8|0,3:2|0:0,0:0:0:0:
158,46,44913,2,0,P|165:66|180:99,1,40,2|0,0:0|0:0,0:0:0:0:
99,179,45078,6,0,P|106:159|121:126,1,40,8|0,3:2|0:0,0:0:0:0:
24,153,45243,2,0,P|31:133|46:100,1,40,2|0,0:0|0:0,0:0:0:0:
82,278,45407,5,8,3:2:0:0:
82,278,45490,1,2,3:2:0:0:
82,278,45572,2,0,P|135:254|148:250,1,40,2|2,3:2|3:2,0:0:0:0:
215,199,45737,2,0,P|235:205|248:209,4,20,8|2|2|0|2,3:2|3:2|3:2|0:0|3:2,0:0:0:0:
398,349,46067,6,0,L|510:332,1,80,8|2,3:2|0:0,0:0:0:0:
427,205,46396,1,4,3:3:0:0:
327,302,46561,1,2,0:0:0:0:
217,207,46726,6,0,P|228:156|237:108,1,80,8|0,3:2|0:0,0:0:0:0:
233,128,46973,1,2,0:0:0:0:
233,128,47056,1,4,3:3:0:0:
148,259,47221,1,2,0:0:0:0:
148,259,47303,1,2,0:0:0:0:
148,259,47385,6,0,P|115:272|58:300,1,80,8|0,3:2|0:0,0:0:0:0:
8,170,47715,1,4,3:3:0:0:
127,73,47880,1,0,0:0:0:0:
14,26,48045,6,0,P|41:82|53:114,1,80,8|0,3:2|0:0,0:0:0:0:
47,98,48292,1,2,0:0:0:0:
47,98,48374,1,4,3:3:0:0:
187,134,48539,1,2,0:0:0:0:
268,18,48704,6,0,P|316:38|354:52,1,80,8|0,3:2|0:0,0:0:0:0:
342,47,48951,1,2,0:0:0:0:
342,47,49034,1,4,3:3:0:0:
453,145,49199,1,2,0:0:0:0:
309,188,49363,5,8,3:2:0:0:
419,256,49528,1,0,0:0:0:0:
419,256,49611,1,2,0:0:0:0:
419,256,49693,1,4,3:3:0:0:
283,112,49858,2,0,P|258:118|227:128,1,40,2|2,0:0|0:0,0:0:0:0:
243,27,50023,6,0,P|294:35|343:39,1,80,8|0,3:2|0:0,0:0:0:0:
209,196,50352,2,0,P|169:200|129:206,1,80,4|0,3:3|0:0,0:0:0:0:
129,206,50600,1,0,0:0:0:0:
129,206,50682,1,8,3:2:0:0:
34,77,50847,1,0,0:0:0:0:
162,24,51012,2,0,P|150:70|141:125,1,80,4|0,3:3|0:0,0:0:0:0:
41,224,51341,6,0,P|65:277|78:368,1,120,8|0,3:2|0:0,0:0:0:0:
69,351,51671,1,4,3:3:0:0:
224,284,51836,1,2,0:0:0:0:
173,180,52001,2,0,P|135:173|93:164,1,80,8|2,3:2|0:0,0:0:0:0:
219,55,52330,1,4,3:3:0:0:
334,109,52495,2,0,P|346:133|349:163,1,40,2|2,0:0|0:0,0:0:0:0:
384,216,52660,6,0,P|397:154|425:88,1,120,8|0,3:2|0:0,0:0:0:0:
439,97,52990,1,8,3:2:0:0:
307,27,53155,1,2,0:0:0:0:
215,112,53319,2,0,P|234:162|243:211,1,80,8|0,3:2|0:0,0:0:0:0:
239,187,53567,1,0,0:0:0:0:
239,187,53649,1,8,3:2:0:0:
338,282,53814,6,0,P|328:304|315:338,2,40,2|2|8,0:0|0:0|3:2,0:0:0:0:
477,243,54144,1,2,0:0:0:0:
328,202,54308,1,8,3:2:0:0:
408,335,54473,1,2,0:0:0:0:
248,280,54638,5,8,3:2:0:0:
238,283,54720,1,2,3:2:0:0:
229,286,54802,1,2,3:2:0:0:
219,290,54885,1,2,3:2:0:0:
210,293,54967,1,8,3:2:0:0:
200,297,55050,1,2,3:2:0:0:
191,300,55132,1,2,3:2:0:0:
182,303,55214,1,2,3:2:0:0:
172,307,55297,6,0,P|178:239|196:197,1,95.9999970703126,8|0,3:2|0:0,0:0:0:0:
175,203,55545,2,0,P|136:213|69:228,1,95.9999970703126,4|0,0:3|0:0,0:0:0:0:
62,215,55792,1,4,0:3:0:0:
171,56,55957,1,12,3:3:0:0:
171,56,56286,1,8,3:2:0:0:
289,109,56451,2,0,P|304:135|308:149,2,31.9999990234375,2|2|2,3:2|3:2|3:2,0:0:0:0:
282,95,56616,6,0,P|386:75|432:68,1,120,8|2,3:2|0:0,0:0:0:0:
411,58,56946,1,4,3:3:0:0:
465,206,57111,1,2,0:0:0:0:
465,206,57193,1,0,0:0:0:0:
465,206,57275,2,0,P|442:249|432:296,1,80,8|0,3:2|0:0,0:0:0:0:
434,279,57523,1,0,0:0:0:0:
434,279,57605,1,4,3:3:0:0:
299,176,57770,1,2,3:2:0:0:
184,273,57935,6,0,P|160:258|102:237,1,80,8|0,3:2|0:0,0:0:0:0:
96,231,58182,2,0,P|71:238|19:260,1,80,2|0,0:0|0:0,0:0:0:0:
12,276,58429,1,2,0:0:0:0:
133,154,58594,6,0,P|175:122|187:93,1,80,8|0,3:2|0:0,0:0:0:0:
185,98,58841,1,2,2:2:0:0:
185,98,58924,1,4,3:3:0:0:
29,20,59089,1,2,3:2:0:0:
57,190,59253,6,0,P|68:234|73:282,1,80,8|0,3:2|0:0,0:0:0:0:
226,357,59583,2,0,P|232:317|251:262,1,80,4|2,3:3|0:0,0:0:0:0:
243,279,59830,1,2,0:0:0:0:
243,279,59913,1,8,3:2:0:0:
143,204,60078,1,2,0:0:0:0:
266,123,60242,2,0,P|318:141|368:149,1,80,4|2,3:3|0:0,0:0:0:0:
470,233,60572,6,0,P|456:244|424:276,3,40,8|0|0|0,3:2|0:0|0:0|0:0,0:0:0:0:
423,108,60902,2,0,P|409:97|377:65,3,40,4|0|2|0,3:3|0:0|0:0|0:0,0:0:0:0:
346,191,61232,1,8,3:2:0:0:
341,192,61314,1,2,0:0:0:0:
336,194,61396,1,2,0:0:0:0:
331,195,61479,1,2,0:0:0:0:
327,197,61561,1,8,3:2:0:0:
322,199,61644,1,0,0:0:0:0:
317,200,61726,1,2,3:2:0:0:
312,202,61808,1,0,0:0:0:0:
308,204,61891,5,8,3:2:0:0:
242,62,62056,1,0,0:0:0:0:
133,189,62221,2,0,P|166:237|179:284,1,80,4|2,3:3|0:0,0:0:0:0:
132,110,62550,6,0,P|95:97|36:75,1,80,8|0,3:2|0:0,0:0:0:0:
56,82,62797,1,2,2:2:0:0:
56,82,62880,1,4,3:3:0:0:
242,62,63045,1,2,3:2:0:0:
367,202,63210,6,0,P|353:244|347:306,1,80,8|2,3:2|0:0,0:0:0:0:
276,192,63539,1,4,3:3:0:0:
425,87,63704,1,2,0:0:0:0:
292,35,63869,6,0,P|275:31|207:13,1,80,8|0,3:2|0:0,0:0:0:0:
200,27,64116,2,0,P|210:82|211:126,1,80,2|0,2:2|0:0,0:0:0:0:
198,123,64363,1,2,3:2:0:0:
91,213,64528,5,8,3:2:0:0:
244,249,64693,1,2,0:0:0:0:
115,136,64858,1,4,3:3:0:0:
149,275,65023,2,0,P|157:301|161:330,1,40,2|0,0:0|0:0,0:0:0:0:
229,358,65188,5,8,3:2:0:0:
71,310,65352,1,0,0:0:0:0:
244,249,65517,1,0,0:0:0:0:
115,136,65682,6,0,P|106:141|79:164,3,26.6666666666667,6|2|2|0,3:3|0:0|0:0|0:0,0:0:0:0:
244,249,66012,6,0,P|261:260|301:289,1,40
353,317,66177,2,0,P|354:295|359:247,1,40,8|0,3:2|0:0,0:0:0:0:
357,186,66341,2,0,P|337:195|293:215,1,40
225,100,66506,5,8,3:2:0:0:
216,99,66588,1,0,0:0:0:0:
206,98,66670,1,0,0:0:0:0:
196,97,66753,1,4,3:3:0:0:
186,95,66836,2,0,P|173:68|162:50,3,40,0|0|4|0,0:0|0:0|3:3|0:0,0:0:0:0:
152,48,67166,6,0,P|101:41|59:25,1,80,8|2,3:2|0:0,0:0:0:0:
20,119,67495,1,4,3:3:0:0:
166,210,67660,1,2,0:0:0:0:
53,194,67825,6,0,P|48:239|40:295,1,80,8|0,3:2|0:0,0:0:0:0:
43,273,68072,1,2,2:2:0:0:
43,273,68155,1,4,3:3:0:0:
192,349,68319,1,2,3:2:0:0:
166,210,68484,6,0,P|158:183|136:118,1,80,8|0,3:2|0:0,0:0:0:0:
20,119,68814,1,4,3:3:0:0:
161,16,68979,1,2,0:0:0:0:
238,160,69144,6,0,P|300:181|340:193,1,80,8|0,3:2|0:0,0:0:0:0:
329,183,69391,2,0,P|358:154|353:105,1,80,2|0,2:2|0:0,0:0:0:0:
348,100,69638,1,2,3:2:0:0:
434,259,69803,6,0,P|466:298|492:342,1,80,8|0,3:2|0:0,0:0:0:0:
481,322,70050,1,2,2:2:0:0:
481,322,70133,1,4,3:3:0:0:
449,151,70297,1,2,3:2:0:0:
294,280,70462,2,0,L|208:310,1,80,8|2,3:2|0:0,0:0:0:0:
100,185,70792,1,4,3:3:0:0:
235,216,70957,1,2,0:0:0:0:
151,79,71122,6,0,P|133:51|119:-3,1,80,8|0,3:2|0:0,0:0:0:0:
309,92,71451,2,0,P|264:121|229:162,1,80,4|0,3:3|0:0,0:0:0:0:
100,185,71781,2,0,P|142:218|152:259,1,80,8|2,3:2|0:0,0:0:0:0:
251,342,72111,1,4,3:3:0:0:
302,203,72275,1,2,0:0:0:0:
399,315,72440,6,0,P|452:329|509:344,1,80,8|2,3:2|0:0,0:0:0:0:
482,179,72770,1,4,3:3:0:0:
330,278,72935,1,2,0:0:0:0:
358,146,73100,6,0,P|342:118|311:82,1,80,8|0,3:2|0:0,0:0:0:0:
293,79,73347,2,0,P|254:61|208:32,1,80,2|0,3:2|0:0,0:0:0:0:
202,49,73594,1,2,3:2:0:0:
79,193,73759,5,12,3:3:0:0:
79,193,74418,6,0,P|65:243|55:281,1,80,8|0,3:2|0:0,0:0:0:0:
64,287,74666,2,0,P|112:298|158:314,1,80,6|0,3:3|0:0,0:0:0:0:
160,300,74913,1,2,3:2:0:0:
275,249,75078,5,8,3:2:0:0:
166,190,75242,1,2,0:0:0:0:
266,151,75407,1,8,3:2:0:0:
160,300,75572,1,2,0:0:0:0:
327,337,75737,6,0,P|369:344|414:357,1,80,8|2,3:2|0:0,0:0:0:0:
405,353,75984,1,2,0:0:0:0:
405,353,76067,1,8,3:2:0:0:
498,230,76232,1,4,3:3:0:0:
424,262,76396,5,0,0:0:0:0:
358,124,76561,2,0,P|390:115|419:104,1,40,2|0,0:0|0:0,0:0:0:0:
261,168,76726,2,0,P|293:177|322:188,1,40,8|0,3:2|0:0,0:0:0:0:
211,69,76891,2,0,P|243:60|272:49,1,40,2|0,0:0|0:0,0:0:0:0:
113,121,77056,1,8,3:2:0:0:
109,130,77138,1,2,3:2:0:0:
105,139,77220,1,2,3:2:0:0:
102,149,77303,1,2,3:2:0:0:
99,158,77385,1,8,3:2:0:0:
96,168,77468,1,2,3:2:0:0:
94,177,77550,1,2,3:2:0:0:
91,187,77632,1,2,3:2:0:0:
89,197,77715,6,0,P|104:244|113:279,1,80,8|0,3:2|0:0,0:0:0:0:
285,349,78045,1,4,3:3:0:0:
190,222,78210,1,0,0:0:0:0:
309,276,78374,1,8,3:2:0:0:
355,151,78539,1,0,0:0:0:0:
222,152,78704,2,0,P|192:138|136:104,1,80,4|0,3:3|0:0,0:0:0:0:
295,14,79034,6,0,B|328:38|328:38|322:98,1,80,8|0,3:2|0:0,0:0:0:0:
406,214,79363,1,4,3:3:0:0:
495,121,79528,1,0,0:0:0:0:
355,151,79693,2,0,P|312:169|269:187,1,80,8|0,3:2|0:0,0:0:0:0:
281,181,79940,1,0,0:0:0:0:
281,181,80023,1,4,3:3:0:0:
192,88,80188,1,0,0:0:0:0:
226,246,80352,6,0,P|224:299|211:353,1,80,8|0,3:2|0:0,0:0:0:0:
205,340,80600,2,0,P|171:321|123:316,1,80
115,325,80847,1,0,0:0:0:0:
40,181,81012,1,8,3:2:0:0:
147,236,81177,1,0,0:0:0:0:
234,104,81341,2,0,P|241:63|252:7,1,80,4|0,3:3|0:0,0:0:0:0:
248,25,81589,1,0,0:0:0:0:
248,25,81671,5,8,3:2:0:0:
378,90,81836,1,0,0:0:0:0:
287,169,82001,1,4,3:3:0:0:
404,251,82166,1,0,0:0:0:0:
470,107,82330,6,0,P|453:60|441:25,1,80,8|0,3:2|0:0,0:0:0:0:
378,90,82660,1,4,3:3:0:0:
495,205,82825,1,0,0:0:0:0:
335,156,82990,5,12,3:3:0:0:
335,156,83649,6,0,P|302:147|249:137,1,80,8|0,3:2|0:0,0:0:0:0:
245,125,83896,2,0,P|238:90|196:44,1,80,8|0,3:2|0:0,0:0:0:0:
190,61,84144,1,0,0:0:0:0:
85,203,84308,5,12,3:3:0:0:
85,203,84803,1,0,3:2:0:0:
85,203,84968,6,0,P|70:250|63:292,1,80,8|0,3:2|0:0,0:0:0:0:
82,288,85215,2,0,P|129:279|179:274,1,80,4|0,3:3|0:0,0:0:0:0:
180,286,85462,1,4,3:3:0:0:
306,348,85627,5,8,3:2:0:0:
394,286,85792,1,2,0:0:0:0:
247,237,85957,1,8,3:2:0:0:
373,164,86122,2,0,P|384:123|391:106,1,40,2|0,0:0|0:0,0:0:0:0:
329,65,86286,5,8,3:2:0:0:
457,170,86451,1,2,0:0:0:0:
442,27,86616,1,8,3:2:0:0:
289,171,86781,1,2,0:0:0:0:
195,55,86946,5,8,3:2:0:0:
185,52,87028,1,2,3:2:0:0:
175,50,87110,1,2,3:2:0:0:
165,48,87193,1,0,3:2:0:0:
155,46,87275,1,8,3:2:0:0:
146,44,87358,1,2,3:2:0:0:
136,42,87440,1,2,3:2:0:0:
126,41,87522,1,2,3:2:0:0:
116,39,87605,5,8,3:2:0:0:
34,129,87770,2,0,P|28:142|23:170,3,26.6666666666667,2|2|2|8,3:2|3:2|3:2|3:2,0:0:0:0:
157,227,88100,2,0,P|149:206|139:181,2,26.6666666666667,2|2|2,3:2|3:2|3:2,0:0:0:0:
147,241,88264,5,12,3:3:0:0:
147,241,90737,5,8,3:2:0:0:
300,201,90902,1,4,3:3:0:0:
300,201,92221,5,12,3:3:0:0:
300,201,92880,5,0,3:2:0:0:
411,153,93045,1,2,3:2:0:0:
235,80,93210,1,0,3:2:0:0:
346,27,93374,2,0,P|344:43|342:61,2,26.6666666666667,2|0|0,0:0|0:0|0:0,0:0:0:0:
360,24,93539,6,0,P|408:35|461:50,1,80,8|0,3:2|0:0,0:0:0:0:
411,153,93869,1,4,3:3:0:0:
502,98,94034,1,0,0:0:0:0:
334,108,94199,2,0,P|322:156|305:211,1,80,8|0,3:2|0:0,0:0:0:0:
439,281,94528,2,0,P|492:257|543:240,1,80,4|0,3:3|0:0,0:0:0:0:
285,337,94858,6,0,P|247:320|205:304,1,80,8|2,0:0|0:0,0:0:0:0:
173,143,95188,1,4,3:3:0:0:
313,185,95352,1,2,0:0:0:0:
145,251,95517,6,0,P|129:292|110:337,1,80,8|0,3:2|0:0,0:0:0:0:
115,325,95764,1,2,0:0:0:0:
115,325,95847,1,4,3:3:0:0:
53,172,96012,1,2,0:0:0:0:
226,265,96177,6,0,P|290:234|340:225,1,95.9999970703126,8|0,3:2|0:0,0:0:0:0:
328,240,96424,2,0,P|355:252|438:275,1,95.9999970703126,4|0,3:3|0:0,0:0:0:0:
438,265,96671,1,6,3:3:0:0:
482,135,96836,6,0,P|470:83|444:40,1,95.9999970703126,8|0,3:2|0:0,0:0:0:0:
430,37,97083,2,0,P|400:44|383:110,1,95.9999970703126,4|0,3:3|0:0,0:0:0:0:
369,115,97330,1,6,3:3:0:0:
438,265,97495,5,12,3:3:0:0:
438,265,98319,6,0,B|451:287|451:287|434:359,2,80,2|0|2,0:0|3:2|0:0,0:0:0:0:
326,147,98814,6,0,P|300:153|219:171,1,80,8|0,3:2|0:0,0:0:0:0:
114,80,99144,1,4,3:3:0:0:
223,27,99308,1,2,0:0:0:0:
170,138,99473,6,0,P|164:179|158:232,1,80,8|0,3:2|0:0,0:0:0:0:
159,217,99721,1,2,2:2:0:0:
159,217,99803,1,4,3:3:0:0:
270,311,99968,1,2,3:2:0:0:
134,300,100133,6,0,P|101:311|45:337,1,80,8|0,3:2|0:0,0:0:0:0:
199,352,100462,1,4,3:3:0:0:
292,212,100627,1,2,0:0:0:0:
391,293,100792,6,0,P|441:276|483:259,1,80,8|0,3:2|0:0,0:0:0:0:
474,254,101039,2,0,P|480:230|445:154,1,80,2|0,2:2|0:0,0:0:0:0:
449,168,101286,1,2,3:2:0:0:
368,28,101451,6,0,L|498:43,1,120,8|2,3:2|2:2,0:0:0:0:
499,57,101781,1,4,3:3:0:0:
319,96,101946,1,2,0:0:0:0:
319,96,102028,1,2,0:0:0:0:
319,96,102111,2,0,P|303:141|292:183,1,80,8|2,3:2|0:0,0:0:0:0:
293,329,102440,2,0,P|265:302|214:271,1,80,4|2,3:3|0:0,0:0:0:0:
129,164,102770,6,0,P|109:157|72:148,3,40,8|0|0|0,3:2|0:0|0:0|0:0,0:0:0:0:
195,208,103100,1,4,3:3:0:0:
204,204,103182,1,0,0:0:0:0:
214,201,103264,1,0,0:0:0:0:
223,198,103347,1,0,0:0:0:0:
233,195,103429,6,0,P|256:219|272:238,3,40,8|2|2|2,3:2|0:0|0:0|0:0,0:0:0:0:
242,116,103759,1,8,3:2:0:0:
225,104,103841,1,0,0:0:0:0:
214,88,103923,1,2,3:2:0:0:
207,69,104006,1,2,3:2:0:0:
206,49,104089,6,0,P|275:26|318:20,1,80,8|2,3:2|0:0,0:0:0:0:
403,138,104418,1,4,3:3:0:0:
496,56,104583,1,2,0:0:0:0:
361,206,104748,6,0,P|375:257|403:308,1,80,8|0,3:2|0:0,0:0:0:0:
386,281,104995,1,2,2:2:0:0:
386,281,105078,1,4,3:3:0:0:
484,165,105242,1,2,3:2:0:0:
330,102,105407,6,0,P|301:115|227:140,1,80,8|2,3:2|0:0,0:0:0:0:
201,260,105737,2,0,P|179:221|142:191,1,80,4|2,3:3|0:0,0:0:0:0:
23,36,106067,6,0,P|81:47|117:51,1,80,8|0,3:2|0:0,0:0:0:0:
114,63,106314,2,0,B|126:97|126:97|95:153,1,80,2|0,2:2|0:0,0:0:0:0:
85,144,106561,1,2,3:2:0:0:
36,261,106726,6,0,P|52:299|65:344,1,80,8|2,3:2|0:0,0:0:0:0:
165,263,107056,1,4,3:3:0:0:
11,184,107221,1,2,0:0:0:0:
11,184,107303,1,0,0:0:0:0:
11,184,107385,5,8,3:2:0:0:
125,104,107550,1,0,0:0:0:0:
0,49,107715,1,0,0:0:0:0:
111,199,107880,6,0,P|120:194|147:171,3,26.6666666666667,6|0|0|0,3:3|0:0|0:0|0:0,0:0:0:0:
271,40,108210,6,0,P|300:34|327:30,1,40
371,86,108374,2,0,P|390:108|407:129,1,40,8|0,3:2|0:0,0:0:0:0:
370,189,108539,2,0,P|360:217|350:242,1,40,8|0,3:2|0:0,0:0:0:0:
225,108,108704,5,8,3:2:0:0:
216,107,108786,1,0,0:0:0:0:
206,106,108868,1,0,0:0:0:0:
196,105,108951,1,6,3:3:0:0:
186,103,109034,2,0,P|173:76|162:58,3,40,0|0|6|0,0:0|0:0|3:3|0:0,0:0:0:0:
158,56,109363,6,0,P|117:65|74:88,1,80,8|2,3:2|0:0,0:0:0:0:
139,218,109693,1,4,3:3:0:0:
15,177,109858,1,2,0:0:0:0:
48,288,110023,6,0,P|65:330|96:371,1,80,8|0,3:2|0:0,0:0:0:0:
84,358,110270,1,2,2:2:0:0:
84,358,110352,1,4,3:3:0:0:
214,244,110517,1,2,3:2:0:0:
342,307,110682,6,0,P|391:320|428:329,1,80,8|0,3:2|0:0,0:0:0:0:
273,187,111012,1,4,3:3:0:0:
228,321,111177,1,2,0:0:0:0:
365,202,111341,6,0,P|346:157|319:101,1,80,8|0,3:2|0:0,0:0:0:0:
346,117,111589,2,0,P|395:124|425:125,1,80,2|0,2:2|0:0,0:0:0:0:
441,112,111836,1,2,3:2:0:0:
283,15,112001,6,0,P|224:28|181:36,1,80,8|0,3:2|0:0,0:0:0:0:
204,31,112248,1,2,2:2:0:0:
204,31,112330,1,4,3:3:0:0:
164,171,112495,1,2,3:2:0:0:
64,74,112660,6,0,P|48:68|26:-7,1,80,8|2,3:2|0:0,0:0:0:0:
147,92,112990,1,4,3:3:0:0:
29,218,113155,1,2,0:0:0:0:
142,299,113319,6,0,P|183:309|241:329,1,80,8|0,3:2|0:0,0:0:0:0:
218,320,113567,1,0,0:0:0:0:
218,320,113649,1,4,3:3:0:0:
351,245,113814,1,0,0:0:0:0:
406,337,113979,5,8,3:2:0:0:
274,211,114144,1,2,0:0:0:0:
417,191,114308,2,0,P|442:153|477:114,1,80,4|2,3:3|0:0,0:0:0:0:
464,126,114556,1,2,0:0:0:0:
464,126,114638,5,8,3:2:0:0:
392,9,114803,1,2,0:0:0:0:
495,33,114968,1,8,3:2:0:0:
353,145,115133,1,2,0:0:0:0:
226,41,115297,6,0,P|180:36|112:28,1,80,8|0,3:2|0:0,0:0:0:0:
130,38,115545,2,0,P|113:76|96:114,1,80,4|0,3:3|0:0,0:0:0:0:
86,128,115792,2,0,P|105:153|120:179,1,40,2|2,0:0|0:0,0:0:0:0:
184,188,115957,5,12,3:3:0:0:
184,188,116616,6,0,P|225:169|268:165,1,80,8|0,3:2|0:0,0:0:0:0:
274,152,116863,2,0,P|310:178|335:213,1,80,4|0,3:3|0:0,0:0:0:0:
348,220,117111,2,0,P|350:243|328:269,1,40,4|0,3:3|0:0,0:0:0:0:
278,310,117275,5,8,3:2:0:0:
432,279,117440,1,2,0:0:0:0:
347,353,117605,1,8,3:2:0:0:
348,220,117770,2,0,P|355:193|365:169,1,40,2|0,0:0|0:0,0:0:0:0:
294,131,117935,5,8,3:2:0:0:
284,133,118017,1,2,3:2:0:0:
274,136,118099,1,2,3:2:0:0:
265,139,118182,1,2,3:2:0:0:
255,143,118264,1,8,3:2:0:0:
246,146,118347,1,2,3:2:0:0:
236,149,118429,1,2,3:2:0:0:
227,152,118511,1,2,3:2:0:0:
217,155,118594,5,0,0:0:0:0:
228,284,118759,1,2,0:0:0:0:
136,136,118924,1,8,3:2:0:0:
83,296,119089,1,2,3:2:0:0:
272,215,119253,5,8,3:2:0:0:
283,212,119335,1,0,3:2:0:0:
294,210,119417,1,2,3:2:0:0:
305,206,119500,1,2,3:2:0:0:
315,202,119582,1,8,3:2:0:0:
326,197,119665,1,0,3:2:0:0:
335,191,119747,1,2,3:2:0:0:
345,185,119829,1,2,3:2:0:0:
355,179,119913,5,0,0:0:0:0:
459,82,120078,2,0,P|432:49|407:11,1,80,12|0,3:3|0:0,0:0:0:0:
313,111,120407,6,0,L|272:104,2,26.6666666666667
329,104,120572,5,8,3:2:0:0:
437,180,120737,1,2,0:0:0:0:
310,250,120902,1,8,3:2:0:0:
227,157,121067,6,0,P|170:133|94:115,1,120,2|0,0:0|0:0,0:0:0:0:
99,132,121396,1,2,0:0:0:0:
42,243,121561,6,0,P|35:258|36:278,6,20,8|2|2|0|2|2|2,3:2|0:0|0:0|0:0|3:2|0:0|0:0,0:0:0:0:
54,234,121891,6,0,P|104:230|164:220,1,80,8|0,3:2|0:0,0:0:0:0:
143,239,122138,2,0,P|168:280|185:314,1,80,12|0,3:3|0:0,0:0:0:0:
198,320,122385,1,12,3:3:0:0:
332,229,122550,6,0,L|327:269,5,26.6666666666667,0|0|0|0|0|0,3:2|3:2|3:2|3:2|3:2|3:2,0:0:0:0:
321,217,122880,1,12,3:3:0:0:
