osu file format v14

[General]
AudioFilename: audio.ogg
AudioLeadIn: 0
PreviewTime: 115147
Countdown: 0
SampleSet: Soft
StackLeniency: 0.7
Mode: 3
LetterboxInBreaks: 0
SpecialStyle: 0
WidescreenStoryboard: 1

[Editor]
DistanceSpacing: 1
BeatDivisor: 4
GridSize: 32
TimelineZoom: 1.5

[Metadata]
Title:Regression -HARDCORE-
TitleUnicode:Regression -HARDCORE-
Artist:Natsu
ArtistUnicode:なつ
Creator:Schopfer
Version:Pristine Lunacy
Source:東方紺珠伝 ~ Legacy of Lunatic Kingdom.
Tags:Critical_Star Collaboration 東方Project Touhou Project なつさん ピュアヒューリーズ ~ 心の在処 Pure Furies ~ Whereabouts of the Heart Junko Kanjuden 純狐 Video Game Instrumental Electronic
BeatmapID:3735376
BeatmapSetID:1820368

[Difficulty]
HPDrainRate:8.5
CircleSize:7
OverallDifficulty:7.5
ApproachRate:5
SliderMultiplier:1.4
SliderTickRate:1

[Events]
//Background and Video events
0,0,"background.jpg",0,0
//Break Periods
//Storyboard Layer 0 (Background)
//Storyboard Layer 1 (Fail)
//Storyboard Layer 2 (Pass)
//Storyboard Layer 3 (Foreground)
//Storyboard Layer 4 (Overlay)
//Storyboard Sound Samples

[TimingPoints]
3355,631.578947368421,4,2,1,40,1,0
3355,-50,4,2,1,40,0,0
12197,666.666666666667,4,2,1,60,1,0
12197,-47.39336492891,4,2,1,60,0,0
12863,600,4,2,1,60,1,0
12863,-52.6315789473684,4,2,1,60,0,0
13460,315.789473684211,4,2,1,60,1,0
32400,428.571428571429,4,2,1,60,1,0
32400,-73.5294117647059,4,2,1,60,0,0
33688,421.052631578947,4,2,1,60,1,0
33688,-75.187969924812,4,2,1,60,0,0
33898,-75.187969924812,4,2,1,30,0,0
41266,-75.187969924812,4,2,1,40,0,0
52845,-75.187969924812,4,2,1,60,0,0
53884,315.789473684211,4,2,1,60,1,0
75357,-100,4,2,1,40,0,0
85462,-100,4,2,1,60,0,0
95568,-100,4,2,1,60,0,1
115147,-100,4,2,1,60,0,0
115778,-100,4,2,1,60,0,1
156199,-100,4,2,1,40,0,0
173884,-100,4,2,1,60,0,0
196620,-100,4,2,1,30,0,0
206726,-100,4,2,1,60,0,0
239568,-100,4,2,1,30,0,0
249673,-100,4,2,1,35,0,0
252199,-100,4,2,1,40,0,0
253462,-100,4,2,1,45,0,0
254726,-100,4,2,1,50,0,0
255989,-100,4,2,1,55,0,0
257252,-100,4,2,1,60,0,0
259778,-100,4,2,1,60,0,1
279989,-100,4,2,1,60,0,0
291357,-100,4,2,1,60,0,1
331773,631.578947368421,4,2,2,60,1,0
331773,-50,4,2,2,60,0,0
336825,625,4,2,2,55,1,0
336825,-50.5050505050505,4,2,2,55,0,0
341825,666.666666666666,4,2,2,50,1,0
341825,-47.39336492891,4,2,2,50,0,0
343158,674.157303370787,4,2,2,45,1,0
343158,-46.9483568075117,4,2,2,45,0,0
343832,705.882352941176,4,2,2,40,1,0
343832,-44.6428571428571,4,2,2,40,0,0
344537,749.999999999999,4,2,2,35,1,0
344537,-42.1940928270042,4,2,2,35,0,0
346266,833.333333333332,4,2,2,30,1,0
346266,-37.8787878787879,4,2,2,30,0,0
347724,895.522388059701,4,2,2,30,1,0
347724,-35.2112676056338,4,2,2,30,0,0
348619,937.5,4,2,2,30,1,0
348619,-33.6700336700337,4,2,2,30,0,0
349556,1000,4,2,2,30,1,0
349556,-31.5457413249211,4,2,2,30,0,0
351056,1052.63157894737,4,2,2,30,1,0
351056,-30.03003003003,4,2,2,30,0,0
351582,1090.90909090909,4,2,2,30,1,0
351582,-28.9855072463768,4,2,2,30,0,0
352987,1200,4,2,2,30,1,0
352987,-26.3157894736842,4,2,2,30,0,0
354508,3157.89473684211,4,2,2,30,1,1
354508,-10,4,2,2,30,0,0

[HitObjects]
329,192,3355,128,0,3670:0:0:0:0:
475,192,3355,128,0,3670:0:0:0:0:
36,192,3670,1,0,0:0:0:0:
109,192,3749,1,0,0:0:0:0:
182,192,3828,1,0,0:0:0:0:
329,192,3907,1,0,0:0:0:0:
402,192,3986,1,0,0:0:0:0:
475,192,4065,1,0,0:0:0:0:
256,192,4144,1,0,0:0:0:0:
182,192,4223,1,0,0:0:0:0:
109,192,4302,1,0,0:0:0:0:
36,192,4381,1,0,0:0:0:0:
182,192,4460,1,0,0:0:0:0:
329,192,4539,1,0,0:0:0:0:
109,192,4618,1,0,0:0:0:0:
182,192,4697,1,0,0:0:0:0:
256,192,4776,1,0,0:0:0:0:
329,192,4855,1,0,0:0:0:0:
182,192,4933,1,0,0:0:0:0:
256,192,5012,1,0,0:0:0:0:
329,192,5091,1,0,0:0:0:0:
402,192,5170,1,0,0:0:0:0:
182,192,5249,1,0,0:0:0:0:
36,192,5328,1,0,0:0:0:0:
256,192,5407,1,0,0:0:0:0:
109,192,5486,1,0,0:0:0:0:
329,192,5565,1,0,0:0:0:0:
182,192,5644,1,0,0:0:0:0:
402,192,5723,1,0,0:0:0:0:
256,192,5802,1,0,0:0:0:0:
36,192,5881,1,0,0:0:0:0:
109,192,5960,1,0,0:0:0:0:
182,192,6039,1,0,0:0:0:0:
256,192,6118,1,0,0:0:0:0:
475,192,6197,1,0,0:0:0:0:
402,192,6276,1,0,0:0:0:0:
329,192,6355,1,0,0:0:0:0:
182,192,6433,1,0,0:0:0:0:
109,192,6512,1,0,0:0:0:0:
36,192,6591,1,0,0:0:0:0:
256,192,6670,1,0,0:0:0:0:
329,192,6749,1,0,0:0:0:0:
402,192,6828,1,0,0:0:0:0:
475,192,6907,1,0,0:0:0:0:
329,192,6986,1,0,0:0:0:0:
182,192,7065,1,0,0:0:0:0:
256,192,7144,1,0,0:0:0:0:
402,192,7223,1,0,0:0:0:0:
182,192,7302,1,0,0:0:0:0:
329,192,7381,1,0,0:0:0:0:
109,192,7460,1,0,0:0:0:0:
256,192,7539,1,0,0:0:0:0:
36,192,7618,1,0,0:0:0:0:
182,192,7697,1,0,0:0:0:0:
402,192,7776,1,0,0:0:0:0:
329,192,7855,1,0,0:0:0:0:
182,192,7933,1,0,0:0:0:0:
109,192,8012,1,0,0:0:0:0:
329,192,8091,1,0,0:0:0:0:
402,192,8170,1,0,0:0:0:0:
109,192,8249,1,0,0:0:0:0:
182,192,8328,1,0,0:0:0:0:
475,192,8407,1,0,0:0:0:0:
402,192,8486,1,0,0:0:0:0:
329,192,8565,1,0,0:0:0:0:
256,192,8644,1,0,0:0:0:0:
36,192,8723,1,0,0:0:0:0:
182,192,8802,1,0,0:0:0:0:
329,192,8881,1,0,0:0:0:0:
475,192,8960,1,0,0:0:0:0:
256,192,9039,1,0,0:0:0:0:
182,192,9118,1,0,0:0:0:0:
109,192,9197,1,0,0:0:0:0:
36,192,9276,1,0,0:0:0:0:
182,192,9355,1,0,0:0:0:0:
329,192,9433,1,0,0:0:0:0:
475,192,9512,1,0,0:0:0:0:
109,192,9591,1,0,0:0:0:0:
256,192,9670,1,0,0:0:0:0:
402,192,9749,1,0,0:0:0:0:
182,192,9828,1,0,0:0:0:0:
329,192,9907,1,0,0:0:0:0:
109,192,9986,1,0,0:0:0:0:
256,192,10065,1,0,0:0:0:0:
36,192,10144,1,0,0:0:0:0:
182,192,10223,1,0,0:0:0:0:
475,192,10302,1,0,0:0:0:0:
402,192,10381,1,0,0:0:0:0:
256,192,10460,1,0,0:0:0:0:
109,192,10539,1,0,0:0:0:0:
36,192,10618,1,0,0:0:0:0:
182,192,10697,1,0,0:0:0:0:
329,192,10776,1,0,0:0:0:0:
256,192,10855,1,0,0:0:0:0:
475,192,10933,1,0,0:0:0:0:
329,192,11012,1,0,0:0:0:0:
402,192,11091,1,0,0:0:0:0:
36,192,11170,1,0,0:0:0:0:
182,192,11249,1,0,0:0:0:0:
109,192,11328,1,0,0:0:0:0:
475,192,11407,1,0,0:0:0:0:
402,192,11486,1,0,0:0:0:0:
329,192,11565,1,0,0:0:0:0:
36,192,11644,1,0,0:0:0:0:
109,192,11723,1,0,0:0:0:0:
182,192,11802,1,0,0:0:0:0:
475,192,11881,1,0,0:0:0:0:
402,192,11960,1,0,0:0:0:0:
329,192,12039,1,0,0:0:0:0:
256,192,12118,1,0,0:0:0:0:
475,192,12197,1,0,0:0:0:0:
36,192,12197,1,0,0:0:0:0:
329,192,12308,1,0,0:0:0:0:
182,192,12419,1,0,0:0:0:0:
402,192,12530,1,0,0:0:0:0:
256,192,12641,1,0,0:0:0:0:
109,192,12752,1,0,0:0:0:0:
402,192,12863,1,0,0:0:0:0:
475,192,12863,1,0,0:0:0:0:
329,192,12963,1,0,0:0:0:0:
182,192,12963,1,0,0:0:0:0:
109,192,13063,1,0,0:0:0:0:
36,192,13063,1,0,0:0:0:0:
475,192,13163,1,0,0:0:0:0:
256,192,13163,1,0,0:0:0:0:
182,192,13263,1,0,0:0:0:0:
402,192,13263,1,0,0:0:0:0:
109,192,13363,1,0,0:0:0:0:
329,192,13363,1,0,0:0:0:0:
36,192,13460,1,0,0:0:0:0:
402,192,13460,1,0,0:0:0:100:twinkling.wav
475,192,13460,1,2,0:0:0:0:
182,192,13460,1,0,0:0:0:70:LR_CymbalWWT.wav
109,192,13538,1,0,0:0:0:0:
329,192,13538,1,0,0:0:0:0:
402,192,13617,1,0,0:0:0:0:
475,192,13617,1,0,0:0:0:0:
256,192,13617,1,0,0:0:0:0:
182,192,13696,1,0,0:0:0:0:
36,192,13696,1,0,0:0:0:0:
475,192,13775,1,0,0:0:0:0:
329,192,13775,1,0,0:0:0:0:
109,192,13775,1,2,0:0:0:0:
36,192,13775,1,8,0:0:0:0:
256,192,13854,1,0,0:0:0:0:
402,192,13854,1,0,0:0:0:0:
182,192,13933,1,0,0:0:0:0:
36,192,13933,1,0,0:0:0:0:
329,192,13933,1,0,0:0:0:0:
256,192,14012,1,0,0:0:0:0:
402,192,14012,1,0,0:0:0:0:
329,192,14091,1,0,0:0:0:0:
475,192,14091,1,0,0:0:0:0:
36,192,14091,1,0,0:0:0:0:
109,192,14091,1,2,0:0:0:0:
256,192,14170,1,0,0:0:0:0:
182,192,14170,1,0,0:0:0:0:
329,192,14249,1,0,0:0:0:0:
402,192,14249,1,0,0:0:0:0:
475,192,14249,1,0,0:0:0:0:
182,192,14328,1,0,0:0:0:0:
109,192,14328,1,0,0:0:0:0:
36,192,14407,1,0,0:0:0:0:
256,192,14407,1,0,0:0:0:0:
475,192,14407,1,2,0:0:0:0:
402,192,14407,1,8,0:0:0:0:
182,192,14486,1,0,0:0:0:0:
109,192,14486,1,0,0:0:0:0:
329,192,14565,1,0,0:0:0:0:
475,192,14565,1,0,0:0:0:0:
36,192,14565,1,0,0:0:0:0:
182,192,14644,1,0,0:0:0:0:
256,192,14644,1,0,0:0:0:0:
402,192,14723,1,0,0:0:0:0:
109,192,14723,1,0,0:0:0:0:
475,192,14723,1,0,0:0:0:0:
36,192,14723,1,2,0:0:0:0:
329,192,14802,1,0,0:0:0:0:
182,192,14802,1,0,0:0:0:0:
256,192,14881,1,0,0:0:0:0:
109,192,14881,1,0,0:0:0:0:
36,192,14881,1,0,0:0:0:0:
329,192,14960,1,0,0:0:0:0:
475,192,14960,1,0,0:0:0:0:
402,192,15038,1,0,0:0:0:0:
475,192,15038,1,0,0:0:0:0:
182,192,15038,1,8,0:0:0:0:
36,192,15038,1,2,0:0:0:0:
256,192,15117,1,0,0:0:0:0:
109,192,15117,1,0,0:0:0:0:
402,192,15196,1,0,0:0:0:0:
329,192,15196,1,0,0:0:0:0:
182,192,15196,1,0,0:0:0:0:
36,192,15275,1,0,0:0:0:0:
109,192,15275,1,0,0:0:0:0:
256,192,15354,1,0,0:0:0:0:
329,192,15354,1,0,0:0:0:0:
402,192,15354,1,0,0:0:0:0:
475,192,15354,1,2,0:0:0:0:
182,192,15433,1,0,0:0:0:0:
109,192,15433,1,0,0:0:0:0:
36,192,15512,1,0,0:0:0:0:
475,192,15512,1,0,0:0:0:0:
256,192,15512,1,0,0:0:0:0:
402,192,15591,1,0,0:0:0:0:
329,192,15591,1,0,0:0:0:0:
109,192,15670,1,0,0:0:0:0:
475,192,15670,1,0,0:0:0:0:
36,192,15670,1,2,0:0:0:0:
182,192,15670,1,8,0:0:0:0:
256,192,15749,1,0,0:0:0:0:
329,192,15749,1,0,0:0:0:0:
36,192,15828,1,0,0:0:0:0:
109,192,15828,1,0,0:0:0:0:
402,192,15828,1,0,0:0:0:0:
182,192,15907,1,0,0:0:0:0:
475,192,15907,1,0,0:0:0:0:
329,192,15986,1,0,0:0:0:0:
256,192,15986,1,0,0:0:0:0:
109,192,15986,1,0,0:0:0:0:
36,192,15986,1,2,0:0:0:0:
402,192,16065,1,0,0:0:0:0:
475,192,16065,1,0,0:0:0:0:
256,192,16144,1,0,0:0:0:0:
182,192,16144,1,0,0:0:0:0:
109,192,16144,1,0,0:0:0:0:
402,192,16223,1,0,0:0:0:0:
36,192,16223,1,0,0:0:0:0:
182,192,16302,1,0,0:0:0:0:
256,192,16302,1,0,0:0:0:0:
329,192,16302,1,8,0:0:0:0:
475,192,16302,1,2,0:0:0:0:
109,192,16381,1,0,0:0:0:0:
36,192,16381,1,0,0:0:0:0:
329,192,16460,1,0,0:0:0:0:
475,192,16460,1,0,0:0:0:0:
182,192,16460,1,0,0:0:0:0:
402,192,16538,1,0,0:0:0:0:
256,192,16538,1,0,0:0:0:0:
36,192,16617,1,0,0:0:0:0:
329,192,16617,1,0,0:0:0:0:
109,192,16617,1,2,0:0:0:0:
182,192,16696,1,0,0:0:0:0:
475,192,16696,1,0,0:0:0:0:
329,192,16775,1,0,0:0:0:0:
402,192,16775,1,0,0:0:0:0:
256,192,16775,1,0,0:0:0:0:
109,192,16854,1,0,0:0:0:0:
36,192,16854,1,0,0:0:0:0:
182,192,16933,1,0,0:0:0:0:
256,192,16933,1,0,0:0:0:0:
329,192,16933,1,8,0:0:0:0:
475,192,16933,1,2,0:0:0:0:
36,192,17012,1,0,0:0:0:0:
402,192,17012,1,0,0:0:0:0:
182,192,17091,1,0,0:0:0:0:
109,192,17091,1,0,0:0:0:0:
256,192,17091,1,0,0:0:0:0:
329,192,17170,1,0,0:0:0:0:
475,192,17170,1,0,0:0:0:0:
36,192,17249,1,0,0:0:0:0:
109,192,17249,1,0,0:0:0:0:
182,192,17249,1,0,0:0:0:0:
402,192,17249,1,2,0:0:0:0:
329,192,17328,1,0,0:0:0:0:
256,192,17328,1,0,0:0:0:0:
475,192,17407,1,0,0:0:0:0:
36,192,17407,1,0,0:0:0:0:
182,192,17407,1,0,0:0:0:0:
109,192,17486,1,0,0:0:0:0:
256,192,17486,1,0,0:0:0:0:
329,192,17565,1,0,0:0:0:0:
402,192,17565,1,8,0:0:0:0:
182,192,17565,1,2,0:0:0:0:
475,192,17644,1,0,0:0:0:0:
256,192,17644,1,0,0:0:0:0:
36,192,17723,1,0,0:0:0:0:
402,192,17723,1,0,0:0:0:0:
109,192,17723,1,0,0:0:0:0:
182,192,17802,1,0,0:0:0:0:
329,192,17802,1,0,0:0:0:0:
402,192,17881,1,0,0:0:0:0:
36,192,17881,1,0,0:0:0:0:
256,192,17881,1,0,0:0:0:0:
109,192,17881,1,4,0:0:0:0:
475,192,17881,1,2,0:0:0:0:
182,192,17960,1,0,0:0:0:0:
329,192,18038,1,0,0:0:0:0:
36,192,18038,1,0,0:0:0:0:
475,192,18038,1,0,0:0:0:0:
402,192,18117,1,0,0:0:0:0:
256,192,18117,1,0,0:0:0:0:
36,192,18196,1,0,0:0:0:0:
182,192,18196,1,0,0:0:0:0:
329,192,18196,1,0,0:0:0:0:
109,192,18196,1,2,0:0:0:0:
475,192,18196,1,4,0:0:0:0:
109,192,18354,1,0,0:0:0:0:
182,192,18354,1,0,0:0:0:0:
256,192,18354,1,0,0:0:0:0:
475,192,18354,1,4,0:0:0:0:
402,192,18354,1,2,0:0:0:0:
182,192,18512,1,0,0:0:0:0:
36,192,18512,1,0,0:0:0:0:
329,192,18512,1,0,0:0:0:0:
256,192,18512,1,4,0:0:0:0:
475,192,18512,1,2,0:0:0:0:
109,192,18591,1,0,0:0:0:0:
402,192,18670,1,0,0:0:0:0:
475,192,18670,1,0,0:0:0:0:
256,192,18670,1,0,0:0:0:0:
36,192,18749,1,0,0:0:0:0:
182,192,18749,1,0,0:0:0:0:
475,192,18828,1,0,0:0:0:0:
182,192,18828,1,0,0:0:0:0:
109,192,18828,1,8,0:0:0:0:
329,192,18828,1,2,0:0:0:0:
256,192,18907,1,0,0:0:0:0:
402,192,18907,1,0,0:0:0:0:
182,192,18986,1,0,0:0:0:0:
109,192,18986,1,0,0:0:0:0:
36,192,18986,1,0,0:0:0:0:
402,192,19065,1,0,0:0:0:0:
329,192,19065,1,0,0:0:0:0:
475,192,19144,1,0,0:0:0:0:
36,192,19144,1,0,0:0:0:0:
182,192,19144,1,0,0:0:0:0:
256,192,19144,1,2,0:0:0:0:
329,192,19223,1,0,0:0:0:0:
402,192,19223,1,0,0:0:0:0:
36,192,19302,1,0,0:0:0:0:
109,192,19302,1,0,0:0:0:0:
182,192,19302,1,0,0:0:0:0:
475,192,19381,1,0,0:0:0:0:
402,192,19381,1,0,0:0:0:0:
329,192,19460,1,0,0:0:0:0:
109,192,19460,1,0,0:0:0:0:
36,192,19460,1,2,0:0:0:0:
256,192,19460,1,8,0:0:0:0:
402,192,19538,1,0,0:0:0:0:
182,192,19538,1,0,0:0:0:0:
475,192,19617,1,0,0:0:0:0:
256,192,19617,1,0,0:0:0:0:
36,192,19617,1,0,0:0:0:0:
329,192,19696,1,0,0:0:0:0:
109,192,19696,1,0,0:0:0:0:
475,192,19775,1,0,0:0:0:0:
182,192,19775,1,0,0:0:0:0:
402,192,19775,1,2,0:0:0:0:
256,192,19854,1,0,0:0:0:0:
329,192,19854,1,0,0:0:0:0:
109,192,19933,1,0,0:0:0:0:
182,192,19933,1,0,0:0:0:0:
36,192,19933,1,0,0:0:0:0:
475,192,20012,1,0,0:0:0:0:
329,192,20012,1,0,0:0:0:0:
329,192,20091,1,0,0:0:0:0:
402,192,20091,1,0,0:0:0:0:
182,192,20091,1,8,0:0:0:0:
36,192,20091,1,2,0:0:0:0:
256,192,20170,1,0,0:0:0:0:
109,192,20170,1,0,0:0:0:0:
329,192,20249,1,0,0:0:0:0:
402,192,20249,1,0,0:0:0:0:
475,192,20249,1,0,0:0:0:0:
182,192,20328,1,0,0:0:0:0:
109,192,20328,1,0,0:0:0:0:
475,192,20407,1,0,0:0:0:0:
36,192,20407,1,0,0:0:0:0:
256,192,20407,1,0,0:0:0:0:
402,192,20407,1,2,0:0:0:0:
329,192,20486,1,0,0:0:0:0:
182,192,20486,1,0,0:0:0:0:
109,192,20565,1,0,0:0:0:0:
36,192,20565,1,0,0:0:0:0:
475,192,20565,1,0,0:0:0:30:LR4_SnareKKF.wav
402,192,20604,1,0,0:0:0:30:LR4_SnareKKF.wav
329,192,20644,1,0,0:0:0:30:LR4_SnareKKF.wav
256,192,20683,1,0,0:0:0:30:LR4_SnareKKF.wav
182,192,20723,1,0,0:0:0:0:
36,192,20723,1,0,0:0:0:0:
109,192,20723,1,2,0:0:0:0:
475,192,20723,1,8,0:0:0:0:
329,192,20802,1,0,0:0:0:0:
402,192,20802,1,2,0:0:0:0:
109,192,20881,1,0,0:0:0:0:
182,192,20881,1,0,0:0:0:0:
36,192,20881,1,0,0:0:0:0:
256,192,20881,1,2,0:0:0:0:
475,192,20960,1,0,0:0:0:0:
402,192,20960,1,2,0:0:0:0:
329,192,21038,1,0,0:0:0:0:
182,192,21038,1,0,0:0:0:0:
109,192,21038,1,0,0:0:0:0:
256,192,21038,1,4,0:0:0:0:
36,192,21038,1,2,0:0:0:0:
402,192,21117,1,0,0:0:0:0:
475,192,21117,1,0,0:0:0:0:
36,192,21196,1,0,0:0:0:0:
182,192,21196,1,0,0:0:0:0:
329,192,21196,1,2,0:0:0:0:
109,192,21275,1,0,0:0:0:0:
256,192,21275,1,2,0:0:0:0:
475,192,21354,1,0,0:0:0:0:
329,192,21354,1,0,0:0:0:0:
402,192,21354,1,8,0:0:0:0:
182,192,21354,1,2,0:0:0:0:
256,192,21433,1,0,0:0:0:0:
36,192,21433,1,0,0:0:0:0:
475,192,21512,1,0,0:0:0:0:
109,192,21512,1,0,0:0:0:0:
329,192,21512,1,2,0:0:0:0:
256,192,21591,1,0,0:0:0:0:
182,192,21591,1,2,0:0:0:0:
109,192,21670,1,0,0:0:0:0:
36,192,21670,1,0,0:0:0:30:LR4_SnareKKF.wav
475,192,21670,1,4,0:0:0:0:
402,192,21723,1,0,0:0:0:30:LR4_SnareKKF.wav
329,192,21775,1,0,0:0:0:30:LR4_SnareKKF.wav
36,192,21828,1,0,0:0:0:0:
475,192,21828,1,0,0:0:0:0:
256,192,21828,1,0,0:0:0:0:
109,192,21828,1,2,0:0:0:0:
329,192,21907,1,0,0:0:0:0:
182,192,21907,1,2,0:0:0:0:
402,192,21986,1,0,0:0:0:0:
36,192,21986,1,0,0:0:0:30:LR4_SnareKKF.wav
475,192,21986,1,8,0:0:0:0:
109,192,22038,1,0,0:0:0:30:LR4_SnareKKF.wav
182,192,22091,1,0,0:0:0:30:LR4_SnareKKF.wav
256,192,22144,1,0,0:0:0:0:
475,192,22144,1,0,0:0:0:0:
402,192,22144,1,0,0:0:0:0:
36,192,22144,1,2,0:0:0:0:
109,192,22223,1,0,0:0:0:0:
329,192,22223,1,2,0:0:0:0:
475,192,22302,1,0,0:0:0:0:
182,192,22302,1,0,0:0:0:0:
402,192,22302,1,2,0:0:0:0:
36,192,22302,1,4,0:0:0:0:
329,192,22381,1,0,0:0:0:0:
256,192,22381,1,0,0:0:0:0:
109,192,22460,1,0,0:0:0:0:
182,192,22460,1,0,0:0:0:0:
402,192,22538,1,0,0:0:0:0:
329,192,22538,1,0,0:0:0:0:
256,192,22617,1,0,0:0:0:0:
182,192,22617,1,0,0:0:0:0:
109,192,22617,1,8,0:0:0:0:
36,192,22617,1,2,0:0:0:0:
475,192,22617,1,4,0:0:0:0:
402,192,22696,1,0,0:0:0:0:
329,192,22696,1,0,0:0:0:0:
109,192,22775,1,0,0:0:0:0:
475,192,22775,1,0,0:0:0:0:
329,192,22854,1,0,0:0:0:0:
182,192,22854,1,0,0:0:0:0:
109,192,22933,1,0,0:0:0:0:
36,192,22933,1,0,0:0:0:0:
402,192,22933,1,0,0:0:0:0:
475,192,22933,1,2,0:0:0:0:
256,192,22933,1,4,0:0:0:0:
329,192,23038,1,0,0:0:0:0:
182,192,23091,1,0,0:0:0:0:
36,192,23091,1,0,0:0:0:0:
256,192,23144,1,0,0:0:0:0:
109,192,23249,1,0,0:0:0:0:
36,192,23249,1,8,0:0:0:0:
402,192,23249,1,2,0:0:0:0:
475,192,23249,1,4,0:0:0:0:
182,192,23354,1,0,0:0:0:0:
329,192,23407,1,0,0:0:0:0:
475,192,23407,1,0,0:0:0:0:
256,192,23460,1,0,0:0:0:0:
36,192,23565,1,0,0:0:0:0:
109,192,23565,1,0,0:0:0:0:
402,192,23565,1,0,0:0:0:70:LR_CymbalWWT.wav
475,192,23565,1,2,0:0:0:0:
182,192,23644,1,0,0:0:0:0:
329,192,23644,1,0,0:0:0:0:
36,192,23723,1,0,0:0:0:0:
109,192,23723,1,0,0:0:0:0:
256,192,23723,1,0,0:0:0:0:
329,192,23802,1,0,0:0:0:0:
475,192,23802,1,0,0:0:0:0:
182,192,23881,1,0,0:0:0:0:
36,192,23881,1,0,0:0:0:0:
402,192,23881,1,8,0:0:0:0:
475,192,23881,1,2,0:0:0:0:
256,192,23960,1,0,0:0:0:0:
109,192,23960,1,0,0:0:0:0:
475,192,24038,1,0,0:0:0:0:
402,192,24038,1,0,0:0:0:0:
329,192,24038,1,0,0:0:0:0:
182,192,24117,1,0,0:0:0:0:
109,192,24117,1,0,0:0:0:0:
475,192,24196,1,0,0:0:0:0:
256,192,24196,1,0,0:0:0:0:
36,192,24196,1,0,0:0:0:0:
329,192,24196,1,2,0:0:0:0:
182,192,24275,1,0,0:0:0:0:
402,192,24275,1,0,0:0:0:0:
109,192,24354,1,0,0:0:0:0:
36,192,24354,1,0,0:0:0:0:
329,192,24354,1,0,0:0:0:0:
256,192,24433,1,0,0:0:0:0:
402,192,24433,1,0,0:0:0:0:
329,192,24512,1,0,0:0:0:0:
182,192,24512,1,0,0:0:0:0:
109,192,24512,1,8,0:0:0:0:
475,192,24512,1,2,0:0:0:0:
36,192,24591,1,0,0:0:0:0:
256,192,24591,1,0,0:0:0:0:
182,192,24670,1,0,0:0:0:0:
475,192,24670,1,0,0:0:0:0:
109,192,24670,1,0,0:0:0:0:
402,192,24749,1,0,0:0:0:0:
329,192,24749,1,0,0:0:0:0:
36,192,24828,1,0,0:0:0:0:
475,192,24828,1,0,0:0:0:0:
256,192,24828,1,0,0:0:0:0:
109,192,24828,1,2,0:0:0:0:
329,192,24907,1,0,0:0:0:0:
182,192,24907,1,0,0:0:0:0:
402,192,24986,1,0,0:0:0:0:
475,192,24986,1,0,0:0:0:0:
256,192,24986,1,0,0:0:0:0:
36,192,25065,1,0,0:0:0:0:
182,192,25065,1,0,0:0:0:0:
36,192,25144,1,0,0:0:0:0:
109,192,25144,1,0,0:0:0:0:
329,192,25144,1,2,0:0:0:0:
475,192,25144,1,8,0:0:0:0:
256,192,25223,1,0,0:0:0:0:
402,192,25223,1,0,0:0:0:0:
36,192,25302,1,0,0:0:0:0:
182,192,25302,1,0,0:0:0:0:
109,192,25302,1,0,0:0:0:0:
402,192,25381,1,0,0:0:0:0:
475,192,25381,1,0,0:0:0:0:
329,192,25460,1,0,0:0:0:0:
256,192,25460,1,0,0:0:0:0:
36,192,25460,1,0,0:0:0:0:
182,192,25460,1,2,0:0:0:0:
109,192,25538,1,0,0:0:0:0:
402,192,25538,1,0,0:0:0:0:
36,192,25617,1,0,0:0:0:0:
329,192,25617,1,0,0:0:0:0:
475,192,25617,1,0,0:0:0:0:
402,192,25696,1,0,0:0:0:0:
256,192,25696,1,0,0:0:0:0:
329,192,25775,1,0,0:0:0:0:
109,192,25775,1,0,0:0:0:0:
182,192,25775,1,8,0:0:0:0:
36,192,25775,1,2,0:0:0:0:
475,192,25854,1,0,0:0:0:0:
402,192,25854,1,0,0:0:0:0:
182,192,25933,1,0,0:0:0:0:
256,192,25933,1,0,0:0:0:0:
329,192,25933,1,0,0:0:0:0:
36,192,26012,1,0,0:0:0:0:
109,192,26012,1,0,0:0:0:0:
329,192,26091,1,0,0:0:0:0:
475,192,26091,1,0,0:0:0:0:
182,192,26091,1,0,0:0:0:0:
402,192,26091,1,2,0:0:0:0:
256,192,26170,1,0,0:0:0:0:
109,192,26170,1,0,0:0:0:0:
475,192,26249,1,0,0:0:0:0:
182,192,26249,1,0,0:0:0:0:
36,192,26249,1,0,0:0:0:0:
402,192,26328,1,0,0:0:0:0:
329,192,26328,1,0,0:0:0:0:
256,192,26407,1,0,0:0:0:0:
109,192,26407,1,0,0:0:0:0:
36,192,26407,1,8,0:0:0:0:
475,192,26407,1,2,0:0:0:0:
182,192,26486,1,0,0:0:0:0:
329,192,26486,1,0,0:0:0:0:
402,192,26565,1,0,0:0:0:0:
109,192,26565,1,0,0:0:0:0:
256,192,26565,1,0,0:0:0:0:
475,192,26644,1,0,0:0:0:0:
36,192,26644,1,0,0:0:0:0:
329,192,26723,1,0,0:0:0:0:
402,192,26723,1,0,0:0:0:0:
182,192,26723,1,2,0:0:0:0:
109,192,26802,1,0,0:0:0:0:
36,192,26802,1,0,0:0:0:0:
402,192,26881,1,0,0:0:0:0:
475,192,26881,1,0,0:0:0:0:
256,192,26881,1,0,0:0:0:0:
329,192,26881,1,0,0:0:0:0:
109,192,26960,1,0,0:0:0:0:
256,192,27038,1,0,0:0:0:0:
329,192,27038,1,0,0:0:0:0:
475,192,27038,1,8,0:0:0:0:
36,192,27038,1,2,0:0:0:0:
182,192,27117,1,0,0:0:0:0:
329,192,27196,1,0,0:0:0:0:
402,192,27196,1,0,0:0:0:0:
109,192,27196,1,0,0:0:0:0:
36,192,27196,1,0,0:0:0:0:
256,192,27275,1,0,0:0:0:0:
182,192,27354,1,0,0:0:0:0:
36,192,27354,1,0,0:0:0:0:
475,192,27354,1,0,0:0:0:0:
402,192,27354,1,2,0:0:0:0:
109,192,27433,1,0,0:0:0:0:
329,192,27433,1,0,0:0:0:0:
36,192,27512,1,0,0:0:0:0:
256,192,27512,1,0,0:0:0:0:
475,192,27512,1,0,0:0:0:0:
402,192,27591,1,0,0:0:0:0:
182,192,27591,1,0,0:0:0:0:
109,192,27670,1,0,0:0:0:0:
36,192,27670,1,0,0:0:0:0:
475,192,27670,1,8,0:0:0:0:
329,192,27670,1,2,0:0:0:0:
256,192,27749,1,0,0:0:0:0:
182,192,27749,1,0,0:0:0:0:
475,192,27828,1,0,0:0:0:0:
402,192,27828,1,0,0:0:0:0:
36,192,27828,1,0,0:0:0:0:
329,192,27907,1,0,0:0:0:0:
109,192,27907,1,0,0:0:0:0:
256,192,27986,1,0,0:0:0:0:
475,192,27986,1,0,0:0:0:0:
36,192,27986,1,0,0:0:0:0:
182,192,27986,1,2,0:0:0:0:
402,192,28065,1,0,0:0:0:0:
329,192,28065,1,0,0:0:0:0:
36,192,28144,1,0,0:0:0:0:
109,192,28144,1,0,0:0:0:0:
256,192,28144,1,2,0:0:0:0:
475,192,28223,1,0,0:0:0:0:
402,192,28223,1,0,0:0:0:0:
329,192,28302,1,0,0:0:0:0:
109,192,28302,1,0,0:0:0:0:
36,192,28302,1,2,0:0:0:0:
182,192,28302,1,4,0:0:0:0:
256,192,28302,1,8,0:0:0:0:
402,192,28381,1,0,0:0:0:0:
475,192,28381,1,0,0:0:0:0:
36,192,28460,1,0,0:0:0:0:
182,192,28460,1,4,0:0:0:0:
109,192,28460,1,2,0:0:0:0:
402,192,28538,1,0,0:0:0:0:
329,192,28538,1,0,0:0:0:0:
475,192,28538,1,0,0:0:0:0:
182,192,28617,1,0,0:0:0:0:
109,192,28617,1,0,0:0:0:50:LR_Snare Low Wet.wav
256,192,28617,1,2,0:0:0:0:
36,192,28617,1,4,0:0:0:0:
402,192,28696,1,0,0:0:0:0:
475,192,28696,1,0,0:0:0:0:
329,192,28696,1,0,0:0:0:50:LR_Snare Low Wet.wav
256,192,28775,1,0,0:0:0:0:
182,192,28775,1,0,0:0:0:0:
36,192,28775,1,0,0:0:0:50:LR_Snare Low Wet.wav
109,192,28854,1,0,0:0:0:0:
402,192,28854,1,0,0:0:0:0:
475,192,28854,1,0,0:0:0:50:LR_Snare Low Wet.wav
402,192,28933,1,8,0:0:0:0:
182,192,28933,1,2,0:0:0:0:
329,192,28933,1,0,0:0:0:50:LR_Snare Low Wet.wav
109,192,29012,1,0,0:0:0:0:
256,192,29012,1,0,0:0:0:50:LR_Snare Low Wet.wav
475,192,29091,1,0,0:0:0:0:
182,192,29091,1,0,0:0:0:0:
36,192,29091,1,0,0:0:0:50:LR_Snare Low Wet.wav
329,192,29170,1,0,0:0:0:0:
402,192,29170,1,0,0:0:0:0:
109,192,29170,1,0,0:0:0:50:LR_Snare Low Wet.wav
475,192,29249,1,0,0:0:0:0:
36,192,29249,1,0,0:0:0:50:LR_Snare Low Wet.wav
256,192,29249,1,2,0:0:0:0:
109,192,29328,1,0,0:0:0:0:
182,192,29328,1,0,0:0:0:0:
329,192,29328,1,0,0:0:0:50:LR_Snare Low Wet.wav
36,192,29407,1,0,0:0:0:0:
475,192,29407,1,0,0:0:0:0:
402,192,29407,1,0,0:0:0:50:LR_Snare Low Wet.wav
329,192,29486,1,0,0:0:0:0:
182,192,29486,1,0,0:0:0:0:
256,192,29486,1,0,0:0:0:50:LR_Snare Low Wet.wav
475,192,29565,1,8,0:0:0:0:
36,192,29565,1,2,0:0:0:0:
402,192,29565,1,0,0:0:0:50:LR_Snare Low Wet.wav
256,192,29644,1,0,0:0:0:0:
182,192,29644,1,0,0:0:0:0:
109,192,29644,1,0,0:0:0:50:LR_Snare Low Wet.wav
329,192,29723,1,0,0:0:0:0:
402,192,29723,1,2,0:0:0:0:
475,192,29723,1,0,0:0:0:50:LR_Snare Low Wet.wav
109,192,29802,1,0,0:0:0:0:
182,192,29802,1,0,0:0:0:0:
36,192,29802,1,0,0:0:0:50:LR_Snare Low Wet.wav
475,192,29881,1,0,0:0:0:0:
402,192,29881,1,4,0:0:0:0:
256,192,29881,1,2,0:0:0:0:
329,192,29881,1,0,0:0:0:50:LR_Snare Low Wet.wav
36,192,29960,1,0,0:0:0:0:
109,192,29960,1,0,0:0:0:0:
182,192,29960,1,0,0:0:0:50:LR_Snare Low Wet.wav
475,192,30038,1,0,0:0:0:0:
402,192,30038,1,0,0:0:0:0:
329,192,30038,1,0,0:0:0:50:LR_Snare Low Wet.wav
256,192,30117,1,0,0:0:0:0:
109,192,30117,1,0,0:0:0:0:
36,192,30117,1,0,0:0:0:50:LR_Snare Low Wet.wav
329,192,30196,1,2,0:0:0:0:
109,192,30196,1,0,0:0:0:50:LR_Snare Low Wet.wav
182,192,30196,1,8,0:0:0:0:
402,192,30275,1,0,0:0:0:0:
475,192,30275,1,0,0:0:0:0:
256,192,30275,1,0,0:0:0:50:LR_Snare Low Wet.wav
109,192,30354,1,0,0:0:0:0:
182,192,30354,1,0,0:0:0:0:
36,192,30354,1,0,0:0:0:50:LR_Snare Low Wet.wav
475,192,30433,1,0,0:0:0:0:
402,192,30433,1,0,0:0:0:0:
329,192,30433,1,0,0:0:0:50:LR_Snare Low Wet.wav
256,192,30512,1,0,0:0:0:0:
182,192,30512,1,2,0:0:0:0:
36,192,30512,1,0,0:0:0:50:LR_Snare Low Wet.wav
402,192,30591,1,0,0:0:0:0:
109,192,30591,1,0,0:0:0:0:
475,192,30591,1,0,0:0:0:50:LR_Snare Low Wet.wav
329,192,30670,1,0,0:0:0:0:
256,192,30670,1,2,0:0:0:0:
36,192,30670,1,0,0:0:0:50:LR_Snare Low Wet.wav
402,192,30749,1,0,0:0:0:0:
475,192,30749,1,0,0:0:0:0:
182,192,30749,1,0,0:0:0:50:LR_Snare Low Wet.wav
329,192,30828,1,8,0:0:0:0:
109,192,30828,1,2,0:0:0:0:
36,192,30828,1,0,0:0:0:50:LR_Snare Low Wet.wav
256,192,30907,1,0,0:0:0:0:
475,192,30907,1,0,0:0:0:0:
182,192,30907,1,0,0:0:0:50:LR_Snare Low Wet.wav
329,192,30986,1,0,0:0:0:0:
402,192,30986,1,2,0:0:0:0:
36,192,30986,1,0,0:0:0:50:LR_Snare Low Wet.wav
109,192,31065,1,0,0:0:0:0:
182,192,31065,1,0,0:0:0:0:
256,192,31065,1,0,0:0:0:50:LR_Snare Low Wet.wav
475,192,31144,1,0,0:0:0:0:
402,192,31144,1,0,0:0:0:50:LR_Snare Low Wet.wav
329,192,31144,1,2,0:0:0:0:
36,192,31144,1,4,0:0:0:0:
256,192,31183,1,0,0:0:0:50:LR_Snare Low Wet.wav
182,192,31223,1,0,0:0:0:50:LR_Snare Low Wet.wav
109,192,31262,1,0,0:0:0:50:LR_Snare Low Wet.wav
402,192,31302,1,0,0:0:0:50:LR_Snare Low Wet.wav
329,192,31341,1,0,0:0:0:50:LR_Snare Low Wet.wav
256,192,31381,1,0,0:0:0:50:LR_Snare Low Wet.wav
182,192,31420,1,0,0:0:0:50:LR_Snare Low Wet.wav
475,192,31460,1,0,0:0:0:0:
36,192,31460,1,0,0:0:0:50:LR_Snare Low Wet.wav
109,192,31460,1,8,0:0:0:0:
256,192,31538,1,0,0:0:0:0:
402,192,31538,1,0,0:0:0:0:
329,192,31538,1,0,0:0:0:50:LR_Snare Low Wet.wav
109,192,31617,1,0,0:0:0:0:
182,192,31617,1,4,0:0:0:0:
36,192,31617,1,0,0:0:0:50:LR_Snare Low Wet.wav
475,192,31696,1,0,0:0:0:0:
402,192,31696,1,0,0:0:0:0:
329,192,31696,1,0,0:0:0:50:LR_Snare Low Wet.wav
182,192,31775,1,4,0:0:0:0:
109,192,31775,1,2,0:0:0:0:
36,192,31775,1,0,0:0:0:50:LR_Snare Low Wet.wav
256,192,31815,1,0,0:0:0:50:LR_Snare Low Wet.wav
329,192,31854,1,0,0:0:0:50:LR_Snare Low Wet.wav
402,192,31894,1,0,0:0:0:50:LR_Snare Low Wet.wav
109,192,31933,1,0,0:0:0:50:LR_Snare Low Wet.wav
182,192,31973,1,0,0:0:0:50:LR_Snare Low Wet.wav
256,192,32012,1,0,0:0:0:50:LR_Snare Low Wet.wav
329,192,32052,1,0,0:0:0:50:LR_Snare Low Wet.wav
402,192,32091,1,0,0:0:0:0:
109,192,32091,1,0,0:0:0:50:LR_Snare Low Wet.wav
475,192,32091,1,8,0:0:0:0:
36,192,32091,1,4,0:0:0:0:
182,192,32170,1,0,0:0:0:0:
256,192,32170,1,0,0:0:0:0:
329,192,32170,1,0,0:0:0:50:LR_Snare Low Wet.wav
402,192,32249,1,0,0:0:0:0:
36,192,32249,1,0,0:0:0:0:
475,192,32249,1,0,0:0:0:50:LR_Snare Low Wet.wav
182,192,32328,1,0,0:0:0:0:
109,192,32328,1,0,0:0:0:50:LR_Snare Low Wet.wav
402,192,32400,1,0,0:0:0:0:
329,192,32400,1,0,0:0:0:0:
475,192,32400,1,0,0:0:0:0:
256,192,32400,1,4,0:0:0:0:
36,192,32400,1,2,0:0:0:0:
182,192,32614,1,0,0:0:0:0:
256,192,32614,1,0,0:0:0:0:
329,192,32614,1,0,0:0:0:0:
402,192,32614,1,0,0:0:0:0:
475,192,32614,1,4,0:0:0:0:
36,192,32614,1,2,0:0:0:0:
475,192,32828,128,0,32935:0:0:0:0:
36,192,32828,128,0,32935:0:0:0:0:
109,192,32828,128,0,32935:0:0:0:0:
182,192,32828,128,0,32935:0:0:0:0:
256,192,32828,128,4,32935:0:0:0:0:
329,192,32828,128,2,32935:0:0:0:0:
475,192,33042,128,0,33150:0:0:0:0:
109,192,33042,128,0,33150:0:0:0:0:
36,192,33042,128,0,33150:0:0:0:0:
402,192,33042,128,0,33150:0:0:0:0:
256,192,33042,128,2,33150:0:0:0:0:
329,192,33042,128,4,33150:0:0:0:0:
475,192,33257,128,0,33364:0:0:0:0:
402,192,33257,128,0,33364:0:0:0:0:
256,192,33257,128,0,33364:0:0:0:0:
182,192,33257,128,0,33364:0:0:0:0:
109,192,33257,128,4,33364:0:0:0:0:
36,192,33257,128,2,33364:0:0:0:0:
475,192,33471,128,0,33578:0:0:0:0:
402,192,33471,128,0,33578:0:0:0:0:
329,192,33471,128,0,33578:0:0:0:0:
36,192,33471,128,0,33578:0:0:0:0:
109,192,33471,128,4,33578:0:0:0:0:
182,192,33471,128,2,33578:0:0:0:0:
402,192,33688,128,0,33793:0:0:0:0:
109,192,33688,128,0,33793:0:0:0:0:
475,192,33688,128,0,34424:0:0:0:0:
36,192,33688,128,0,34003:0:0:0:70:LR_CymbalWWT.wav
256,192,33688,128,0,34003:0:0:0:100:twinkling.wav
329,192,33898,128,0,34003:0:0:0:0:
402,192,33898,128,0,34214:0:0:0:0:
182,192,33898,128,0,34003:0:0:0:0:
109,192,33898,128,0,34003:0:0:0:0:
36,192,34109,128,0,34214:0:0:0:0:
109,192,34109,128,0,34424:0:0:0:0:
256,192,34109,128,0,34214:0:0:0:0:
329,192,34109,128,0,34424:0:0:0:0:
36,192,34319,128,0,34845:0:0:0:0:
182,192,34319,128,0,34424:0:0:0:0:
256,192,34319,128,0,34424:0:0:0:0:
402,192,34319,128,0,34424:0:0:0:0:
109,192,34530,128,0,34635:0:0:0:0:
256,192,34530,128,0,34845:0:0:0:0:
402,192,34530,128,0,34635:0:0:0:0:
475,192,34530,128,0,35266:0:0:0:0:
182,192,34740,128,0,34845:0:0:0:0:
109,192,34740,128,0,34845:0:0:0:0:
329,192,34740,128,0,34845:0:0:0:0:
402,192,34740,128,0,35056:0:0:0:0:
36,192,34951,128,0,35056:0:0:0:0:
256,192,34951,128,0,35056:0:0:0:0:
329,192,34951,128,0,35477:0:0:0:0:
109,192,34951,128,0,35266:0:0:0:0:
36,192,35161,128,0,35266:0:0:0:0:
182,192,35161,128,0,35477:0:0:0:0:
402,192,35161,128,0,35266:0:0:0:0:
256,192,35161,128,0,35266:0:0:0:0:
402,192,35372,128,0,35477:0:0:0:0:
109,192,35372,128,0,35477:0:0:0:0:
475,192,35372,128,0,35898:0:0:0:0:
36,192,35372,128,0,35688:0:0:0:0:
329,192,35582,128,0,35898:0:0:0:0:
109,192,35582,128,0,35688:0:0:0:0:
182,192,35582,128,0,35688:0:0:0:0:
402,192,35582,128,0,35688:0:0:0:0:
36,192,35793,128,0,36109:0:0:0:0:
182,192,35793,128,0,36319:0:0:0:0:
256,192,35793,128,0,35898:0:0:0:0:
402,192,35793,128,0,35898:0:0:0:0:
475,192,36003,128,0,36109:0:0:0:0:
329,192,36003,128,0,36319:0:0:0:0:
109,192,36003,128,0,36109:0:0:0:0:
256,192,36003,128,0,36109:0:0:0:0:
109,192,36214,128,0,36319:0:0:0:0:
402,192,36214,128,0,36319:0:0:0:0:
475,192,36214,128,0,36740:0:0:0:0:
36,192,36214,128,0,36530:0:0:0:0:
109,192,36424,128,0,36740:0:0:0:0:
182,192,36424,128,0,36530:0:0:0:0:
329,192,36424,128,0,36530:0:0:0:0:
402,192,36424,128,0,36530:0:0:0:0:
182,192,36635,128,0,36951:0:0:0:0:
256,192,36635,128,0,36740:0:0:0:0:
402,192,36635,128,0,36951:0:0:0:0:
36,192,36635,128,0,36740:0:0:0:0:
256,192,36845,128,0,36951:0:0:0:0:
109,192,36845,128,0,37161:0:0:0:0:
329,192,36845,128,0,36951:0:0:0:0:
475,192,36845,128,0,36951:0:0:0:0:
182,192,37056,128,0,37161:0:0:0:0:
36,192,37056,128,0,37372:0:0:0:0:
402,192,37056,128,0,37161:0:0:0:0:
329,192,37056,128,0,37582:0:0:0:0:
475,192,37266,128,0,37582:0:0:0:0:
109,192,37266,128,0,37372:0:0:0:0:
256,192,37266,128,0,37372:0:0:0:0:
402,192,37266,128,0,37372:0:0:0:0:
256,192,37477,128,0,38003:0:0:0:0:
109,192,37477,128,0,37582:0:0:0:0:
36,192,37477,128,0,37793:0:0:0:0:
402,192,37477,128,0,37582:0:0:0:0:
182,192,37688,128,0,37793:0:0:0:0:
329,192,37688,128,0,37793:0:0:0:0:
475,192,37688,128,0,38003:0:0:0:0:
109,192,37688,128,0,37793:0:0:0:0:
402,192,37898,128,0,38003:0:0:0:0:
329,192,37898,128,0,38003:0:0:0:0:
36,192,37898,128,0,38214:0:0:0:0:
182,192,37898,128,0,38424:0:0:0:0:
256,192,38109,128,0,38214:0:0:0:0:
402,192,38109,128,0,38214:0:0:0:0:
475,192,38109,128,0,38424:0:0:0:0:
109,192,38109,128,0,38214:0:0:0:0:
36,192,38319,128,0,39266:0:0:0:0:
109,192,38319,128,0,38424:0:0:0:0:
256,192,38319,128,0,38424:0:0:0:0:
402,192,38319,128,0,38424:0:0:0:0:
182,192,38530,128,0,38635:0:0:0:0:
329,192,38530,128,0,38635:0:0:0:0:
475,192,38530,128,0,38635:0:0:0:0:
109,192,38530,128,0,38845:0:0:0:0:
182,192,38740,128,0,38845:0:0:0:0:
475,192,38740,128,0,39477:0:0:0:0:
402,192,38740,128,0,38845:0:0:0:0:
329,192,38740,128,0,38845:0:0:0:0:
329,192,38951,128,0,39266:0:0:0:0:
402,192,38951,128,0,39056:0:0:0:0:
256,192,38951,128,0,39056:0:0:0:0:
109,192,38951,128,0,39056:0:0:0:0:
256,192,39161,128,0,39687:0:0:0:0:
109,192,39161,128,0,39266:0:0:0:0:
182,192,39161,128,0,39266:0:0:0:0:
402,192,39161,128,0,39266:0:0:0:0:
36,192,39372,128,0,40109:0:0:0:0:
109,192,39372,128,0,39477:0:0:0:0:
182,192,39372,128,0,39477:0:0:0:0:
329,192,39372,128,0,39477:0:0:0:0:
182,192,39582,128,0,39687:0:0:0:0:
475,192,39582,128,0,40530:0:0:0:0:
402,192,39582,128,0,39687:0:0:0:0:
329,192,39582,128,0,39687:0:0:0:0:
329,192,39793,128,0,40109:0:0:0:0:
256,192,39793,128,0,39898:0:0:0:0:
109,192,39793,128,0,39898:0:0:0:0:
402,192,39793,128,0,39898:0:0:0:0:
256,192,40003,128,0,40319:0:0:0:0:
402,192,40003,128,0,40109:0:0:0:0:
182,192,40003,128,0,40109:0:0:0:0:
109,192,40003,128,0,40109:0:0:0:0:
36,192,40214,128,0,40740:0:0:0:0:
109,192,40214,128,0,40319:0:0:0:0:
182,192,40214,128,0,40319:0:0:0:0:
329,192,40214,128,0,40319:0:0:0:0:
256,192,40424,128,0,40951:0:0:0:0:
402,192,40424,128,0,40530:0:0:0:0:
329,192,40424,128,0,40530:0:0:0:0:
109,192,40424,128,0,40740:0:0:0:0:
475,192,40635,128,0,41161:0:0:0:0:
182,192,40635,128,0,40740:0:0:0:0:
329,192,40635,128,0,40740:0:0:0:0:
402,192,40635,128,0,40740:0:0:0:0:
329,192,40845,128,0,41266:0:0:0:0:
36,192,40845,128,0,41161:0:0:0:0:
109,192,40845,128,0,40951:0:0:0:0:
182,192,40845,128,0,40951:0:0:0:0:
256,192,41056,128,0,41266:0:0:0:0:
109,192,41056,128,0,41161:0:0:0:0:
182,192,41056,128,0,41161:0:0:0:0:
402,192,41056,128,0,41266:0:0:0:0:
109,192,41266,128,0,41477:0:0:0:0:
475,192,41266,1,0,0:0:0:0:
36,192,41266,1,4,0:0:0:0:
182,192,41266,1,0,0:0:0:30:LR4_SnareKKF.wav
402,192,41319,1,0,0:0:0:30:LR4_SnareKKF.wav
329,192,41372,1,0,0:0:0:30:LR4_SnareKKF.wav
256,192,41424,1,0,0:0:0:30:LR4_SnareKKF.wav
182,192,41477,128,0,41687:0:0:0:0:
36,192,41477,1,0,0:0:0:0:
402,192,41477,1,0,0:0:0:0:
475,192,41477,1,2,0:0:0:0:
329,192,41687,128,0,41898:0:0:0:0:
36,192,41687,1,0,0:0:0:0:
109,192,41687,1,0,0:0:0:0:
402,192,41687,1,2,0:0:0:0:
475,192,41687,1,4,0:0:0:0:
475,192,41898,1,0,0:0:0:0:
256,192,41898,1,0,0:0:0:0:
402,192,41898,128,0,42109:0:0:0:30:LR4_SnareKKF.wav
36,192,41898,1,4,0:0:0:0:
109,192,41951,1,0,0:0:0:30:LR4_SnareKKF.wav
182,192,42003,1,0,0:0:0:30:LR4_SnareKKF.wav
256,192,42056,1,0,0:0:0:30:LR4_SnareKKF.wav
36,192,42109,128,0,42319:0:0:0:0:
475,192,42109,1,0,0:0:0:0:
109,192,42109,1,0,0:0:0:0:
329,192,42109,1,2,0:0:0:0:
109,192,42319,1,0,0:0:0:0:
256,192,42319,1,0,0:0:0:0:
402,192,42319,1,2,0:0:0:0:
475,192,42319,1,4,0:0:0:0:
329,192,42424,1,0,0:0:0:0:
182,192,42424,1,0,0:0:0:0:
36,192,42424,1,2,0:0:0:0:
402,192,42530,1,0,0:0:0:0:
475,192,42530,1,0,0:0:0:0:
109,192,42530,128,4,42740:0:0:0:0:
256,192,42530,1,2,0:0:0:0:
329,192,42740,1,0,0:0:0:0:
475,192,42740,1,0,0:0:0:0:
182,192,42740,128,0,42951:0:0:0:0:
36,192,42740,1,2,0:0:0:0:
402,192,42951,1,0,0:0:0:0:
475,192,42951,1,0,0:0:0:0:
329,192,42951,1,4,0:0:0:0:
256,192,42951,128,2,43161:0:0:0:0:
182,192,43056,1,0,0:0:0:0:
109,192,43056,1,0,0:0:0:0:
36,192,43056,1,2,0:0:0:0:
329,192,43161,1,0,0:0:0:0:
402,192,43161,1,0,0:0:0:30:LR4_SnareKKF.wav
475,192,43161,1,4,0:0:0:0:
256,192,43214,1,0,0:0:0:30:LR4_SnareKKF.wav
182,192,43266,1,0,0:0:0:30:LR4_SnareKKF.wav
109,192,43319,1,0,0:0:0:30:LR4_SnareKKF.wav
475,192,43372,1,0,0:0:0:0:
329,192,43372,128,0,43582:0:0:0:0:
36,192,43372,1,0,0:0:0:0:
256,192,43372,1,2,0:0:0:0:
402,192,43372,1,4,0:0:0:0:
475,192,43582,1,0,0:0:0:0:
256,192,43582,1,0,0:0:0:0:
402,192,43582,1,0,0:0:0:0:
109,192,43582,1,2,0:0:0:0:
36,192,43582,1,4,0:0:0:0:
329,192,43687,1,4,0:0:0:0:
182,192,43687,1,2,0:0:0:0:
475,192,43793,128,0,44109:0:0:0:0:
109,192,43793,128,0,43898:0:0:0:0:
256,192,43793,128,0,43898:0:0:0:0:
36,192,43793,128,0,43898:0:0:0:70:LR_CymbalWWT.wav
402,192,43793,128,2,44109:0:0:0:0:
109,192,44003,128,0,44109:0:0:0:0:
256,192,44003,128,0,44319:0:0:0:0:
36,192,44003,128,0,44109:0:0:0:0:
329,192,44003,128,0,44109:0:0:0:0:
36,192,44214,128,0,44530:0:0:0:0:
109,192,44214,128,0,44319:0:0:0:0:
182,192,44214,128,0,44951:0:0:0:0:
329,192,44214,128,0,44530:0:0:0:0:
475,192,44214,128,0,44319:0:0:0:70:LR_Snare Low Wet.wav
402,192,44214,128,2,44319:0:0:0:0:
402,192,44424,128,0,44951:0:0:0:0:
109,192,44424,128,0,44530:0:0:0:0:
256,192,44424,128,0,44530:0:0:0:0:
475,192,44424,128,0,44530:0:0:0:0:
475,192,44635,128,0,44951:0:0:0:0:
109,192,44635,128,0,44740:0:0:0:0:
36,192,44635,128,0,44740:0:0:0:0:
256,192,44635,128,0,44740:0:0:0:0:
329,192,44635,128,2,44740:0:0:0:0:
256,192,44845,128,0,45161:0:0:0:0:
329,192,44845,128,0,44951:0:0:0:0:
109,192,44845,128,0,44951:0:0:0:0:
36,192,44845,128,0,44951:0:0:0:0:
36,192,45056,128,0,45372:0:0:0:0:
109,192,45056,128,0,45161:0:0:0:0:
182,192,45056,128,0,45372:0:0:0:0:
475,192,45056,128,0,45161:0:0:0:0:
402,192,45056,128,0,45161:0:0:0:70:LR_Snare Low Wet.wav
329,192,45056,128,2,45372:0:0:0:0:
475,192,45266,128,0,45372:0:0:0:0:
402,192,45266,128,0,45372:0:0:0:0:
256,192,45266,128,0,45793:0:0:0:0:
109,192,45266,128,0,45793:0:0:0:0:
475,192,45477,128,0,45582:0:0:0:0:
182,192,45477,128,0,45582:0:0:0:0:
36,192,45477,128,0,45582:0:0:0:0:
402,192,45477,128,0,45582:0:0:0:0:
329,192,45477,128,2,45793:0:0:0:0:
402,192,45687,128,0,45793:0:0:0:0:
475,192,45687,128,0,45793:0:0:0:0:
36,192,45687,128,0,45793:0:0:0:0:
182,192,45687,128,0,46003:0:0:0:0:
402,192,45898,128,0,46214:0:0:0:0:
329,192,45898,128,0,46003:0:0:0:0:
475,192,45898,128,0,46003:0:0:0:0:
36,192,45898,128,0,46214:0:0:0:0:
109,192,45898,128,2,46003:0:0:0:0:
256,192,45898,128,0,46635:0:0:0:70:LR_Snare Low Wet.wav
329,192,46109,128,0,46214:0:0:0:0:
475,192,46109,128,0,46214:0:0:0:0:
182,192,46109,128,0,46214:0:0:0:0:
109,192,46109,128,0,46635:0:0:0:0:
475,192,46319,128,0,46424:0:0:0:0:
182,192,46319,128,0,46424:0:0:0:0:
402,192,46319,128,0,46424:0:0:0:0:
329,192,46319,128,0,46635:0:0:0:0:
36,192,46319,128,2,46424:0:0:0:0:
182,192,46530,128,0,46845:0:0:0:0:
36,192,46530,128,0,46635:0:0:0:0:
402,192,46530,128,0,46635:0:0:0:0:
475,192,46530,128,0,46635:0:0:0:0:
256,192,46740,128,0,47056:0:0:0:0:
36,192,46740,128,0,47056:0:0:0:0:
109,192,46740,128,0,46845:0:0:0:0:
402,192,46740,128,0,47056:0:0:0:0:
329,192,46740,128,0,46845:0:0:0:70:LR_Snare Low Wet.wav
475,192,46740,128,2,46845:0:0:0:0:
182,192,46951,128,0,47266:0:0:0:0:
109,192,46951,128,0,47056:0:0:0:0:
329,192,46951,128,0,47266:0:0:0:0:
475,192,46951,128,0,47056:0:0:0:0:
475,192,47161,128,0,47477:0:0:0:0:
256,192,47161,128,0,47477:0:0:0:0:
109,192,47161,128,0,47266:0:0:0:0:
402,192,47161,128,0,47266:0:0:0:0:
36,192,47161,128,2,47477:0:0:0:0:
182,192,47372,128,0,47687:0:0:0:0:
109,192,47372,128,0,47477:0:0:0:0:
329,192,47372,128,0,47477:0:0:0:0:
402,192,47372,128,0,47477:0:0:0:0:
256,192,47582,128,0,47898:0:0:0:0:
402,192,47582,128,0,47687:0:0:0:0:
329,192,47582,128,0,47687:0:0:0:0:
475,192,47582,128,0,47898:0:0:0:0:
36,192,47582,128,0,47687:0:0:0:70:LR_Snare Low Wet.wav
109,192,47582,128,2,47898:0:0:0:0:
402,192,47793,128,0,47898:0:0:0:0:
329,192,47793,128,0,48109:0:0:0:0:
182,192,47793,128,0,48109:0:0:0:0:
36,192,47793,128,0,47898:0:0:0:0:
256,192,48003,128,0,48319:0:0:0:0:
402,192,48003,128,0,48109:0:0:0:0:
475,192,48003,128,0,48109:0:0:0:0:
109,192,48003,128,0,48109:0:0:0:0:
36,192,48003,128,2,48109:0:0:0:0:
36,192,48214,128,0,48319:0:0:0:0:
329,192,48214,128,0,48319:0:0:0:0:
109,192,48214,128,0,48319:0:0:0:0:
182,192,48214,128,0,48530:0:0:0:0:
402,192,48214,128,0,48319:0:0:0:70:LR_Snare Low Wet.wav
475,192,48214,128,2,48319:0:0:0:0:
402,192,48424,128,0,48530:0:0:0:0:
329,192,48424,128,0,48530:0:0:0:0:
475,192,48424,128,0,48530:0:0:0:0:
36,192,48424,128,0,48530:0:0:0:0:
109,192,48424,128,0,48740:0:0:0:70:LR_Snare Low Wet.wav
256,192,48424,128,2,48530:0:0:0:0:
475,192,48635,128,0,48740:0:0:0:0:
36,192,48635,128,0,48740:0:0:0:0:
402,192,48635,128,0,48740:0:0:0:0:
256,192,48635,128,0,48740:0:0:0:0:
329,192,48635,128,0,48740:0:0:0:70:LR_Snare Low Wet.wav
182,192,48635,128,2,48740:0:0:0:0:
329,192,48845,128,0,49161:0:0:0:0:
109,192,48845,128,0,48951:0:0:0:0:
475,192,48845,128,0,49161:0:0:0:0:
36,192,48845,128,0,48951:0:0:0:0:
256,192,48845,128,0,48951:0:0:0:0:
402,192,48845,128,4,48951:0:0:0:0:
182,192,48845,128,2,49161:0:0:0:0:
402,192,49056,128,0,49372:0:0:0:0:
256,192,49056,128,0,49161:0:0:0:0:
109,192,49056,128,0,49161:0:0:0:0:
36,192,49056,128,0,49161:0:0:0:0:
329,192,49266,128,0,49582:0:0:0:0:
256,192,49266,128,0,49793:0:0:0:0:
475,192,49266,128,0,49372:0:0:0:0:
109,192,49266,128,0,49582:0:0:0:0:
182,192,49266,128,2,49372:0:0:0:0:
36,192,49266,128,0,49372:0:0:0:70:LR_Snare Low Wet.wav
182,192,49477,128,0,49582:0:0:0:0:
36,192,49477,128,0,49582:0:0:0:0:
475,192,49477,128,0,49582:0:0:0:0:
402,192,49477,128,0,49793:0:0:0:0:
36,192,49687,128,0,49793:0:0:0:0:
109,192,49687,128,0,49793:0:0:0:0:
182,192,49687,128,0,50003:0:0:0:0:
329,192,49687,128,0,50003:0:0:0:0:
475,192,49687,128,2,50003:0:0:0:0:
36,192,49898,128,0,50003:0:0:0:0:
109,192,49898,128,0,50003:0:0:0:0:
256,192,49898,128,0,50003:0:0:0:0:
402,192,49898,128,0,50214:0:0:0:0:
182,192,50109,128,0,50214:0:0:0:0:
475,192,50109,128,0,50214:0:0:0:0:
109,192,50109,128,0,50424:0:0:0:0:
329,192,50109,128,0,50424:0:0:0:0:
256,192,50109,128,0,50635:0:0:0:70:LR_Snare Low Wet.wav
36,192,50109,128,2,50214:0:0:0:0:
182,192,50319,128,0,50424:0:0:0:0:
36,192,50319,128,0,50424:0:0:0:0:
475,192,50319,128,0,50424:0:0:0:0:
402,192,50319,128,0,50635:0:0:0:0:
109,192,50530,128,0,50845:0:0:0:0:
36,192,50530,128,0,50845:0:0:0:0:
475,192,50530,128,0,50635:0:0:0:0:
329,192,50530,128,0,50845:0:0:0:0:
182,192,50530,128,2,50635:0:0:0:0:
182,192,50740,128,0,50845:0:0:0:0:
256,192,50740,128,0,51056:0:0:0:0:
475,192,50740,128,0,50845:0:0:0:0:
402,192,50740,128,0,50845:0:0:0:0:
329,192,50951,128,0,51056:0:0:0:0:
402,192,50951,128,0,51266:0:0:0:0:
475,192,50951,128,0,51056:0:0:0:0:
182,192,50951,128,0,51266:0:0:0:0:
109,192,50951,128,0,51056:0:0:0:70:LR_Snare Low Wet.wav
36,192,50951,128,2,51056:0:0:0:0:
256,192,51161,128,0,51266:0:0:0:0:
36,192,51161,128,0,51266:0:0:0:0:
329,192,51161,128,0,51266:0:0:0:0:
475,192,51161,128,0,51266:0:0:0:0:
109,192,51161,128,2,51266:0:0:0:0:
329,192,51372,128,0,51477:0:0:0:0:
36,192,51372,128,0,51687:0:0:0:0:
182,192,51372,128,0,51687:0:0:0:0:
475,192,51372,128,0,51687:0:0:0:0:
256,192,51372,128,0,51477:0:0:0:0:
402,192,51372,128,4,51477:0:0:0:0:
109,192,51372,128,2,51477:0:0:0:0:
109,192,51582,128,0,51687:0:0:0:0:
402,192,51582,128,0,51898:0:0:0:0:
329,192,51582,128,0,51687:0:0:0:0:
256,192,51582,128,0,51687:0:0:0:0:
36,192,51793,128,0,51898:0:0:0:0:
475,192,51793,128,0,51898:0:0:0:0:
109,192,51793,128,0,51898:0:0:0:0:
256,192,51793,128,0,51898:0:0:0:0:
182,192,51793,128,0,51898:0:0:0:70:LR_Snare Low Wet.wav
329,192,51793,128,2,51898:0:0:0:0:
109,192,52003,128,0,52319:0:0:0:0:
182,192,52003,128,0,52109:0:0:0:0:
256,192,52003,128,0,52530:0:0:0:0:
475,192,52003,128,0,52109:0:0:0:0:
36,192,52003,128,0,52109:0:0:0:0:
329,192,52003,128,4,52109:0:0:0:0:
402,192,52003,128,2,52109:0:0:0:0:
329,192,52214,128,0,52319:0:0:0:0:
402,192,52214,128,0,52319:0:0:0:0:
475,192,52214,128,0,52530:0:0:0:0:
182,192,52214,128,2,52319:0:0:0:0:
36,192,52214,128,0,52530:0:0:0:70:LR_Snare Low Wet.wav
329,192,52424,128,0,52530:0:0:0:0:
402,192,52424,128,0,52530:0:0:0:0:
109,192,52424,128,0,52530:0:0:0:0:
182,192,52424,128,2,52530:0:0:0:0:
182,192,52635,128,0,52845:0:0:0:0:
109,192,52635,128,0,52845:0:0:0:0:
475,192,52635,128,0,52740:0:0:0:0:
329,192,52635,128,0,52845:0:0:0:0:
36,192,52635,128,0,52845:0:0:0:0:
256,192,52635,128,4,52740:0:0:0:0:
402,192,52635,128,2,52740:0:0:0:0:
256,192,52845,1,0,0:0:0:0:
402,192,52845,1,4,0:0:0:0:
475,192,52845,1,2,0:0:0:0:
182,192,52951,1,0,0:0:0:0:
109,192,52951,1,2,0:0:0:0:
329,192,52951,1,4,0:0:0:0:
475,192,53056,1,0,0:0:0:0:
402,192,53056,1,0,0:0:0:0:
36,192,53056,1,0,0:0:0:70:LR_Snare Low Wet.wav
256,192,53056,1,2,0:0:0:0:
182,192,53161,1,2,0:0:0:0:
329,192,53161,1,4,0:0:0:0:
36,192,53266,1,0,0:0:0:0:
109,192,53266,1,0,0:0:0:0:
475,192,53266,1,0,0:0:0:30:LR4_SnareKKF.wav
402,192,53319,1,0,0:0:0:30:LR4_SnareKKF.wav
329,192,53372,1,0,0:0:0:30:LR4_SnareKKF.wav
256,192,53424,1,0,0:0:0:30:LR4_SnareKKF.wav
182,192,53477,1,0,0:0:0:30:LR4_SnareKKF.wav
109,192,53530,1,0,0:0:0:30:LR4_SnareKKF.wav
475,192,53582,1,0,0:0:0:0:
36,192,53582,1,0,0:0:0:0:
402,192,53582,1,0,0:0:0:0:
329,192,53582,1,4,0:0:0:0:
256,192,53582,1,2,0:0:0:0:
109,192,53740,1,0,0:0:0:0:
182,192,53740,1,0,0:0:0:0:
329,192,53740,1,0,0:0:0:0:
402,192,53740,1,2,0:0:0:0:
475,192,53740,1,4,0:0:0:0:
109,192,53884,1,0,0:0:0:0:
475,192,53884,1,0,0:0:0:0:
402,192,53884,1,0,0:0:0:70:LR_CymbalWWT.wav
36,192,53884,1,2,0:0:0:0:
256,192,53884,1,0,0:0:0:100:twinkling.wav
182,192,53962,1,0,0:0:0:0:
329,192,53962,1,0,0:0:0:0:
36,192,54041,1,0,0:0:0:0:
256,192,54041,1,0,0:0:0:0:
329,192,54120,1,0,0:0:0:0:
109,192,54120,1,0,0:0:0:0:
256,192,54199,1,0,0:0:0:0:
182,192,54199,1,0,0:0:0:0:
475,192,54199,1,8,0:0:0:0:
402,192,54199,1,2,0:0:0:0:
329,192,54278,1,0,0:0:0:0:
36,192,54278,1,0,0:0:0:0:
109,192,54278,1,0,0:0:0:0:
256,192,54357,1,0,0:0:0:0:
475,192,54357,1,0,0:0:0:0:
402,192,54436,1,0,0:0:0:0:
182,192,54436,1,0,0:0:0:0:
329,192,54515,1,0,0:0:0:0:
109,192,54515,1,0,0:0:0:0:
475,192,54515,1,0,0:0:0:0:
36,192,54515,1,2,0:0:0:0:
402,192,54594,1,0,0:0:0:0:
256,192,54594,1,0,0:0:0:0:
36,192,54673,1,0,0:0:0:0:
182,192,54673,1,0,0:0:0:0:
475,192,54752,1,0,0:0:0:0:
402,192,54752,1,0,0:0:0:0:
256,192,54831,1,0,0:0:0:0:
109,192,54831,1,0,0:0:0:0:
329,192,54831,1,8,0:0:0:0:
36,192,54831,1,2,0:0:0:0:
182,192,54910,1,0,0:0:0:0:
475,192,54910,1,0,0:0:0:0:
402,192,54910,1,0,0:0:0:0:
109,192,54989,1,0,0:0:0:0:
36,192,54989,1,0,0:0:0:0:
329,192,54989,1,0,0:0:0:0:
402,192,55068,1,0,0:0:0:0:
256,192,55068,1,0,0:0:0:0:
329,192,55147,1,0,0:0:0:0:
475,192,55147,1,0,0:0:0:0:
36,192,55147,1,0,0:0:0:0:
182,192,55147,1,2,0:0:0:0:
109,192,55226,1,0,0:0:0:0:
256,192,55226,1,0,0:0:0:0:
182,192,55305,1,0,0:0:0:0:
475,192,55305,1,0,0:0:0:0:
402,192,55384,1,0,0:0:0:0:
109,192,55384,1,0,0:0:0:0:
36,192,55384,1,0,0:0:0:0:
256,192,55462,1,0,0:0:0:0:
475,192,55462,1,0,0:0:0:0:
182,192,55462,1,2,0:0:0:0:
329,192,55462,1,8,0:0:0:0:
36,192,55541,1,0,0:0:0:0:
402,192,55541,1,0,0:0:0:0:
182,192,55620,1,0,0:0:0:0:
109,192,55620,1,0,0:0:0:0:
329,192,55699,1,0,0:0:0:0:
256,192,55699,1,0,0:0:0:0:
402,192,55778,1,0,0:0:0:0:
475,192,55778,1,0,0:0:0:0:
36,192,55778,1,0,0:0:0:0:
109,192,55778,1,2,0:0:0:0:
182,192,55857,1,0,0:0:0:0:
329,192,55857,1,0,0:0:0:0:
475,192,55936,1,0,0:0:0:0:
256,192,55936,1,0,0:0:0:0:
36,192,56015,1,0,0:0:0:0:
109,192,56015,1,0,0:0:0:0:
329,192,56015,1,0,0:0:0:0:
182,192,56094,1,0,0:0:0:0:
475,192,56094,1,0,0:0:0:0:
402,192,56094,1,2,0:0:0:0:
256,192,56094,1,8,0:0:0:0:
36,192,56173,1,0,0:0:0:0:
329,192,56173,1,0,0:0:0:0:
109,192,56173,1,0,0:0:0:0:
256,192,56252,1,0,0:0:0:0:
475,192,56252,1,0,0:0:0:0:
182,192,56331,1,0,0:0:0:0:
402,192,56331,1,0,0:0:0:0:
109,192,56410,1,0,0:0:0:0:
36,192,56410,1,0,0:0:0:0:
475,192,56410,1,0,0:0:0:0:
329,192,56410,1,2,0:0:0:0:
256,192,56489,1,0,0:0:0:0:
182,192,56489,1,0,0:0:0:0:
36,192,56568,1,0,0:0:0:0:
109,192,56568,1,0,0:0:0:0:
475,192,56647,1,0,0:0:0:0:
256,192,56647,1,0,0:0:0:0:
402,192,56647,1,0,0:0:0:0:
109,192,56726,1,0,0:0:0:0:
182,192,56726,1,0,0:0:0:0:
36,192,56726,1,8,0:0:0:0:
329,192,56726,1,2,0:0:0:0:
402,192,56805,1,0,0:0:0:0:
475,192,56805,1,0,0:0:0:0:
256,192,56805,1,0,0:0:0:0:
36,192,56884,1,0,0:0:0:0:
182,192,56884,1,0,0:0:0:0:
109,192,56962,1,0,0:0:0:0:
329,192,56962,1,0,0:0:0:0:
475,192,57041,1,0,0:0:0:0:
256,192,57041,1,0,0:0:0:0:
36,192,57041,1,0,0:0:0:0:
402,192,57041,1,2,0:0:0:0:
329,192,57120,1,0,0:0:0:0:
182,192,57120,1,0,0:0:0:0:
475,192,57199,1,0,0:0:0:0:
109,192,57199,1,0,0:0:0:0:
36,192,57278,1,0,0:0:0:0:
402,192,57278,1,0,0:0:0:0:
256,192,57357,1,0,0:0:0:0:
329,192,57357,1,0,0:0:0:0:
475,192,57357,1,8,0:0:0:0:
182,192,57357,1,2,0:0:0:0:
109,192,57436,1,0,0:0:0:0:
402,192,57436,1,0,0:0:0:0:
36,192,57436,1,0,0:0:0:0:
329,192,57515,1,0,0:0:0:0:
182,192,57515,1,0,0:0:0:0:
402,192,57594,1,0,0:0:0:0:
109,192,57594,1,0,0:0:0:0:
256,192,57673,1,0,0:0:0:0:
329,192,57673,1,0,0:0:0:0:
475,192,57673,1,0,0:0:0:0:
36,192,57673,1,2,0:0:0:0:
182,192,57752,1,0,0:0:0:0:
109,192,57752,1,0,0:0:0:0:
329,192,57831,1,0,0:0:0:0:
402,192,57831,1,0,0:0:0:0:
36,192,57910,1,0,0:0:0:0:
182,192,57910,1,0,0:0:0:0:
256,192,57910,1,0,0:0:0:0:
329,192,57989,1,0,0:0:0:0:
475,192,57989,1,0,0:0:0:0:
109,192,57989,1,8,0:0:0:0:
402,192,57989,1,2,0:0:0:0:
256,192,58068,1,0,0:0:0:0:
36,192,58068,1,0,0:0:0:0:
182,192,58147,1,0,0:0:0:0:
475,192,58147,1,0,0:0:0:0:
329,192,58226,1,0,0:0:0:0:
109,192,58226,1,0,0:0:0:0:
256,192,58305,1,0,0:0:0:0:
475,192,58305,1,0,0:0:0:0:
402,192,58305,1,0,0:0:0:0:
36,192,58305,1,2,0:0:0:0:
329,192,58384,1,0,0:0:0:0:
182,192,58384,1,0,0:0:0:0:
36,192,58462,1,0,0:0:0:0:
109,192,58462,1,0,0:0:0:0:
256,192,58462,1,2,0:0:0:0:
402,192,58541,1,0,0:0:0:0:
475,192,58541,1,0,0:0:0:0:
36,192,58620,1,0,0:0:0:0:
256,192,58620,1,0,0:0:0:0:
329,192,58620,1,8,0:0:0:0:
182,192,58620,1,2,0:0:0:0:
402,192,58699,1,0,0:0:0:0:
475,192,58699,1,0,0:0:0:0:
182,192,58778,1,0,0:0:0:0:
36,192,58778,1,0,0:0:0:0:
109,192,58778,1,2,0:0:0:0:
256,192,58857,1,0,0:0:0:0:
402,192,58857,1,0,0:0:0:0:
475,192,58857,1,2,0:0:0:0:
329,192,58936,1,0,0:0:0:0:
36,192,58936,1,0,0:0:0:0:
109,192,58936,1,4,0:0:0:0:
182,192,58936,1,2,0:0:0:0:
475,192,59015,1,0,0:0:0:0:
256,192,59015,1,0,0:0:0:0:
402,192,59094,1,0,0:0:0:0:
182,192,59094,1,0,0:0:0:0:
329,192,59173,1,0,0:0:0:0:
109,192,59173,1,0,0:0:0:0:
36,192,59252,1,0,0:0:0:0:
182,192,59252,1,0,0:0:0:0:
256,192,59252,1,8,0:0:0:0:
475,192,59252,1,2,0:0:0:0:
109,192,59331,1,0,0:0:0:0:
402,192,59331,1,0,0:0:0:0:
329,192,59331,1,0,0:0:0:0:
256,192,59410,1,0,0:0:0:0:
36,192,59410,1,0,0:0:0:0:
402,192,59489,1,0,0:0:0:0:
475,192,59489,1,0,0:0:0:0:
182,192,59568,1,0,0:0:0:0:
36,192,59568,1,0,0:0:0:0:
109,192,59568,1,0,0:0:0:0:
329,192,59568,1,2,0:0:0:0:
256,192,59647,1,0,0:0:0:0:
402,192,59647,1,0,0:0:0:0:
475,192,59726,1,0,0:0:0:0:
329,192,59726,1,0,0:0:0:0:
109,192,59805,1,0,0:0:0:0:
182,192,59805,1,0,0:0:0:0:
475,192,59884,1,0,0:0:0:0:
36,192,59884,1,0,0:0:0:0:
329,192,59884,1,8,0:0:0:0:
256,192,59884,1,2,0:0:0:0:
109,192,59962,1,0,0:0:0:0:
402,192,59962,1,0,0:0:0:0:
182,192,59962,1,0,0:0:0:0:
329,192,60041,1,0,0:0:0:0:
36,192,60041,1,0,0:0:0:0:
256,192,60120,1,0,0:0:0:0:
475,192,60120,1,0,0:0:0:0:
36,192,60199,1,0,0:0:0:0:
109,192,60199,1,0,0:0:0:0:
402,192,60199,1,0,0:0:0:0:
182,192,60199,1,2,0:0:0:0:
329,192,60278,1,0,0:0:0:0:
475,192,60278,1,0,0:0:0:0:
36,192,60357,1,0,0:0:0:0:
182,192,60357,1,0,0:0:0:0:
256,192,60436,1,0,0:0:0:0:
402,192,60436,1,0,0:0:0:0:
475,192,60436,1,0,0:0:0:0:
329,192,60515,1,0,0:0:0:0:
182,192,60515,1,0,0:0:0:0:
109,192,60515,1,8,0:0:0:0:
36,192,60515,1,2,0:0:0:0:
475,192,60594,1,0,0:0:0:0:
256,192,60594,1,0,0:0:0:0:
402,192,60673,1,0,0:0:0:0:
182,192,60673,1,0,0:0:0:0:
329,192,60752,1,0,0:0:0:0:
109,192,60752,1,0,0:0:0:0:
36,192,60831,1,0,0:0:0:0:
256,192,60831,1,0,0:0:0:0:
402,192,60831,1,0,0:0:0:0:
475,192,60831,1,2,0:0:0:0:
109,192,60910,1,0,0:0:0:0:
182,192,60910,1,0,0:0:0:0:
329,192,60989,1,0,0:0:0:0:
402,192,60989,1,0,0:0:0:0:
256,192,61068,1,0,0:0:0:0:
182,192,61068,1,0,0:0:0:0:
36,192,61068,1,0,0:0:0:0:
109,192,61147,1,0,0:0:0:0:
475,192,61147,1,0,0:0:0:0:
402,192,61147,1,8,0:0:0:0:
329,192,61147,1,2,0:0:0:0:
256,192,61226,1,0,0:0:0:0:
182,192,61226,1,0,0:0:0:0:
36,192,61226,1,0,0:0:0:0:
402,192,61305,1,0,0:0:0:0:
475,192,61305,1,0,0:0:0:0:
329,192,61384,1,0,0:0:0:0:
182,192,61384,1,0,0:0:0:0:
256,192,61462,1,0,0:0:0:0:
402,192,61462,1,0,0:0:0:0:
109,192,61462,1,0,0:0:0:0:
36,192,61462,1,4,0:0:0:0:
475,192,61462,1,2,0:0:0:0:
182,192,61541,1,0,0:0:0:0:
329,192,61541,1,0,0:0:0:0:
109,192,61620,1,0,0:0:0:0:
36,192,61620,1,0,0:0:0:0:
402,192,61699,1,0,0:0:0:0:
475,192,61699,1,0,0:0:0:0:
256,192,61699,1,0,0:0:0:0:
36,192,61778,1,0,0:0:0:0:
109,192,61778,1,0,0:0:0:0:
182,192,61778,1,2,0:0:0:0:
329,192,61778,1,8,0:0:0:0:
256,192,61857,1,0,0:0:0:0:
475,192,61857,1,0,0:0:0:0:
402,192,61857,1,0,0:0:0:0:
182,192,61936,1,0,0:0:0:0:
109,192,61936,1,0,0:0:0:0:
36,192,62015,1,0,0:0:0:0:
475,192,62015,1,0,0:0:0:0:
256,192,62094,1,0,0:0:0:0:
109,192,62094,1,0,0:0:0:0:
329,192,62094,1,0,0:0:0:0:
402,192,62094,1,2,0:0:0:0:
475,192,62173,1,0,0:0:0:0:
182,192,62173,1,0,0:0:0:0:
36,192,62252,1,0,0:0:0:0:
256,192,62252,1,0,0:0:0:0:
329,192,62331,1,0,0:0:0:0:
109,192,62331,1,0,0:0:0:0:
402,192,62410,1,0,0:0:0:0:
475,192,62410,1,0,0:0:0:0:
182,192,62410,1,8,0:0:0:0:
36,192,62410,1,2,0:0:0:0:
256,192,62489,1,0,0:0:0:0:
329,192,62489,1,0,0:0:0:0:
109,192,62489,1,0,0:0:0:0:
182,192,62568,1,0,0:0:0:0:
402,192,62568,1,0,0:0:0:0:
256,192,62647,1,0,0:0:0:0:
475,192,62647,1,0,0:0:0:0:
182,192,62726,1,0,0:0:0:0:
329,192,62726,1,0,0:0:0:0:
109,192,62726,1,4,0:0:0:0:
402,192,62726,1,2,0:0:0:0:
36,192,62805,1,0,0:0:0:0:
256,192,62884,1,0,0:0:0:0:
109,192,62884,1,0,0:0:0:0:
182,192,62884,1,2,0:0:0:0:
329,192,62962,1,0,0:0:0:0:
402,192,62962,1,0,0:0:0:0:
475,192,62962,1,2,0:0:0:0:
256,192,63041,1,0,0:0:0:0:
182,192,63041,1,8,0:0:0:0:
36,192,63041,1,2,0:0:0:0:
109,192,63041,1,4,0:0:0:0:
475,192,63120,1,0,0:0:0:0:
329,192,63199,1,0,0:0:0:0:
402,192,63199,1,0,0:0:0:0:
256,192,63199,1,2,0:0:0:0:
109,192,63278,1,0,0:0:0:0:
182,192,63278,1,2,0:0:0:0:
36,192,63357,1,0,0:0:0:30:LR4_SnareKKF.wav
475,192,63357,1,4,0:0:0:0:
402,192,63384,1,0,0:0:0:30:LR4_SnareKKF.wav
329,192,63410,1,0,0:0:0:30:LR4_SnareKKF.wav
256,192,63436,1,0,0:0:0:30:LR4_SnareKKF.wav
475,192,63515,1,0,0:0:0:0:
36,192,63515,1,0,0:0:0:30:LR4_SnareKKF.wav
109,192,63541,1,0,0:0:0:30:LR4_SnareKKF.wav
182,192,63568,1,0,0:0:0:30:LR4_SnareKKF.wav
256,192,63594,1,0,0:0:0:30:LR4_SnareKKF.wav
329,192,63620,1,0,0:0:0:30:LR4_SnareKKF.wav
402,192,63647,1,0,0:0:0:30:LR4_SnareKKF.wav
475,192,63673,1,0,0:0:0:0:
109,192,63673,1,2,0:0:0:0:
36,192,63673,1,4,0:0:0:0:
329,192,63752,1,2,0:0:0:0:
256,192,63752,1,4,0:0:0:0:
182,192,63831,1,0,0:0:0:0:
36,192,63831,1,2,0:0:0:0:
109,192,63831,1,4,0:0:0:0:
402,192,63910,1,0,0:0:0:0:
329,192,63910,1,4,0:0:0:0:
475,192,63910,1,2,0:0:0:0:
109,192,63989,1,0,0:0:0:0:
256,192,63989,1,0,0:0:0:0:
182,192,63989,1,2,0:0:0:0:
36,192,63989,1,0,0:0:0:70:LR_CymbalWWT.wav
475,192,64068,1,0,0:0:0:0:
402,192,64068,1,0,0:0:0:0:
329,192,64147,1,0,0:0:0:0:
182,192,64147,1,0,0:0:0:0:
109,192,64226,1,0,0:0:0:0:
36,192,64226,1,0,0:0:0:0:
256,192,64305,1,0,0:0:0:0:
475,192,64305,1,0,0:0:0:0:
182,192,64305,1,8,0:0:0:0:
402,192,64305,1,2,0:0:0:0:
109,192,64384,1,0,0:0:0:0:
329,192,64384,1,0,0:0:0:0:
36,192,64384,1,0,0:0:0:0:
256,192,64462,1,0,0:0:0:0:
475,192,64462,1,0,0:0:0:0:
182,192,64541,1,0,0:0:0:0:
402,192,64541,1,0,0:0:0:0:
475,192,64620,1,0,0:0:0:0:
329,192,64620,1,0,0:0:0:0:
36,192,64620,1,0,0:0:0:0:
256,192,64620,1,2,0:0:0:0:
402,192,64699,1,0,0:0:0:0:
109,192,64699,1,0,0:0:0:0:
182,192,64778,1,0,0:0:0:0:
256,192,64778,1,0,0:0:0:0:
329,192,64857,1,0,0:0:0:0:
402,192,64857,1,0,0:0:0:0:
475,192,64936,1,0,0:0:0:0:
36,192,64936,1,0,0:0:0:0:
109,192,64936,1,8,0:0:0:0:
182,192,64936,1,2,0:0:0:0:
402,192,65015,1,0,0:0:0:0:
329,192,65015,1,0,0:0:0:0:
256,192,65015,1,0,0:0:0:0:
36,192,65094,1,0,0:0:0:0:
109,192,65094,1,0,0:0:0:0:
182,192,65094,1,0,0:0:0:0:
475,192,65173,1,0,0:0:0:0:
402,192,65173,1,0,0:0:0:0:
36,192,65252,1,0,0:0:0:0:
109,192,65252,1,0,0:0:0:0:
256,192,65252,1,0,0:0:0:0:
329,192,65252,1,2,0:0:0:0:
475,192,65331,1,0,0:0:0:0:
182,192,65331,1,0,0:0:0:0:
109,192,65410,1,0,0:0:0:0:
402,192,65410,1,0,0:0:0:0:
36,192,65489,1,0,0:0:0:0:
256,192,65489,1,0,0:0:0:0:
329,192,65489,1,0,0:0:0:0:
402,192,65568,1,0,0:0:0:0:
182,192,65568,1,0,0:0:0:0:
475,192,65568,1,8,0:0:0:0:
109,192,65568,1,2,0:0:0:0:
36,192,65647,1,0,0:0:0:0:
329,192,65647,1,0,0:0:0:0:
182,192,65726,1,0,0:0:0:0:
256,192,65726,1,0,0:0:0:0:
475,192,65805,1,0,0:0:0:0:
402,192,65805,1,0,0:0:0:0:
109,192,65884,1,0,0:0:0:0:
36,192,65884,1,0,0:0:0:0:
329,192,65884,1,0,0:0:0:0:
256,192,65884,1,2,0:0:0:0:
182,192,65962,1,0,0:0:0:0:
402,192,65962,1,0,0:0:0:0:
475,192,66041,1,0,0:0:0:0:
256,192,66041,1,0,0:0:0:0:
182,192,66120,1,0,0:0:0:0:
36,192,66120,1,0,0:0:0:0:
329,192,66120,1,0,0:0:0:0:
256,192,66199,1,0,0:0:0:0:
109,192,66199,1,0,0:0:0:0:
402,192,66199,1,2,0:0:0:0:
475,192,66199,1,8,0:0:0:0:
36,192,66278,1,0,0:0:0:0:
329,192,66278,1,0,0:0:0:0:
182,192,66278,1,0,0:0:0:0:
475,192,66357,1,0,0:0:0:0:
402,192,66357,1,0,0:0:0:0:
36,192,66436,1,0,0:0:0:0:
109,192,66436,1,0,0:0:0:0:
182,192,66515,1,0,0:0:0:0:
475,192,66515,1,0,0:0:0:0:
329,192,66515,1,4,0:0:0:0:
402,192,66515,1,2,0:0:0:0:
109,192,66594,1,0,0:0:0:0:
36,192,66594,1,0,0:0:0:0:
256,192,66673,1,0,0:0:0:0:
475,192,66673,1,0,0:0:0:0:
402,192,66752,1,0,0:0:0:0:
182,192,66752,1,0,0:0:0:0:
36,192,66831,1,0,0:0:0:0:
329,192,66831,1,0,0:0:0:0:
256,192,66831,1,8,0:0:0:0:
475,192,66831,1,2,0:0:0:0:
109,192,66910,1,0,0:0:0:0:
182,192,66910,1,0,0:0:0:0:
402,192,66989,1,0,0:0:0:0:
329,192,66989,1,0,0:0:0:0:
256,192,67068,1,0,0:0:0:0:
182,192,67068,1,0,0:0:0:0:
329,192,67147,1,0,0:0:0:0:
475,192,67147,1,0,0:0:0:0:
109,192,67147,1,0,0:0:0:0:
36,192,67147,1,2,0:0:0:0:
182,192,67226,1,0,0:0:0:0:
402,192,67226,1,0,0:0:0:0:
109,192,67305,1,0,0:0:0:0:
329,192,67305,1,0,0:0:0:0:
36,192,67384,1,0,0:0:0:0:
256,192,67384,1,0,0:0:0:0:
475,192,67462,1,0,0:0:0:0:
402,192,67462,1,0,0:0:0:0:
109,192,67462,1,8,0:0:0:0:
182,192,67462,1,2,0:0:0:0:
329,192,67541,1,0,0:0:0:0:
36,192,67541,1,0,0:0:0:0:
256,192,67541,1,0,0:0:0:0:
402,192,67620,1,0,0:0:0:0:
182,192,67620,1,0,0:0:0:0:
475,192,67620,1,0,0:0:0:0:
109,192,67699,1,0,0:0:0:0:
36,192,67699,1,0,0:0:0:0:
256,192,67778,1,4,0:0:0:0:
402,192,67778,1,0,0:0:0:30:LR4_SnareKKF.wav
182,192,67818,1,0,0:0:0:30:LR4_SnareKKF.wav
109,192,67857,1,0,0:0:0:30:LR4_SnareKKF.wav
36,192,67897,1,0,0:0:0:30:LR4_SnareKKF.wav
402,192,67936,1,0,0:0:0:0:
475,192,67936,1,0,0:0:0:0:
329,192,67936,1,2,0:0:0:0:
182,192,68015,1,0,0:0:0:0:
109,192,68015,1,0,0:0:0:0:
36,192,68015,1,2,0:0:0:0:
475,192,68094,1,0,0:0:0:30:LR4_SnareKKF.wav
329,192,68094,1,4,0:0:0:0:
256,192,68134,1,0,0:0:0:30:LR4_SnareKKF.wav
182,192,68173,1,0,0:0:0:30:LR4_SnareKKF.wav
109,192,68212,1,0,0:0:0:30:LR4_SnareKKF.wav
329,192,68252,1,0,0:0:0:0:
475,192,68252,1,0,0:0:0:0:
402,192,68252,1,2,0:0:0:0:
182,192,68331,1,0,0:0:0:0:
36,192,68331,1,0,0:0:0:0:
256,192,68331,1,2,0:0:0:0:
475,192,68410,1,4,0:0:0:0:
109,192,68410,1,0,0:0:0:30:LR4_SnareKKF.wav
402,192,68436,1,0,0:0:0:30:LR4_SnareKKF.wav
329,192,68462,1,0,0:0:0:30:LR4_SnareKKF.wav
256,192,68489,1,0,0:0:0:30:LR4_SnareKKF.wav
36,192,68568,1,0,0:0:0:0:
402,192,68568,1,0,0:0:0:30:LR4_SnareKKF.wav
109,192,68594,1,0,0:0:0:30:LR4_SnareKKF.wav
182,192,68620,1,0,0:0:0:30:LR4_SnareKKF.wav
256,192,68647,1,0,0:0:0:30:LR4_SnareKKF.wav
329,192,68673,1,0,0:0:0:30:LR4_SnareKKF.wav
402,192,68699,1,0,0:0:0:30:LR4_SnareKKF.wav
109,192,68726,1,0,0:0:0:0:
475,192,68726,1,2,0:0:0:0:
36,192,68726,1,4,0:0:0:0:
256,192,68805,1,2,0:0:0:0:
182,192,68805,1,4,0:0:0:0:
475,192,68884,1,0,0:0:0:0:
402,192,68884,1,4,0:0:0:0:
329,192,68884,1,2,0:0:0:0:
36,192,68962,1,0,0:0:0:0:
182,192,68962,1,4,0:0:0:0:
109,192,68962,1,2,0:0:0:0:
475,192,69041,1,0,0:0:0:0:
329,192,69041,1,0,0:0:0:0:
402,192,69041,1,2,0:0:0:0:
256,192,69041,1,0,0:0:0:70:LR_CymbalWWT.wav
36,192,69120,1,0,0:0:0:0:
109,192,69120,1,0,0:0:0:0:
182,192,69199,1,0,0:0:0:0:
329,192,69199,1,0,0:0:0:0:
475,192,69278,1,0,0:0:0:0:
402,192,69278,1,0,0:0:0:0:
36,192,69357,1,0,0:0:0:0:
109,192,69357,1,8,0:0:0:0:
256,192,69357,1,2,0:0:0:0:
329,192,69436,1,0,0:0:0:0:
475,192,69436,1,0,0:0:0:0:
182,192,69436,1,0,0:0:0:0:
256,192,69515,1,0,0:0:0:0:
402,192,69515,1,0,0:0:0:0:
329,192,69594,1,0,0:0:0:0:
36,192,69594,1,0,0:0:0:0:
109,192,69673,1,0,0:0:0:0:
182,192,69673,1,0,0:0:0:0:
402,192,69673,1,0,0:0:0:0:
475,192,69673,1,2,0:0:0:0:
256,192,69752,1,0,0:0:0:0:
36,192,69752,1,0,0:0:0:0:
182,192,69831,1,0,0:0:0:0:
109,192,69831,1,0,0:0:0:0:
329,192,69910,1,0,0:0:0:0:
402,192,69910,1,0,0:0:0:0:
475,192,69989,1,0,0:0:0:0:
109,192,69989,1,0,0:0:0:0:
182,192,69989,1,4,0:0:0:0:
256,192,69989,1,8,0:0:0:0:
36,192,69989,1,2,0:0:0:0:
109,192,70147,1,0,0:0:0:0:
475,192,70147,1,0,0:0:0:0:
182,192,70147,1,0,0:0:0:0:
256,192,70147,1,4,0:0:0:0:
329,192,70147,1,2,0:0:0:0:
256,192,70305,1,0,0:0:0:0:
36,192,70305,1,0,0:0:0:0:
329,192,70305,1,0,0:0:0:0:
182,192,70305,1,2,0:0:0:0:
402,192,70305,1,4,0:0:0:0:
109,192,70384,1,0,0:0:0:0:
475,192,70384,1,0,0:0:0:0:
182,192,70462,1,0,0:0:0:0:
256,192,70462,1,0,0:0:0:0:
329,192,70541,1,0,0:0:0:0:
109,192,70541,1,0,0:0:0:0:
36,192,70541,1,0,0:0:0:0:
256,192,70620,1,0,0:0:0:0:
402,192,70620,1,0,0:0:0:0:
475,192,70620,1,2,0:0:0:0:
182,192,70620,1,8,0:0:0:0:
329,192,70699,1,0,0:0:0:0:
36,192,70699,1,0,0:0:0:0:
402,192,70778,1,0,0:0:0:0:
109,192,70778,1,0,0:0:0:0:
182,192,70857,1,0,0:0:0:0:
475,192,70857,1,0,0:0:0:0:
109,192,70936,1,0,0:0:0:0:
329,192,70936,1,0,0:0:0:0:
402,192,70936,1,0,0:0:0:0:
256,192,70936,1,2,0:0:0:0:
36,192,70936,1,4,0:0:0:0:
182,192,71094,1,0,0:0:0:0:
109,192,71094,1,0,0:0:0:0:
329,192,71094,1,0,0:0:0:0:
402,192,71094,1,2,0:0:0:0:
475,192,71094,1,4,0:0:0:0:
475,192,71252,1,0,0:0:0:0:
256,192,71252,1,4,0:0:0:0:
182,192,71252,1,8,0:0:0:0:
402,192,71252,1,2,0:0:0:0:
36,192,71331,1,0,0:0:0:0:
109,192,71331,1,4,0:0:0:0:
329,192,71331,1,2,0:0:0:0:
402,192,71410,1,0,0:0:0:0:
182,192,71410,1,0,0:0:0:0:
256,192,71410,1,2,0:0:0:0:
475,192,71410,1,4,0:0:0:0:
36,192,71489,1,0,0:0:0:0:
182,192,71568,1,0,0:0:0:0:
109,192,71568,1,0,0:0:0:0:
475,192,71568,1,0,0:0:0:0:
402,192,71568,1,2,0:0:0:0:
329,192,71568,1,4,0:0:0:0:
256,192,71647,1,0,0:0:0:0:
182,192,71726,1,0,0:0:0:0:
402,192,71726,1,0,0:0:0:0:
475,192,71726,1,0,0:0:0:0:
109,192,71726,1,2,0:0:0:0:
36,192,71726,1,4,0:0:0:0:
329,192,71805,1,0,0:0:0:0:
475,192,71884,1,0,0:0:0:0:
109,192,71884,1,0,0:0:0:0:
36,192,71884,1,2,0:0:0:0:
256,192,71884,1,4,0:0:0:0:
182,192,71884,1,8,0:0:0:0:
402,192,71962,1,0,0:0:0:0:
36,192,72041,1,0,0:0:0:0:
182,192,72041,1,0,0:0:0:0:
109,192,72041,1,0,0:0:0:0:
475,192,72041,1,2,0:0:0:0:
329,192,72041,1,4,0:0:0:0:
256,192,72120,1,0,0:0:0:0:
36,192,72199,1,0,0:0:0:0:
475,192,72199,1,0,0:0:0:0:
109,192,72199,1,0,0:0:0:0:
329,192,72199,1,2,0:0:0:0:
402,192,72199,1,4,0:0:0:0:
182,192,72278,1,0,0:0:0:0:
36,192,72357,1,0,0:0:0:0:
109,192,72357,1,0,0:0:0:30:LR4_SnareKKF.wav
475,192,72357,1,4,0:0:0:0:
402,192,72397,1,0,0:0:0:30:LR4_SnareKKF.wav
329,192,72436,1,0,0:0:0:30:LR4_SnareKKF.wav
256,192,72476,1,0,0:0:0:30:LR4_SnareKKF.wav
36,192,72515,1,0,0:0:0:0:
109,192,72515,1,8,0:0:0:0:
475,192,72515,1,2,0:0:0:0:
182,192,72515,1,4,0:0:0:0:
329,192,72594,1,0,0:0:0:0:
475,192,72673,1,0,0:0:0:0:
402,192,72673,1,0,0:0:0:30:LR4_SnareKKF.wav
36,192,72673,1,4,0:0:0:0:
109,192,72712,1,0,0:0:0:30:LR4_SnareKKF.wav
182,192,72752,1,0,0:0:0:30:LR4_SnareKKF.wav
256,192,72791,1,0,0:0:0:30:LR4_SnareKKF.wav
36,192,72831,1,0,0:0:0:0:
475,192,72831,1,0,0:0:0:0:
329,192,72831,1,2,0:0:0:0:
402,192,72831,1,4,0:0:0:0:
182,192,72910,1,0,0:0:0:0:
36,192,72989,1,0,0:0:0:0:
475,192,72989,1,0,0:0:0:30:LR4_SnareKKF.wav
402,192,72989,1,4,0:0:0:0:
329,192,73028,1,0,0:0:0:30:LR4_SnareKKF.wav
256,192,73068,1,0,0:0:0:30:LR4_SnareKKF.wav
182,192,73107,1,0,0:0:0:30:LR4_SnareKKF.wav
475,192,73147,1,0,0:0:0:0:
36,192,73147,1,8,0:0:0:0:
402,192,73147,1,2,0:0:0:0:
109,192,73147,1,4,0:0:0:0:
329,192,73226,1,0,0:0:0:0:
109,192,73305,1,0,0:0:0:0:
36,192,73305,1,0,0:0:0:30:LR4_SnareKKF.wav
475,192,73305,1,4,0:0:0:0:
182,192,73344,1,0,0:0:0:30:LR4_SnareKKF.wav
256,192,73384,1,0,0:0:0:30:LR4_SnareKKF.wav
329,192,73423,1,0,0:0:0:30:LR4_SnareKKF.wav
36,192,73462,1,0,0:0:0:0:
109,192,73462,1,0,0:0:0:0:
475,192,73462,1,4,0:0:0:0:
402,192,73462,1,2,0:0:0:0:
182,192,73541,1,0,0:0:0:0:
256,192,73541,1,4,0:0:0:0:
329,192,73541,1,2,0:0:0:0:
109,192,73620,1,0,0:0:0:0:
36,192,73620,1,2,0:0:0:0:
475,192,73620,1,4,0:0:0:0:
329,192,73699,1,0,0:0:0:0:
402,192,73699,1,4,0:0:0:0:
256,192,73699,1,2,0:0:0:0:
182,192,73778,1,8,0:0:0:0:
109,192,73778,1,2,0:0:0:0:
36,192,73778,1,4,0:0:0:0:
475,192,73857,1,0,0:0:0:0:
402,192,73857,1,4,0:0:0:0:
329,192,73857,1,2,0:0:0:0:
182,192,73936,1,0,0:0:0:0:
109,192,73936,1,2,0:0:0:0:
36,192,73936,1,4,0:0:0:0:
402,192,74015,1,0,0:0:0:0:
329,192,74015,1,4,0:0:0:0:
475,192,74015,1,2,0:0:0:0:
329,192,75357,1,0,0:0:0:0:
109,192,75357,1,0,0:0:0:0:
36,192,75357,1,0,0:0:0:0:
182,192,75357,1,0,0:0:0:0:
402,192,75357,1,0,0:0:0:70:LR_CymbalWWT.wav
475,192,75357,1,0,0:0:0:100:twinkling.wav
475,192,75673,1,0,0:0:0:0:
329,192,75778,1,0,0:0:0:0:
182,192,75884,1,0,0:0:0:0:
36,192,75989,1,0,0:0:0:0:
109,192,76068,1,0,0:0:0:0:
182,192,76147,1,0,0:0:0:0:
256,192,76226,1,0,0:0:0:0:
109,192,76305,1,0,0:0:0:0:
182,192,76384,1,0,0:0:0:0:
256,192,76462,1,0,0:0:0:0:
329,192,76541,1,0,0:0:0:0:
475,192,76620,1,0,0:0:0:0:
475,192,76936,1,0,0:0:0:0:
329,192,77015,1,0,0:0:0:0:
475,192,77173,1,0,0:0:0:0:
256,192,77252,1,0,0:0:0:0:
36,192,77357,1,0,0:0:0:0:
182,192,77462,1,0,0:0:0:0:
109,192,77568,1,0,0:0:0:0:
329,192,77673,1,0,0:0:0:0:
402,192,77778,1,0,0:0:0:0:
182,192,77884,1,0,0:0:0:0:
36,192,77989,1,0,0:0:0:0:
256,192,78094,1,0,0:0:0:0:
109,192,78199,1,0,0:0:0:0:
329,192,78305,1,0,0:0:0:0:
182,192,78410,1,0,0:0:0:0:
402,192,78515,1,0,0:0:0:0:
256,192,78620,1,0,0:0:0:0:
475,192,78726,1,0,0:0:0:0:
329,192,78831,1,0,0:0:0:0:
182,192,78936,1,0,0:0:0:0:
36,192,79041,1,0,0:0:0:0:
475,192,79147,1,0,0:0:0:0:
329,192,79226,1,0,0:0:0:0:
402,192,79305,1,0,0:0:0:0:
36,192,79384,1,0,0:0:0:0:
182,192,79462,1,0,0:0:0:0:
109,192,79541,1,0,0:0:0:0:
402,192,79620,1,0,0:0:0:0:
256,192,79699,1,0,0:0:0:0:
109,192,79778,1,0,0:0:0:0:
182,192,79857,1,0,0:0:0:0:
329,192,79936,1,0,0:0:0:0:
402,192,80252,1,0,0:0:0:0:
475,192,80410,1,0,0:0:0:0:
402,192,80805,1,0,0:0:0:0:
402,192,80923,1,0,0:0:0:0:
329,192,81041,1,0,0:0:0:0:
256,192,81357,1,0,0:0:0:0:
109,192,81568,1,0,0:0:0:0:
182,192,81673,1,0,0:0:0:0:
109,192,81989,1,0,0:0:0:0:
109,192,82094,1,0,0:0:0:0:
109,192,82199,1,0,0:0:0:0:
36,192,82305,1,0,0:0:0:0:
182,192,82515,1,0,0:0:0:0:
329,192,82726,1,0,0:0:0:0:
475,192,82936,1,0,0:0:0:0:
402,192,83147,1,0,0:0:0:0:
329,192,83357,1,0,0:0:0:0:
182,192,83568,1,0,0:0:0:0:
36,192,83884,1,0,0:0:0:0:
329,192,84199,1,0,0:0:0:0:
182,192,84305,1,0,0:0:0:0:
402,192,84410,1,0,0:0:0:0:
256,192,84515,1,0,0:0:0:0:
475,192,84620,1,0,0:0:0:0:
329,192,84726,1,0,0:0:0:0:
182,192,84831,1,0,0:0:0:0:
36,192,84936,1,0,0:0:0:0:
109,192,85041,1,0,0:0:0:0:
182,192,85147,1,0,0:0:0:0:
256,192,85252,1,0,0:0:0:0:
329,192,85357,1,0,0:0:0:0:
475,192,85462,1,0,0:0:0:0:
182,192,85462,1,0,0:0:0:0:
402,192,85462,1,0,0:0:0:0:
109,192,85462,1,0,0:0:0:0:
36,192,85462,1,0,0:0:0:70:LR_CymbalWWT.wav
475,192,85778,1,0,0:0:0:0:
402,192,85884,1,0,0:0:0:0:
329,192,85989,1,0,0:0:0:0:
256,192,86094,1,0,0:0:0:0:
36,192,86173,1,0,0:0:0:0:
182,192,86252,1,0,0:0:0:0:
109,192,86331,1,0,0:0:0:0:
256,192,86410,1,0,0:0:0:0:
182,192,86489,1,0,0:0:0:0:
329,192,86568,1,0,0:0:0:0:
256,192,86647,1,0,0:0:0:0:
402,192,86726,1,0,0:0:0:0:
402,192,87041,1,0,0:0:0:0:
402,192,87120,1,0,0:0:0:0:
402,192,87278,1,0,0:0:0:0:
475,192,87357,1,0,0:0:0:0:
329,192,87515,1,0,0:0:0:0:
182,192,87673,1,0,0:0:0:0:
36,192,87831,1,0,0:0:0:0:
109,192,87989,1,0,0:0:0:0:
402,192,88147,1,0,0:0:0:0:
182,192,88305,1,0,0:0:0:0:
329,192,88462,1,0,0:0:0:0:
256,192,88778,1,0,0:0:0:0:
182,192,89094,1,0,0:0:0:0:
402,192,89410,1,0,0:0:0:0:
329,192,89568,1,0,0:0:0:0:
256,192,89726,1,0,0:0:0:0:
36,192,89884,1,0,0:0:0:0:
475,192,89884,1,0,0:0:0:0:
182,192,89884,1,0,0:0:0:0:
329,192,89884,1,0,0:0:0:0:
109,192,89884,1,0,0:0:0:70:LR_Snare Low Wet.wav
402,192,90120,1,0,0:0:0:0:
475,192,90120,1,0,0:0:0:0:
36,192,90120,1,0,0:0:0:0:
329,192,90120,1,0,0:0:0:0:
182,192,90120,1,0,0:0:0:70:LR_Snare Low Wet.wav
109,192,90357,1,0,0:0:0:0:
256,192,90357,1,0,0:0:0:0:
475,192,90357,1,0,0:0:0:0:
402,192,90357,1,0,0:0:0:0:
36,192,90357,1,0,0:0:0:70:LR_Snare Low Wet.wav
182,192,90436,1,0,0:0:0:0:
329,192,90436,1,0,0:0:0:70:LR_Snare Low Wet.wav
36,192,90515,1,0,0:0:0:0:
402,192,90515,1,0,0:0:0:0:
256,192,90515,1,0,0:0:0:0:
475,192,90515,1,0,0:0:0:0:
109,192,90515,1,0,0:0:0:70:LR_Snare Low Wet.wav
475,192,90831,1,0,0:0:0:0:
109,192,90831,1,0,0:0:0:0:
36,192,90831,1,0,0:0:0:0:
329,192,90831,1,0,0:0:0:0:
402,192,90831,1,0,0:0:0:70:LR_Snare Low Wet.wav
182,192,90936,1,0,0:0:0:0:
256,192,91041,1,0,0:0:0:0:
182,192,91147,1,0,0:0:0:0:
109,192,91147,1,0,0:0:0:0:
36,192,91147,1,0,0:0:0:0:
402,192,91147,1,0,0:0:0:0:
475,192,91147,1,0,0:0:0:70:LR_Snare Low Wet.wav
329,192,91252,1,0,0:0:0:0:
256,192,91357,1,0,0:0:0:0:
329,192,91462,1,0,0:0:0:0:
109,192,91462,1,0,0:0:0:0:
475,192,91462,1,0,0:0:0:0:
402,192,91462,1,0,0:0:0:0:
36,192,91462,1,0,0:0:0:70:LR_Snare Low Wet.wav
182,192,91568,1,0,0:0:0:0:
329,192,91673,1,0,0:0:0:0:
182,192,91778,1,0,0:0:0:0:
256,192,91778,1,0,0:0:0:0:
475,192,91778,1,0,0:0:0:0:
109,192,91778,1,0,0:0:0:0:
36,192,91778,1,0,0:0:0:70:LR_Snare Low Wet.wav
402,192,91884,1,0,0:0:0:0:
329,192,91989,1,0,0:0:0:0:
36,192,92094,1,0,0:0:0:0:
256,192,92094,1,0,0:0:0:0:
182,192,92094,1,0,0:0:0:0:
475,192,92094,1,0,0:0:0:0:
402,192,92094,1,0,0:0:0:70:LR_Snare Low Wet.wav
109,192,92199,1,0,0:0:0:0:
182,192,92305,1,0,0:0:0:0:
329,192,92410,1,0,0:0:0:0:
36,192,92410,1,0,0:0:0:0:
475,192,92410,1,0,0:0:0:0:
109,192,92410,1,0,0:0:0:0:
402,192,92410,1,0,0:0:0:70:LR_Snare Low Wet.wav
256,192,92515,1,0,0:0:0:0:
182,192,92620,1,0,0:0:0:0:
329,192,92726,1,0,0:0:0:0:
36,192,92726,1,0,0:0:0:0:
475,192,92726,1,0,0:0:0:0:
402,192,92726,1,0,0:0:0:0:
109,192,92726,1,0,0:0:0:70:LR_Snare Low Wet.wav
256,192,92884,1,0,0:0:0:0:
109,192,92884,1,0,0:0:0:0:
475,192,92884,1,0,0:0:0:0:
36,192,92884,1,0,0:0:0:0:
329,192,92884,1,0,0:0:0:70:LR_Snare Low Wet.wav
36,192,93041,1,0,0:0:0:0:
256,192,93041,1,0,0:0:0:0:
475,192,93041,1,0,0:0:0:0:
402,192,93041,1,0,0:0:0:0:
182,192,93041,1,0,0:0:0:70:LR_Snare Low Wet.wav
329,192,93199,1,0,0:0:0:0:
475,192,93199,1,0,0:0:0:0:
36,192,93199,1,0,0:0:0:0:
109,192,93199,1,0,0:0:0:0:
256,192,93199,1,0,0:0:0:70:LR_Snare Low Wet.wav
402,192,93357,1,0,0:0:0:0:
329,192,93357,1,0,0:0:0:0:
36,192,93357,1,0,0:0:0:0:
109,192,93357,1,0,0:0:0:0:
182,192,93357,1,0,0:0:0:70:LR_Snare Low Wet.wav
36,192,93515,1,0,0:0:0:0:
182,192,93515,1,0,0:0:0:0:
475,192,93515,1,0,0:0:0:0:
256,192,93515,1,0,0:0:0:0:
402,192,93515,1,0,0:0:0:70:LR_Snare Low Wet.wav
109,192,93673,1,0,0:0:0:0:
36,192,93673,1,0,0:0:0:0:
475,192,93673,128,0,93910:0:0:0:70:LR_Snare Low Wet.wav
256,192,93752,1,0,0:0:0:0:
402,192,93752,128,0,93910:0:0:0:0:
182,192,93752,1,0,0:0:0:70:LR_Snare Low Wet.wav
329,192,93831,128,0,93989:0:0:0:0:
109,192,93831,1,0,0:0:0:0:
36,192,93831,1,0,0:0:0:70:LR_Snare Low Wet.wav
182,192,93910,1,0,0:0:0:0:
256,192,93910,128,0,93989:0:0:0:70:LR_Snare Low Wet.wav
402,192,93989,1,0,0:0:0:0:
36,192,93989,128,0,94226:0:0:0:0:
475,192,93989,1,0,0:0:0:70:LR_Snare Low Wet.wav
256,192,94068,1,0,0:0:0:0:
109,192,94068,128,0,94226:0:0:0:0:
329,192,94068,1,0,0:0:0:70:LR_Snare Low Wet.wav
402,192,94147,1,0,0:0:0:0:
182,192,94147,128,0,94305:0:0:0:0:
475,192,94147,1,0,0:0:0:70:LR_Snare Low Wet.wav
256,192,94226,128,0,94305:0:0:0:0:
329,192,94226,1,0,0:0:0:70:LR_Snare Low Wet.wav
109,192,94305,128,0,94384:0:0:0:0:
475,192,94305,1,0,0:0:0:0:
36,192,94305,128,0,94384:0:0:0:30:LR4_SnareKKF.wav
402,192,94344,1,0,0:0:0:30:LR4_SnareKKF.wav
329,192,94384,1,0,0:0:0:30:LR4_SnareKKF.wav
256,192,94423,1,0,0:0:0:30:LR4_SnareKKF.wav
36,192,94462,128,0,94541:0:0:0:0:
182,192,94462,128,0,94620:0:0:0:0:
109,192,94462,128,2,94541:0:0:0:0:
475,192,94541,128,0,94699:0:0:0:0:
329,192,94541,128,0,94620:0:0:0:0:
402,192,94541,128,2,94699:0:0:0:0:
36,192,94620,1,0,0:0:0:30:LR4_SnareKKF.wav
109,192,94660,1,0,0:0:0:30:LR4_SnareKKF.wav
182,192,94699,1,0,0:0:0:30:LR4_SnareKKF.wav
256,192,94739,1,0,0:0:0:30:LR4_SnareKKF.wav
475,192,94778,128,0,94857:0:0:0:0:
402,192,94778,128,0,94857:0:0:0:0:
329,192,94778,128,2,94936:0:0:0:0:
182,192,94857,128,0,94936:0:0:0:0:
36,192,94857,128,0,95015:0:0:0:0:
109,192,94857,128,2,95015:0:0:0:0:
256,192,94936,1,0,0:0:0:0:
402,192,94936,128,0,95094:0:0:0:0:
475,192,94936,1,2,0:0:0:0:
329,192,95015,1,0,0:0:0:0:
182,192,95015,1,0,0:0:0:0:
36,192,95094,1,0,0:0:0:0:
109,192,95094,1,0,0:0:0:0:
256,192,95094,128,2,95252:0:0:0:0:
402,192,95173,1,0,0:0:0:0:
475,192,95173,1,0,0:0:0:0:
36,192,95252,128,0,95331:0:0:0:0:
109,192,95252,128,0,95331:0:0:0:0:
182,192,95252,128,2,95410:0:0:0:0:
256,192,95331,128,0,95489:0:0:0:0:
402,192,95331,128,0,95410:0:0:0:0:
475,192,95331,128,2,95489:0:0:0:0:
109,192,95410,128,0,95489:0:0:0:0:
329,192,95410,128,0,95568:0:0:0:0:
36,192,95410,128,2,95489:0:0:0:0:
402,192,95489,128,0,95568:0:0:0:0:
182,192,95489,128,0,95568:0:0:0:0:
36,192,95568,1,0,0:0:0:0:
475,192,95568,128,0,96199:0:0:0:100:twinkling.wav
256,192,95568,1,0,0:0:0:70:LR_CymbalWWT.wav
109,192,95568,1,2,0:0:0:0:
329,192,95647,1,0,0:0:0:0:
402,192,95647,1,0,0:0:0:0:
109,192,95726,1,0,0:0:0:0:
182,192,95726,1,0,0:0:0:0:
36,192,95726,1,0,0:0:0:0:
256,192,95805,1,0,0:0:0:0:
329,192,95805,1,0,0:0:0:0:
36,192,95884,1,0,0:0:0:0:
402,192,95884,1,0,0:0:0:0:
182,192,95884,1,2,0:0:0:0:
329,192,95962,1,0,0:0:0:0:
109,192,95962,1,0,0:0:0:0:
256,192,96041,1,0,0:0:0:0:
402,192,96041,1,0,0:0:0:0:
36,192,96041,1,0,0:0:0:0:
182,192,96120,1,0,0:0:0:0:
329,192,96120,1,0,0:0:0:0:
256,192,96199,1,0,0:0:0:0:
109,192,96199,1,0,0:0:0:0:
36,192,96199,1,2,0:0:0:0:
182,192,96278,1,0,0:0:0:0:
475,192,96278,1,0,0:0:0:0:
402,192,96357,1,0,0:0:0:0:
329,192,96357,1,0,0:0:0:0:
36,192,96357,1,0,0:0:0:0:
475,192,96436,1,0,0:0:0:0:
256,192,96436,1,0,0:0:0:0:
182,192,96436,1,0,0:0:0:0:
36,192,96515,1,0,0:0:0:0:
109,192,96515,1,0,0:0:0:0:
329,192,96515,1,2,0:0:0:0:
475,192,96594,1,0,0:0:0:0:
402,192,96594,1,0,0:0:0:0:
36,192,96673,1,0,0:0:0:0:
182,192,96673,1,0,0:0:0:0:
329,192,96673,1,0,0:0:0:0:
109,192,96752,1,0,0:0:0:0:
475,192,96752,1,0,0:0:0:0:
256,192,96752,1,0,0:0:0:0:
182,192,96831,1,0,0:0:0:0:
329,192,96831,1,0,0:0:0:0:
402,192,96831,1,0,0:0:0:0:
36,192,96831,128,2,97462:0:0:0:0:
256,192,96910,1,0,0:0:0:0:
475,192,96910,1,0,0:0:0:0:
182,192,96989,1,0,0:0:0:0:
109,192,96989,1,0,0:0:0:0:
329,192,97068,1,0,0:0:0:0:
402,192,97068,1,0,0:0:0:0:
475,192,97147,1,0,0:0:0:0:
256,192,97147,1,0,0:0:0:0:
109,192,97147,1,2,0:0:0:0:
182,192,97226,1,0,0:0:0:0:
402,192,97226,1,0,0:0:0:0:
329,192,97305,1,0,0:0:0:0:
109,192,97305,1,0,0:0:0:0:
256,192,97384,1,0,0:0:0:0:
475,192,97384,1,0,0:0:0:0:
402,192,97462,1,0,0:0:0:0:
182,192,97462,1,0,0:0:0:0:
109,192,97462,1,2,0:0:0:0:
329,192,97541,1,0,0:0:0:0:
475,192,97541,1,0,0:0:0:0:
256,192,97620,1,0,0:0:0:0:
109,192,97620,1,0,0:0:0:0:
36,192,97620,1,0,0:0:0:0:
402,192,97699,1,0,0:0:0:0:
182,192,97699,1,0,0:0:0:0:
329,192,97699,1,0,0:0:0:0:
475,192,97778,1,0,0:0:0:0:
109,192,97778,1,0,0:0:0:0:
36,192,97778,1,2,0:0:0:0:
256,192,97857,1,0,0:0:0:0:
329,192,97857,1,0,0:0:0:0:
475,192,97936,1,0,0:0:0:0:
182,192,97936,1,0,0:0:0:0:
36,192,97936,1,0,0:0:0:0:
109,192,98015,1,0,0:0:0:0:
329,192,98015,1,0,0:0:0:0:
402,192,98015,1,0,0:0:0:0:
475,192,98094,128,0,99989:0:0:0:0:
36,192,98094,1,0,0:0:0:0:
256,192,98094,1,2,0:0:0:0:
182,192,98173,1,0,0:0:0:0:
402,192,98173,1,0,0:0:0:0:
329,192,98252,1,0,0:0:0:0:
109,192,98252,1,0,0:0:0:0:
256,192,98331,1,0,0:0:0:0:
36,192,98331,1,0,0:0:0:0:
402,192,98410,1,0,0:0:0:0:
182,192,98410,1,0,0:0:0:0:
109,192,98410,1,2,0:0:0:0:
329,192,98489,1,0,0:0:0:0:
256,192,98489,1,0,0:0:0:0:
402,192,98568,1,0,0:0:0:0:
36,192,98568,1,0,0:0:0:0:
256,192,98647,1,0,0:0:0:0:
182,192,98647,1,0,0:0:0:0:
36,192,98726,1,0,0:0:0:0:
109,192,98726,1,0,0:0:0:0:
329,192,98726,1,2,0:0:0:0:
402,192,98805,1,0,0:0:0:0:
182,192,98805,1,0,0:0:0:0:
256,192,98884,1,0,0:0:0:0:
36,192,98884,1,0,0:0:0:0:
109,192,98962,1,0,0:0:0:0:
329,192,98962,1,0,0:0:0:0:
182,192,99041,1,0,0:0:0:0:
402,192,99041,1,0,0:0:0:0:
36,192,99041,1,2,0:0:0:0:
109,192,99120,1,0,0:0:0:0:
329,192,99120,1,0,0:0:0:0:
256,192,99199,1,0,0:0:0:0:
182,192,99199,1,0,0:0:0:0:
36,192,99278,1,0,0:0:0:0:
109,192,99278,1,0,0:0:0:0:
402,192,99357,1,0,0:0:0:0:
256,192,99357,1,0,0:0:0:0:
329,192,99357,1,2,0:0:0:0:
109,192,99436,1,0,0:0:0:0:
182,192,99436,1,0,0:0:0:0:
402,192,99515,1,0,0:0:0:0:
36,192,99515,1,0,0:0:0:0:
329,192,99594,1,0,0:0:0:0:
182,192,99594,1,0,0:0:0:0:
256,192,99673,1,0,0:0:0:0:
109,192,99673,1,0,0:0:0:0:
36,192,99673,1,2,0:0:0:0:
182,192,99752,1,0,0:0:0:0:
402,192,99752,1,0,0:0:0:0:
329,192,99831,1,0,0:0:0:0:
36,192,99831,1,0,0:0:0:0:
256,192,99910,1,0,0:0:0:0:
182,192,99910,1,0,0:0:0:0:
36,192,99989,128,0,100147:0:0:0:0:
402,192,99989,128,0,100147:0:0:0:0:
329,192,99989,128,0,100147:0:0:0:0:
109,192,99989,128,2,100068:0:0:0:0:
256,192,100068,128,0,100226:0:0:0:0:
475,192,100068,128,0,100226:0:0:0:0:
182,192,100147,128,0,100226:0:0:0:0:
109,192,100147,128,0,100226:0:0:0:0:
329,192,100226,128,0,100305:0:0:0:0:
36,192,100226,128,0,100305:0:0:0:0:
402,192,100226,128,2,100305:0:0:0:0:
182,192,100305,1,0,0:0:0:0:
256,192,100305,128,0,100462:0:0:0:0:
475,192,100305,1,4,0:0:0:0:
109,192,100305,1,2,0:0:0:0:
402,192,100384,1,0,0:0:0:0:
329,192,100384,1,0,0:0:0:0:
36,192,100462,1,0,0:0:0:0:
109,192,100462,1,0,0:0:0:0:
182,192,100462,1,2,0:0:0:0:
402,192,100541,1,0,0:0:0:0:
475,192,100541,1,0,0:0:0:0:
256,192,100541,1,2,0:0:0:0:
182,192,100620,1,0,0:0:0:0:
36,192,100620,1,0,0:0:0:0:
109,192,100620,128,4,101252:0:0:0:0:
329,192,100620,1,2,0:0:0:0:
256,192,100699,1,0,0:0:0:0:
402,192,100699,1,0,0:0:0:0:
475,192,100778,1,0,0:0:0:0:
329,192,100778,1,0,0:0:0:0:
36,192,100857,1,0,0:0:0:0:
182,192,100857,1,0,0:0:0:0:
475,192,100936,1,0,0:0:0:0:
402,192,100936,1,0,0:0:0:0:
329,192,100936,1,2,0:0:0:0:
182,192,101015,1,0,0:0:0:0:
256,192,101015,1,0,0:0:0:0:
475,192,101094,1,0,0:0:0:0:
36,192,101094,1,0,0:0:0:0:
402,192,101173,1,0,0:0:0:0:
329,192,101173,1,0,0:0:0:0:
256,192,101252,1,0,0:0:0:0:
182,192,101252,1,0,0:0:0:0:
475,192,101252,1,2,0:0:0:0:
329,192,101331,1,0,0:0:0:0:
402,192,101331,1,0,0:0:0:0:
109,192,101410,1,0,0:0:0:0:
36,192,101410,1,0,0:0:0:0:
256,192,101410,1,0,0:0:0:0:
475,192,101489,1,0,0:0:0:0:
182,192,101489,1,0,0:0:0:0:
329,192,101489,1,0,0:0:0:0:
256,192,101568,1,0,0:0:0:0:
402,192,101568,1,0,0:0:0:0:
109,192,101568,1,2,0:0:0:0:
329,192,101647,1,0,0:0:0:0:
36,192,101647,1,0,0:0:0:0:
109,192,101726,1,0,0:0:0:0:
475,192,101726,1,0,0:0:0:0:
402,192,101726,1,0,0:0:0:0:
329,192,101805,1,0,0:0:0:0:
256,192,101805,1,0,0:0:0:0:
182,192,101805,1,0,0:0:0:0:
475,192,101884,1,0,0:0:0:0:
109,192,101884,1,0,0:0:0:0:
36,192,101884,1,0,0:0:0:0:
402,192,101884,128,2,102515:0:0:0:0:
329,192,101962,1,0,0:0:0:0:
256,192,101962,1,0,0:0:0:0:
182,192,102041,1,0,0:0:0:0:
109,192,102041,1,0,0:0:0:0:
36,192,102120,1,0,0:0:0:0:
256,192,102120,1,0,0:0:0:0:
329,192,102199,1,0,0:0:0:0:
109,192,102199,1,0,0:0:0:0:
475,192,102199,1,2,0:0:0:0:
182,192,102278,1,0,0:0:0:0:
36,192,102278,1,0,0:0:0:0:
256,192,102357,1,0,0:0:0:0:
109,192,102357,1,0,0:0:0:0:
329,192,102436,1,0,0:0:0:0:
182,192,102436,1,0,0:0:0:0:
36,192,102515,1,0,0:0:0:0:
475,192,102515,1,0,0:0:0:0:
256,192,102515,1,2,0:0:0:0:
402,192,102594,1,0,0:0:0:0:
329,192,102594,1,0,0:0:0:0:
182,192,102673,1,0,0:0:0:0:
109,192,102673,1,0,0:0:0:0:
36,192,102673,1,0,0:0:0:0:
402,192,102752,1,0,0:0:0:0:
475,192,102752,1,0,0:0:0:0:
256,192,102752,1,0,0:0:0:0:
36,192,102831,1,0,0:0:0:0:
182,192,102831,1,0,0:0:0:0:
329,192,102831,1,2,0:0:0:0:
109,192,102910,1,0,0:0:0:0:
475,192,102910,1,0,0:0:0:0:
256,192,102989,1,0,0:0:0:0:
329,192,102989,1,0,0:0:0:0:
36,192,102989,1,0,0:0:0:0:
182,192,103068,1,0,0:0:0:0:
402,192,103068,1,0,0:0:0:0:
475,192,103068,1,0,0:0:0:0:
36,192,103147,1,0,0:0:0:0:
256,192,103147,128,0,103936:0:0:0:0:
329,192,103147,1,0,0:0:0:0:
109,192,103147,1,2,0:0:0:0:
475,192,103226,1,0,0:0:0:0:
182,192,103226,1,0,0:0:0:0:
329,192,103305,1,0,0:0:0:0:
36,192,103305,1,0,0:0:0:0:
402,192,103384,1,0,0:0:0:0:
109,192,103384,1,0,0:0:0:0:
36,192,103462,1,0,0:0:0:0:
475,192,103462,1,0,0:0:0:0:
182,192,103462,1,2,0:0:0:0:
329,192,103541,1,0,0:0:0:0:
402,192,103541,1,0,0:0:0:0:
182,192,103620,1,0,0:0:0:0:
109,192,103620,1,0,0:0:0:0:
36,192,103699,1,0,0:0:0:0:
329,192,103699,1,0,0:0:0:0:
109,192,103778,1,0,0:0:0:0:
475,192,103778,1,0,0:0:0:0:
402,192,103778,1,2,0:0:0:0:
329,192,103857,1,0,0:0:0:0:
182,192,103857,1,0,0:0:0:0:
36,192,103936,1,0,0:0:0:0:
109,192,103936,1,0,0:0:0:0:
475,192,103936,1,2,0:0:0:0:
402,192,104015,1,0,0:0:0:0:
329,192,104015,1,0,0:0:0:0:
182,192,104094,1,0,0:0:0:0:
256,192,104094,1,0,0:0:0:0:
475,192,104094,1,0,0:0:0:0:
36,192,104094,128,4,104252:0:0:0:0:
109,192,104094,128,2,104252:0:0:0:0:
402,192,104173,1,0,0:0:0:0:
329,192,104252,1,0,0:0:0:0:
256,192,104252,1,0,0:0:0:0:
182,192,104331,1,0,0:0:0:0:
475,192,104410,128,0,104568:0:0:0:0:
329,192,104410,1,0,0:0:0:0:
36,192,104410,1,0,0:0:0:0:
402,192,104410,128,4,104568:0:0:0:0:
256,192,104410,1,2,0:0:0:0:
109,192,104489,1,0,0:0:0:0:
182,192,104568,1,0,0:0:0:0:
475,192,104647,1,0,0:0:0:0:
256,192,104647,1,0,0:0:0:0:
329,192,104647,1,0,0:0:0:0:
109,192,104647,128,2,104805:0:0:0:0:
36,192,104647,128,4,104805:0:0:0:0:
402,192,104726,1,0,0:0:0:0:
329,192,104805,1,0,0:0:0:0:
475,192,104884,128,0,105041:0:0:0:0:
402,192,104884,128,0,105041:0:0:0:0:
182,192,104884,1,0,0:0:0:0:
36,192,104884,1,4,0:0:0:0:
256,192,104884,1,2,0:0:0:0:
109,192,104962,1,0,0:0:0:0:
182,192,105041,128,0,105199:0:0:0:0:
402,192,105120,1,0,0:0:0:0:
109,192,105120,1,0,0:0:0:0:
475,192,105120,128,0,105278:0:0:0:0:
256,192,105120,128,4,105278:0:0:0:0:
36,192,105120,128,2,105278:0:0:0:0:
329,192,105199,128,0,105357:0:0:0:0:
402,192,105278,128,0,105357:0:0:0:0:
109,192,105357,128,0,105436:0:0:0:0:
475,192,105357,128,0,105436:0:0:0:0:
182,192,105357,128,0,105515:0:0:0:0:
256,192,105357,128,4,105436:0:0:0:0:
36,192,105357,128,2,105436:0:0:0:0:
329,192,105436,128,0,105515:0:0:0:0:
402,192,105436,128,0,105594:0:0:0:0:
475,192,105515,128,0,105673:0:0:0:0:
256,192,105515,128,0,105594:0:0:0:0:
109,192,105515,128,0,105594:0:0:0:0:
36,192,105515,128,2,105594:0:0:0:0:
329,192,105594,128,0,105673:0:0:0:0:
182,192,105594,128,2,105673:0:0:0:0:
109,192,105673,1,0,0:0:0:0:
36,192,105673,1,0,0:0:0:0:
402,192,105673,1,4,0:0:0:0:
256,192,105673,128,2,106305:0:0:0:0:
475,192,105752,1,0,0:0:0:0:
182,192,105752,1,0,0:0:0:0:
402,192,105831,1,0,0:0:0:0:
109,192,105831,1,0,0:0:0:0:
329,192,105910,1,0,0:0:0:0:
36,192,105910,1,0,0:0:0:0:
475,192,105989,1,0,0:0:0:0:
182,192,105989,1,8,0:0:0:0:
109,192,105989,1,2,0:0:0:0:
402,192,106068,1,0,0:0:0:0:
329,192,106068,1,0,0:0:0:0:
182,192,106147,1,0,0:0:0:0:
36,192,106147,1,0,0:0:0:0:
329,192,106226,1,0,0:0:0:0:
475,192,106226,1,0,0:0:0:0:
36,192,106305,128,0,106936:0:0:0:0:
402,192,106305,1,0,0:0:0:0:
109,192,106305,1,0,0:0:0:0:
182,192,106305,1,2,0:0:0:0:
475,192,106384,1,0,0:0:0:0:
256,192,106384,1,0,0:0:0:0:
109,192,106462,1,0,0:0:0:0:
329,192,106462,1,0,0:0:0:0:
182,192,106541,1,0,0:0:0:0:
402,192,106541,1,0,0:0:0:0:
256,192,106620,1,0,0:0:0:0:
475,192,106620,1,2,0:0:0:0:
329,192,106620,1,8,0:0:0:0:
109,192,106699,1,0,0:0:0:0:
182,192,106699,1,0,0:0:0:0:
402,192,106778,1,0,0:0:0:0:
329,192,106778,1,0,0:0:0:0:
256,192,106857,1,0,0:0:0:0:
182,192,106857,1,0,0:0:0:0:
329,192,106936,1,0,0:0:0:0:
402,192,106936,1,0,0:0:0:0:
109,192,106936,1,0,0:0:0:0:
475,192,106936,128,2,107568:0:0:0:0:
256,192,107015,1,0,0:0:0:0:
36,192,107015,1,0,0:0:0:0:
402,192,107094,1,0,0:0:0:0:
182,192,107094,1,0,0:0:0:0:
329,192,107173,1,0,0:0:0:0:
109,192,107173,1,0,0:0:0:0:
402,192,107252,1,0,0:0:0:0:
36,192,107252,1,8,0:0:0:0:
256,192,107252,1,2,0:0:0:0:
109,192,107331,1,0,0:0:0:0:
182,192,107331,1,0,0:0:0:0:
256,192,107410,1,0,0:0:0:0:
329,192,107410,1,0,0:0:0:0:
36,192,107489,1,0,0:0:0:0:
402,192,107489,1,0,0:0:0:0:
256,192,107568,1,0,0:0:0:0:
109,192,107568,1,0,0:0:0:0:
182,192,107568,1,2,0:0:0:0:
475,192,107647,1,0,0:0:0:0:
329,192,107647,1,0,0:0:0:0:
402,192,107726,1,0,0:0:0:0:
256,192,107726,1,0,0:0:0:0:
109,192,107726,1,0,0:0:0:0:
182,192,107805,1,0,0:0:0:0:
329,192,107805,1,0,0:0:0:0:
36,192,107805,1,0,0:0:0:0:
109,192,107884,1,0,0:0:0:0:
256,192,107884,1,8,0:0:0:0:
475,192,107884,1,2,0:0:0:0:
402,192,107962,1,0,0:0:0:0:
329,192,107962,1,0,0:0:0:0:
109,192,108041,1,0,0:0:0:0:
182,192,108041,1,0,0:0:0:0:
36,192,108041,1,2,0:0:0:0:
402,192,108120,1,0,0:0:0:0:
475,192,108120,1,0,0:0:0:0:
256,192,108120,1,0,0:0:0:0:
182,192,108199,128,0,108989:0:0:0:0:
109,192,108199,1,0,0:0:0:0:
36,192,108199,1,4,0:0:0:0:
329,192,108199,1,2,0:0:0:0:
475,192,108278,1,0,0:0:0:0:
256,192,108278,1,0,0:0:0:0:
402,192,108357,1,0,0:0:0:0:
109,192,108357,1,0,0:0:0:0:
329,192,108436,1,0,0:0:0:0:
36,192,108436,1,0,0:0:0:0:
402,192,108515,1,0,0:0:0:0:
475,192,108515,1,2,0:0:0:0:
256,192,108515,1,8,0:0:0:0:
36,192,108594,1,0,0:0:0:0:
329,192,108594,1,0,0:0:0:0:
402,192,108673,1,0,0:0:0:0:
109,192,108673,1,0,0:0:0:0:
475,192,108752,1,0,0:0:0:0:
256,192,108752,1,0,0:0:0:0:
109,192,108831,1,0,0:0:0:0:
36,192,108831,1,0,0:0:0:0:
329,192,108831,1,2,0:0:0:0:
475,192,108910,1,0,0:0:0:0:
402,192,108910,1,0,0:0:0:0:
36,192,108989,1,0,0:0:0:0:
329,192,108989,1,0,0:0:0:0:
256,192,108989,1,2,0:0:0:0:
182,192,109068,1,0,0:0:0:0:
109,192,109068,1,0,0:0:0:0:
475,192,109147,1,0,0:0:0:0:
402,192,109147,1,8,0:0:0:0:
329,192,109147,1,2,0:0:0:0:
182,192,109226,1,0,0:0:0:0:
36,192,109226,1,0,0:0:0:0:
109,192,109226,1,2,0:0:0:0:
256,192,109305,1,0,0:0:0:0:
402,192,109305,1,0,0:0:0:0:
475,192,109305,1,2,0:0:0:0:
329,192,109384,1,0,0:0:0:0:
182,192,109384,1,2,0:0:0:0:
402,192,109462,1,0,0:0:0:0:
36,192,109462,128,0,109620:0:0:0:0:
256,192,109462,1,0,0:0:0:0:
109,192,109462,1,4,0:0:0:0:
475,192,109462,128,2,109620:0:0:0:0:
329,192,109541,1,0,0:0:0:0:
402,192,109620,1,0,0:0:0:0:
256,192,109699,1,0,0:0:0:0:
475,192,109699,128,0,109857:0:0:0:0:
36,192,109699,1,0,0:0:0:0:
329,192,109699,128,4,109857:0:0:0:0:
109,192,109699,1,2,0:0:0:0:
182,192,109778,1,0,0:0:0:0:
109,192,109857,1,0,0:0:0:0:
329,192,109936,1,0,0:0:0:0:
256,192,109936,1,0,0:0:0:0:
475,192,109936,1,0,0:0:0:0:
182,192,109936,128,4,110094:0:0:0:0:
36,192,109936,128,2,110094:0:0:0:0:
402,192,110015,1,0,0:0:0:0:
329,192,110094,128,0,110252:0:0:0:0:
475,192,110173,128,0,110331:0:0:0:0:
256,192,110173,128,0,110331:0:0:0:0:
402,192,110173,1,0,0:0:0:0:
109,192,110173,1,4,0:0:0:0:
36,192,110173,128,2,110331:0:0:0:0:
182,192,110252,128,0,110410:0:0:0:0:
109,192,110331,128,0,110410:0:0:0:0:
402,192,110331,1,0,0:0:0:0:
329,192,110331,1,0,0:0:0:50:LR_Snare Low Wet.wav
36,192,110410,128,0,110489:0:0:0:0:
256,192,110410,128,0,110568:0:0:0:50:LR_Snare Low Wet.wav
475,192,110410,128,4,110489:0:0:0:0:
182,192,110489,128,2,110568:0:0:0:0:
402,192,110489,128,4,110647:0:0:0:0:
109,192,110489,128,0,110647:0:0:0:50:LR_Snare Low Wet.wav
329,192,110568,128,0,110647:0:0:0:0:
475,192,110568,128,0,110647:0:0:0:50:LR_Snare Low Wet.wav
36,192,110568,128,4,110647:0:0:0:0:
256,192,110647,128,4,110726:0:0:0:0:
182,192,110647,128,0,110726:0:0:0:50:LR_Snare Low Wet.wav
109,192,110726,1,0,0:0:0:0:
475,192,110726,128,0,111278:0:0:0:0:
402,192,110726,1,4,0:0:0:0:
36,192,110726,1,2,0:0:0:0:
329,192,110726,1,0,0:0:0:50:LR_Snare Low Wet.wav
402,192,110884,1,0,0:0:0:0:
36,192,110884,1,0,0:0:0:0:
109,192,110884,1,0,0:0:0:0:
329,192,110884,1,0,0:0:0:50:LR_Snare Low Wet.wav
109,192,111041,1,0,0:0:0:0:
36,192,111041,1,0,0:0:0:0:
329,192,111041,1,8,0:0:0:0:
402,192,111041,1,0,0:0:0:50:LR_Snare Low Wet.wav
329,192,111199,1,0,0:0:0:0:
402,192,111199,1,0,0:0:0:0:
36,192,111199,1,0,0:0:0:0:
109,192,111199,1,0,0:0:0:50:LR_Snare Low Wet.wav
475,192,111357,1,0,0:0:0:0:
256,192,111357,1,0,0:0:0:0:
182,192,111357,1,4,0:0:0:0:
36,192,111357,128,0,111910:0:0:0:50:LR_Snare Low Wet.wav
402,192,111357,1,2,0:0:0:0:
182,192,111515,1,0,0:0:0:0:
256,192,111515,1,0,0:0:0:0:
475,192,111515,1,0,0:0:0:0:
402,192,111515,1,0,0:0:0:50:LR_Snare Low Wet.wav
256,192,111673,1,0,0:0:0:0:
402,192,111673,1,0,0:0:0:0:
182,192,111673,1,8,0:0:0:0:
475,192,111673,1,0,0:0:0:50:LR_Snare Low Wet.wav
256,192,111831,1,0,0:0:0:0:
402,192,111831,1,0,0:0:0:0:
182,192,111831,1,2,0:0:0:0:
475,192,111831,1,0,0:0:0:50:LR_Snare Low Wet.wav
109,192,111910,1,2,0:0:0:0:
256,192,111989,128,0,112620:0:0:0:0:
475,192,111989,1,0,0:0:0:0:
329,192,111989,1,4,0:0:0:0:
36,192,111989,1,0,0:0:0:50:LR_Snare Low Wet.wav
182,192,111989,1,2,0:0:0:0:
36,192,112147,1,0,0:0:0:0:
182,192,112147,1,0,0:0:0:0:
329,192,112147,1,0,0:0:0:0:
475,192,112147,1,0,0:0:0:50:LR_Snare Low Wet.wav
36,192,112305,1,0,0:0:0:0:
182,192,112305,1,0,0:0:0:0:
475,192,112305,1,8,0:0:0:0:
329,192,112305,1,0,0:0:0:50:LR_Snare Low Wet.wav
475,192,112462,1,0,0:0:0:0:
182,192,112462,1,0,0:0:0:0:
329,192,112462,1,0,0:0:0:0:
36,192,112462,1,0,0:0:0:50:LR_Snare Low Wet.wav
402,192,112620,1,0,0:0:0:0:
329,192,112620,1,0,0:0:0:0:
36,192,112620,1,4,0:0:0:0:
182,192,112620,1,2,0:0:0:0:
475,192,112620,1,0,0:0:0:50:LR_Snare Low Wet.wav
329,192,112778,1,0,0:0:0:0:
402,192,112778,1,0,0:0:0:0:
182,192,112778,1,0,0:0:0:0:
109,192,112778,1,0,0:0:0:50:LR_Snare Low Wet.wav
256,192,112857,1,0,0:0:0:0:
36,192,112936,1,0,0:0:0:0:
109,192,112936,1,0,0:0:0:0:
182,192,112936,1,0,0:0:0:50:LR_Snare Low Wet.wav
329,192,112936,1,4,0:0:0:0:
475,192,112936,1,8,0:0:0:0:
256,192,113094,1,0,0:0:0:0:
402,192,113094,1,0,0:0:0:0:
475,192,113094,1,0,0:0:0:50:LR_Snare Low Wet.wav
109,192,113173,1,0,0:0:0:0:
182,192,113173,1,0,0:0:0:0:
36,192,113173,1,0,0:0:0:50:LR_Snare Low Wet.wav
475,192,113252,1,0,0:0:0:50:LR_Snare Low Wet.wav
329,192,113252,1,2,0:0:0:0:
402,192,113252,1,4,0:0:0:0:
256,192,113331,1,0,0:0:0:0:
36,192,113331,1,0,0:0:0:0:
182,192,113331,1,0,0:0:0:50:LR_Snare Low Wet.wav
402,192,113410,1,0,0:0:0:0:
109,192,113410,1,2,0:0:0:0:
475,192,113410,1,0,0:0:0:50:LR_Snare Low Wet.wav
36,192,113489,1,0,0:0:0:0:
256,192,113489,1,0,0:0:0:0:
329,192,113489,1,0,0:0:0:50:LR_Snare Low Wet.wav
182,192,113568,1,4,0:0:0:0:
475,192,113568,1,2,0:0:0:0:
402,192,113568,1,0,0:0:0:50:LR_Snare Low Wet.wav
109,192,113647,1,0,0:0:0:0:
36,192,113647,1,2,0:0:0:0:
329,192,113647,1,0,0:0:0:50:LR_Snare Low Wet.wav
475,192,113726,1,0,0:0:0:0:
182,192,113726,1,2,0:0:0:0:
256,192,113726,1,0,0:0:0:50:LR_Snare Low Wet.wav
402,192,113805,1,0,0:0:0:0:
109,192,113805,1,0,0:0:0:50:LR_Snare Low Wet.wav
36,192,113805,1,2,0:0:0:0:
256,192,113884,1,4,0:0:0:0:
329,192,113884,1,0,0:0:0:50:LR_Snare Low Wet.wav
475,192,113884,1,2,0:0:0:0:
36,192,113962,1,0,0:0:0:0:
109,192,113962,1,0,0:0:0:0:
182,192,113962,1,0,0:0:0:50:LR_Snare Low Wet.wav
402,192,114041,1,0,0:0:0:0:
329,192,114041,1,0,0:0:0:50:LR_Snare Low Wet.wav
475,192,114041,1,2,0:0:0:0:
182,192,114120,1,0,0:0:0:0:
109,192,114120,1,2,0:0:0:0:
36,192,114120,1,0,0:0:0:50:LR_Snare Low Wet.wav
402,192,114199,1,2,0:0:0:0:
475,192,114199,1,0,0:0:0:30:LR4_SnareKKF.wav
329,192,114226,1,0,0:0:0:30:LR4_SnareKKF.wav
256,192,114252,1,0,0:0:0:30:LR4_SnareKKF.wav
182,192,114278,1,0,0:0:0:30:LR4_SnareKKF.wav
109,192,114305,1,0,0:0:0:30:LR4_SnareKKF.wav
36,192,114331,1,0,0:0:0:30:LR4_SnareKKF.wav
402,192,114357,1,0,0:0:0:0:
475,192,114357,1,0,0:0:0:50:LR_Snare Low Wet.wav
256,192,114436,1,0,0:0:0:0:
182,192,114436,1,0,0:0:0:0:
329,192,114436,1,0,0:0:0:50:LR_Snare Low Wet.wav
36,192,114515,1,0,0:0:0:0:
475,192,114515,1,4,0:0:0:0:
109,192,114515,1,0,0:0:0:50:LR_Snare Low Wet.wav
329,192,114568,1,0,0:0:0:50:LR_Snare Low Wet.wav
402,192,114620,1,0,0:0:0:50:LR_Snare Low Wet.wav
36,192,114673,1,0,0:0:0:30:LR4_SnareKKF.wav
109,192,114699,1,0,0:0:0:30:LR4_SnareKKF.wav
182,192,114726,1,0,0:0:0:30:LR4_SnareKKF.wav
256,192,114752,1,0,0:0:0:30:LR4_SnareKKF.wav
329,192,114778,1,0,0:0:0:30:LR4_SnareKKF.wav
402,192,114805,1,0,0:0:0:30:LR4_SnareKKF.wav
36,192,114831,1,4,0:0:0:0:
475,192,114831,1,0,0:0:0:50:LR_Snare Low Wet.wav
182,192,114884,1,0,0:0:0:50:LR_Snare Low Wet.wav
109,192,114936,1,0,0:0:0:50:LR_Snare Low Wet.wav
475,192,114989,1,0,0:0:0:30:LR4_SnareKKF.wav
402,192,115015,1,0,0:0:0:30:LR4_SnareKKF.wav
329,192,115041,1,0,0:0:0:30:LR4_SnareKKF.wav
256,192,115068,1,0,0:0:0:30:LR4_SnareKKF.wav
182,192,115094,1,0,0:0:0:30:LR4_SnareKKF.wav
109,192,115120,1,0,0:0:0:30:LR4_SnareKKF.wav
36,192,115147,128,0,115305:0:0:0:0:
329,192,115147,128,0,115226:0:0:0:0:
402,192,115147,128,4,115265:0:0:0:0:
475,192,115147,128,2,115305:0:0:0:0:
475,192,115384,128,0,115541:0:0:0:0:
182,192,115384,128,0,115462:0:0:0:0:
402,192,115384,128,0,115541:0:0:0:0:
109,192,115384,128,2,115502:0:0:0:0:
36,192,115384,128,4,115541:0:0:0:0:
182,192,115620,128,0,115699:0:0:0:0:
109,192,115620,128,0,115699:0:0:0:0:
402,192,115620,128,0,115699:0:0:0:0:
475,192,115620,128,0,115699:0:0:0:0:
36,192,115620,128,4,115699:0:0:0:0:
329,192,115620,128,2,115699:0:0:0:0:
475,192,115778,128,0,116015:0:0:0:0:
329,192,115778,1,0,0:0:0:0:
36,192,115778,128,0,116015:0:0:0:0:
256,192,115778,128,0,117041:0:0:0:0:
402,192,115778,1,0,0:0:0:70:LR_CymbalWWT.wav
109,192,115778,1,0,0:0:0:100:twinkling.wav
182,192,115778,128,2,115936:0:0:0:0:
402,192,115936,1,0,0:0:0:0:
109,192,115936,1,0,0:0:0:0:
329,192,116015,1,0,0:0:0:0:
182,192,116094,1,0,0:0:0:0:
402,192,116094,1,0,0:0:0:0:
475,192,116094,1,8,0:0:0:0:
36,192,116094,1,2,0:0:0:0:
402,192,116252,1,0,0:0:0:0:
109,192,116252,1,0,0:0:0:0:
182,192,116331,1,0,0:0:0:0:
475,192,116410,1,0,0:0:0:0:
329,192,116410,1,0,0:0:0:0:
36,192,116410,1,2,0:0:0:0:
182,192,116489,1,0,0:0:0:0:
109,192,116568,1,0,0:0:0:0:
402,192,116568,1,0,0:0:0:0:
329,192,116647,1,0,0:0:0:0:
475,192,116726,1,0,0:0:0:0:
109,192,116726,1,0,0:0:0:0:
36,192,116726,1,8,0:0:0:0:
402,192,116726,1,2,0:0:0:0:
182,192,116884,1,0,0:0:0:0:
329,192,116884,1,0,0:0:0:0:
36,192,116962,1,0,0:0:0:0:
182,192,117041,1,0,0:0:0:0:
109,192,117041,128,0,117278:0:0:0:0:
402,192,117041,128,0,117199:0:0:0:0:
475,192,117041,128,0,117278:0:0:0:0:
329,192,117041,128,2,118305:0:0:0:0:
36,192,117199,1,0,0:0:0:0:
182,192,117199,1,0,0:0:0:0:
402,192,117278,1,0,0:0:0:0:
475,192,117357,1,0,0:0:0:0:
256,192,117357,1,0,0:0:0:0:
109,192,117357,1,8,0:0:0:0:
36,192,117357,1,2,0:0:0:0:
182,192,117515,1,0,0:0:0:0:
109,192,117515,1,0,0:0:0:0:
256,192,117594,1,0,0:0:0:0:
402,192,117673,1,0,0:0:0:0:
475,192,117673,1,0,0:0:0:0:
36,192,117673,1,2,0:0:0:0:
256,192,117752,1,0,0:0:0:0:
109,192,117831,1,0,0:0:0:0:
182,192,117831,1,0,0:0:0:0:
475,192,117910,1,0,0:0:0:0:
109,192,117989,1,0,0:0:0:0:
36,192,117989,1,0,0:0:0:0:
256,192,117989,1,8,0:0:0:0:
402,192,117989,1,2,0:0:0:0:
182,192,118147,1,0,0:0:0:0:
109,192,118147,1,0,0:0:0:0:
256,192,118226,1,0,0:0:0:0:
402,192,118305,128,0,119568:0:0:0:0:
182,192,118305,1,0,0:0:0:0:
36,192,118305,128,0,118462:0:0:0:0:
475,192,118305,128,0,118541:0:0:0:0:
109,192,118305,128,2,118541:0:0:0:0:
329,192,118462,1,0,0:0:0:0:
182,192,118462,1,0,0:0:0:0:
36,192,118541,1,0,0:0:0:0:
109,192,118620,1,0,0:0:0:0:
256,192,118620,1,0,0:0:0:0:
329,192,118620,1,8,0:0:0:0:
475,192,118620,1,2,0:0:0:0:
182,192,118778,1,0,0:0:0:0:
329,192,118778,1,0,0:0:0:0:
109,192,118857,1,0,0:0:0:0:
36,192,118936,1,0,0:0:0:0:
256,192,118936,1,0,0:0:0:0:
475,192,118936,1,2,0:0:0:0:
109,192,119015,1,0,0:0:0:0:
182,192,119094,1,0,0:0:0:0:
329,192,119094,1,0,0:0:0:0:
475,192,119173,1,0,0:0:0:0:
36,192,119252,1,0,0:0:0:0:
256,192,119252,1,0,0:0:0:0:
109,192,119252,1,8,0:0:0:0:
329,192,119252,1,2,0:0:0:0:
182,192,119410,1,0,0:0:0:0:
109,192,119410,1,0,0:0:0:0:
256,192,119489,1,0,0:0:0:0:
36,192,119568,128,0,119805:0:0:0:0:
109,192,119568,128,0,119805:0:0:0:0:
182,192,119568,128,0,119726:0:0:0:0:
329,192,119568,1,0,0:0:0:0:
475,192,119568,128,2,120199:0:0:0:0:
402,192,119726,1,0,0:0:0:0:
256,192,119726,1,0,0:0:0:0:
182,192,119805,1,0,0:0:0:0:
109,192,119884,1,0,0:0:0:0:
36,192,119884,1,0,0:0:0:0:
402,192,119884,1,2,0:0:0:0:
329,192,119884,1,8,0:0:0:0:
109,192,120041,1,0,0:0:0:0:
182,192,120041,1,0,0:0:0:0:
256,192,120120,1,0,0:0:0:0:
182,192,120199,1,0,0:0:0:0:
329,192,120199,1,0,0:0:0:0:
402,192,120199,1,0,0:0:0:0:
36,192,120199,1,0,0:0:0:0:
109,192,120199,1,2,0:0:0:0:
256,192,120278,1,0,0:0:0:0:
109,192,120357,1,0,0:0:0:0:
402,192,120357,1,0,0:0:0:0:
329,192,120436,1,0,0:0:0:0:
36,192,120515,1,0,0:0:0:0:
402,192,120515,1,0,0:0:0:0:
475,192,120515,1,4,0:0:0:0:
256,192,120515,1,2,0:0:0:0:
182,192,120515,1,8,0:0:0:0:
402,192,120673,1,0,0:0:0:0:
182,192,120673,1,0,0:0:0:0:
329,192,120673,1,0,0:0:0:0:
475,192,120673,1,2,0:0:0:0:
109,192,120673,1,4,0:0:0:0:
256,192,120831,128,0,121462:0:0:0:0:
475,192,120831,128,0,121068:0:0:0:0:
36,192,120831,128,0,120989:0:0:0:0:
109,192,120831,1,2,0:0:0:0:
329,192,120831,128,4,121068:0:0:0:0:
402,192,120989,1,0,0:0:0:0:
182,192,120989,1,0,0:0:0:0:
109,192,121068,1,0,0:0:0:0:
329,192,121147,1,0,0:0:0:0:
36,192,121147,1,0,0:0:0:0:
182,192,121147,1,8,0:0:0:0:
475,192,121147,1,2,0:0:0:0:
109,192,121305,1,0,0:0:0:0:
402,192,121305,1,0,0:0:0:0:
182,192,121384,1,0,0:0:0:0:
402,192,121462,1,0,0:0:0:0:
475,192,121462,128,0,121699:0:0:0:0:
329,192,121462,128,0,121620:0:0:0:0:
36,192,121462,128,0,121620:0:0:0:0:
109,192,121462,128,2,121778:0:0:0:0:
256,192,121541,1,0,0:0:0:0:
182,192,121620,1,0,0:0:0:0:
402,192,121620,1,0,0:0:0:0:
329,192,121699,1,0,0:0:0:0:
256,192,121778,128,0,121936:0:0:0:0:
182,192,121778,128,0,121936:0:0:0:0:
475,192,121778,1,0,0:0:0:0:
402,192,121778,128,8,122094:0:0:0:0:
36,192,121778,128,2,122015:0:0:0:0:
329,192,121936,1,0,0:0:0:0:
475,192,121936,1,0,0:0:0:0:
182,192,122015,1,0,0:0:0:0:
109,192,122094,128,0,122331:0:0:0:0:
256,192,122094,128,0,122252:0:0:0:0:
475,192,122094,1,0,0:0:0:0:
329,192,122094,128,0,122252:0:0:0:0:
36,192,122094,128,2,122410:0:0:0:0:
182,192,122252,1,0,0:0:0:0:
402,192,122252,1,0,0:0:0:0:
256,192,122331,1,0,0:0:0:0:
182,192,122410,128,0,122647:0:0:0:0:
329,192,122410,128,0,122568:0:0:0:0:
109,192,122410,128,0,122962:0:0:0:0:
402,192,122410,128,2,122568:0:0:0:0:
475,192,122410,1,8,0:0:0:0:
36,192,122568,1,0,0:0:0:0:
475,192,122568,1,0,0:0:0:0:
329,192,122647,1,0,0:0:0:0:
256,192,122726,128,0,122962:0:0:0:0:
402,192,122726,128,0,122884:0:0:0:0:
475,192,122726,128,0,122884:0:0:0:0:
36,192,122726,1,2,0:0:0:0:
182,192,122805,1,0,0:0:0:0:
36,192,122884,1,0,0:0:0:0:
329,192,122884,1,0,0:0:0:0:
402,192,122962,1,0,0:0:0:0:
182,192,123041,128,0,123199:0:0:0:0:
256,192,123041,128,0,123357:0:0:0:0:
36,192,123041,128,0,123199:0:0:0:0:
475,192,123041,128,2,123278:0:0:0:0:
329,192,123041,1,8,0:0:0:0:
109,192,123199,1,0,0:0:0:0:
402,192,123199,1,0,0:0:0:0:
182,192,123278,1,0,0:0:0:0:
329,192,123357,128,0,124620:0:0:0:0:
36,192,123357,128,0,123594:0:0:0:0:
109,192,123357,1,0,0:0:0:0:
402,192,123357,128,4,123515:0:0:0:0:
475,192,123357,128,2,123594:0:0:0:0:
182,192,123515,1,0,0:0:0:0:
256,192,123515,1,0,0:0:0:0:
402,192,123594,1,0,0:0:0:0:
256,192,123673,1,0,0:0:0:0:
475,192,123673,1,0,0:0:0:0:
36,192,123673,1,8,0:0:0:0:
109,192,123673,1,2,0:0:0:0:
402,192,123831,1,0,0:0:0:0:
182,192,123831,1,0,0:0:0:0:
36,192,123910,1,0,0:0:0:0:
109,192,123989,1,0,0:0:0:0:
256,192,123989,1,0,0:0:0:0:
475,192,123989,1,2,0:0:0:0:
402,192,124068,1,0,0:0:0:0:
182,192,124147,1,0,0:0:0:0:
109,192,124147,1,0,0:0:0:0:
36,192,124226,1,0,0:0:0:0:
475,192,124305,1,0,0:0:0:0:
109,192,124305,1,0,0:0:0:0:
256,192,124305,1,8,0:0:0:0:
402,192,124305,1,2,0:0:0:0:
182,192,124462,1,0,0:0:0:0:
36,192,124462,1,0,0:0:0:0:
256,192,124541,1,0,0:0:0:0:
109,192,124620,1,0,0:0:0:0:
182,192,124620,1,0,0:0:0:0:
475,192,124620,1,0,0:0:0:0:
36,192,124620,1,4,0:0:0:0:
402,192,124620,1,2,0:0:0:0:
329,192,124699,1,0,0:0:0:0:
182,192,124778,1,0,0:0:0:0:
256,192,124857,1,0,0:0:0:0:
36,192,124857,1,0,0:0:0:0:
109,192,124857,1,0,0:0:0:0:
475,192,124857,1,2,0:0:0:0:
402,192,124857,1,4,0:0:0:0:
329,192,124936,1,0,0:0:0:0:
475,192,125015,1,0,0:0:0:0:
182,192,125094,1,0,0:0:0:0:
402,192,125094,1,0,0:0:0:0:
256,192,125094,1,0,0:0:0:0:
109,192,125094,1,2,0:0:0:0:
36,192,125094,1,4,0:0:0:0:
329,192,125173,1,0,0:0:0:0:
182,192,125252,1,0,0:0:0:0:
329,192,125331,1,0,0:0:0:0:
36,192,125331,1,0,0:0:0:0:
475,192,125331,1,0,0:0:0:0:
402,192,125331,1,2,0:0:0:0:
256,192,125331,1,4,0:0:0:0:
109,192,125410,1,0,0:0:0:0:
182,192,125489,1,0,0:0:0:0:
402,192,125568,1,0,0:0:0:0:
256,192,125568,1,4,0:0:0:0:
475,192,125568,1,2,0:0:0:0:
109,192,125647,1,0,0:0:0:0:
182,192,125647,1,4,0:0:0:0:
36,192,125647,1,2,0:0:0:0:
475,192,125726,1,0,0:0:0:0:
402,192,125726,1,2,0:0:0:0:
329,192,125726,1,4,0:0:0:0:
36,192,125805,1,0,0:0:0:0:
182,192,125805,1,4,0:0:0:0:
109,192,125805,1,2,0:0:0:0:
402,192,125884,128,0,126120:0:0:0:0:
475,192,125884,128,0,126120:0:0:0:0:
329,192,125884,128,4,126041:0:0:0:0:
256,192,125884,128,2,127147:0:0:0:0:
182,192,126041,1,0,0:0:0:0:
36,192,126041,1,0,0:0:0:0:
329,192,126120,1,0,0:0:0:0:
402,192,126199,1,0,0:0:0:0:
475,192,126199,1,0,0:0:0:0:
109,192,126199,1,2,0:0:0:0:
36,192,126199,1,8,0:0:0:0:
475,192,126357,1,0,0:0:0:0:
329,192,126357,1,0,0:0:0:0:
182,192,126436,1,0,0:0:0:0:
402,192,126515,1,0,0:0:0:0:
475,192,126515,1,0,0:0:0:0:
36,192,126515,1,2,0:0:0:0:
329,192,126594,1,0,0:0:0:0:
109,192,126673,1,0,0:0:0:0:
182,192,126752,1,0,0:0:0:0:
329,192,126831,1,0,0:0:0:0:
402,192,126831,1,0,0:0:0:0:
475,192,126831,1,8,0:0:0:0:
36,192,126831,1,2,0:0:0:0:
402,192,126989,1,0,0:0:0:0:
109,192,126989,1,0,0:0:0:0:
329,192,127068,1,0,0:0:0:0:
109,192,127147,128,0,127384:0:0:0:0:
475,192,127147,1,0,0:0:0:0:
36,192,127147,128,0,127384:0:0:0:0:
182,192,127147,128,0,128410:0:0:0:0:
402,192,127147,128,2,127305:0:0:0:0:
475,192,127305,1,0,0:0:0:0:
329,192,127305,1,0,0:0:0:0:
256,192,127384,1,0,0:0:0:0:
36,192,127462,1,0,0:0:0:0:
475,192,127462,1,0,0:0:0:0:
109,192,127462,1,2,0:0:0:0:
402,192,127462,1,8,0:0:0:0:
329,192,127620,1,0,0:0:0:0:
475,192,127620,1,0,0:0:0:0:
36,192,127699,1,0,0:0:0:0:
402,192,127778,1,0,0:0:0:0:
256,192,127778,1,0,0:0:0:0:
109,192,127778,1,2,0:0:0:0:
36,192,127857,1,0,0:0:0:0:
475,192,127936,1,0,0:0:0:0:
329,192,127936,1,0,0:0:0:0:
256,192,128015,1,0,0:0:0:0:
402,192,128094,1,0,0:0:0:0:
475,192,128094,1,0,0:0:0:0:
109,192,128094,1,8,0:0:0:0:
36,192,128094,1,2,0:0:0:0:
329,192,128252,1,0,0:0:0:0:
402,192,128252,1,0,0:0:0:0:
475,192,128331,1,0,0:0:0:0:
109,192,128410,128,0,129673:0:0:0:0:
36,192,128410,128,0,128568:0:0:0:0:
329,192,128410,1,0,0:0:0:0:
256,192,128410,128,0,128647:0:0:0:0:
402,192,128410,128,2,128647:0:0:0:0:
329,192,128568,1,0,0:0:0:0:
182,192,128568,1,0,0:0:0:0:
475,192,128647,1,0,0:0:0:0:
182,192,128726,1,0,0:0:0:0:
36,192,128726,1,0,0:0:0:0:
256,192,128726,1,8,0:0:0:0:
402,192,128726,1,2,0:0:0:0:
475,192,128884,1,0,0:0:0:0:
329,192,128884,1,0,0:0:0:0:
402,192,128962,1,0,0:0:0:0:
475,192,129041,1,0,0:0:0:0:
182,192,129041,1,0,0:0:0:0:
36,192,129041,1,2,0:0:0:0:
329,192,129120,1,0,0:0:0:0:
256,192,129199,1,0,0:0:0:0:
182,192,129199,1,0,0:0:0:0:
402,192,129278,1,0,0:0:0:0:
329,192,129357,1,0,0:0:0:0:
475,192,129357,1,0,0:0:0:0:
36,192,129357,1,8,0:0:0:0:
256,192,129357,1,2,0:0:0:0:
182,192,129515,1,0,0:0:0:0:
329,192,129515,1,0,0:0:0:0:
256,192,129594,1,0,0:0:0:0:
36,192,129673,1,0,0:0:0:0:
329,192,129673,1,0,0:0:0:0:
182,192,129673,1,0,0:0:0:0:
475,192,129673,1,4,0:0:0:0:
402,192,129673,1,2,0:0:0:0:
475,192,129831,1,0,0:0:0:0:
36,192,129831,1,0,0:0:0:0:
182,192,129831,1,0,0:0:0:0:
329,192,129831,1,2,0:0:0:0:
109,192,129831,1,4,0:0:0:0:
36,192,129989,1,0,0:0:0:0:
329,192,129989,1,0,0:0:0:0:
475,192,129989,1,8,0:0:0:0:
256,192,129989,1,2,0:0:0:0:
182,192,129989,1,4,0:0:0:0:
402,192,130147,1,0,0:0:0:0:
109,192,130147,1,0,0:0:0:0:
182,192,130226,1,0,0:0:0:0:
402,192,130305,1,0,0:0:0:0:
475,192,130305,1,0,0:0:0:0:
256,192,130305,1,0,0:0:0:0:
36,192,130305,1,2,0:0:0:0:
329,192,130305,1,4,0:0:0:0:
109,192,130384,1,0,0:0:0:0:
182,192,130462,1,0,0:0:0:0:
256,192,130462,1,0,0:0:0:0:
475,192,130462,1,0,0:0:0:0:
36,192,130462,1,4,0:0:0:0:
329,192,130462,1,2,0:0:0:0:
402,192,130541,1,0,0:0:0:0:
329,192,130620,1,0,0:0:0:0:
109,192,130620,1,0,0:0:0:0:
182,192,130620,1,4,0:0:0:0:
36,192,130620,1,2,0:0:0:0:
256,192,130699,1,0,0:0:0:0:
402,192,130699,1,4,0:0:0:0:
475,192,130699,1,2,0:0:0:0:
109,192,130778,1,0,0:0:0:0:
182,192,130778,1,4,0:0:0:0:
36,192,130778,1,2,0:0:0:0:
402,192,130857,1,0,0:0:0:0:
329,192,130857,1,4,0:0:0:0:
475,192,130857,1,2,0:0:0:0:
36,192,130936,128,0,131568:0:0:0:0:
109,192,130936,128,0,131173:0:0:0:0:
256,192,130936,128,0,131094:0:0:0:70:LR_CymbalWWT.wav
182,192,130936,128,2,131173:0:0:0:0:
329,192,131094,1,0,0:0:0:0:
475,192,131094,1,0,0:0:0:0:
256,192,131173,1,0,0:0:0:0:
182,192,131252,1,0,0:0:0:0:
475,192,131252,1,0,0:0:0:0:
109,192,131252,1,8,0:0:0:0:
402,192,131252,1,2,0:0:0:0:
256,192,131410,1,0,0:0:0:0:
329,192,131410,1,0,0:0:0:0:
109,192,131489,1,0,0:0:0:0:
182,192,131568,128,0,131726:0:0:0:0:
475,192,131568,128,0,131884:0:0:0:0:
402,192,131568,128,0,131805:0:0:0:0:
329,192,131568,128,2,131726:0:0:0:0:
109,192,131647,1,0,0:0:0:0:
256,192,131726,1,0,0:0:0:0:
36,192,131726,1,0,0:0:0:0:
182,192,131805,1,0,0:0:0:0:
329,192,131884,128,0,132120:0:0:0:0:
402,192,131884,128,0,132199:0:0:0:0:
36,192,131884,1,0,0:0:0:0:
256,192,131884,128,8,132041:0:0:0:0:
109,192,131884,128,2,132041:0:0:0:0:
182,192,132041,1,0,0:0:0:0:
475,192,132041,1,0,0:0:0:0:
109,192,132120,1,0,0:0:0:0:
329,192,132199,128,0,132515:0:0:0:0:
256,192,132199,128,0,132436:0:0:0:0:
475,192,132199,1,0,0:0:0:0:
36,192,132199,128,2,132357:0:0:0:0:
182,192,132199,128,4,132357:0:0:0:0:
402,192,132357,1,0,0:0:0:0:
109,192,132357,1,0,0:0:0:0:
475,192,132436,1,0,0:0:0:0:
109,192,132515,128,0,132673:0:0:0:0:
256,192,132515,128,0,132831:0:0:0:0:
402,192,132515,128,0,132673:0:0:0:0:
36,192,132515,1,2,0:0:0:0:
182,192,132515,128,8,132752:0:0:0:0:
475,192,132673,1,0,0:0:0:0:
329,192,132673,1,0,0:0:0:0:
109,192,132752,1,0,0:0:0:0:
329,192,132831,1,0,0:0:0:0:
182,192,132831,1,0,0:0:0:0:
402,192,132831,1,0,0:0:0:0:
475,192,132831,1,0,0:0:0:0:
36,192,132831,1,2,0:0:0:0:
256,192,132910,1,0,0:0:0:0:
109,192,132989,1,0,0:0:0:0:
182,192,132989,1,0,0:0:0:0:
329,192,133068,1,0,0:0:0:0:
256,192,133147,1,0,0:0:0:0:
36,192,133147,1,0,0:0:0:0:
402,192,133147,1,4,0:0:0:0:
475,192,133147,1,8,0:0:0:0:
109,192,133147,1,2,0:0:0:0:
182,192,133305,1,0,0:0:0:0:
256,192,133305,1,0,0:0:0:0:
329,192,133305,1,0,0:0:0:0:
475,192,133305,1,2,0:0:0:0:
109,192,133305,1,4,0:0:0:0:
329,192,133462,1,0,0:0:0:0:
402,192,133462,1,0,0:0:0:0:
256,192,133462,1,0,0:0:0:0:
36,192,133462,1,2,0:0:0:0:
182,192,133462,1,4,0:0:0:0:
475,192,133620,1,0,0:0:0:0:
402,192,133620,1,0,0:0:0:0:
109,192,133620,1,0,0:0:0:30:LR4_SnareKKF.wav
329,192,133660,1,0,0:0:0:30:LR4_SnareKKF.wav
256,192,133699,1,0,0:0:0:30:LR4_SnareKKF.wav
182,192,133739,1,0,0:0:0:30:LR4_SnareKKF.wav
475,192,133778,1,0,0:0:0:0:
329,192,133778,1,0,0:0:0:0:
109,192,133778,1,0,0:0:0:0:
402,192,133778,1,2,0:0:0:0:
36,192,133778,1,4,0:0:0:0:
36,192,133936,1,0,0:0:0:0:
109,192,133936,1,0,0:0:0:0:
402,192,133936,1,0,0:0:0:30:LR4_SnareKKF.wav
182,192,133976,1,0,0:0:0:30:LR4_SnareKKF.wav
256,192,134015,1,0,0:0:0:30:LR4_SnareKKF.wav
329,192,134055,1,0,0:0:0:30:LR4_SnareKKF.wav
109,192,134094,1,0,0:0:0:0:
475,192,134094,1,0,0:0:0:0:
182,192,134094,1,0,0:0:0:0:
402,192,134094,1,2,0:0:0:0:
36,192,134094,1,4,0:0:0:0:
402,192,134252,1,0,0:0:0:0:
475,192,134252,1,0,0:0:0:0:
329,192,134252,1,0,0:0:0:0:
109,192,134252,1,0,0:0:0:0:
36,192,134252,1,2,0:0:0:0:
256,192,134252,1,4,0:0:0:0:
36,192,134410,1,0,0:0:0:0:
475,192,134410,1,0,0:0:0:0:
402,192,134410,1,0,0:0:0:0:
329,192,134410,1,0,0:0:0:30:LR4_SnareKKF.wav
256,192,134449,1,0,0:0:0:30:LR4_SnareKKF.wav
182,192,134489,1,0,0:0:0:30:LR4_SnareKKF.wav
109,192,134528,1,0,0:0:0:30:LR4_SnareKKF.wav
36,192,134568,1,0,0:0:0:0:
329,192,134568,1,4,0:0:0:0:
475,192,134568,1,2,0:0:0:0:
182,192,134647,1,0,0:0:0:0:
256,192,134647,1,2,0:0:0:0:
36,192,134726,1,0,0:0:0:0:
475,192,134726,1,0,0:0:0:0:
402,192,134726,1,0,0:0:0:30:LR4_SnareKKF.wav
109,192,134726,1,4,0:0:0:0:
329,192,134765,1,0,0:0:0:30:LR4_SnareKKF.wav
256,192,134805,1,0,0:0:0:30:LR4_SnareKKF.wav
182,192,134844,1,0,0:0:0:30:LR4_SnareKKF.wav
475,192,134884,1,0,0:0:0:0:
402,192,134884,1,0,0:0:0:0:
109,192,134884,1,2,0:0:0:0:
329,192,134962,1,0,0:0:0:0:
256,192,134962,1,2,0:0:0:0:
475,192,135041,1,0,0:0:0:0:
36,192,135041,1,0,0:0:0:30:LR4_SnareKKF.wav
182,192,135041,1,4,0:0:0:0:
402,192,135081,1,0,0:0:0:30:LR4_SnareKKF.wav
329,192,135120,1,0,0:0:0:30:LR4_SnareKKF.wav
256,192,135160,1,0,0:0:0:30:LR4_SnareKKF.wav
109,192,135199,1,0,0:0:0:0:
182,192,135199,1,0,0:0:0:0:
36,192,135199,1,2,0:0:0:0:
329,192,135278,1,0,0:0:0:0:
402,192,135278,1,2,0:0:0:0:
475,192,135357,1,4,0:0:0:0:
36,192,135357,1,0,0:0:0:30:LR4_SnareKKF.wav
109,192,135384,1,0,0:0:0:30:LR4_SnareKKF.wav
182,192,135410,1,0,0:0:0:30:LR4_SnareKKF.wav
256,192,135436,1,0,0:0:0:30:LR4_SnareKKF.wav
475,192,135515,1,0,0:0:0:30:LR4_SnareKKF.wav
36,192,135515,1,4,0:0:0:0:
402,192,135541,1,0,0:0:0:30:LR4_SnareKKF.wav
329,192,135568,1,0,0:0:0:30:LR4_SnareKKF.wav
256,192,135594,1,0,0:0:0:30:LR4_SnareKKF.wav
36,192,135673,1,0,0:0:0:0:
475,192,135673,1,0,0:0:0:0:
402,192,135673,1,2,0:0:0:0:
109,192,135673,1,4,0:0:0:0:
329,192,135752,1,0,0:0:0:0:
256,192,135752,1,4,0:0:0:0:
182,192,135752,1,2,0:0:0:0:
475,192,135831,1,0,0:0:0:0:
36,192,135831,1,4,0:0:0:0:
402,192,135831,1,2,0:0:0:0:
182,192,135910,1,0,0:0:0:0:
109,192,135910,1,4,0:0:0:0:
256,192,135910,1,2,0:0:0:0:
475,192,135989,128,0,136068:0:0:0:100:twinkling.wav
329,192,135989,128,0,136068:0:0:0:70:LR_CymbalWWT.wav
36,192,135989,1,2,0:0:0:0:
402,192,136068,128,0,136147:0:0:0:0:
256,192,136068,128,0,136147:0:0:0:0:
109,192,136147,128,0,136226:0:0:0:0:
182,192,136147,128,0,136226:0:0:0:0:
329,192,136226,128,0,136305:0:0:0:0:
402,192,136226,128,0,136305:0:0:0:0:
256,192,136305,128,0,136384:0:0:0:0:
109,192,136305,1,0,0:0:0:0:
36,192,136305,128,8,136541:0:0:0:0:
475,192,136305,128,2,136541:0:0:0:0:
182,192,136384,128,0,136462:0:0:0:0:
402,192,136384,128,0,136541:0:0:0:0:
329,192,136462,128,0,136620:0:0:0:0:
109,192,136462,128,0,136541:0:0:0:0:
182,192,136541,128,0,136620:0:0:0:0:
256,192,136620,128,0,136699:0:0:0:0:
475,192,136620,128,0,136857:0:0:0:0:
36,192,136620,128,2,136857:0:0:0:0:
329,192,136699,128,0,136778:0:0:0:0:
109,192,136699,128,0,136857:0:0:0:0:
182,192,136778,128,0,136936:0:0:0:0:
402,192,136778,128,0,136857:0:0:0:0:
329,192,136857,128,0,136936:0:0:0:0:
109,192,136936,128,0,137015:0:0:0:0:
36,192,136936,128,0,137094:0:0:0:0:
475,192,136936,128,2,137173:0:0:0:0:
256,192,136936,128,8,137094:0:0:0:0:
182,192,137015,128,0,137173:0:0:0:0:
402,192,137015,128,0,137173:0:0:0:0:
109,192,137094,128,0,137252:0:0:0:0:
329,192,137094,128,0,137252:0:0:0:0:
36,192,137173,128,0,137252:0:0:0:0:
256,192,137173,128,0,137252:0:0:0:0:
475,192,137252,1,0,0:0:0:0:
182,192,137252,128,0,137331:0:0:0:0:
402,192,137252,128,2,137331:0:0:0:0:
36,192,137331,128,0,137410:0:0:0:0:
329,192,137331,128,0,137410:0:0:0:0:
109,192,137410,128,0,137489:0:0:0:0:
256,192,137410,128,0,137489:0:0:0:0:
182,192,137489,128,0,137568:0:0:0:0:
402,192,137489,128,0,137568:0:0:0:0:
475,192,137568,128,0,137805:0:0:0:0:
36,192,137568,128,2,137805:0:0:0:0:
256,192,137568,128,8,137647:0:0:0:0:
109,192,137647,128,0,137805:0:0:0:0:
329,192,137647,128,0,137726:0:0:0:0:
182,192,137726,128,0,137884:0:0:0:0:
402,192,137726,128,0,137805:0:0:0:0:
329,192,137805,128,0,137884:0:0:0:0:
475,192,137884,128,0,138120:0:0:0:0:
36,192,137884,128,0,138120:0:0:0:0:
256,192,137884,128,2,137962:0:0:0:0:
402,192,137962,128,0,138120:0:0:0:0:
182,192,137962,128,0,138041:0:0:0:0:
109,192,138041,128,0,138120:0:0:0:0:
329,192,138041,128,0,138199:0:0:0:0:
182,192,138120,128,0,138199:0:0:0:0:
36,192,138199,128,0,138436:0:0:0:0:
256,192,138199,128,0,138357:0:0:0:0:
475,192,138199,128,8,138357:0:0:0:0:
402,192,138199,128,2,138278:0:0:0:0:
329,192,138278,128,0,138436:0:0:0:0:
109,192,138278,128,0,138436:0:0:0:0:
182,192,138357,128,0,138515:0:0:0:0:
402,192,138357,128,0,138515:0:0:0:0:
256,192,138436,128,0,138515:0:0:0:0:
475,192,138436,128,0,138515:0:0:0:0:
36,192,138515,128,0,138594:0:0:0:0:
329,192,138515,1,0,0:0:0:0:
109,192,138515,128,2,138594:0:0:0:0:
402,192,138594,128,0,138673:0:0:0:0:
256,192,138594,128,0,138673:0:0:0:0:
182,192,138673,128,0,138752:0:0:0:0:
329,192,138673,128,0,138752:0:0:0:0:
109,192,138752,128,0,138831:0:0:0:0:
402,192,138752,128,0,138831:0:0:0:0:
36,192,138831,128,0,139068:0:0:0:0:
182,192,138831,128,0,138910:0:0:0:0:
256,192,138831,1,2,0:0:0:0:
475,192,138831,128,8,139068:0:0:0:0:
329,192,138910,128,0,138989:0:0:0:0:
109,192,138910,128,0,139147:0:0:0:0:
402,192,138989,128,0,139068:0:0:0:0:
182,192,138989,128,0,139147:0:0:0:0:
256,192,139068,128,0,139147:0:0:0:0:
475,192,139147,128,0,139384:0:0:0:0:
329,192,139147,128,0,139226:0:0:0:0:
36,192,139147,128,2,139384:0:0:0:0:
182,192,139226,128,0,139305:0:0:0:0:
402,192,139226,128,0,139384:0:0:0:0:
109,192,139305,128,0,139384:0:0:0:0:
329,192,139305,128,0,139462:0:0:0:0:
256,192,139384,128,0,139462:0:0:0:0:
36,192,139462,128,0,139699:0:0:0:0:
475,192,139462,128,0,139699:0:0:0:0:
402,192,139462,128,8,139620:0:0:0:0:
182,192,139462,128,2,139541:0:0:0:0:
329,192,139541,128,0,139620:0:0:0:0:
256,192,139541,128,0,139699:0:0:0:0:
109,192,139620,128,0,139778:0:0:0:0:
182,192,139620,128,0,139778:0:0:0:0:
329,192,139699,128,0,139778:0:0:0:0:
402,192,139699,128,0,139778:0:0:0:0:
256,192,139778,128,0,139857:0:0:0:0:
36,192,139778,1,0,0:0:0:0:
475,192,139778,128,2,139857:0:0:0:0:
182,192,139857,128,0,139936:0:0:0:0:
402,192,139857,128,0,139936:0:0:0:0:
329,192,139936,128,0,140015:0:0:0:0:
36,192,139936,128,0,140015:0:0:0:0:
256,192,140015,128,0,140094:0:0:0:0:
109,192,140015,128,0,140094:0:0:0:0:
475,192,140094,128,0,140331:0:0:0:0:
329,192,140094,128,8,140173:0:0:0:0:
36,192,140094,128,2,140331:0:0:0:0:
402,192,140173,128,0,140331:0:0:0:0:
182,192,140173,128,0,140252:0:0:0:0:
109,192,140252,128,0,140331:0:0:0:0:
329,192,140252,128,0,140410:0:0:0:0:
256,192,140331,128,0,140410:0:0:0:0:
182,192,140410,128,0,140489:0:0:0:0:
475,192,140410,128,0,140647:0:0:0:0:
36,192,140410,128,2,140647:0:0:0:0:
109,192,140489,128,0,140647:0:0:0:0:
329,192,140489,128,0,140568:0:0:0:0:
402,192,140568,128,0,140647:0:0:0:0:
182,192,140568,128,0,140726:0:0:0:0:
256,192,140647,128,0,140726:0:0:0:0:
36,192,140726,1,0,0:0:0:0:
109,192,140726,128,0,140962:0:0:0:0:
402,192,140726,128,8,140962:0:0:0:0:
475,192,140726,1,4,0:0:0:0:
329,192,140726,1,2,0:0:0:0:
329,192,140884,1,0,0:0:0:0:
36,192,140884,128,0,140962:0:0:0:0:
182,192,140884,1,0,0:0:0:0:
475,192,140884,128,2,140962:0:0:0:0:
256,192,140884,128,4,140962:0:0:0:0:
109,192,141041,1,0,0:0:0:0:
475,192,141041,1,0,0:0:0:0:
402,192,141041,128,0,141120:0:0:0:0:
256,192,141041,128,2,141120:0:0:0:0:
36,192,141041,1,4,0:0:0:0:
182,192,141120,128,0,141199:0:0:0:0:
329,192,141120,128,0,141199:0:0:0:0:
256,192,141199,128,0,141278:0:0:0:0:
109,192,141199,128,0,141278:0:0:0:0:
182,192,141278,128,0,141357:0:0:0:0:
402,192,141278,128,0,141357:0:0:0:0:
475,192,141357,128,0,141594:0:0:0:0:
36,192,141357,128,0,141594:0:0:0:0:
329,192,141357,128,8,141436:0:0:0:0:
109,192,141357,1,2,0:0:0:0:
402,192,141436,128,0,141673:0:0:0:0:
256,192,141436,128,0,141515:0:0:0:0:
329,192,141515,128,0,141673:0:0:0:0:
182,192,141515,128,0,141594:0:0:0:0:
109,192,141594,128,0,141673:0:0:0:0:
256,192,141673,128,0,141752:0:0:0:0:
36,192,141673,128,0,141910:0:0:0:0:
475,192,141673,128,2,141910:0:0:0:0:
109,192,141752,128,0,141989:0:0:0:0:
402,192,141752,128,0,141831:0:0:0:0:
329,192,141831,128,0,141910:0:0:0:0:
182,192,141831,128,0,141989:0:0:0:0:
402,192,141910,128,0,141989:0:0:0:0:
256,192,141989,128,0,142147:0:0:0:0:
329,192,141989,128,0,142068:0:0:0:0:
36,192,141989,128,8,142226:0:0:0:0:
475,192,141989,128,2,142305:0:0:0:0:
109,192,142068,128,0,142226:0:0:0:0:
182,192,142068,128,0,142147:0:0:0:0:
402,192,142147,128,0,142305:0:0:0:0:
329,192,142147,128,0,142226:0:0:0:0:
256,192,142226,128,0,142305:0:0:0:0:
182,192,142226,128,0,142305:0:0:0:0:
109,192,142305,1,0,0:0:0:0:
329,192,142305,128,0,142384:0:0:0:0:
36,192,142305,128,2,142384:0:0:0:0:
182,192,142384,128,0,142462:0:0:0:0:
475,192,142384,128,0,142462:0:0:0:0:
402,192,142462,128,0,142541:0:0:0:0:
256,192,142462,128,0,142541:0:0:0:0:
329,192,142541,128,0,142620:0:0:0:0:
109,192,142541,128,0,142620:0:0:0:0:
475,192,142620,128,0,142857:0:0:0:0:
182,192,142620,128,8,142699:0:0:0:0:
36,192,142620,128,2,142857:0:0:0:0:
256,192,142699,128,0,142778:0:0:0:0:
109,192,142699,128,0,142936:0:0:0:0:
329,192,142778,128,0,142857:0:0:0:0:
182,192,142778,128,0,142936:0:0:0:0:
402,192,142857,128,0,142936:0:0:0:0:
256,192,142936,128,0,143015:0:0:0:0:
475,192,142936,128,0,143173:0:0:0:0:
36,192,142936,128,2,143173:0:0:0:0:
402,192,143015,128,0,143252:0:0:0:0:
109,192,143015,128,0,143094:0:0:0:0:
182,192,143094,128,0,143173:0:0:0:0:
329,192,143094,128,0,143252:0:0:0:0:
109,192,143173,128,0,143252:0:0:0:0:
475,192,143252,128,0,143489:0:0:0:0:
182,192,143252,128,0,143331:0:0:0:0:
36,192,143252,128,8,143568:0:0:0:0:
256,192,143252,128,2,143410:0:0:0:0:
329,192,143331,128,0,143410:0:0:0:0:
402,192,143331,128,0,143489:0:0:0:0:
109,192,143410,128,0,143568:0:0:0:0:
182,192,143410,128,0,143489:0:0:0:0:
329,192,143489,128,0,143568:0:0:0:0:
256,192,143489,128,0,143568:0:0:0:0:
402,192,143568,128,0,143647:0:0:0:0:
475,192,143568,1,0,0:0:0:0:
182,192,143568,128,2,143647:0:0:0:0:
109,192,143647,128,0,143726:0:0:0:0:
329,192,143647,128,0,143726:0:0:0:0:
36,192,143726,128,0,143805:0:0:0:0:
256,192,143726,128,0,143805:0:0:0:0:
109,192,143805,128,0,143884:0:0:0:0:
182,192,143805,128,0,143884:0:0:0:0:
256,192,143884,128,0,144041:0:0:0:0:
329,192,143884,128,0,144041:0:0:0:0:
36,192,143884,128,8,144120:0:0:0:0:
475,192,143884,128,2,143962:0:0:0:0:
109,192,143962,128,0,144120:0:0:0:0:
402,192,143962,128,0,144120:0:0:0:0:
475,192,144041,128,0,144120:0:0:0:0:
182,192,144041,128,0,144120:0:0:0:0:
256,192,144120,128,0,144199:0:0:0:0:
329,192,144120,128,0,144199:0:0:0:0:
475,192,144199,1,0,0:0:0:0:
182,192,144199,1,0,0:0:0:0:
36,192,144199,1,0,0:0:0:0:
402,192,144199,1,2,0:0:0:0:
109,192,144199,128,4,144436:0:0:0:0:
36,192,144357,1,0,0:0:0:0:
402,192,144357,1,0,0:0:0:0:
329,192,144357,1,0,0:0:0:0:
256,192,144357,128,0,144594:0:0:0:0:
182,192,144357,1,2,0:0:0:0:
475,192,144357,128,4,144436:0:0:0:0:
182,192,144515,1,0,0:0:0:0:
109,192,144515,1,0,0:0:0:0:
36,192,144515,128,0,144594:0:0:0:0:
329,192,144515,1,8,0:0:0:0:
475,192,144515,1,2,0:0:0:0:
402,192,144515,128,4,144752:0:0:0:0:
475,192,144673,1,0,0:0:0:0:
36,192,144673,1,0,0:0:0:0:
182,192,144673,1,0,0:0:0:0:
329,192,144673,1,0,0:0:0:0:
256,192,144673,128,2,144752:0:0:0:0:
109,192,144673,128,4,144752:0:0:0:0:
109,192,144831,1,0,0:0:0:0:
475,192,144831,1,0,0:0:0:0:
36,192,144831,1,0,0:0:0:0:
402,192,144831,1,0,0:0:0:0:
182,192,144831,1,4,0:0:0:0:
329,192,144831,1,2,0:0:0:0:
36,192,144989,1,0,0:0:0:0:
182,192,144989,1,0,0:0:0:0:
475,192,144989,1,0,0:0:0:30:LR4_SnareKKF.wav
402,192,145028,1,0,0:0:0:30:LR4_SnareKKF.wav
329,192,145068,1,0,0:0:0:30:LR4_SnareKKF.wav
256,192,145107,1,0,0:0:0:30:LR4_SnareKKF.wav
402,192,145147,1,0,0:0:0:0:
475,192,145147,1,0,0:0:0:0:
36,192,145147,1,8,0:0:0:0:
109,192,145147,1,2,0:0:0:0:
182,192,145147,1,4,0:0:0:0:
36,192,145305,1,0,0:0:0:0:
475,192,145305,1,0,0:0:0:0:
329,192,145305,1,0,0:0:0:30:LR4_SnareKKF.wav
109,192,145344,1,0,0:0:0:30:LR4_SnareKKF.wav
182,192,145384,1,0,0:0:0:30:LR4_SnareKKF.wav
256,192,145423,1,0,0:0:0:30:LR4_SnareKKF.wav
109,192,145462,1,0,0:0:0:0:
475,192,145462,1,0,0:0:0:0:
402,192,145462,1,0,0:0:0:0:
36,192,145462,1,2,0:0:0:0:
329,192,145462,1,4,0:0:0:0:
256,192,145620,1,0,0:0:0:0:
402,192,145620,1,0,0:0:0:0:
109,192,145620,1,0,0:0:0:0:
182,192,145620,1,0,0:0:0:0:
329,192,145620,1,2,0:0:0:0:
36,192,145620,1,4,0:0:0:0:
182,192,145778,1,0,0:0:0:0:
256,192,145778,1,0,0:0:0:0:
402,192,145778,1,0,0:0:0:0:
36,192,145778,1,8,0:0:0:0:
475,192,145778,1,2,0:0:0:0:
329,192,145778,1,4,0:0:0:0:
329,192,145936,1,0,0:0:0:0:
182,192,145936,1,2,0:0:0:0:
475,192,145936,1,4,0:0:0:0:
36,192,146015,1,0,0:0:0:0:
109,192,146015,1,0,0:0:0:0:
256,192,146015,1,2,0:0:0:0:
182,192,146094,1,0,0:0:0:0:
475,192,146094,1,0,0:0:0:0:
402,192,146094,1,2,0:0:0:0:
329,192,146094,1,4,0:0:0:0:
36,192,146173,1,0,0:0:0:0:
256,192,146173,1,0,0:0:0:0:
109,192,146173,1,2,0:0:0:0:
475,192,146252,1,0,0:0:0:0:
329,192,146252,1,0,0:0:0:0:
182,192,146252,1,2,0:0:0:0:
36,192,146410,1,0,0:0:0:0:
256,192,146410,1,8,0:0:0:0:
402,192,146410,1,2,0:0:0:0:
109,192,146410,1,4,0:0:0:0:
182,192,146489,1,0,0:0:0:0:
329,192,146489,1,0,0:0:0:0:
475,192,146489,1,2,0:0:0:0:
402,192,146568,1,0,0:0:0:0:
256,192,146568,1,0,0:0:0:0:
109,192,146568,1,2,0:0:0:0:
182,192,146726,1,0,0:0:0:0:
475,192,146726,1,0,0:0:0:30:LR4_SnareKKF.wav
109,192,146778,1,0,0:0:0:0:
402,192,146778,1,0,0:0:0:30:LR4_SnareKKF.wav
36,192,146831,1,0,0:0:0:0:
329,192,146831,1,0,0:0:0:30:LR4_SnareKKF.wav
182,192,146884,1,0,0:0:0:0:
256,192,146884,1,4,0:0:0:0:
475,192,146884,1,2,0:0:0:0:
36,192,146962,1,0,0:0:0:0:
402,192,146962,1,0,0:0:0:0:
109,192,146962,1,2,0:0:0:0:
256,192,147041,1,0,0:0:0:0:
182,192,147041,1,8,0:0:0:0:
329,192,147041,1,2,0:0:0:0:
475,192,147041,1,4,0:0:0:0:
109,192,147199,1,0,0:0:0:0:
36,192,147199,1,0,0:0:0:0:
256,192,147199,1,2,0:0:0:0:
329,192,147199,1,4,0:0:0:0:
475,192,147278,1,0,0:0:0:0:
182,192,147278,1,0,0:0:0:0:
402,192,147278,1,2,0:0:0:0:
329,192,147357,1,0,0:0:0:0:
256,192,147357,1,0,0:0:0:0:
36,192,147357,1,4,0:0:0:0:
109,192,147357,1,2,0:0:0:0:
402,192,147436,1,0,0:0:0:0:
475,192,147436,1,2,0:0:0:0:
109,192,147515,1,0,0:0:0:0:
329,192,147515,1,0,0:0:0:0:
182,192,147515,1,2,0:0:0:0:
36,192,147673,1,0,0:0:0:0:
475,192,147673,1,8,0:0:0:0:
256,192,147673,1,2,0:0:0:0:
329,192,147752,1,0,0:0:0:0:
402,192,147752,1,0,0:0:0:0:
182,192,147752,1,2,0:0:0:0:
256,192,147831,1,0,0:0:0:0:
109,192,147831,1,0,0:0:0:0:
36,192,147831,1,2,0:0:0:0:
475,192,147989,1,0,0:0:0:30:LR4_SnareKKF.wav
182,192,147989,1,4,0:0:0:0:
256,192,148015,1,0,0:0:0:30:LR4_SnareKKF.wav
329,192,148041,1,0,0:0:0:30:LR4_SnareKKF.wav
402,192,148068,1,0,0:0:0:30:LR4_SnareKKF.wav
109,192,148147,1,0,0:0:0:0:
36,192,148147,1,0,0:0:0:30:LR4_SnareKKF.wav
182,192,148173,1,0,0:0:0:30:LR4_SnareKKF.wav
256,192,148199,1,0,0:0:0:30:LR4_SnareKKF.wav
329,192,148226,1,0,0:0:0:30:LR4_SnareKKF.wav
402,192,148305,1,0,0:0:0:0:
475,192,148305,1,0,0:0:0:0:
109,192,148305,1,2,0:0:0:0:
36,192,148305,1,8,0:0:0:0:
329,192,148384,1,0,0:0:0:0:
256,192,148384,1,0,0:0:0:0:
182,192,148384,1,2,0:0:0:0:
109,192,148462,1,0,0:0:0:0:
36,192,148462,1,0,0:0:0:0:
475,192,148462,1,2,0:0:0:0:
256,192,148541,1,0,0:0:0:0:
329,192,148541,1,0,0:0:0:0:
402,192,148541,1,2,0:0:0:0:
109,192,148620,1,0,0:0:0:0:
182,192,148620,1,0,0:0:0:0:
475,192,148620,1,2,0:0:0:0:
36,192,148620,1,4,0:0:0:0:
36,192,148778,1,0,0:0:0:0:
182,192,148778,1,0,0:0:0:0:
402,192,148778,1,0,0:0:0:0:
329,192,148778,1,0,0:0:0:0:
256,192,148778,1,2,0:0:0:0:
475,192,148778,1,4,0:0:0:0:
475,192,148936,1,0,0:0:0:0:
36,192,148936,1,0,0:0:0:0:
109,192,148936,1,0,0:0:0:0:
182,192,148936,1,8,0:0:0:0:
329,192,148936,1,2,0:0:0:0:
256,192,148936,1,4,0:0:0:0:
329,192,149094,1,0,0:0:0:0:
109,192,149094,1,0,0:0:0:0:
36,192,149094,1,2,0:0:0:0:
256,192,149094,1,4,0:0:0:0:
475,192,149173,1,0,0:0:0:0:
182,192,149173,1,0,0:0:0:0:
402,192,149173,1,2,0:0:0:0:
329,192,149252,1,0,0:0:0:0:
256,192,149252,1,0,0:0:0:0:
36,192,149252,1,2,0:0:0:0:
109,192,149252,1,4,0:0:0:0:
109,192,149410,1,0,0:0:0:0:
36,192,149410,1,0,0:0:0:0:
182,192,149410,1,0,0:0:0:0:
402,192,149410,1,0,0:0:0:0:
475,192,149410,1,4,0:0:0:0:
256,192,149410,1,2,0:0:0:0:
109,192,149568,1,0,0:0:0:0:
36,192,149568,1,0,0:0:0:0:
329,192,149568,1,0,0:0:0:0:
475,192,149568,1,8,0:0:0:0:
256,192,149568,1,2,0:0:0:0:
402,192,149568,1,4,0:0:0:0:
329,192,149726,1,0,0:0:0:0:
182,192,149726,1,0,0:0:0:0:
475,192,149726,1,2,0:0:0:0:
402,192,149726,1,4,0:0:0:0:
109,192,149805,1,0,0:0:0:0:
36,192,149805,1,0,0:0:0:0:
256,192,149805,1,2,0:0:0:0:
402,192,149884,1,0,0:0:0:0:
475,192,149884,1,0,0:0:0:0:
182,192,149884,1,4,0:0:0:0:
329,192,149884,1,2,0:0:0:0:
36,192,150041,1,0,0:0:0:0:
256,192,150041,1,0,0:0:0:0:
402,192,150041,1,0,0:0:0:0:
109,192,150041,1,2,0:0:0:0:
329,192,150120,1,0,0:0:0:0:
475,192,150120,1,0,0:0:0:0:
182,192,150120,1,2,0:0:0:0:
109,192,150199,1,0,0:0:0:0:
36,192,150199,1,8,0:0:0:0:
402,192,150199,1,2,0:0:0:0:
256,192,150199,1,4,0:0:0:0:
475,192,150357,1,0,0:0:0:0:
329,192,150357,1,0,0:0:0:0:
402,192,150357,1,2,0:0:0:0:
36,192,150436,1,0,0:0:0:0:
109,192,150436,1,0,0:0:0:0:
182,192,150436,1,2,0:0:0:0:
329,192,150515,1,0,0:0:0:0:
475,192,150515,1,0,0:0:0:30:LR4_SnareKKF.wav
402,192,150515,1,4,0:0:0:0:
256,192,150568,1,0,0:0:0:30:LR4_SnareKKF.wav
182,192,150620,1,0,0:0:0:30:LR4_SnareKKF.wav
109,192,150673,1,0,0:0:0:0:
475,192,150673,1,0,0:0:0:0:
36,192,150673,1,2,0:0:0:0:
329,192,150752,1,0,0:0:0:0:
402,192,150752,1,2,0:0:0:0:
36,192,150831,1,0,0:0:0:30:LR4_SnareKKF.wav
475,192,150831,1,4,0:0:0:0:
109,192,150857,1,0,0:0:0:30:LR4_SnareKKF.wav
182,192,150884,1,0,0:0:0:30:LR4_SnareKKF.wav
256,192,150910,1,0,0:0:0:30:LR4_SnareKKF.wav
475,192,150989,1,0,0:0:0:30:LR4_SnareKKF.wav
36,192,150989,1,4,0:0:0:0:
402,192,151015,1,0,0:0:0:30:LR4_SnareKKF.wav
329,192,151041,1,0,0:0:0:30:LR4_SnareKKF.wav
256,192,151068,1,0,0:0:0:30:LR4_SnareKKF.wav
182,192,151147,1,0,0:0:0:0:
109,192,151147,1,0,0:0:0:0:
475,192,151147,1,2,0:0:0:0:
402,192,151147,1,4,0:0:0:0:
329,192,151226,1,0,0:0:0:0:
256,192,151226,1,0,0:0:0:0:
36,192,151226,1,2,0:0:0:0:
109,192,151305,1,0,0:0:0:0:
182,192,151305,1,0,0:0:0:0:
475,192,151305,1,2,0:0:0:0:
329,192,151384,1,0,0:0:0:0:
402,192,151384,1,2,0:0:0:0:
256,192,151462,1,0,0:0:0:0:
109,192,151462,1,0,0:0:0:0:
36,192,151462,1,8,0:0:0:0:
475,192,151462,1,2,0:0:0:0:
402,192,151541,1,0,0:0:0:0:
182,192,151541,1,0,0:0:0:0:
329,192,151541,1,2,0:0:0:0:
475,192,151620,1,0,0:0:0:0:
36,192,151620,1,0,0:0:0:0:
256,192,151620,1,2,0:0:0:0:
109,192,151620,1,4,0:0:0:0:
36,192,151778,1,0,0:0:0:0:
182,192,151778,1,0,0:0:0:0:
475,192,151778,1,2,0:0:0:0:
402,192,151778,1,4,0:0:0:0:
109,192,151857,1,0,0:0:0:0:
329,192,151857,1,0,0:0:0:0:
256,192,151857,1,2,0:0:0:0:
182,192,151936,1,0,0:0:0:0:
36,192,151936,1,0,0:0:0:0:
475,192,151936,1,2,0:0:0:0:
402,192,152015,1,0,0:0:0:0:
329,192,152015,1,2,0:0:0:0:
109,192,152094,1,0,0:0:0:0:
36,192,152094,1,0,0:0:0:0:
182,192,152094,1,8,0:0:0:0:
256,192,152094,1,2,0:0:0:0:
329,192,152173,1,0,0:0:0:0:
402,192,152173,1,0,0:0:0:0:
475,192,152173,1,2,0:0:0:0:
182,192,152252,1,0,0:0:0:0:
256,192,152252,1,0,0:0:0:0:
109,192,152252,1,2,0:0:0:0:
36,192,152252,1,4,0:0:0:0:
109,192,152410,1,0,0:0:0:0:
182,192,152410,1,0,0:0:0:0:
402,192,152410,1,4,0:0:0:0:
475,192,152410,1,2,0:0:0:0:
329,192,152489,1,0,0:0:0:0:
256,192,152489,1,0,0:0:0:0:
36,192,152489,1,2,0:0:0:0:
402,192,152568,1,0,0:0:0:0:
182,192,152568,1,0,0:0:0:0:
109,192,152568,1,0,0:0:0:0:
475,192,152568,1,2,0:0:0:0:
329,192,152726,1,0,0:0:0:0:
402,192,152726,1,8,0:0:0:0:
109,192,152726,1,2,0:0:0:0:
36,192,152726,1,4,0:0:0:0:
182,192,152805,1,0,0:0:0:0:
256,192,152805,1,0,0:0:0:0:
475,192,152805,1,2,0:0:0:0:
36,192,152884,1,0,0:0:0:0:
402,192,152884,1,0,0:0:0:0:
329,192,152884,1,0,0:0:0:0:
109,192,152884,1,2,0:0:0:0:
329,192,153041,1,0,0:0:0:30:LR4_SnareKKF.wav
36,192,153041,1,4,0:0:0:0:
402,192,153094,1,0,0:0:0:0:
109,192,153094,1,0,0:0:0:30:LR4_SnareKKF.wav
182,192,153147,1,0,0:0:0:0:
475,192,153147,1,0,0:0:0:30:LR4_SnareKKF.wav
256,192,153199,1,0,0:0:0:0:
329,192,153199,1,0,0:0:0:0:
36,192,153199,1,2,0:0:0:0:
109,192,153278,1,0,0:0:0:0:
402,192,153278,1,2,0:0:0:0:
475,192,153357,1,0,0:0:0:0:
182,192,153357,1,0,0:0:0:0:
256,192,153357,1,8,0:0:0:0:
329,192,153357,1,2,0:0:0:0:
36,192,153357,1,4,0:0:0:0:
475,192,153515,1,0,0:0:0:0:
329,192,153515,1,0,0:0:0:0:
402,192,153515,1,0,0:0:0:0:
182,192,153515,1,2,0:0:0:0:
109,192,153594,1,0,0:0:0:0:
36,192,153673,1,0,0:0:0:0:
256,192,153673,1,0,0:0:0:0:
329,192,153673,1,0,0:0:0:0:
402,192,153673,1,0,0:0:0:0:
182,192,153673,1,2,0:0:0:0:
475,192,153673,1,4,0:0:0:0:
329,192,153831,1,0,0:0:0:0:
109,192,153831,1,0,0:0:0:0:
36,192,153831,1,0,0:0:0:0:
182,192,153831,1,2,0:0:0:0:
402,192,153910,1,0,0:0:0:0:
475,192,153989,1,0,0:0:0:0:
329,192,153989,1,0,0:0:0:0:
36,192,153989,1,0,0:0:0:0:
256,192,153989,1,8,0:0:0:0:
109,192,153989,1,2,0:0:0:0:
182,192,153989,1,4,0:0:0:0:
329,192,154147,1,0,0:0:0:0:
109,192,154147,1,0,0:0:0:0:
475,192,154147,1,0,0:0:0:0:
36,192,154147,1,2,0:0:0:0:
182,192,154226,1,0,0:0:0:0:
329,192,154305,1,0,0:0:0:0:
36,192,154305,1,0,0:0:0:0:
402,192,154305,1,0,0:0:0:0:
475,192,154305,1,0,0:0:0:0:
109,192,154305,1,4,0:0:0:0:
256,192,154305,1,2,0:0:0:0:
36,192,154462,1,0,0:0:0:0:
402,192,154462,1,0,0:0:0:0:
475,192,154462,1,0,0:0:0:0:
182,192,154462,1,2,0:0:0:0:
329,192,154541,1,0,0:0:0:0:
475,192,154620,1,0,0:0:0:0:
109,192,154620,1,0,0:0:0:0:
36,192,154620,1,0,0:0:0:0:
402,192,154620,1,8,0:0:0:0:
182,192,154620,1,2,0:0:0:0:
256,192,154620,1,4,0:0:0:0:
329,192,154778,1,0,0:0:0:0:
182,192,154778,1,0,0:0:0:0:
402,192,154778,1,0,0:0:0:0:
109,192,154778,1,2,0:0:0:0:
256,192,154857,1,0,0:0:0:0:
402,192,154936,1,0,0:0:0:0:
109,192,154936,1,0,0:0:0:0:
36,192,154936,1,0,0:0:0:0:
329,192,154936,1,0,0:0:0:0:
475,192,154936,1,4,0:0:0:0:
182,192,154936,1,2,0:0:0:0:
36,192,155173,1,0,0:0:0:0:
109,192,155173,1,0,0:0:0:0:
182,192,155173,1,0,0:0:0:0:
256,192,155173,1,0,0:0:0:0:
329,192,155173,1,4,0:0:0:0:
475,192,155173,1,2,0:0:0:0:
475,192,155410,1,0,0:0:0:0:
329,192,155410,1,0,0:0:0:0:
402,192,155410,1,0,0:0:0:0:
182,192,155410,1,0,0:0:0:0:
256,192,155410,1,2,0:0:0:0:
36,192,155410,1,4,0:0:0:0:
182,192,155647,1,0,0:0:0:0:
109,192,155647,1,0,0:0:0:0:
475,192,155647,1,0,0:0:0:0:
256,192,155647,1,0,0:0:0:0:
329,192,155647,1,2,0:0:0:0:
36,192,155647,1,4,0:0:0:0:
402,192,155884,1,0,0:0:0:0:
329,192,155884,1,0,0:0:0:0:
475,192,155884,1,0,0:0:0:0:
36,192,155884,1,0,0:0:0:0:
256,192,155884,1,2,0:0:0:0:
109,192,155884,1,4,0:0:0:0:
36,192,156041,1,0,0:0:0:0:
475,192,156041,1,0,0:0:0:0:
109,192,156041,1,0,0:0:0:0:
256,192,156041,1,0,0:0:0:0:
402,192,156041,1,2,0:0:0:0:
182,192,156041,1,4,0:0:0:0:
475,192,156199,1,0,0:0:0:0:
182,192,156199,1,0,0:0:0:0:
329,192,156199,128,0,157462:0:0:0:100:twinkling.wav
36,192,156199,1,0,0:0:0:70:LR_CymbalWWT.wav
256,192,157147,1,0,0:0:0:0:
109,192,157305,1,0,0:0:0:0:
36,192,157462,1,0,0:0:0:0:
475,192,157462,1,0,0:0:0:0:
182,192,157462,128,0,158726:0:0:0:0:
329,192,158410,1,0,0:0:0:0:
402,192,158726,128,0,159989:0:0:0:0:
256,192,158726,1,0,0:0:0:0:
475,192,158726,1,0,0:0:0:0:
329,192,159515,1,0,0:0:0:0:
256,192,159673,1,0,0:0:0:0:
182,192,159831,1,0,0:0:0:0:
109,192,159989,128,0,161252:0:0:0:0:
36,192,159989,1,0,0:0:0:0:
475,192,159989,1,0,0:0:0:0:
256,192,160778,1,0,0:0:0:0:
329,192,160936,1,0,0:0:0:0:
402,192,161094,1,0,0:0:0:0:
475,192,161252,128,0,162515:0:0:0:0:
182,192,161252,1,0,0:0:0:0:
36,192,161252,1,0,0:0:0:0:
329,192,161410,1,0,0:0:0:0:
329,192,161726,1,0,0:0:0:0:
256,192,162041,1,0,0:0:0:0:
182,192,162199,1,0,0:0:0:0:
109,192,162357,1,0,0:0:0:0:
256,192,162515,1,0,0:0:0:0:
402,192,162515,1,0,0:0:0:0:
36,192,162515,128,0,163778:0:0:0:0:
329,192,162831,1,0,0:0:0:0:
402,192,163147,1,0,0:0:0:0:
475,192,163462,1,0,0:0:0:0:
256,192,163778,128,0,165041:0:0:0:0:
402,192,163778,1,0,0:0:0:0:
109,192,163778,1,0,0:0:0:0:
36,192,165041,1,0,0:0:0:0:
329,192,165041,1,0,0:0:0:0:
182,192,165041,128,0,166305:0:0:0:0:
36,192,165673,128,0,166305:0:0:0:0:
402,192,166305,1,0,0:0:0:0:
475,192,166305,1,0,0:0:0:0:
329,192,166305,128,0,167568:0:0:0:0:
109,192,167252,1,0,0:0:0:0:
182,192,167410,1,0,0:0:0:0:
402,192,167568,128,0,168831:0:0:0:0:
256,192,167568,1,0,0:0:0:0:
475,192,167568,1,0,0:0:0:0:
329,192,168515,1,0,0:0:0:0:
182,192,168831,1,0,0:0:0:0:
475,192,168831,128,0,170094:0:0:0:0:
36,192,168831,1,0,0:0:0:0:
402,192,169620,1,0,0:0:0:0:
256,192,169778,1,0,0:0:0:0:
109,192,169936,1,0,0:0:0:0:
36,192,170094,128,0,171357:0:0:0:0:
182,192,170094,1,0,0:0:0:0:
329,192,170094,1,0,0:0:0:0:
109,192,170726,128,0,171357:0:0:0:0:
329,192,170884,1,0,0:0:0:0:
475,192,171041,1,0,0:0:0:0:
182,192,171041,128,0,171357:0:0:0:0:
402,192,171199,1,0,0:0:0:0:
329,192,171357,1,0,0:0:0:0:
475,192,171357,1,0,0:0:0:0:
256,192,171357,128,0,171989:0:0:0:0:
36,192,171831,1,0,0:0:0:0:
475,192,171989,128,0,172620:0:0:0:0:
109,192,172147,1,0,0:0:0:0:
329,192,172305,128,0,172620:0:0:0:0:
182,192,172305,1,0,0:0:0:0:
36,192,172462,1,0,0:0:0:0:
182,192,172620,128,0,173252:0:0:0:0:
109,192,172620,1,0,0:0:0:0:
402,192,172620,1,0,0:0:0:0:
36,192,172936,128,0,173252:0:0:0:0:
329,192,172936,1,0,0:0:0:0:
402,192,173252,1,0,0:0:0:0:
256,192,173252,128,0,173884:0:0:0:0:
109,192,173568,1,0,0:0:0:0:
109,192,173884,1,0,0:0:0:0:
36,192,173884,1,0,0:0:0:0:
475,192,173884,1,4,0:0:0:0:
182,192,173884,1,0,0:0:0:30:LR4_SnareKKF.wav
402,192,173923,1,0,0:0:0:30:LR4_SnareKKF.wav
329,192,173962,1,0,0:0:0:30:LR4_SnareKKF.wav
256,192,174002,1,0,0:0:0:30:LR4_SnareKKF.wav
182,192,174041,1,0,0:0:0:0:
475,192,174041,1,0,0:0:0:0:
36,192,174041,1,2,0:0:0:0:
109,192,174120,1,0,0:0:0:0:
329,192,174120,1,0,0:0:0:0:
402,192,174120,1,2,0:0:0:0:
256,192,174199,1,0,0:0:0:0:
475,192,174199,1,0,0:0:0:0:
36,192,174199,1,2,0:0:0:0:
329,192,174278,1,0,0:0:0:0:
182,192,174278,1,2,0:0:0:0:
36,192,174357,1,0,0:0:0:0:
402,192,174357,1,4,0:0:0:0:
475,192,174357,1,0,0:0:0:30:LR4_SnareKKF.wav
109,192,174397,1,0,0:0:0:30:LR4_SnareKKF.wav
182,192,174436,1,0,0:0:0:30:LR4_SnareKKF.wav
256,192,174476,1,0,0:0:0:30:LR4_SnareKKF.wav
329,192,174515,1,0,0:0:0:0:
475,192,174515,1,0,0:0:0:0:
402,192,174515,1,2,0:0:0:0:
36,192,174594,1,0,0:0:0:0:
182,192,174594,1,0,0:0:0:0:
109,192,174594,1,2,0:0:0:0:
256,192,174673,1,0,0:0:0:0:
402,192,174673,1,0,0:0:0:0:
475,192,174673,1,2,0:0:0:0:
329,192,174752,1,0,0:0:0:0:
109,192,174752,1,0,0:0:0:0:
36,192,174752,1,2,0:0:0:0:
475,192,174831,1,0,0:0:0:0:
256,192,174831,1,4,0:0:0:0:
402,192,174831,1,0,0:0:0:30:LR4_SnareKKF.wav
182,192,174870,1,0,0:0:0:30:LR4_SnareKKF.wav
109,192,174910,1,0,0:0:0:30:LR4_SnareKKF.wav
36,192,174989,1,0,0:0:0:0:
329,192,174989,1,0,0:0:0:0:
475,192,174989,1,0,0:0:0:30:LR4_SnareKKF.wav
256,192,175028,1,0,0:0:0:30:LR4_SnareKKF.wav
182,192,175068,1,0,0:0:0:30:LR4_SnareKKF.wav
475,192,175147,1,0,0:0:0:0:
329,192,175147,1,0,0:0:0:0:
36,192,175147,1,0,0:0:0:0:
109,192,175147,1,4,0:0:0:0:
402,192,175147,1,2,0:0:0:0:
329,192,175384,1,0,0:0:0:0:
182,192,175384,1,2,0:0:0:0:
256,192,175462,1,0,0:0:0:0:
475,192,175462,1,0,0:0:0:0:
36,192,175462,1,0,0:0:0:0:
402,192,175462,1,2,0:0:0:0:
109,192,175462,1,4,0:0:0:0:
475,192,175699,1,0,0:0:0:0:
36,192,175699,1,0,0:0:0:0:
256,192,175699,1,2,0:0:0:0:
402,192,175778,1,0,0:0:0:0:
182,192,175778,1,0,0:0:0:0:
109,192,175778,1,4,0:0:0:0:
329,192,175778,1,2,0:0:0:0:
256,192,175857,1,0,0:0:0:0:
36,192,175857,1,2,0:0:0:0:
475,192,175857,1,4,0:0:0:0:
402,192,176015,1,0,0:0:0:0:
109,192,176015,1,4,0:0:0:0:
256,192,176015,1,2,0:0:0:0:
475,192,176094,1,0,0:0:0:0:
329,192,176094,1,0,0:0:0:0:
182,192,176094,1,4,0:0:0:0:
36,192,176094,1,2,0:0:0:0:
36,192,176252,1,0,0:0:0:0:
402,192,176252,1,0,0:0:0:0:
256,192,176252,1,0,0:0:0:0:
109,192,176252,1,2,0:0:0:0:
475,192,176252,1,4,0:0:0:0:
36,192,176410,1,0,0:0:0:0:
109,192,176410,1,0,0:0:0:0:
182,192,176410,1,2,0:0:0:0:
329,192,176410,1,0,0:0:0:70:LR_CymbalWWT.wav
475,192,176410,1,0,0:0:0:100:twinkling.wav
402,192,176489,1,0,0:0:0:0:
256,192,176489,1,0,0:0:0:0:
329,192,176568,1,0,0:0:0:0:
182,192,176568,1,0,0:0:0:0:
36,192,176568,1,0,0:0:0:0:
475,192,176647,1,0,0:0:0:0:
402,192,176647,1,0,0:0:0:0:
36,192,176726,1,0,0:0:0:0:
256,192,176726,1,0,0:0:0:0:
109,192,176726,1,8,0:0:0:0:
329,192,176726,1,2,0:0:0:0:
475,192,176805,1,0,0:0:0:0:
402,192,176805,1,0,0:0:0:0:
182,192,176884,1,0,0:0:0:0:
36,192,176884,1,0,0:0:0:0:
256,192,176884,1,0,0:0:0:0:
109,192,176962,1,0,0:0:0:0:
329,192,176962,1,0,0:0:0:0:
402,192,177041,1,0,0:0:0:0:
182,192,177041,1,0,0:0:0:0:
475,192,177041,1,2,0:0:0:0:
109,192,177120,1,0,0:0:0:0:
256,192,177120,1,0,0:0:0:0:
36,192,177199,1,0,0:0:0:0:
475,192,177199,1,0,0:0:0:0:
329,192,177199,1,0,0:0:0:0:
182,192,177278,1,0,0:0:0:0:
256,192,177278,1,0,0:0:0:0:
402,192,177357,1,0,0:0:0:0:
475,192,177357,1,0,0:0:0:0:
36,192,177357,1,8,0:0:0:0:
109,192,177357,1,2,0:0:0:0:
329,192,177436,1,0,0:0:0:0:
256,192,177436,1,0,0:0:0:0:
36,192,177515,1,0,0:0:0:0:
182,192,177515,1,0,0:0:0:0:
475,192,177515,1,0,0:0:0:0:
402,192,177594,1,0,0:0:0:0:
109,192,177594,1,0,0:0:0:0:
329,192,177594,1,0,0:0:0:0:
475,192,177673,1,0,0:0:0:0:
36,192,177673,1,0,0:0:0:0:
256,192,177673,1,2,0:0:0:0:
182,192,177752,1,0,0:0:0:0:
329,192,177752,1,0,0:0:0:0:
475,192,177831,1,0,0:0:0:0:
36,192,177831,1,0,0:0:0:0:
402,192,177831,1,0,0:0:0:0:
109,192,177910,1,0,0:0:0:0:
256,192,177910,1,0,0:0:0:0:
402,192,177989,1,0,0:0:0:0:
36,192,177989,1,0,0:0:0:0:
182,192,177989,1,8,0:0:0:0:
329,192,177989,1,2,0:0:0:0:
475,192,178068,1,0,0:0:0:0:
256,192,178068,1,0,0:0:0:0:
402,192,178147,1,0,0:0:0:0:
329,192,178147,1,0,0:0:0:0:
182,192,178147,1,0,0:0:0:0:
36,192,178226,1,0,0:0:0:0:
109,192,178226,1,0,0:0:0:0:
256,192,178305,1,0,0:0:0:0:
402,192,178305,1,0,0:0:0:0:
475,192,178305,1,2,0:0:0:0:
329,192,178384,1,0,0:0:0:0:
182,192,178384,1,0,0:0:0:0:
109,192,178462,1,0,0:0:0:0:
36,192,178462,1,0,0:0:0:0:
475,192,178462,1,0,0:0:0:0:
256,192,178541,1,0,0:0:0:0:
402,192,178541,1,0,0:0:0:0:
182,192,178620,1,0,0:0:0:0:
329,192,178620,1,0,0:0:0:0:
36,192,178620,1,8,0:0:0:0:
475,192,178620,1,2,0:0:0:0:
109,192,178699,1,0,0:0:0:0:
256,192,178699,1,0,0:0:0:0:
402,192,178778,1,0,0:0:0:0:
182,192,178778,1,0,0:0:0:0:
475,192,178778,1,0,0:0:0:0:
109,192,178857,1,0,0:0:0:0:
329,192,178857,1,0,0:0:0:0:
36,192,178936,1,0,0:0:0:0:
475,192,178936,1,0,0:0:0:0:
256,192,178936,1,2,0:0:0:0:
402,192,179015,1,0,0:0:0:0:
329,192,179015,1,0,0:0:0:0:
109,192,179094,1,0,0:0:0:0:
475,192,179094,1,0,0:0:0:0:
182,192,179094,1,0,0:0:0:0:
256,192,179173,1,0,0:0:0:0:
329,192,179173,1,0,0:0:0:0:
402,192,179252,1,0,0:0:0:0:
109,192,179252,1,0,0:0:0:0:
36,192,179252,1,2,0:0:0:0:
475,192,179252,1,8,0:0:0:0:
182,192,179331,1,0,0:0:0:0:
329,192,179331,1,0,0:0:0:0:
402,192,179410,1,0,0:0:0:0:
109,192,179410,1,0,0:0:0:0:
256,192,179410,1,0,0:0:0:0:
36,192,179489,1,0,0:0:0:0:
475,192,179489,1,0,0:0:0:0:
402,192,179568,1,0,0:0:0:0:
329,192,179568,1,0,0:0:0:0:
182,192,179568,1,2,0:0:0:0:
109,192,179647,1,0,0:0:0:0:
36,192,179647,1,0,0:0:0:0:
475,192,179726,1,0,0:0:0:0:
256,192,179726,1,0,0:0:0:0:
402,192,179726,1,0,0:0:0:0:
329,192,179805,1,0,0:0:0:0:
182,192,179805,1,0,0:0:0:0:
36,192,179884,1,0,0:0:0:0:
256,192,179884,1,0,0:0:0:0:
109,192,179884,1,2,0:0:0:0:
475,192,179884,1,8,0:0:0:0:
329,192,179962,1,0,0:0:0:0:
402,192,179962,1,0,0:0:0:0:
36,192,180041,1,0,0:0:0:0:
475,192,180041,1,0,0:0:0:0:
182,192,180041,1,0,0:0:0:0:
109,192,180120,1,0,0:0:0:0:
256,192,180120,1,0,0:0:0:0:
329,192,180199,1,0,0:0:0:0:
475,192,180199,1,0,0:0:0:0:
36,192,180199,1,2,0:0:0:0:
256,192,180278,1,0,0:0:0:0:
182,192,180278,1,0,0:0:0:0:
402,192,180357,1,0,0:0:0:0:
109,192,180357,1,0,0:0:0:0:
36,192,180357,1,0,0:0:0:0:
256,192,180436,1,0,0:0:0:0:
329,192,180436,1,0,0:0:0:0:
36,192,180515,1,0,0:0:0:0:
182,192,180515,1,0,0:0:0:0:
402,192,180515,1,8,0:0:0:0:
475,192,180515,1,2,0:0:0:0:
256,192,180594,1,0,0:0:0:0:
329,192,180594,1,0,0:0:0:0:
475,192,180673,1,0,0:0:0:0:
109,192,180673,1,0,0:0:0:0:
36,192,180673,1,0,0:0:0:0:
182,192,180752,1,0,0:0:0:0:
402,192,180752,1,0,0:0:0:0:
109,192,180831,1,0,0:0:0:0:
475,192,180831,1,0,0:0:0:0:
329,192,180831,1,2,0:0:0:0:
256,192,180910,1,0,0:0:0:0:
36,192,180910,1,0,0:0:0:0:
475,192,180989,1,0,0:0:0:0:
182,192,180989,1,0,0:0:0:0:
402,192,180989,1,0,0:0:0:0:
329,192,181068,1,0,0:0:0:0:
256,192,181068,1,0,0:0:0:0:
36,192,181147,1,0,0:0:0:0:
475,192,181147,1,0,0:0:0:0:
109,192,181147,1,8,0:0:0:0:
182,192,181147,1,2,0:0:0:0:
402,192,181226,1,0,0:0:0:0:
329,192,181226,1,0,0:0:0:0:
109,192,181305,1,0,0:0:0:0:
36,192,181305,1,0,0:0:0:0:
256,192,181305,1,2,0:0:0:0:
329,192,181384,1,0,0:0:0:0:
402,192,181384,1,0,0:0:0:0:
182,192,181462,1,0,0:0:0:0:
109,192,181462,1,0,0:0:0:0:
475,192,181462,1,4,0:0:0:0:
36,192,181462,1,2,0:0:0:0:
256,192,181541,1,0,0:0:0:0:
329,192,181541,1,0,0:0:0:0:
475,192,181620,1,0,0:0:0:0:
36,192,181620,1,0,0:0:0:0:
182,192,181620,1,0,0:0:0:0:
109,192,181699,1,0,0:0:0:0:
402,192,181699,1,0,0:0:0:0:
329,192,181778,1,0,0:0:0:0:
475,192,181778,1,0,0:0:0:0:
256,192,181778,1,8,0:0:0:0:
36,192,181778,1,2,0:0:0:0:
109,192,181857,1,0,0:0:0:0:
182,192,181857,1,0,0:0:0:0:
402,192,181936,1,0,0:0:0:0:
329,192,181936,1,0,0:0:0:0:
475,192,181936,1,0,0:0:0:0:
256,192,182015,1,0,0:0:0:0:
109,192,182015,1,0,0:0:0:0:
36,192,182094,1,0,0:0:0:0:
475,192,182094,1,0,0:0:0:0:
182,192,182094,1,2,0:0:0:0:
402,192,182173,1,0,0:0:0:0:
329,192,182173,1,0,0:0:0:0:
109,192,182252,1,0,0:0:0:0:
256,192,182252,1,0,0:0:0:0:
36,192,182252,1,0,0:0:0:0:
182,192,182331,1,0,0:0:0:0:
402,192,182331,1,0,0:0:0:0:
329,192,182410,1,0,0:0:0:0:
109,192,182410,1,0,0:0:0:0:
475,192,182410,1,8,0:0:0:0:
36,192,182410,1,2,0:0:0:0:
182,192,182489,1,0,0:0:0:0:
256,192,182489,1,0,0:0:0:0:
475,192,182568,1,0,0:0:0:0:
402,192,182568,1,0,0:0:0:0:
109,192,182568,1,0,0:0:0:0:
329,192,182647,1,0,0:0:0:0:
36,192,182647,1,0,0:0:0:0:
402,192,182726,1,0,0:0:0:0:
475,192,182726,1,0,0:0:0:0:
256,192,182726,1,2,0:0:0:0:
36,192,182805,1,0,0:0:0:0:
182,192,182805,1,0,0:0:0:0:
109,192,182884,1,0,0:0:0:0:
329,192,182884,1,0,0:0:0:0:
475,192,182884,1,0,0:0:0:0:
402,192,182962,1,0,0:0:0:0:
182,192,182962,1,0,0:0:0:0:
475,192,183041,1,0,0:0:0:0:
36,192,183041,1,0,0:0:0:0:
256,192,183041,1,2,0:0:0:0:
109,192,183041,1,8,0:0:0:0:
402,192,183120,1,0,0:0:0:0:
329,192,183120,1,0,0:0:0:0:
182,192,183199,1,0,0:0:0:0:
36,192,183199,1,0,0:0:0:0:
109,192,183199,1,0,0:0:0:0:
475,192,183278,1,0,0:0:0:0:
256,192,183278,1,0,0:0:0:0:
329,192,183357,1,0,0:0:0:0:
402,192,183357,1,0,0:0:0:0:
36,192,183357,1,2,0:0:0:0:
109,192,183436,1,0,0:0:0:0:
182,192,183436,1,0,0:0:0:0:
475,192,183515,1,0,0:0:0:0:
402,192,183515,1,0,0:0:0:0:
36,192,183515,1,0,0:0:0:0:
182,192,183594,1,0,0:0:0:0:
256,192,183594,1,0,0:0:0:0:
475,192,183673,1,0,0:0:0:0:
109,192,183673,1,0,0:0:0:0:
329,192,183673,1,8,0:0:0:0:
36,192,183673,1,2,0:0:0:0:
402,192,183752,1,0,0:0:0:0:
256,192,183752,1,0,0:0:0:0:
36,192,183831,1,0,0:0:0:0:
182,192,183831,1,0,0:0:0:0:
329,192,183831,1,0,0:0:0:0:
256,192,183910,1,0,0:0:0:0:
109,192,183910,1,0,0:0:0:0:
182,192,183989,1,0,0:0:0:0:
402,192,183989,1,0,0:0:0:0:
475,192,183989,1,2,0:0:0:0:
256,192,184068,1,0,0:0:0:0:
329,192,184068,1,0,0:0:0:0:
475,192,184147,1,0,0:0:0:0:
182,192,184147,1,0,0:0:0:0:
109,192,184147,1,0,0:0:0:0:
402,192,184226,1,0,0:0:0:0:
36,192,184226,1,0,0:0:0:0:
475,192,184305,1,0,0:0:0:0:
182,192,184305,1,0,0:0:0:0:
256,192,184305,1,8,0:0:0:0:
329,192,184305,1,2,0:0:0:0:
36,192,184384,1,0,0:0:0:0:
109,192,184384,1,0,0:0:0:0:
329,192,184462,1,0,0:0:0:0:
182,192,184462,1,0,0:0:0:0:
402,192,184462,1,0,0:0:0:0:
475,192,184541,1,0,0:0:0:0:
256,192,184541,1,0,0:0:0:0:
329,192,184620,1,0,0:0:0:0:
36,192,184620,1,0,0:0:0:0:
109,192,184620,1,2,0:0:0:0:
402,192,184699,1,0,0:0:0:0:
182,192,184699,1,0,0:0:0:0:
256,192,184778,1,0,0:0:0:0:
36,192,184778,1,0,0:0:0:0:
475,192,184778,1,0,0:0:0:0:
329,192,184857,1,0,0:0:0:0:
109,192,184857,1,0,0:0:0:0:
182,192,184936,1,0,0:0:0:0:
402,192,184936,1,0,0:0:0:0:
36,192,184936,1,8,0:0:0:0:
475,192,184936,1,2,0:0:0:0:
256,192,185015,1,0,0:0:0:0:
329,192,185015,1,0,0:0:0:0:
475,192,185094,1,0,0:0:0:0:
36,192,185094,1,0,0:0:0:0:
109,192,185094,1,0,0:0:0:0:
182,192,185173,1,0,0:0:0:0:
402,192,185173,1,0,0:0:0:0:
109,192,185252,1,0,0:0:0:0:
329,192,185252,1,0,0:0:0:0:
256,192,185252,1,2,0:0:0:0:
475,192,185331,1,0,0:0:0:0:
36,192,185331,1,0,0:0:0:0:
182,192,185410,1,0,0:0:0:0:
329,192,185410,1,0,0:0:0:0:
402,192,185410,1,0,0:0:0:0:
256,192,185489,1,0,0:0:0:0:
109,192,185489,1,0,0:0:0:0:
402,192,185568,1,0,0:0:0:0:
329,192,185568,1,0,0:0:0:0:
182,192,185568,1,2,0:0:0:0:
36,192,185568,1,8,0:0:0:0:
475,192,185647,1,0,0:0:0:0:
256,192,185647,1,0,0:0:0:0:
36,192,185726,1,0,0:0:0:0:
109,192,185726,1,0,0:0:0:0:
182,192,185726,1,0,0:0:0:0:
475,192,185805,1,0,0:0:0:0:
329,192,185805,1,0,0:0:0:0:
109,192,185884,1,0,0:0:0:0:
256,192,185884,1,0,0:0:0:0:
402,192,185884,1,2,0:0:0:0:
475,192,185962,1,0,0:0:0:0:
329,192,185962,1,0,0:0:0:0:
182,192,186041,1,0,0:0:0:0:
109,192,186041,1,0,0:0:0:0:
36,192,186041,1,2,0:0:0:0:
329,192,186120,1,0,0:0:0:0:
256,192,186120,1,0,0:0:0:0:
109,192,186199,1,0,0:0:0:0:
475,192,186199,1,8,0:0:0:0:
402,192,186199,1,2,0:0:0:0:
36,192,186199,1,4,0:0:0:0:
182,192,186278,1,0,0:0:0:0:
329,192,186278,1,0,0:0:0:0:
256,192,186278,1,2,0:0:0:0:
109,192,186357,1,0,0:0:0:0:
475,192,186357,1,0,0:0:0:0:
36,192,186357,1,2,0:0:0:0:
402,192,186436,1,0,0:0:0:0:
256,192,186436,1,0,0:0:0:0:
329,192,186436,1,2,0:0:0:0:
475,192,186515,1,0,0:0:0:0:
109,192,186515,1,0,0:0:0:0:
36,192,186515,1,4,0:0:0:0:
182,192,186515,1,2,0:0:0:0:
402,192,186594,1,0,0:0:0:0:
329,192,186673,1,0,0:0:0:0:
36,192,186673,1,0,0:0:0:0:
109,192,186673,1,0,0:0:0:0:
402,192,186752,1,0,0:0:0:0:
182,192,186752,1,0,0:0:0:0:
475,192,186831,1,0,0:0:0:0:
256,192,186831,1,0,0:0:0:0:
36,192,186831,1,8,0:0:0:0:
329,192,186831,1,2,0:0:0:0:
182,192,186910,1,0,0:0:0:0:
109,192,186910,1,0,0:0:0:0:
402,192,186989,1,0,0:0:0:0:
36,192,186989,1,0,0:0:0:0:
329,192,186989,1,0,0:0:0:0:
475,192,187068,1,0,0:0:0:0:
256,192,187068,1,0,0:0:0:0:
182,192,187147,1,0,0:0:0:0:
36,192,187147,1,0,0:0:0:0:
109,192,187147,1,2,0:0:0:0:
329,192,187226,1,0,0:0:0:0:
475,192,187226,1,0,0:0:0:0:
256,192,187305,1,0,0:0:0:0:
402,192,187305,1,0,0:0:0:0:
109,192,187305,1,0,0:0:0:0:
182,192,187384,1,0,0:0:0:0:
329,192,187384,1,0,0:0:0:0:
475,192,187462,1,0,0:0:0:0:
109,192,187462,1,0,0:0:0:0:
36,192,187462,1,8,0:0:0:0:
402,192,187462,1,2,0:0:0:0:
329,192,187541,1,0,0:0:0:0:
256,192,187541,1,0,0:0:0:0:
182,192,187620,1,0,0:0:0:0:
36,192,187620,1,0,0:0:0:0:
475,192,187620,1,0,0:0:0:0:
402,192,187699,1,0,0:0:0:0:
329,192,187699,1,0,0:0:0:0:
36,192,187778,1,0,0:0:0:0:
109,192,187778,1,0,0:0:0:0:
256,192,187778,1,2,0:0:0:0:
329,192,187857,1,0,0:0:0:0:
402,192,187857,1,0,0:0:0:0:
182,192,187936,1,0,0:0:0:0:
109,192,187936,1,0,0:0:0:0:
475,192,187936,1,0,0:0:0:0:
256,192,188015,1,0,0:0:0:0:
36,192,188015,1,0,0:0:0:0:
329,192,188094,1,0,0:0:0:0:
402,192,188094,1,0,0:0:0:0:
182,192,188094,1,8,0:0:0:0:
109,192,188094,1,2,0:0:0:0:
256,192,188173,1,0,0:0:0:0:
475,192,188173,1,0,0:0:0:0:
36,192,188252,1,0,0:0:0:0:
329,192,188252,1,0,0:0:0:0:
109,192,188331,1,0,0:0:0:0:
402,192,188331,1,0,0:0:0:0:
182,192,188410,1,0,0:0:0:0:
475,192,188410,1,0,0:0:0:0:
256,192,188410,1,2,0:0:0:0:
109,192,188489,1,0,0:0:0:0:
329,192,188489,1,0,0:0:0:0:
36,192,188568,1,0,0:0:0:0:
402,192,188568,1,0,0:0:0:0:
256,192,188568,1,0,0:0:0:0:
475,192,188647,1,0,0:0:0:0:
182,192,188647,1,0,0:0:0:0:
329,192,188726,1,0,0:0:0:0:
402,192,188726,1,0,0:0:0:0:
36,192,188726,1,8,0:0:0:0:
109,192,188726,1,2,0:0:0:0:
256,192,188805,1,0,0:0:0:0:
182,192,188805,1,0,0:0:0:0:
329,192,188884,1,0,0:0:0:0:
475,192,188884,1,0,0:0:0:0:
182,192,188962,1,0,0:0:0:0:
36,192,188962,1,0,0:0:0:0:
256,192,189041,1,0,0:0:0:0:
109,192,189041,1,0,0:0:0:0:
402,192,189041,1,0,0:0:0:0:
329,192,189041,1,2,0:0:0:0:
475,192,189041,1,4,0:0:0:0:
36,192,189120,1,0,0:0:0:0:
182,192,189120,1,0,0:0:0:0:
329,192,189199,1,0,0:0:0:0:
475,192,189199,1,0,0:0:0:0:
402,192,189199,1,0,0:0:0:0:
256,192,189278,1,0,0:0:0:0:
109,192,189278,1,0,0:0:0:0:
475,192,189357,1,0,0:0:0:0:
402,192,189357,1,0,0:0:0:0:
36,192,189357,1,8,0:0:0:0:
182,192,189357,1,2,0:0:0:0:
256,192,189436,1,0,0:0:0:0:
329,192,189436,1,0,0:0:0:0:
182,192,189515,1,0,0:0:0:0:
109,192,189515,1,0,0:0:0:0:
475,192,189515,1,0,0:0:0:0:
402,192,189594,1,0,0:0:0:0:
36,192,189594,1,0,0:0:0:0:
109,192,189673,1,0,0:0:0:0:
256,192,189673,1,0,0:0:0:0:
329,192,189673,1,2,0:0:0:0:
402,192,189752,1,0,0:0:0:0:
182,192,189752,1,0,0:0:0:0:
256,192,189831,1,0,0:0:0:0:
475,192,189831,1,0,0:0:0:0:
36,192,189831,1,0,0:0:0:0:
109,192,189910,1,0,0:0:0:0:
329,192,189910,1,0,0:0:0:0:
256,192,189989,1,0,0:0:0:0:
475,192,189989,1,0,0:0:0:0:
182,192,189989,1,8,0:0:0:0:
402,192,189989,1,2,0:0:0:0:
109,192,190068,1,0,0:0:0:0:
36,192,190068,1,0,0:0:0:0:
256,192,190147,1,0,0:0:0:0:
329,192,190147,1,0,0:0:0:0:
475,192,190147,1,0,0:0:0:0:
402,192,190226,1,0,0:0:0:0:
182,192,190226,1,0,0:0:0:0:
329,192,190305,1,0,0:0:0:0:
36,192,190305,1,0,0:0:0:0:
475,192,190305,1,0,0:0:0:0:
256,192,190305,1,4,0:0:0:0:
109,192,190305,1,2,0:0:0:0:
182,192,190384,1,0,0:0:0:0:
475,192,190462,1,0,0:0:0:0:
36,192,190462,1,0,0:0:0:0:
256,192,190462,1,0,0:0:0:0:
329,192,190541,1,0,0:0:0:0:
402,192,190541,1,0,0:0:0:0:
36,192,190620,1,0,0:0:0:0:
475,192,190620,1,0,0:0:0:0:
182,192,190620,1,8,0:0:0:0:
109,192,190620,1,2,0:0:0:0:
256,192,190699,1,0,0:0:0:0:
329,192,190699,1,0,0:0:0:0:
402,192,190778,1,0,0:0:0:0:
475,192,190778,1,0,0:0:0:0:
36,192,190778,1,0,0:0:0:0:
329,192,190857,1,0,0:0:0:0:
182,192,190857,1,0,0:0:0:0:
402,192,190936,1,0,0:0:0:0:
36,192,190936,1,0,0:0:0:0:
109,192,190936,1,0,0:0:0:0:
256,192,190936,1,4,0:0:0:0:
475,192,190936,1,2,0:0:0:0:
182,192,191015,1,0,0:0:0:0:
402,192,191094,1,0,0:0:0:0:
109,192,191094,1,0,0:0:0:0:
329,192,191094,1,2,0:0:0:0:
256,192,191173,1,0,0:0:0:0:
475,192,191252,1,0,0:0:0:0:
182,192,191252,1,0,0:0:0:0:
109,192,191252,1,2,0:0:0:0:
36,192,191252,1,8,0:0:0:0:
402,192,191252,1,4,0:0:0:0:
256,192,191331,1,0,0:0:0:0:
402,192,191410,1,0,0:0:0:0:
36,192,191410,1,0,0:0:0:0:
329,192,191410,1,2,0:0:0:0:
182,192,191489,1,0,0:0:0:0:
109,192,191489,1,0,0:0:0:0:
475,192,191489,1,2,0:0:0:0:
329,192,191568,1,0,0:0:0:0:
256,192,191568,1,0,0:0:0:0:
36,192,191568,1,4,0:0:0:0:
402,192,191568,1,0,0:0:0:50:LR_Snare Low Wet.wav
182,192,191647,1,0,0:0:0:0:
109,192,191647,1,0,0:0:0:0:
329,192,191726,1,0,0:0:0:0:
475,192,191726,1,0,0:0:0:0:
402,192,191726,1,0,0:0:0:0:
36,192,191805,1,0,0:0:0:0:
182,192,191805,1,0,0:0:0:0:
109,192,191884,1,0,0:0:0:0:
475,192,191884,1,0,0:0:0:0:
402,192,191884,1,0,0:0:0:50:LR_Snare Low Wet.wav
256,192,191884,1,8,0:0:0:0:
329,192,191962,1,0,0:0:0:0:
182,192,191962,1,0,0:0:0:0:
109,192,192041,1,0,0:0:0:0:
475,192,192041,1,0,0:0:0:0:
36,192,192041,1,0,0:0:0:0:
329,192,192120,1,0,0:0:0:0:
402,192,192120,1,0,0:0:0:0:
475,192,192199,1,0,0:0:0:0:
182,192,192199,1,0,0:0:0:0:
36,192,192199,1,0,0:0:0:0:
256,192,192199,1,0,0:0:0:50:LR_Snare Low Wet.wav
329,192,192278,1,0,0:0:0:0:
109,192,192278,1,0,0:0:0:0:
256,192,192357,1,0,0:0:0:0:
475,192,192357,1,0,0:0:0:0:
182,192,192357,1,0,0:0:0:0:
402,192,192357,1,0,0:0:0:50:LR_Snare Low Wet.wav
109,192,192436,1,0,0:0:0:0:
36,192,192436,1,0,0:0:0:0:
402,192,192515,1,0,0:0:0:0:
256,192,192515,1,0,0:0:0:0:
329,192,192515,1,0,0:0:0:50:LR_Snare Low Wet.wav
475,192,192515,1,8,0:0:0:0:
182,192,192594,1,0,0:0:0:0:
109,192,192594,1,0,0:0:0:0:
36,192,192673,1,0,0:0:0:0:
402,192,192673,1,0,0:0:0:0:
475,192,192673,1,0,0:0:0:0:
256,192,192673,1,0,0:0:0:50:LR_Snare Low Wet.wav
182,192,192752,1,0,0:0:0:0:
329,192,192752,1,0,0:0:0:0:
109,192,192831,1,0,0:0:0:0:
36,192,192831,1,0,0:0:0:0:
402,192,192831,1,0,0:0:0:50:LR_Snare Low Wet.wav
475,192,192831,1,4,0:0:0:0:
329,192,192910,1,0,0:0:0:0:
256,192,192910,1,0,0:0:0:0:
36,192,192989,1,0,0:0:0:0:
182,192,192989,1,0,0:0:0:0:
475,192,192989,1,0,0:0:0:0:
402,192,193068,1,0,0:0:0:0:
329,192,193068,1,0,0:0:0:0:
256,192,193147,1,0,0:0:0:0:
475,192,193147,1,0,0:0:0:0:
36,192,193147,1,0,0:0:0:50:LR_Snare Low Wet.wav
182,192,193147,1,8,0:0:0:0:
109,192,193226,1,0,0:0:0:0:
402,192,193226,1,0,0:0:0:0:
36,192,193305,1,0,0:0:0:0:
329,192,193305,1,0,0:0:0:0:
256,192,193305,1,0,0:0:0:0:
182,192,193384,1,0,0:0:0:0:
475,192,193384,1,0,0:0:0:0:
36,192,193462,1,0,0:0:0:0:
329,192,193462,1,0,0:0:0:0:
109,192,193462,1,0,0:0:0:50:LR_Snare Low Wet.wav
402,192,193462,1,4,0:0:0:0:
182,192,193541,1,0,0:0:0:0:
256,192,193541,1,0,0:0:0:0:
402,192,193620,1,0,0:0:0:0:
475,192,193620,1,0,0:0:0:0:
36,192,193620,1,0,0:0:0:50:LR_Snare Low Wet.wav
109,192,193699,1,0,0:0:0:0:
329,192,193699,1,0,0:0:0:0:
182,192,193699,1,0,0:0:0:50:LR_Snare Low Wet.wav
36,192,193778,1,0,0:0:0:0:
402,192,193778,1,4,0:0:0:0:
256,192,193778,1,8,0:0:0:0:
475,192,193778,1,0,0:0:0:50:LR_Snare Low Wet.wav
329,192,193857,1,0,0:0:0:0:
182,192,193857,1,0,0:0:0:0:
109,192,193936,1,0,0:0:0:0:
36,192,193936,1,0,0:0:0:0:
475,192,193936,1,0,0:0:0:0:
402,192,194015,1,0,0:0:0:0:
256,192,194015,1,0,0:0:0:0:
182,192,194094,1,0,0:0:0:0:
475,192,194094,1,0,0:0:0:0:
36,192,194094,1,0,0:0:0:50:LR_Snare Low Wet.wav
109,192,194094,1,4,0:0:0:0:
329,192,194173,1,0,0:0:0:0:
36,192,194252,1,0,0:0:0:0:
475,192,194252,1,0,0:0:0:0:
256,192,194252,1,0,0:0:0:0:
109,192,194252,1,0,0:0:0:50:LR_Snare Low Wet.wav
402,192,194331,1,0,0:0:0:0:
36,192,194410,1,0,0:0:0:0:
182,192,194410,1,0,0:0:0:0:
329,192,194410,1,0,0:0:0:0:
475,192,194410,1,0,0:0:0:50:LR_Snare Low Wet.wav
109,192,194489,1,0,0:0:0:0:
475,192,194568,1,0,0:0:0:0:
256,192,194568,1,0,0:0:0:0:
36,192,194568,1,0,0:0:0:0:
402,192,194568,1,0,0:0:0:50:LR_Snare Low Wet.wav
182,192,194647,1,0,0:0:0:0:
475,192,194726,1,0,0:0:0:0:
402,192,194726,1,0,0:0:0:50:LR_Snare Low Wet.wav
109,192,194726,1,2,0:0:0:0:
36,192,194726,1,4,0:0:0:0:
182,192,194805,1,0,0:0:0:0:
256,192,194805,1,0,0:0:0:0:
329,192,194805,1,0,0:0:0:50:LR_Snare Low Wet.wav
109,192,194884,1,0,0:0:0:0:
36,192,194884,1,0,0:0:0:50:LR_Snare Low Wet.wav
475,192,194884,1,2,0:0:0:0:
329,192,194962,1,0,0:0:0:0:
402,192,194962,1,0,0:0:0:0:
256,192,194962,1,0,0:0:0:50:LR_Snare Low Wet.wav
36,192,195041,1,0,0:0:0:50:LR_Snare Low Wet.wav
475,192,195041,1,2,0:0:0:0:
182,192,195041,1,4,0:0:0:0:
109,192,195120,1,0,0:0:0:0:
329,192,195120,1,0,0:0:0:0:
256,192,195120,1,0,0:0:0:50:LR_Snare Low Wet.wav
182,192,195199,1,0,0:0:0:0:
402,192,195199,1,0,0:0:0:50:LR_Snare Low Wet.wav
475,192,195199,1,2,0:0:0:0:
109,192,195278,1,0,0:0:0:0:
329,192,195278,1,0,0:0:0:50:LR_Snare Low Wet.wav
475,192,195357,1,0,0:0:0:0:
182,192,195357,1,0,0:0:0:0:
256,192,195357,1,0,0:0:0:0:
36,192,195357,1,2,0:0:0:0:
402,192,195357,1,4,0:0:0:0:
329,192,195594,1,0,0:0:0:0:
182,192,195594,1,0,0:0:0:0:
475,192,195594,1,2,0:0:0:0:
36,192,195673,1,0,0:0:0:0:
256,192,195673,1,0,0:0:0:0:
402,192,195673,1,2,0:0:0:0:
109,192,195673,1,4,0:0:0:0:
109,192,195910,1,0,0:0:0:0:
256,192,195910,1,0,0:0:0:0:
402,192,195910,1,2,0:0:0:0:
475,192,195989,1,0,0:0:0:0:
36,192,195989,1,0,0:0:0:0:
182,192,195989,1,2,0:0:0:0:
329,192,195989,1,4,0:0:0:0:
256,192,196068,1,0,0:0:0:0:
402,192,196068,1,2,0:0:0:0:
109,192,196068,1,4,0:0:0:0:
329,192,196226,1,0,0:0:0:0:
182,192,196226,1,2,0:0:0:0:
36,192,196226,1,4,0:0:0:0:
475,192,196305,1,0,0:0:0:0:
402,192,196305,1,0,0:0:0:0:
109,192,196305,1,4,0:0:0:0:
256,192,196305,1,2,0:0:0:0:
182,192,196462,1,0,0:0:0:0:
475,192,196462,1,0,0:0:0:0:
256,192,196462,1,0,0:0:0:0:
36,192,196462,1,2,0:0:0:0:
329,192,196462,1,4,0:0:0:0:
329,192,196620,1,0,0:0:0:0:
182,192,196620,1,0,0:0:0:0:
475,192,196620,1,0,0:0:0:100:twinkling.wav
36,192,196620,1,0,0:0:0:70:LR_CymbalWWT.wav
109,192,196936,1,0,0:0:0:0:
256,192,197041,1,0,0:0:0:0:
182,192,197147,1,0,0:0:0:0:
329,192,197252,1,0,0:0:0:0:
475,192,197252,1,0,0:0:0:0:
329,192,197462,1,0,0:0:0:0:
475,192,197462,1,0,0:0:0:0:
182,192,197568,1,0,0:0:0:0:
36,192,197568,1,0,0:0:0:0:
475,192,197884,1,0,0:0:0:0:
36,192,197884,1,0,0:0:0:0:
182,192,197884,1,0,0:0:0:0:
329,192,197884,1,0,0:0:0:0:
402,192,198199,1,0,0:0:0:0:
256,192,198305,1,0,0:0:0:0:
329,192,198410,1,0,0:0:0:0:
36,192,198515,1,0,0:0:0:0:
182,192,198515,1,0,0:0:0:0:
182,192,198726,1,0,0:0:0:0:
36,192,198726,1,0,0:0:0:0:
329,192,198831,1,0,0:0:0:0:
475,192,198831,1,0,0:0:0:0:
475,192,199147,1,0,0:0:0:0:
329,192,199147,1,0,0:0:0:0:
182,192,199147,1,0,0:0:0:0:
36,192,199147,1,0,0:0:0:0:
109,192,199357,1,0,0:0:0:0:
36,192,199462,1,0,0:0:0:0:
256,192,199462,1,0,0:0:0:0:
402,192,199462,1,0,0:0:0:0:
256,192,199673,1,0,0:0:0:0:
36,192,199778,1,0,0:0:0:0:
182,192,199778,1,0,0:0:0:0:
402,192,199778,1,0,0:0:0:0:
402,192,199989,1,0,0:0:0:0:
256,192,200094,1,0,0:0:0:0:
475,192,200094,1,0,0:0:0:0:
109,192,200094,1,0,0:0:0:0:
256,192,200305,1,0,0:0:0:0:
402,192,200410,1,0,0:0:0:0:
36,192,200410,1,0,0:0:0:0:
109,192,200410,1,0,0:0:0:0:
182,192,200515,1,0,0:0:0:0:
256,192,200620,1,0,0:0:0:0:
475,192,200726,1,0,0:0:0:0:
36,192,200726,1,0,0:0:0:0:
329,192,200726,1,0,0:0:0:0:
109,192,200831,1,0,0:0:0:0:
182,192,200936,1,0,0:0:0:0:
475,192,201041,1,0,0:0:0:0:
256,192,201041,1,0,0:0:0:0:
36,192,201041,1,0,0:0:0:0:
329,192,201147,1,0,0:0:0:0:
182,192,201252,1,0,0:0:0:0:
475,192,201357,1,0,0:0:0:0:
36,192,201357,1,0,0:0:0:0:
402,192,201357,1,0,0:0:0:0:
256,192,201462,1,0,0:0:0:0:
402,192,201568,1,0,0:0:0:0:
36,192,201673,1,0,0:0:0:0:
182,192,201673,1,0,0:0:0:0:
329,192,201673,1,0,0:0:0:0:
329,192,201884,1,0,0:0:0:0:
402,192,201989,1,0,0:0:0:0:
109,192,201989,1,0,0:0:0:0:
256,192,202094,1,0,0:0:0:0:
329,192,202199,1,0,0:0:0:0:
182,192,202305,1,0,0:0:0:0:
36,192,202305,1,0,0:0:0:0:
182,192,202515,1,0,0:0:0:0:
36,192,202515,1,0,0:0:0:0:
475,192,202620,1,0,0:0:0:0:
329,192,202620,1,0,0:0:0:0:
256,192,202831,1,0,0:0:0:0:
329,192,202936,1,0,0:0:0:0:
182,192,202936,1,0,0:0:0:0:
36,192,202936,1,0,0:0:0:0:
475,192,202936,1,0,0:0:0:0:
402,192,203041,1,0,0:0:0:0:
256,192,203147,1,0,0:0:0:0:
109,192,203252,1,0,0:0:0:0:
402,192,203252,1,0,0:0:0:0:
256,192,203357,1,0,0:0:0:0:
182,192,203462,1,0,0:0:0:0:
329,192,203568,1,0,0:0:0:0:
475,192,203568,1,0,0:0:0:0:
109,192,203673,1,0,0:0:0:0:
475,192,203778,1,0,0:0:0:0:
329,192,203778,1,0,0:0:0:0:
182,192,203884,1,0,0:0:0:0:
36,192,203884,1,0,0:0:0:0:
402,192,203989,1,0,0:0:0:0:
256,192,204094,1,0,0:0:0:0:
182,192,204199,1,0,0:0:0:0:
36,192,204199,1,0,0:0:0:0:
329,192,204199,1,0,0:0:0:0:
475,192,204199,1,0,0:0:0:0:
402,192,204410,1,0,0:0:0:0:
109,192,204515,1,0,0:0:0:0:
256,192,204515,1,0,0:0:0:0:
475,192,204515,1,0,0:0:0:0:
256,192,204726,1,0,0:0:0:0:
329,192,204831,1,0,0:0:0:0:
475,192,204831,1,0,0:0:0:0:
109,192,204831,1,0,0:0:0:0:
109,192,205041,1,0,0:0:0:0:
256,192,205147,1,0,0:0:0:0:
36,192,205147,1,0,0:0:0:0:
402,192,205147,1,0,0:0:0:0:
256,192,205357,1,0,0:0:0:0:
475,192,205462,1,0,0:0:0:0:
109,192,205462,1,0,0:0:0:0:
402,192,205462,1,0,0:0:0:0:
182,192,205568,1,0,0:0:0:0:
329,192,205673,1,0,0:0:0:0:
36,192,205778,1,0,0:0:0:0:
475,192,205778,1,0,0:0:0:0:
182,192,205778,1,0,0:0:0:0:
402,192,205884,1,0,0:0:0:0:
329,192,205989,1,0,0:0:0:0:
475,192,206094,1,0,0:0:0:0:
256,192,206094,1,0,0:0:0:0:
36,192,206094,1,0,0:0:0:0:
109,192,206410,1,0,0:0:0:0:
182,192,206410,1,0,0:0:0:0:
402,192,206410,1,0,0:0:0:0:
329,192,206410,1,0,0:0:0:0:
402,192,206726,1,0,0:0:0:0:
256,192,206726,1,0,0:0:0:0:
475,192,206726,128,0,207041:0:0:0:0:
36,192,206726,128,0,207884:0:0:0:0:
182,192,206726,128,0,207041:0:0:0:0:
109,192,206726,128,0,207568:0:0:0:70:LR_CymbalWWT.wav
329,192,207041,128,0,207147:0:0:0:0:
402,192,207147,128,0,207252:0:0:0:0:
256,192,207252,128,0,207357:0:0:0:0:
182,192,207357,128,0,207568:0:0:0:0:
329,192,207357,128,0,207568:0:0:0:0:
475,192,207568,128,0,207884:0:0:0:0:
109,192,207673,128,0,207884:0:0:0:0:
256,192,207673,128,0,207884:0:0:0:0:
475,192,207989,128,0,209147:0:0:0:0:
402,192,207989,128,0,208831:0:0:0:0:
329,192,207989,128,0,208305:0:0:0:0:
182,192,207989,1,0,0:0:0:0:
36,192,207989,1,0,0:0:0:0:
182,192,208305,128,0,208410:0:0:0:0:
109,192,208410,128,0,208515:0:0:0:0:
256,192,208515,128,0,208620:0:0:0:0:
329,192,208620,128,0,208831:0:0:0:0:
182,192,208620,128,0,208831:0:0:0:0:
36,192,208831,128,0,209147:0:0:0:0:
256,192,208936,128,0,209147:0:0:0:0:
402,192,208936,128,0,209147:0:0:0:0:
475,192,209252,128,0,209462:0:0:0:0:
329,192,209252,128,0,209462:0:0:0:0:
36,192,209252,1,0,0:0:0:0:
182,192,209252,1,0,0:0:0:0:
109,192,209462,1,0,0:0:0:0:
36,192,209568,128,0,209778:0:0:0:0:
256,192,209568,1,0,0:0:0:0:
402,192,209568,128,0,209778:0:0:0:0:
256,192,209778,1,0,0:0:0:0:
36,192,209884,128,0,210094:0:0:0:0:
402,192,209884,1,0,0:0:0:0:
182,192,209884,128,0,210094:0:0:0:0:
402,192,210094,1,0,0:0:0:0:
109,192,210199,128,0,210410:0:0:0:0:
256,192,210199,1,0,0:0:0:0:
475,192,210199,128,0,210410:0:0:0:0:
256,192,210410,1,0,0:0:0:0:
109,192,210515,128,0,210726:0:0:0:0:
402,192,210515,128,0,210726:0:0:0:0:
36,192,210515,128,0,210620:0:0:0:0:
182,192,210620,128,0,210831:0:0:0:0:
256,192,210726,128,0,210936:0:0:0:0:
36,192,210831,128,0,210936:0:0:0:0:
329,192,210831,128,0,211041:0:0:0:0:
475,192,210831,128,0,211041:0:0:0:0:
109,192,210936,128,0,211041:0:0:0:0:
182,192,211041,128,0,211147:0:0:0:0:
36,192,211147,1,0,0:0:0:0:
109,192,211147,1,0,0:0:0:0:
475,192,211147,1,4,0:0:0:0:
402,192,211147,1,0,0:0:0:70:LR3_Snare DSW.wav
329,192,211252,1,0,0:0:0:0:
36,192,211357,1,0,0:0:0:0:
475,192,211357,1,0,0:0:0:0:
182,192,211357,1,4,0:0:0:0:
402,192,211357,1,0,0:0:0:70:LR3_Snare DSW.wav
329,192,211462,1,0,0:0:0:0:
109,192,211462,1,0,0:0:0:0:
475,192,211462,1,0,0:0:0:0:
36,192,211462,1,4,0:0:0:0:
256,192,211462,1,0,0:0:0:70:LR3_Snare DSW.wav
182,192,211568,1,0,0:0:0:0:
475,192,211673,1,0,0:0:0:0:
36,192,211673,1,0,0:0:0:0:
256,192,211673,1,4,0:0:0:0:
402,192,211673,1,0,0:0:0:70:LR3_Snare DSW.wav
402,192,211778,1,0,0:0:0:0:
182,192,211778,1,0,0:0:0:0:
329,192,211778,128,0,212094:0:0:0:0:
109,192,211778,128,2,211989:0:0:0:0:
36,192,211778,128,4,211989:0:0:0:0:
475,192,211778,128,0,212094:0:0:0:70:LR3_Snare DSW.wav
109,192,212094,1,0,0:0:0:0:
36,192,212094,1,0,0:0:0:0:
256,192,212094,128,0,212199:0:0:0:0:
182,192,212199,128,0,212305:0:0:0:0:
329,192,212305,128,0,212410:0:0:0:0:
109,192,212410,1,0,0:0:0:0:
36,192,212410,128,0,212620:0:0:0:0:
182,192,212410,128,2,212620:0:0:0:0:
402,192,212410,128,4,212620:0:0:0:0:
475,192,212410,128,0,212620:0:0:0:70:LR3_Snare DSW.wav
329,192,212620,1,0,0:0:0:0:
109,192,212726,128,0,212936:0:0:0:0:
256,192,212726,128,0,212936:0:0:0:0:
475,192,212726,1,0,0:0:0:0:
402,192,212726,1,0,0:0:0:0:
402,192,212936,1,0,0:0:0:0:
475,192,212936,1,0,0:0:0:0:
329,192,212936,1,4,0:0:0:0:
182,192,212936,1,0,0:0:0:70:LR3_Snare DSW.wav
475,192,213041,128,0,213252:0:0:0:0:
36,192,213041,128,0,213252:0:0:0:0:
329,192,213041,128,4,213252:0:0:0:0:
109,192,213041,128,0,213252:0:0:0:70:LR3_Snare DSW.wav
402,192,213041,1,2,0:0:0:0:
256,192,213357,128,0,213462:0:0:0:0:
36,192,213357,1,0,0:0:0:0:
109,192,213357,1,4,0:0:0:0:
402,192,213357,128,0,213568:0:0:0:70:LR3_Snare DSW.wav
475,192,213357,128,2,213568:0:0:0:0:
329,192,213462,128,0,213568:0:0:0:0:
182,192,213568,128,0,213673:0:0:0:0:
475,192,213673,128,0,213884:0:0:0:0:
36,192,213673,128,0,213884:0:0:0:0:
329,192,213673,128,4,213884:0:0:0:0:
402,192,213673,1,0,0:0:0:70:LR3_Snare DSW.wav
109,192,213673,128,2,213884:0:0:0:0:
182,192,213884,1,0,0:0:0:0:
256,192,213989,128,0,214199:0:0:0:0:
402,192,213989,128,0,214199:0:0:0:0:
36,192,213989,1,0,0:0:0:0:
329,192,214199,1,0,0:0:0:0:
109,192,214199,1,0,0:0:0:0:
36,192,214199,1,4,0:0:0:0:
182,192,214199,1,0,0:0:0:70:LR3_Snare DSW.wav
475,192,214305,1,0,0:0:0:0:
402,192,214305,1,0,0:0:0:0:
182,192,214305,1,2,0:0:0:0:
109,192,214305,1,4,0:0:0:0:
36,192,214305,1,0,0:0:0:70:LR3_Snare DSW.wav
475,192,214515,1,0,0:0:0:0:
329,192,214515,1,0,0:0:0:0:
256,192,214515,1,0,0:0:0:0:
36,192,214620,1,0,0:0:0:0:
475,192,214620,1,0,0:0:0:0:
329,192,214620,1,4,0:0:0:0:
109,192,214620,1,0,0:0:0:70:LR3_Snare DSW.wav
182,192,214620,1,2,0:0:0:0:
256,192,214831,1,0,0:0:0:0:
36,192,214831,1,0,0:0:0:0:
182,192,214831,1,0,0:0:0:0:
36,192,214936,1,0,0:0:0:0:
182,192,214936,1,0,0:0:0:0:
402,192,214936,1,4,0:0:0:0:
329,192,214936,1,0,0:0:0:70:LR3_Snare DSW.wav
475,192,214936,1,2,0:0:0:0:
475,192,215147,1,0,0:0:0:0:
329,192,215147,1,0,0:0:0:0:
402,192,215147,1,0,0:0:0:70:LR3_Snare DSW.wav
256,192,215147,1,4,0:0:0:0:
36,192,215252,1,0,0:0:0:0:
182,192,215252,1,0,0:0:0:0:
109,192,215252,1,0,0:0:0:0:
402,192,215252,1,4,0:0:0:0:
475,192,215252,1,0,0:0:0:70:LR3_Snare DSW.wav
329,192,215357,1,0,0:0:0:0:
36,192,215357,1,0,0:0:0:0:
109,192,215357,1,4,0:0:0:0:
256,192,215357,1,0,0:0:0:70:LR3_Snare DSW.wav
475,192,215462,1,0,0:0:0:0:
256,192,215462,1,0,0:0:0:0:
182,192,215462,1,4,0:0:0:0:
402,192,215462,1,0,0:0:0:70:LR3_Snare DSW.wav
402,192,215568,1,0,0:0:0:0:
475,192,215568,1,0,0:0:0:0:
36,192,215568,1,0,0:0:0:0:
109,192,215568,1,0,0:0:0:70:LR3_Snare DSW.wav
182,192,215568,1,4,0:0:0:0:
329,192,215673,1,0,0:0:0:0:
36,192,215673,1,0,0:0:0:0:
109,192,215673,1,0,0:0:0:0:
256,192,215673,1,0,0:0:0:70:LR3_Snare DSW.wav
475,192,215778,1,0,0:0:0:0:
256,192,215778,1,0,0:0:0:0:
402,192,215778,1,0,0:0:0:0:
182,192,215778,1,0,0:0:0:70:LR3_Snare DSW.wav
109,192,215884,1,0,0:0:0:0:
402,192,215884,1,0,0:0:0:0:
36,192,215884,1,0,0:0:0:0:
475,192,215884,1,4,0:0:0:0:
182,192,215884,1,0,0:0:0:70:LR3_Snare DSW.wav
36,192,215989,1,0,0:0:0:0:
109,192,215989,1,0,0:0:0:0:
182,192,215989,1,0,0:0:0:70:LR3_Snare DSW.wav
402,192,216094,1,0,0:0:0:0:
329,192,216094,1,0,0:0:0:0:
475,192,216094,1,0,0:0:0:70:LR3_Snare DSW.wav
36,192,216199,1,0,0:0:0:0:
475,192,216199,1,0,0:0:0:0:
109,192,216199,1,4,0:0:0:0:
402,192,216199,1,0,0:0:0:30:LR4_SnareKKF.wav
329,192,216239,1,0,0:0:0:30:LR4_SnareKKF.wav
256,192,216278,1,0,0:0:0:0:
182,192,216278,1,0,0:0:0:30:LR4_SnareKKF.wav
109,192,216318,1,0,0:0:0:30:LR4_SnareKKF.wav
402,192,216357,1,0,0:0:0:0:
475,192,216357,1,0,0:0:0:0:
36,192,216357,1,0,0:0:0:30:LR4_SnareKKF.wav
329,192,216397,1,0,0:0:0:30:LR4_SnareKKF.wav
182,192,216436,1,0,0:0:0:0:
256,192,216436,1,0,0:0:0:30:LR4_SnareKKF.wav
109,192,216476,1,0,0:0:0:30:LR4_SnareKKF.wav
36,192,216515,1,0,0:0:0:0:
329,192,216515,1,0,0:0:0:0:
402,192,216515,1,4,0:0:0:0:
475,192,216515,1,0,0:0:0:70:LR3_Snare DSW.wav
256,192,216620,1,0,0:0:0:0:
475,192,216620,1,0,0:0:0:70:LR3_Snare DSW.wav
402,192,216620,1,4,0:0:0:0:
109,192,216726,1,0,0:0:0:0:
36,192,216726,1,4,0:0:0:0:
182,192,216726,1,0,0:0:0:70:LR3_Snare DSW.wav
329,192,216831,1,0,0:0:0:0:
182,192,216831,1,0,0:0:0:0:
36,192,216831,1,0,0:0:0:100:twinkling.wav
109,192,216831,1,0,0:0:0:70:LR_CymbalWWT.wav
475,192,216831,1,0,0:0:0:70:LR3_Snare DSW.wav
402,192,216831,1,2,0:0:0:0:
256,192,216936,1,0,0:0:0:0:
182,192,217041,1,0,0:0:0:0:
329,192,217041,1,0,0:0:0:0:
36,192,217041,1,0,0:0:0:0:
475,192,217147,1,0,0:0:0:0:
256,192,217147,1,0,0:0:0:0:
402,192,217147,1,0,0:0:0:0:
109,192,217147,1,2,0:0:0:0:
36,192,217147,1,0,0:0:0:70:LR3_Snare DSW.wav
182,192,217252,1,0,0:0:0:0:
329,192,217252,1,0,0:0:0:0:
475,192,217252,1,0,0:0:0:0:
109,192,217357,1,0,0:0:0:0:
36,192,217357,1,0,0:0:0:0:
256,192,217357,1,0,0:0:0:0:
475,192,217462,1,0,0:0:0:0:
182,192,217462,1,0,0:0:0:0:
402,192,217462,1,0,0:0:0:0:
329,192,217462,1,0,0:0:0:70:LR3_Snare DSW.wav
36,192,217462,1,2,0:0:0:0:
256,192,217568,1,0,0:0:0:0:
329,192,217673,1,0,0:0:0:0:
475,192,217673,1,0,0:0:0:0:
109,192,217673,1,0,0:0:0:0:
182,192,217778,1,0,0:0:0:0:
36,192,217778,1,0,0:0:0:0:
475,192,217778,1,0,0:0:0:0:
402,192,217778,1,0,0:0:0:70:LR3_Snare DSW.wav
329,192,217778,1,2,0:0:0:0:
256,192,217884,1,0,0:0:0:0:
109,192,217989,1,0,0:0:0:0:
182,192,217989,1,0,0:0:0:0:
402,192,217989,1,0,0:0:0:0:
182,192,218094,1,0,0:0:0:0:
36,192,218094,1,0,0:0:0:0:
402,192,218094,1,0,0:0:0:0:
475,192,218094,1,0,0:0:0:70:LR3_Snare DSW.wav
329,192,218094,1,2,0:0:0:0:
256,192,218199,1,0,0:0:0:0:
109,192,218305,1,0,0:0:0:0:
329,192,218305,1,0,0:0:0:0:
402,192,218305,1,0,0:0:0:0:
182,192,218410,1,0,0:0:0:0:
256,192,218410,1,0,0:0:0:0:
402,192,218410,1,0,0:0:0:0:
475,192,218410,1,0,0:0:0:70:LR3_Snare DSW.wav
36,192,218410,1,2,0:0:0:0:
329,192,218515,1,0,0:0:0:0:
36,192,218515,1,0,0:0:0:0:
109,192,218515,1,0,0:0:0:0:
475,192,218620,1,0,0:0:0:0:
256,192,218620,1,0,0:0:0:0:
402,192,218620,1,0,0:0:0:0:
329,192,218726,1,0,0:0:0:0:
475,192,218726,1,0,0:0:0:0:
36,192,218726,1,0,0:0:0:0:
109,192,218726,1,0,0:0:0:70:LR3_Snare DSW.wav
256,192,218726,1,2,0:0:0:0:
182,192,218831,1,0,0:0:0:0:
402,192,218936,1,0,0:0:0:0:
109,192,218936,1,0,0:0:0:0:
36,192,218936,1,0,0:0:0:0:
329,192,219041,1,0,0:0:0:0:
475,192,219041,1,0,0:0:0:0:
256,192,219041,1,0,0:0:0:0:
36,192,219041,1,2,0:0:0:0:
109,192,219041,1,0,0:0:0:70:LR3_Snare DSW.wav
182,192,219147,1,0,0:0:0:0:
402,192,219252,1,0,0:0:0:0:
109,192,219252,1,0,0:0:0:0:
329,192,219252,1,0,0:0:0:0:
475,192,219357,1,0,0:0:0:0:
256,192,219357,1,0,0:0:0:0:
36,192,219357,1,0,0:0:0:0:
329,192,219357,1,0,0:0:0:70:LR3_Snare DSW.wav
182,192,219357,1,2,0:0:0:0:
109,192,219462,1,0,0:0:0:0:
475,192,219568,1,0,0:0:0:0:
402,192,219568,1,0,0:0:0:0:
182,192,219568,1,0,0:0:0:0:
256,192,219673,1,0,0:0:0:0:
475,192,219673,1,0,0:0:0:0:
402,192,219673,1,0,0:0:0:0:
36,192,219673,1,0,0:0:0:70:LR3_Snare DSW.wav
109,192,219673,1,2,0:0:0:0:
329,192,219778,1,0,0:0:0:0:
109,192,219884,1,0,0:0:0:0:
182,192,219884,1,0,0:0:0:0:
36,192,219884,1,0,0:0:0:0:
475,192,219989,1,0,0:0:0:0:
402,192,219989,1,0,0:0:0:0:
109,192,219989,1,0,0:0:0:0:
256,192,219989,1,0,0:0:0:70:LR3_Snare DSW.wav
36,192,219989,1,2,0:0:0:0:
329,192,220094,1,0,0:0:0:0:
182,192,220199,1,0,0:0:0:0:
475,192,220199,1,0,0:0:0:0:
256,192,220199,1,0,0:0:0:0:
475,192,220305,1,0,0:0:0:0:
36,192,220305,1,0,0:0:0:0:
402,192,220305,1,0,0:0:0:0:
109,192,220305,1,0,0:0:0:70:LR3_Snare DSW.wav
256,192,220305,1,2,0:0:0:0:
329,192,220410,1,0,0:0:0:0:
182,192,220515,1,0,0:0:0:0:
475,192,220515,1,0,0:0:0:0:
402,192,220515,1,0,0:0:0:0:
402,192,220620,1,0,0:0:0:0:
475,192,220620,1,0,0:0:0:0:
256,192,220620,1,0,0:0:0:0:
36,192,220620,1,0,0:0:0:70:LR3_Snare DSW.wav
109,192,220620,1,2,0:0:0:0:
36,192,220726,1,0,0:0:0:0:
329,192,220726,1,0,0:0:0:0:
182,192,220726,1,0,0:0:0:0:
109,192,220831,1,0,0:0:0:0:
256,192,220831,1,0,0:0:0:0:
402,192,220831,1,0,0:0:0:0:
36,192,220936,1,0,0:0:0:0:
182,192,220936,1,0,0:0:0:0:
109,192,220936,1,0,0:0:0:0:
329,192,220936,1,0,0:0:0:70:LR3_Snare DSW.wav
475,192,220936,1,2,0:0:0:0:
256,192,221041,1,0,0:0:0:0:
402,192,221041,1,0,0:0:0:0:
475,192,221041,1,0,0:0:0:0:
402,192,221147,1,0,0:0:0:0:
329,192,221147,1,0,0:0:0:0:
182,192,221147,1,0,0:0:0:0:
36,192,221252,1,0,0:0:0:0:
256,192,221252,1,0,0:0:0:0:
109,192,221252,1,0,0:0:0:0:
329,192,221252,1,0,0:0:0:70:LR3_Snare DSW.wav
475,192,221252,1,2,0:0:0:0:
402,192,221357,1,0,0:0:0:0:
182,192,221357,1,0,0:0:0:0:
36,192,221462,1,0,0:0:0:0:
256,192,221462,1,0,0:0:0:0:
109,192,221568,1,0,0:0:0:0:
475,192,221568,1,0,0:0:0:0:
329,192,221568,1,0,0:0:0:0:
402,192,221673,1,0,0:0:0:0:
182,192,221673,1,0,0:0:0:0:
109,192,221778,1,0,0:0:0:0:
329,192,221778,1,0,0:0:0:0:
402,192,221884,1,0,0:0:0:0:
475,192,221884,1,0,0:0:0:0:
329,192,221884,1,0,0:0:0:0:
109,192,221884,1,2,0:0:0:0:
36,192,221884,1,0,0:0:0:70:LR3_Snare DSW.wav
182,192,221884,1,4,0:0:0:0:
256,192,221989,1,0,0:0:0:0:
329,192,222094,1,0,0:0:0:0:
182,192,222094,1,0,0:0:0:0:
36,192,222094,1,0,0:0:0:0:
36,192,222199,1,0,0:0:0:0:
256,192,222199,1,0,0:0:0:0:
109,192,222199,1,0,0:0:0:0:
475,192,222199,1,0,0:0:0:70:LR3_Snare DSW.wav
402,192,222199,1,2,0:0:0:0:
329,192,222305,1,0,0:0:0:0:
475,192,222305,1,0,0:0:0:0:
182,192,222305,1,0,0:0:0:0:
36,192,222410,1,0,0:0:0:0:
109,192,222410,1,0,0:0:0:0:
256,192,222410,1,0,0:0:0:0:
182,192,222515,1,0,0:0:0:0:
329,192,222515,1,0,0:0:0:0:
36,192,222515,1,0,0:0:0:0:
402,192,222515,1,0,0:0:0:70:LR3_Snare DSW.wav
475,192,222515,1,2,0:0:0:0:
256,192,222620,1,0,0:0:0:0:
109,192,222726,1,0,0:0:0:0:
329,192,222726,1,0,0:0:0:0:
475,192,222726,1,0,0:0:0:0:
36,192,222831,1,0,0:0:0:0:
475,192,222831,1,0,0:0:0:0:
182,192,222831,1,0,0:0:0:0:
329,192,222831,1,0,0:0:0:70:LR3_Snare DSW.wav
402,192,222831,1,2,0:0:0:0:
256,192,222936,1,0,0:0:0:0:
182,192,223041,1,0,0:0:0:0:
109,192,223041,1,0,0:0:0:0:
402,192,223041,1,0,0:0:0:0:
475,192,223147,1,0,0:0:0:0:
402,192,223147,1,0,0:0:0:0:
182,192,223147,1,0,0:0:0:0:
329,192,223147,1,2,0:0:0:0:
36,192,223147,1,0,0:0:0:70:LR3_Snare DSW.wav
256,192,223252,1,0,0:0:0:0:
109,192,223357,1,0,0:0:0:0:
402,192,223357,1,0,0:0:0:0:
329,192,223357,1,0,0:0:0:0:
36,192,223462,1,0,0:0:0:0:
475,192,223462,1,0,0:0:0:0:
182,192,223462,1,0,0:0:0:0:
402,192,223462,1,0,0:0:0:70:LR3_Snare DSW.wav
256,192,223462,1,2,0:0:0:0:
36,192,223568,1,0,0:0:0:0:
109,192,223568,1,0,0:0:0:0:
329,192,223568,1,0,0:0:0:0:
475,192,223673,1,0,0:0:0:0:
402,192,223673,1,0,0:0:0:0:
256,192,223673,1,0,0:0:0:0:
475,192,223778,1,0,0:0:0:0:
36,192,223778,1,0,0:0:0:0:
109,192,223778,1,0,0:0:0:0:
256,192,223778,1,0,0:0:0:70:LR3_Snare DSW.wav
329,192,223778,1,2,0:0:0:0:
182,192,223884,1,0,0:0:0:0:
109,192,223989,1,0,0:0:0:0:
402,192,223989,1,0,0:0:0:0:
36,192,223989,1,0,0:0:0:0:
475,192,224094,1,0,0:0:0:0:
256,192,224094,1,0,0:0:0:0:
36,192,224094,1,0,0:0:0:0:
109,192,224094,1,0,0:0:0:70:LR3_Snare DSW.wav
329,192,224094,1,2,0:0:0:0:
182,192,224199,1,0,0:0:0:0:
109,192,224305,1,0,0:0:0:0:
329,192,224305,1,0,0:0:0:0:
402,192,224305,1,0,0:0:0:0:
329,192,224410,1,0,0:0:0:0:
475,192,224410,1,0,0:0:0:0:
36,192,224410,1,4,0:0:0:0:
182,192,224410,1,0,0:0:0:70:LR3_Snare DSW.wav
402,192,224620,1,0,0:0:0:0:
182,192,224620,1,4,0:0:0:0:
475,192,224620,1,0,0:0:0:70:LR3_Snare DSW.wav
36,192,224726,1,0,0:0:0:0:
109,192,224726,1,0,0:0:0:0:
256,192,224726,1,0,0:0:0:70:LR3_Snare DSW.wav
402,192,224726,1,4,0:0:0:0:
36,192,224936,1,0,0:0:0:0:
109,192,224936,1,0,0:0:0:0:
475,192,225041,1,0,0:0:0:0:
109,192,225041,1,0,0:0:0:0:
256,192,225041,1,0,0:0:0:70:LR3_Snare DSW.wav
36,192,225041,1,4,0:0:0:0:
329,192,225147,1,0,0:0:0:0:
475,192,225252,1,0,0:0:0:0:
182,192,225252,1,0,0:0:0:70:LR3_Snare DSW.wav
402,192,225252,1,4,0:0:0:0:
36,192,225357,1,0,0:0:0:0:
475,192,225357,1,0,0:0:0:0:
256,192,225357,1,4,0:0:0:0:
109,192,225357,1,0,0:0:0:70:LR3_Snare DSW.wav
329,192,225462,1,0,0:0:0:0:
182,192,225462,1,4,0:0:0:0:
109,192,225462,1,0,0:0:0:70:LR3_Snare DSW.wav
256,192,225568,1,0,0:0:0:0:
182,192,225568,1,0,0:0:0:70:LR3_Snare DSW.wav
402,192,225568,1,4,0:0:0:0:
109,192,225673,1,0,0:0:0:0:
36,192,225673,1,0,0:0:0:0:
402,192,225673,1,0,0:0:0:70:LR3_Snare DSW.wav
329,192,225673,1,4,0:0:0:0:
475,192,225673,1,2,0:0:0:0:
329,192,225778,1,0,0:0:0:0:
182,192,225778,1,0,0:0:0:0:
109,192,225884,1,0,0:0:0:0:
256,192,225884,1,0,0:0:0:0:
475,192,225989,1,0,0:0:0:0:
36,192,225989,1,0,0:0:0:0:
329,192,225989,1,2,0:0:0:0:
182,192,225989,1,4,0:0:0:0:
109,192,225989,1,0,0:0:0:70:LR3_Snare DSW.wav
475,192,226094,1,0,0:0:0:0:
256,192,226094,1,0,0:0:0:0:
182,192,226199,1,0,0:0:0:0:
402,192,226199,1,0,0:0:0:0:
256,192,226305,1,0,0:0:0:0:
329,192,226305,1,0,0:0:0:0:
475,192,226305,1,4,0:0:0:0:
109,192,226305,1,0,0:0:0:70:LR3_Snare DSW.wav
36,192,226305,1,2,0:0:0:0:
182,192,226410,1,0,0:0:0:0:
36,192,226515,1,0,0:0:0:0:
402,192,226515,1,0,0:0:0:0:
256,192,226515,1,0,0:0:0:0:
475,192,226620,1,0,0:0:0:0:
109,192,226620,1,0,0:0:0:0:
329,192,226620,1,0,0:0:0:0:
182,192,226726,1,0,0:0:0:0:
109,192,226831,1,0,0:0:0:0:
475,192,226936,1,0,0:0:0:0:
402,192,226989,1,0,0:0:0:0:
329,192,227041,1,0,0:0:0:0:
256,192,227094,1,0,0:0:0:0:
182,192,227147,1,0,0:0:0:0:
109,192,227199,1,0,0:0:0:0:
256,192,227252,1,0,0:0:0:0:
329,192,227252,1,0,0:0:0:0:
36,192,227252,1,0,0:0:0:0:
475,192,227252,1,4,0:0:0:0:
402,192,227252,1,0,0:0:0:70:LR3_Snare DSW.wav
182,192,227252,1,2,0:0:0:0:
475,192,227357,1,0,0:0:0:0:
109,192,227357,1,0,0:0:0:0:
329,192,227357,1,0,0:0:0:0:
36,192,227462,1,0,0:0:0:0:
256,192,227462,1,0,0:0:0:0:
182,192,227462,1,0,0:0:0:0:
329,192,227568,1,0,0:0:0:0:
182,192,227568,1,0,0:0:0:0:
475,192,227568,1,0,0:0:0:0:
402,192,227568,1,0,0:0:0:70:LR3_Snare DSW.wav
36,192,227568,1,2,0:0:0:0:
256,192,227673,1,0,0:0:0:0:
329,192,227778,1,0,0:0:0:0:
475,192,227778,1,0,0:0:0:0:
402,192,227778,1,0,0:0:0:0:
182,192,227884,1,0,0:0:0:0:
402,192,227884,1,0,0:0:0:0:
109,192,227884,1,0,0:0:0:0:
329,192,227884,1,0,0:0:0:70:LR3_Snare DSW.wav
36,192,227884,1,2,0:0:0:0:
256,192,227989,1,0,0:0:0:0:
109,192,228094,1,0,0:0:0:0:
36,192,228094,1,0,0:0:0:0:
402,192,228094,1,0,0:0:0:0:
109,192,228199,1,0,0:0:0:0:
36,192,228199,1,0,0:0:0:0:
182,192,228199,1,0,0:0:0:0:
475,192,228199,1,0,0:0:0:70:LR3_Snare DSW.wav
329,192,228199,1,2,0:0:0:0:
256,192,228305,1,0,0:0:0:0:
36,192,228410,1,0,0:0:0:0:
182,192,228410,1,0,0:0:0:0:
329,192,228410,1,0,0:0:0:0:
182,192,228515,1,0,0:0:0:0:
475,192,228515,1,0,0:0:0:0:
402,192,228515,1,0,0:0:0:0:
256,192,228515,1,0,0:0:0:70:LR3_Snare DSW.wav
36,192,228515,1,2,0:0:0:0:
402,192,228620,1,0,0:0:0:0:
109,192,228620,1,0,0:0:0:0:
329,192,228620,1,0,0:0:0:0:
329,192,228726,1,0,0:0:0:0:
256,192,228726,1,0,0:0:0:0:
475,192,228726,1,0,0:0:0:0:
182,192,228831,1,0,0:0:0:0:
475,192,228831,1,0,0:0:0:0:
256,192,228831,1,0,0:0:0:0:
109,192,228831,1,2,0:0:0:0:
36,192,228831,1,0,0:0:0:70:LR3_Snare DSW.wav
402,192,228936,1,0,0:0:0:0:
36,192,229041,1,0,0:0:0:0:
182,192,229041,1,0,0:0:0:0:
329,192,229041,1,0,0:0:0:0:
256,192,229147,1,0,0:0:0:0:
36,192,229147,1,0,0:0:0:0:
329,192,229147,1,0,0:0:0:0:
109,192,229147,1,2,0:0:0:0:
475,192,229147,1,0,0:0:0:70:LR3_Snare DSW.wav
182,192,229252,1,0,0:0:0:0:
402,192,229357,1,0,0:0:0:0:
256,192,229357,1,0,0:0:0:0:
475,192,229357,1,0,0:0:0:70:LR3_Snare DSW.wav
36,192,229462,1,0,0:0:0:0:
475,192,229462,1,0,0:0:0:0:
109,192,229462,1,4,0:0:0:0:
329,192,229462,1,0,0:0:0:70:LR3_Snare DSW.wav
182,192,229462,1,2,0:0:0:0:
256,192,229568,1,0,0:0:0:0:
36,192,229673,1,0,0:0:0:0:
182,192,229673,1,0,0:0:0:0:
402,192,229673,1,0,0:0:0:0:
36,192,229778,1,0,0:0:0:0:
402,192,229778,1,0,0:0:0:0:
329,192,229778,1,0,0:0:0:0:
109,192,229778,1,0,0:0:0:70:LR3_Snare DSW.wav
475,192,229778,1,2,0:0:0:0:
256,192,229884,1,0,0:0:0:0:
329,192,229989,1,0,0:0:0:0:
475,192,229989,1,0,0:0:0:0:
109,192,229989,1,0,0:0:0:0:
402,192,230094,1,0,0:0:0:0:
182,192,230094,1,0,0:0:0:0:
475,192,230094,1,0,0:0:0:0:
36,192,230094,1,0,0:0:0:70:LR3_Snare DSW.wav
256,192,230094,1,2,0:0:0:0:
329,192,230199,1,0,0:0:0:0:
256,192,230305,1,0,0:0:0:0:
182,192,230305,1,0,0:0:0:0:
36,192,230305,1,0,0:0:0:0:
475,192,230410,1,0,0:0:0:0:
109,192,230410,1,0,0:0:0:0:
182,192,230410,1,0,0:0:0:0:
329,192,230410,1,2,0:0:0:0:
36,192,230410,1,0,0:0:0:70:LR3_Snare DSW.wav
256,192,230515,1,0,0:0:0:0:
402,192,230620,1,0,0:0:0:0:
329,192,230620,1,0,0:0:0:0:
109,192,230620,1,0,0:0:0:0:
402,192,230726,1,0,0:0:0:0:
475,192,230726,1,0,0:0:0:0:
182,192,230726,1,0,0:0:0:0:
36,192,230726,1,4,0:0:0:0:
256,192,230726,1,0,0:0:0:70:LR3_Snare DSW.wav
109,192,230831,1,0,0:0:0:0:
329,192,230831,1,0,0:0:0:0:
182,192,230936,1,0,0:0:0:0:
402,192,230936,1,0,0:0:0:70:LR3_Snare DSW.wav
36,192,230936,1,4,0:0:0:0:
329,192,231041,1,0,0:0:0:0:
475,192,231041,1,0,0:0:0:0:
36,192,231041,1,4,0:0:0:0:
182,192,231041,1,0,0:0:0:70:LR3_Snare DSW.wav
256,192,231147,1,0,0:0:0:0:
402,192,231147,1,0,0:0:0:0:
475,192,231252,1,0,0:0:0:0:
182,192,231252,1,4,0:0:0:0:
329,192,231252,1,0,0:0:0:70:LR3_Snare DSW.wav
36,192,231357,1,0,0:0:0:0:
256,192,231357,1,0,0:0:0:0:
109,192,231357,1,4,0:0:0:0:
329,192,231357,1,0,0:0:0:70:LR3_Snare DSW.wav
475,192,231357,1,2,0:0:0:0:
182,192,231568,1,0,0:0:0:0:
475,192,231568,1,0,0:0:0:0:
36,192,231568,1,4,0:0:0:0:
256,192,231568,1,0,0:0:0:70:LR3_Snare DSW.wav
402,192,231568,1,2,0:0:0:0:
256,192,231778,1,0,0:0:0:0:
329,192,231778,1,0,0:0:0:0:
109,192,231778,1,0,0:0:0:70:LR3_Snare DSW.wav
475,192,231778,1,4,0:0:0:0:
36,192,231778,1,2,0:0:0:0:
36,192,231989,1,0,0:0:0:0:
475,192,231989,1,0,0:0:0:0:
329,192,231989,1,0,0:0:0:70:LR3_Snare DSW.wav
182,192,231989,1,4,0:0:0:0:
256,192,231989,1,2,0:0:0:0:
109,192,232094,1,0,0:0:0:0:
256,192,232199,1,0,0:0:0:0:
402,192,232199,1,0,0:0:0:0:
475,192,232199,1,0,0:0:0:0:
36,192,232305,1,0,0:0:0:0:
329,192,232305,1,0,0:0:0:0:
182,192,232305,1,0,0:0:0:0:
256,192,232305,1,0,0:0:0:70:LR3_Snare DSW.wav
475,192,232305,1,2,0:0:0:0:
182,192,232410,1,0,0:0:0:0:
109,192,232410,1,0,0:0:0:0:
402,192,232410,1,0,0:0:0:0:
36,192,232515,1,0,0:0:0:0:
182,192,232515,1,0,0:0:0:0:
402,192,232515,1,0,0:0:0:0:
475,192,232620,1,0,0:0:0:0:
329,192,232620,1,0,0:0:0:0:
36,192,232620,1,2,0:0:0:0:
256,192,232620,1,4,0:0:0:0:
109,192,232620,1,0,0:0:0:70:LR3_Snare DSW.wav
182,192,232726,1,0,0:0:0:0:
402,192,232831,1,0,0:0:0:0:
256,192,232831,1,0,0:0:0:0:
475,192,232831,1,0,0:0:0:0:
329,192,232936,1,0,0:0:0:0:
475,192,232936,1,0,0:0:0:0:
36,192,232936,1,4,0:0:0:0:
182,192,232936,1,0,0:0:0:70:LR3_Snare DSW.wav
109,192,233041,1,0,0:0:0:0:
256,192,233147,1,0,0:0:0:0:
36,192,233147,1,0,0:0:0:0:
329,192,233147,1,4,0:0:0:0:
402,192,233147,1,0,0:0:0:70:LR3_Snare DSW.wav
475,192,233252,1,0,0:0:0:0:
329,192,233252,1,0,0:0:0:0:
36,192,233252,1,0,0:0:0:70:LR3_Snare DSW.wav
256,192,233252,1,4,0:0:0:0:
182,192,233252,1,2,0:0:0:0:
402,192,233357,1,0,0:0:0:0:
36,192,233462,1,0,0:0:0:0:
256,192,233462,1,0,0:0:0:0:
109,192,233462,1,0,0:0:0:0:
182,192,233568,1,0,0:0:0:0:
329,192,233568,1,0,0:0:0:0:
475,192,233568,1,0,0:0:0:70:LR3_Snare DSW.wav
36,192,233568,1,2,0:0:0:0:
256,192,233568,1,4,0:0:0:0:
109,192,233673,1,0,0:0:0:0:
329,192,233673,1,0,0:0:0:0:
402,192,233673,1,0,0:0:0:0:
109,192,233778,1,0,0:0:0:0:
475,192,233778,1,0,0:0:0:0:
329,192,233778,1,0,0:0:0:0:
36,192,233884,1,0,0:0:0:0:
182,192,233884,1,0,0:0:0:0:
402,192,233884,1,0,0:0:0:70:LR3_Snare DSW.wav
256,192,233884,1,4,0:0:0:0:
475,192,233989,1,0,0:0:0:0:
182,192,233989,1,0,0:0:0:0:
329,192,233989,1,0,0:0:0:70:LR3_Snare DSW.wav
109,192,233989,1,4,0:0:0:0:
36,192,234094,1,0,0:0:0:0:
256,192,234094,1,0,0:0:0:0:
109,192,234094,1,0,0:0:0:70:LR3_Snare DSW.wav
402,192,234094,1,4,0:0:0:0:
329,192,234199,1,0,0:0:0:0:
36,192,234199,1,0,0:0:0:0:
182,192,234199,1,4,0:0:0:0:
475,192,234199,1,0,0:0:0:70:LR3_Snare DSW.wav
256,192,234305,1,0,0:0:0:0:
402,192,234410,1,0,0:0:0:0:
109,192,234410,1,0,0:0:0:70:LR3_Snare DSW.wav
329,192,234410,1,4,0:0:0:0:
182,192,234515,1,0,0:0:0:0:
329,192,234515,1,0,0:0:0:0:
36,192,234515,1,4,0:0:0:0:
475,192,234515,1,0,0:0:0:70:LR3_Snare DSW.wav
256,192,234620,1,0,0:0:0:0:
329,192,234726,1,0,0:0:0:0:
109,192,234726,1,0,0:0:0:70:LR3_Snare DSW.wav
36,192,234726,1,4,0:0:0:0:
182,192,234831,1,0,0:0:0:0:
36,192,234831,1,0,0:0:0:0:
475,192,234831,1,0,0:0:0:30:LR4_SnareKKF.wav
256,192,234831,1,4,0:0:0:0:
402,192,234870,1,0,0:0:0:30:LR4_SnareKKF.wav
329,192,234910,1,0,0:0:0:0:
109,192,234910,1,0,0:0:0:30:LR4_SnareKKF.wav
256,192,234949,1,0,0:0:0:30:LR4_SnareKKF.wav
182,192,234989,1,0,0:0:0:0:
402,192,234989,1,0,0:0:0:30:LR4_SnareKKF.wav
36,192,235041,1,0,0:0:0:0:
475,192,235041,1,0,0:0:0:0:
329,192,235094,1,0,0:0:0:0:
36,192,235147,1,0,0:0:0:0:
402,192,235147,1,0,0:0:0:0:
182,192,235147,1,4,0:0:0:0:
109,192,235147,1,0,0:0:0:70:LR3_Snare DSW.wav
36,192,235252,1,0,0:0:0:0:
256,192,235252,1,0,0:0:0:0:
402,192,235252,1,0,0:0:0:70:LR3_Snare DSW.wav
182,192,235252,1,4,0:0:0:0:
475,192,235357,1,0,0:0:0:0:
109,192,235357,1,0,0:0:0:0:
329,192,235357,1,0,0:0:0:70:LR3_Snare DSW.wav
256,192,235357,1,4,0:0:0:0:
36,192,235462,1,0,0:0:0:0:
182,192,235462,1,0,0:0:0:0:
475,192,235462,1,0,0:0:0:70:LR3_Snare DSW.wav
329,192,235462,1,4,0:0:0:0:
402,192,235462,1,2,0:0:0:0:
256,192,235568,1,0,0:0:0:0:
329,192,235673,1,0,0:0:0:0:
182,192,235673,1,0,0:0:0:0:
109,192,235673,1,0,0:0:0:0:
402,192,235778,1,0,0:0:0:0:
36,192,235778,1,0,0:0:0:0:
475,192,235778,1,0,0:0:0:0:
256,192,235778,1,0,0:0:0:70:LR3_Snare DSW.wav
109,192,235778,1,4,0:0:0:0:
475,192,235884,1,0,0:0:0:0:
182,192,235884,1,0,0:0:0:0:
402,192,235884,1,0,0:0:0:70:LR3_Snare DSW.wav
256,192,235989,1,0,0:0:0:0:
329,192,235989,1,0,0:0:0:0:
109,192,235989,1,0,0:0:0:70:LR3_Snare DSW.wav
402,192,236094,1,0,0:0:0:0:
475,192,236094,1,0,0:0:0:0:
256,192,236094,1,0,0:0:0:0:
36,192,236094,1,4,0:0:0:0:
182,192,236094,1,0,0:0:0:70:LR3_Snare DSW.wav
182,192,236199,1,0,0:0:0:0:
36,192,236199,1,0,0:0:0:0:
402,192,236199,1,0,0:0:0:70:LR3_Snare DSW.wav
256,192,236305,1,0,0:0:0:0:
109,192,236305,1,0,0:0:0:0:
329,192,236305,1,0,0:0:0:70:LR3_Snare DSW.wav
182,192,236410,1,0,0:0:0:0:
329,192,236410,1,0,0:0:0:0:
36,192,236410,1,0,0:0:0:70:LR3_Snare DSW.wav
256,192,236410,1,4,0:0:0:0:
475,192,236410,1,2,0:0:0:0:
36,192,236620,1,0,0:0:0:0:
109,192,236620,1,0,0:0:0:0:
402,192,236620,1,2,0:0:0:0:
475,192,236620,1,4,0:0:0:0:
256,192,236620,1,0,0:0:0:70:LR3_Snare DSW.wav
402,192,236831,1,0,0:0:0:0:
109,192,236831,1,0,0:0:0:0:
256,192,236831,1,4,0:0:0:0:
182,192,236831,1,0,0:0:0:70:LR3_Snare DSW.wav
329,192,236831,1,2,0:0:0:0:
256,192,239568,1,0,0:0:0:0:
475,192,239568,1,0,0:0:0:100:twinkling.wav
36,192,239568,1,0,0:0:0:70:LR_CymbalWWT.wav
109,192,239884,1,0,0:0:0:0:
182,192,239962,1,0,0:0:0:0:
329,192,240041,1,0,0:0:0:0:
36,192,240120,1,0,0:0:0:0:
256,192,240278,1,0,0:0:0:0:
256,192,240357,1,0,0:0:0:0:
475,192,240436,1,0,0:0:0:0:
475,192,240515,1,0,0:0:0:0:
329,192,240594,1,0,0:0:0:0:
475,192,240673,1,0,0:0:0:0:
402,192,240752,1,0,0:0:0:0:
329,192,240831,1,0,0:0:0:0:
256,192,241147,1,0,0:0:0:0:
256,192,241226,1,0,0:0:0:0:
256,192,241384,1,0,0:0:0:0:
402,192,241462,1,0,0:0:0:0:
256,192,241568,1,0,0:0:0:0:
109,192,241673,1,0,0:0:0:0:
329,192,241778,1,0,0:0:0:0:
182,192,241884,1,0,0:0:0:0:
36,192,241989,1,0,0:0:0:0:
182,192,242094,1,0,0:0:0:0:
109,192,242199,1,0,0:0:0:0:
329,192,242305,1,0,0:0:0:0:
182,192,242410,1,0,0:0:0:0:
256,192,242515,1,0,0:0:0:0:
109,192,242620,1,0,0:0:0:0:
329,192,242726,1,0,0:0:0:0:
109,192,242831,1,0,0:0:0:0:
256,192,242936,1,0,0:0:0:0:
256,192,243041,1,0,0:0:0:0:
329,192,243147,1,0,0:0:0:0:
329,192,243252,1,0,0:0:0:0:
402,192,243357,1,0,0:0:0:0:
109,192,243357,1,0,0:0:0:0:
329,192,243436,1,0,0:0:0:0:
182,192,243515,1,0,0:0:0:0:
36,192,243515,1,0,0:0:0:0:
475,192,243594,1,0,0:0:0:0:
109,192,243673,1,0,0:0:0:0:
329,192,243673,1,0,0:0:0:0:
182,192,243752,1,0,0:0:0:0:
475,192,243831,1,0,0:0:0:0:
402,192,243831,1,0,0:0:0:0:
182,192,243910,1,0,0:0:0:0:
329,192,243989,1,0,0:0:0:0:
36,192,243989,1,0,0:0:0:0:
256,192,244068,1,0,0:0:0:0:
402,192,244147,1,0,0:0:0:0:
109,192,244147,1,0,0:0:0:0:
182,192,244305,1,0,0:0:0:0:
109,192,244462,1,0,0:0:0:0:
256,192,244462,1,0,0:0:0:0:
402,192,244462,1,0,0:0:0:0:
36,192,244620,1,0,0:0:0:0:
402,192,244620,1,0,0:0:0:0:
182,192,244620,1,0,0:0:0:0:
256,192,244778,1,0,0:0:0:0:
329,192,244936,1,0,0:0:0:0:
36,192,245041,1,0,0:0:0:0:
182,192,245041,1,0,0:0:0:0:
402,192,245041,1,0,0:0:0:0:
402,192,245147,1,0,0:0:0:0:
182,192,245147,1,0,0:0:0:0:
36,192,245147,1,0,0:0:0:0:
109,192,245252,1,0,0:0:0:0:
329,192,245252,1,0,0:0:0:0:
475,192,245252,1,0,0:0:0:0:
256,192,245410,1,0,0:0:0:0:
402,192,245568,1,0,0:0:0:0:
109,192,245568,1,0,0:0:0:0:
36,192,245568,1,0,0:0:0:0:
256,192,245726,1,0,0:0:0:0:
329,192,245778,1,0,0:0:0:0:
475,192,245778,1,0,0:0:0:0:
36,192,245884,1,0,0:0:0:0:
402,192,245884,1,0,0:0:0:0:
182,192,245884,1,0,0:0:0:0:
109,192,246199,1,0,0:0:0:0:
329,192,246199,1,0,0:0:0:0:
182,192,246199,1,0,0:0:0:0:
109,192,246305,1,0,0:0:0:0:
182,192,246305,1,0,0:0:0:0:
329,192,246305,1,0,0:0:0:0:
109,192,246410,1,0,0:0:0:0:
329,192,246410,1,0,0:0:0:0:
182,192,246410,1,0,0:0:0:0:
36,192,246515,1,0,0:0:0:0:
402,192,246515,1,0,0:0:0:0:
256,192,246515,1,0,0:0:0:0:
402,192,246726,1,0,0:0:0:0:
475,192,246726,1,0,0:0:0:0:
182,192,246726,1,0,0:0:0:0:
256,192,246831,1,0,0:0:0:0:
402,192,246936,1,0,0:0:0:0:
109,192,246936,1,0,0:0:0:0:
329,192,246936,1,0,0:0:0:0:
182,192,247041,1,0,0:0:0:0:
329,192,247147,1,0,0:0:0:0:
36,192,247147,1,0,0:0:0:0:
475,192,247186,1,0,0:0:0:0:
256,192,247226,1,0,0:0:0:0:
402,192,247384,1,0,0:0:0:0:
256,192,247423,1,0,0:0:0:0:
109,192,247462,1,0,0:0:0:0:
109,192,247581,1,0,0:0:0:0:
182,192,247620,1,0,0:0:0:0:
256,192,247660,1,0,0:0:0:0:
329,192,247778,1,0,0:0:0:0:
36,192,247778,1,0,0:0:0:0:
182,192,247818,1,0,0:0:0:0:
475,192,247857,1,0,0:0:0:0:
329,192,247936,1,0,0:0:0:0:
109,192,248094,1,0,0:0:0:0:
256,192,248094,1,0,0:0:0:0:
256,192,248252,1,0,0:0:0:0:
402,192,248252,1,0,0:0:0:0:
182,192,248410,1,0,0:0:0:0:
36,192,248410,1,0,0:0:0:0:
256,192,248515,1,0,0:0:0:0:
182,192,248620,1,0,0:0:0:0:
475,192,248726,1,0,0:0:0:0:
329,192,248726,1,0,0:0:0:0:
109,192,248831,1,0,0:0:0:0:
256,192,248936,1,0,0:0:0:0:
329,192,249041,1,0,0:0:0:0:
36,192,249041,1,0,0:0:0:0:
109,192,249147,1,0,0:0:0:0:
475,192,249147,1,0,0:0:0:0:
256,192,249252,1,0,0:0:0:0:
402,192,249252,1,0,0:0:0:0:
109,192,249357,1,0,0:0:0:0:
475,192,249357,1,0,0:0:0:0:
329,192,249462,1,0,0:0:0:0:
182,192,249462,1,0,0:0:0:0:
109,192,249568,1,0,0:0:0:0:
402,192,249568,1,0,0:0:0:0:
36,192,249673,1,0,0:0:0:0:
475,192,249673,1,0,0:0:0:0:
182,192,249673,1,2,0:0:0:0:
109,192,249989,1,0,0:0:0:0:
182,192,250068,1,0,0:0:0:0:
256,192,250147,1,0,0:0:0:0:
109,192,250226,1,0,0:0:0:0:
109,192,250305,1,0,0:0:0:0:
329,192,250384,1,0,0:0:0:0:
182,192,250462,1,0,0:0:0:0:
182,192,250541,1,0,0:0:0:0:
402,192,250620,1,0,0:0:0:0:
256,192,250699,1,0,0:0:0:0:
256,192,250778,1,0,0:0:0:0:
475,192,250857,1,0,0:0:0:0:
329,192,250936,1,0,0:0:0:0:
182,192,250936,1,0,0:0:0:0:
329,192,251252,1,0,0:0:0:0:
182,192,251252,1,0,0:0:0:0:
475,192,251331,1,0,0:0:0:0:
329,192,251331,1,0,0:0:0:0:
256,192,251489,1,0,0:0:0:0:
109,192,251489,1,0,0:0:0:0:
402,192,251568,1,0,0:0:0:0:
256,192,251568,1,0,0:0:0:0:
182,192,251726,1,0,0:0:0:0:
329,192,251726,1,0,0:0:0:0:
475,192,251884,1,0,0:0:0:0:
36,192,251884,1,0,0:0:0:0:
256,192,251884,1,0,0:0:0:0:
402,192,252041,1,0,0:0:0:0:
109,192,252041,1,0,0:0:0:0:
36,192,252199,1,0,0:0:0:0:
182,192,252199,1,2,0:0:0:0:
256,192,252357,1,0,0:0:0:0:
109,192,252357,1,0,0:0:0:0:
182,192,252515,1,0,0:0:0:0:
475,192,252515,1,0,0:0:0:0:
329,192,252515,1,2,0:0:0:0:
402,192,252673,1,0,0:0:0:0:
475,192,252673,1,0,0:0:0:0:
256,192,252673,1,0,0:0:0:0:
182,192,252831,1,2,0:0:0:0:
256,192,252989,1,0,0:0:0:0:
109,192,252989,1,0,0:0:0:0:
36,192,252989,1,0,0:0:0:0:
329,192,253147,1,2,0:0:0:0:
182,192,253305,1,0,0:0:0:0:
475,192,253305,1,0,0:0:0:0:
36,192,253305,1,0,0:0:0:0:
256,192,253462,1,2,0:0:0:0:
36,192,253620,1,0,0:0:0:0:
182,192,253620,1,0,0:0:0:0:
402,192,253620,1,0,0:0:0:0:
256,192,253778,1,0,0:0:0:0:
475,192,253778,1,0,0:0:0:0:
109,192,253778,1,2,0:0:0:0:
182,192,253936,1,0,0:0:0:0:
329,192,253936,1,0,0:0:0:0:
475,192,253936,1,0,0:0:0:0:
256,192,254094,1,0,0:0:0:0:
36,192,254094,1,2,0:0:0:0:
182,192,254173,1,0,0:0:0:0:
475,192,254252,1,0,0:0:0:0:
329,192,254252,1,0,0:0:0:0:
256,192,254331,1,0,0:0:0:0:
182,192,254410,1,0,0:0:0:0:
36,192,254410,1,2,0:0:0:0:
329,192,254489,1,0,0:0:0:0:
109,192,254568,1,0,0:0:0:0:
475,192,254568,1,0,0:0:0:0:
256,192,254647,1,0,0:0:0:0:
402,192,254726,1,0,0:0:0:0:
36,192,254726,1,0,0:0:0:0:
182,192,254726,1,2,0:0:0:0:
36,192,254884,1,0,0:0:0:0:
182,192,254884,1,2,0:0:0:0:
109,192,255041,1,0,0:0:0:0:
329,192,255041,1,0,0:0:0:0:
475,192,255041,1,2,0:0:0:0:
475,192,255199,1,0,0:0:0:0:
329,192,255199,1,2,0:0:0:0:
36,192,255357,1,0,0:0:0:0:
182,192,255357,1,0,0:0:0:0:
109,192,255357,1,2,0:0:0:0:
109,192,255462,1,0,0:0:0:0:
36,192,255462,1,0,0:0:0:0:
182,192,255462,1,0,0:0:0:0:
402,192,255568,1,0,0:0:0:0:
475,192,255568,1,0,0:0:0:0:
329,192,255568,1,0,0:0:0:0:
475,192,255673,1,0,0:0:0:0:
329,192,255673,1,0,0:0:0:0:
402,192,255673,1,2,0:0:0:0:
256,192,255778,1,0,0:0:0:0:
182,192,255778,1,0,0:0:0:0:
109,192,255778,1,0,0:0:0:0:
109,192,255884,1,0,0:0:0:0:
256,192,255884,1,0,0:0:0:0:
182,192,255884,1,0,0:0:0:0:
402,192,255989,1,0,0:0:0:0:
475,192,255989,1,0,0:0:0:0:
36,192,255989,1,2,0:0:0:0:
329,192,256094,1,0,0:0:0:0:
109,192,256094,1,0,0:0:0:0:
36,192,256199,1,0,0:0:0:0:
182,192,256199,1,0,0:0:0:0:
402,192,256305,1,0,0:0:0:0:
256,192,256305,1,0,0:0:0:0:
475,192,256305,1,2,0:0:0:0:
329,192,256410,1,0,0:0:0:0:
182,192,256410,1,0,0:0:0:0:
475,192,256515,1,0,0:0:0:0:
402,192,256515,1,0,0:0:0:0:
109,192,256620,1,0,0:0:0:0:
256,192,256620,1,0,0:0:0:0:
36,192,256620,1,2,0:0:0:0:
256,192,256726,1,0,0:0:0:0:
109,192,256726,1,0,0:0:0:0:
402,192,256831,1,0,0:0:0:0:
475,192,256831,1,0,0:0:0:0:
182,192,256936,1,0,0:0:0:0:
36,192,256936,1,0,0:0:0:0:
475,192,256936,1,0,0:0:0:0:
402,192,256936,1,2,0:0:0:0:
256,192,257041,1,0,0:0:0:0:
109,192,257041,1,0,0:0:0:0:
182,192,257147,1,0,0:0:0:0:
329,192,257147,1,0,0:0:0:0:
402,192,257252,1,0,0:0:0:0:
36,192,257252,1,0,0:0:0:0:
109,192,257252,1,0,0:0:0:0:
475,192,257252,1,2,0:0:0:0:
329,192,257331,1,0,0:0:0:0:
256,192,257331,1,2,0:0:0:0:
182,192,257410,1,0,0:0:0:0:
109,192,257410,1,0,0:0:0:0:
475,192,257410,1,2,0:0:0:0:
402,192,257489,1,0,0:0:0:0:
329,192,257489,1,2,0:0:0:0:
256,192,257568,1,0,0:0:0:0:
182,192,257568,1,0,0:0:0:0:
36,192,257568,1,0,0:0:0:0:
475,192,257568,1,2,0:0:0:0:
329,192,257647,1,0,0:0:0:0:
402,192,257647,1,2,0:0:0:0:
109,192,257726,1,0,0:0:0:0:
182,192,257726,1,0,0:0:0:0:
36,192,257726,1,2,0:0:0:0:
256,192,257805,1,0,0:0:0:0:
329,192,257805,1,2,0:0:0:0:
475,192,257884,1,0,0:0:0:0:
36,192,257884,1,0,0:0:0:0:
182,192,257884,1,0,0:0:0:0:
402,192,257884,1,2,0:0:0:0:
329,192,257962,1,0,0:0:0:0:
109,192,257962,1,2,0:0:0:0:
256,192,258041,1,0,0:0:0:0:
36,192,258041,1,0,0:0:0:0:
475,192,258041,1,2,0:0:0:0:
182,192,258120,1,0,0:0:0:0:
402,192,258120,1,2,0:0:0:0:
475,192,258199,1,0,0:0:0:0:
36,192,258199,1,0,0:0:0:0:
109,192,258199,1,0,0:0:0:0:
256,192,258199,1,2,0:0:0:0:
329,192,258278,1,0,0:0:0:0:
182,192,258278,1,2,0:0:0:0:
256,192,258357,1,0,0:0:0:0:
475,192,258357,1,0,0:0:0:0:
36,192,258357,1,2,0:0:0:0:
329,192,258436,1,0,0:0:0:0:
109,192,258436,1,2,0:0:0:0:
475,192,258515,1,0,0:0:0:0:
182,192,258515,1,0,0:0:0:0:
402,192,258515,1,0,0:0:0:0:
36,192,258515,1,0,0:0:0:0:
256,192,258594,1,0,0:0:0:0:
329,192,258673,1,0,0:0:0:0:
402,192,258752,1,0,0:0:0:0:
475,192,258831,1,0,0:0:0:0:
109,192,258831,1,0,0:0:0:0:
182,192,258910,1,0,0:0:0:0:
256,192,258989,1,0,0:0:0:0:
329,192,259068,1,0,0:0:0:0:
475,192,259068,1,0,0:0:0:0:
402,192,259147,1,0,0:0:0:0:
36,192,259147,1,0,0:0:0:0:
109,192,259226,1,0,0:0:0:0:
329,192,259226,1,0,0:0:0:0:
182,192,259305,1,0,0:0:0:0:
475,192,259305,1,0,0:0:0:0:
256,192,259384,1,0,0:0:0:0:
402,192,259384,1,0,0:0:0:0:
329,192,259462,1,0,0:0:0:0:
36,192,259541,1,0,0:0:0:0:
182,192,259541,1,0,0:0:0:0:
402,192,259620,1,0,0:0:0:0:
109,192,259620,1,0,0:0:0:0:
256,192,259699,1,0,0:0:0:0:
36,192,259699,1,0,0:0:0:0:
402,192,259778,1,0,0:0:0:0:
329,192,259778,1,0,0:0:0:0:
109,192,259778,1,0,0:0:0:100:twinkling.wav
475,192,259778,1,0,0:0:0:70:LR_CymbalWWT.wav
182,192,259778,1,2,0:0:0:0:
256,192,259857,1,0,0:0:0:0:
36,192,259936,1,0,0:0:0:0:
182,192,259936,1,0,0:0:0:0:
475,192,259936,1,0,0:0:0:0:
329,192,260015,1,0,0:0:0:0:
475,192,260094,1,0,0:0:0:0:
36,192,260094,1,0,0:0:0:0:
182,192,260094,1,8,0:0:0:0:
402,192,260094,1,2,0:0:0:0:
256,192,260173,1,0,0:0:0:0:
475,192,260252,1,0,0:0:0:0:
329,192,260252,1,0,0:0:0:0:
109,192,260252,1,0,0:0:0:0:
182,192,260331,1,0,0:0:0:0:
256,192,260410,1,0,0:0:0:0:
475,192,260410,1,0,0:0:0:0:
36,192,260410,1,0,0:0:0:0:
402,192,260410,1,2,0:0:0:0:
182,192,260489,1,0,0:0:0:0:
329,192,260568,1,0,0:0:0:0:
109,192,260568,1,0,0:0:0:0:
402,192,260568,1,0,0:0:0:0:
256,192,260647,1,0,0:0:0:0:
36,192,260726,1,0,0:0:0:0:
402,192,260726,1,0,0:0:0:0:
182,192,260726,1,2,0:0:0:0:
475,192,260726,1,8,0:0:0:0:
329,192,260805,1,0,0:0:0:0:
256,192,260884,1,0,0:0:0:0:
475,192,260884,1,0,0:0:0:0:
109,192,260884,1,0,0:0:0:0:
402,192,260962,1,0,0:0:0:0:
329,192,261041,1,0,0:0:0:0:
475,192,261041,1,0,0:0:0:0:
36,192,261041,1,0,0:0:0:0:
182,192,261041,1,2,0:0:0:0:
256,192,261120,1,0,0:0:0:0:
402,192,261199,1,0,0:0:0:0:
109,192,261199,1,0,0:0:0:0:
329,192,261278,1,0,0:0:0:0:
36,192,261357,1,0,0:0:0:0:
256,192,261357,1,0,0:0:0:0:
182,192,261357,1,8,0:0:0:0:
475,192,261357,1,2,0:0:0:0:
329,192,261436,1,0,0:0:0:0:
475,192,261515,1,0,0:0:0:0:
109,192,261515,1,0,0:0:0:0:
402,192,261515,1,0,0:0:0:0:
256,192,261594,1,0,0:0:0:0:
402,192,261673,1,0,0:0:0:0:
182,192,261673,1,0,0:0:0:0:
36,192,261673,1,0,0:0:0:0:
329,192,261673,1,2,0:0:0:0:
256,192,261752,1,0,0:0:0:0:
109,192,261831,1,0,0:0:0:0:
36,192,261831,1,0,0:0:0:0:
475,192,261831,1,0,0:0:0:0:
329,192,261910,1,0,0:0:0:0:
109,192,261989,1,0,0:0:0:0:
182,192,261989,1,0,0:0:0:0:
256,192,261989,1,8,0:0:0:0:
475,192,261989,1,2,0:0:0:0:
329,192,262068,1,0,0:0:0:0:
36,192,262147,1,0,0:0:0:0:
182,192,262147,1,0,0:0:0:0:
402,192,262147,1,0,0:0:0:0:
256,192,262226,1,0,0:0:0:0:
182,192,262305,1,0,0:0:0:0:
36,192,262305,1,0,0:0:0:0:
329,192,262305,1,0,0:0:0:0:
475,192,262305,1,2,0:0:0:0:
109,192,262384,1,0,0:0:0:0:
402,192,262462,1,0,0:0:0:0:
36,192,262462,1,0,0:0:0:0:
256,192,262462,1,0,0:0:0:0:
182,192,262541,1,0,0:0:0:0:
329,192,262620,1,0,0:0:0:0:
109,192,262620,1,0,0:0:0:0:
475,192,262620,1,2,0:0:0:0:
256,192,262620,1,8,0:0:0:0:
402,192,262699,1,0,0:0:0:0:
256,192,262778,1,0,0:0:0:0:
36,192,262778,1,0,0:0:0:0:
182,192,262778,1,0,0:0:0:0:
329,192,262857,1,0,0:0:0:0:
36,192,262936,1,0,0:0:0:0:
182,192,262936,1,0,0:0:0:0:
109,192,262936,1,0,0:0:0:0:
475,192,262936,1,2,0:0:0:0:
256,192,263015,1,0,0:0:0:0:
329,192,263094,1,0,0:0:0:0:
402,192,263094,1,0,0:0:0:0:
109,192,263094,1,0,0:0:0:0:
182,192,263173,1,0,0:0:0:0:
475,192,263252,1,0,0:0:0:0:
329,192,263252,1,0,0:0:0:0:
36,192,263252,1,8,0:0:0:0:
256,192,263252,1,2,0:0:0:0:
402,192,263331,1,0,0:0:0:0:
36,192,263410,1,0,0:0:0:0:
109,192,263410,1,0,0:0:0:0:
182,192,263410,1,0,0:0:0:0:
256,192,263410,1,0,0:0:0:0:
329,192,263489,1,0,0:0:0:0:
475,192,263568,1,0,0:0:0:0:
402,192,263568,1,0,0:0:0:0:
36,192,263568,1,0,0:0:0:0:
182,192,263568,1,2,0:0:0:0:
256,192,263647,1,0,0:0:0:0:
182,192,263726,1,0,0:0:0:0:
402,192,263726,1,0,0:0:0:0:
109,192,263726,1,0,0:0:0:0:
256,192,263805,1,0,0:0:0:0:
329,192,263884,1,0,0:0:0:0:
475,192,263884,1,0,0:0:0:0:
36,192,263884,1,8,0:0:0:0:
109,192,263884,1,2,0:0:0:0:
182,192,263962,1,0,0:0:0:0:
109,192,264041,1,0,0:0:0:0:
329,192,264041,1,0,0:0:0:0:
402,192,264041,1,0,0:0:0:0:
256,192,264120,1,0,0:0:0:0:
475,192,264199,1,0,0:0:0:0:
36,192,264199,1,0,0:0:0:0:
182,192,264199,1,2,0:0:0:0:
109,192,264278,1,0,0:0:0:0:
329,192,264278,1,0,0:0:0:0:
402,192,264357,1,0,0:0:0:0:
182,192,264357,1,0,0:0:0:0:
475,192,264357,1,0,0:0:0:0:
109,192,264436,1,0,0:0:0:0:
256,192,264436,1,0,0:0:0:0:
36,192,264515,1,0,0:0:0:0:
329,192,264515,1,0,0:0:0:0:
402,192,264515,1,2,0:0:0:0:
475,192,264515,1,8,0:0:0:0:
182,192,264594,1,0,0:0:0:0:
256,192,264594,1,0,0:0:0:0:
109,192,264673,1,0,0:0:0:0:
402,192,264673,1,0,0:0:0:0:
36,192,264673,1,0,0:0:0:0:
329,192,264752,1,0,0:0:0:0:
256,192,264752,1,0,0:0:0:0:
182,192,264831,1,0,0:0:0:0:
402,192,264831,1,0,0:0:0:0:
36,192,264831,1,0,0:0:0:0:
475,192,264831,1,2,0:0:0:0:
256,192,264910,1,0,0:0:0:0:
109,192,264989,1,0,0:0:0:0:
475,192,264989,1,0,0:0:0:0:
329,192,264989,1,0,0:0:0:0:
182,192,265068,1,0,0:0:0:0:
329,192,265147,1,0,0:0:0:0:
475,192,265147,1,0,0:0:0:0:
36,192,265147,1,8,0:0:0:0:
109,192,265147,1,2,0:0:0:0:
256,192,265226,1,0,0:0:0:0:
36,192,265305,1,0,0:0:0:0:
182,192,265305,1,0,0:0:0:0:
402,192,265305,1,0,0:0:0:0:
329,192,265384,1,0,0:0:0:0:
36,192,265462,1,0,0:0:0:0:
256,192,265462,1,0,0:0:0:0:
475,192,265462,1,0,0:0:0:0:
109,192,265462,1,2,0:0:0:0:
329,192,265541,1,0,0:0:0:0:
402,192,265620,1,0,0:0:0:0:
109,192,265620,1,0,0:0:0:0:
182,192,265620,1,0,0:0:0:0:
256,192,265699,1,0,0:0:0:0:
36,192,265778,1,0,0:0:0:0:
329,192,265778,1,0,0:0:0:0:
109,192,265778,1,8,0:0:0:0:
475,192,265778,1,2,0:0:0:0:
182,192,265857,1,0,0:0:0:0:
402,192,265936,1,0,0:0:0:0:
36,192,265936,1,0,0:0:0:0:
256,192,265936,1,0,0:0:0:0:
109,192,266015,1,0,0:0:0:0:
475,192,266094,1,0,0:0:0:0:
329,192,266094,1,0,0:0:0:0:
36,192,266094,1,0,0:0:0:0:
182,192,266094,1,2,0:0:0:0:
256,192,266173,1,0,0:0:0:0:
109,192,266252,1,0,0:0:0:0:
402,192,266252,1,0,0:0:0:0:
182,192,266331,1,0,0:0:0:0:
329,192,266410,1,0,0:0:0:0:
256,192,266410,1,0,0:0:0:0:
475,192,266410,1,8,0:0:0:0:
36,192,266410,1,2,0:0:0:0:
182,192,266489,1,0,0:0:0:0:
109,192,266568,1,0,0:0:0:0:
402,192,266568,1,0,0:0:0:0:
36,192,266568,1,0,0:0:0:0:
256,192,266647,1,0,0:0:0:0:
182,192,266726,1,0,0:0:0:0:
109,192,266726,1,0,0:0:0:0:
475,192,266726,1,0,0:0:0:0:
329,192,266726,1,2,0:0:0:0:
256,192,266805,1,0,0:0:0:0:
36,192,266884,1,0,0:0:0:0:
402,192,266884,1,0,0:0:0:0:
475,192,266884,1,0,0:0:0:0:
182,192,266962,1,0,0:0:0:0:
402,192,267041,1,0,0:0:0:0:
256,192,267041,1,0,0:0:0:0:
36,192,267041,1,8,0:0:0:0:
329,192,267041,1,2,0:0:0:0:
182,192,267120,1,0,0:0:0:0:
475,192,267199,1,0,0:0:0:0:
329,192,267199,1,0,0:0:0:0:
109,192,267199,1,0,0:0:0:0:
256,192,267278,1,0,0:0:0:0:
475,192,267357,1,0,0:0:0:0:
329,192,267357,1,0,0:0:0:0:
182,192,267357,1,0,0:0:0:0:
36,192,267357,1,2,0:0:0:0:
402,192,267436,1,0,0:0:0:0:
256,192,267515,1,0,0:0:0:0:
475,192,267515,1,0,0:0:0:0:
109,192,267515,1,0,0:0:0:0:
329,192,267594,1,0,0:0:0:0:
402,192,267673,1,0,0:0:0:0:
182,192,267673,1,0,0:0:0:0:
36,192,267673,1,8,0:0:0:0:
256,192,267673,1,2,0:0:0:0:
109,192,267752,1,0,0:0:0:0:
329,192,267831,1,0,0:0:0:0:
475,192,267831,1,0,0:0:0:0:
256,192,267831,1,0,0:0:0:0:
182,192,267910,1,0,0:0:0:0:
475,192,267989,1,0,0:0:0:0:
329,192,267989,1,0,0:0:0:0:
36,192,267989,1,0,0:0:0:0:
402,192,267989,1,2,0:0:0:0:
256,192,268068,1,0,0:0:0:0:
182,192,268147,1,0,0:0:0:0:
402,192,268147,1,0,0:0:0:0:
109,192,268147,1,0,0:0:0:0:
329,192,268226,1,0,0:0:0:0:
182,192,268305,1,0,0:0:0:0:
36,192,268305,1,0,0:0:0:0:
256,192,268305,1,8,0:0:0:0:
475,192,268305,1,2,0:0:0:0:
109,192,268384,1,0,0:0:0:0:
329,192,268462,1,0,0:0:0:0:
256,192,268462,1,0,0:0:0:0:
402,192,268462,1,0,0:0:0:0:
475,192,268462,1,0,0:0:0:0:
182,192,268541,1,0,0:0:0:0:
36,192,268620,1,0,0:0:0:0:
109,192,268620,1,0,0:0:0:0:
475,192,268620,1,0,0:0:0:0:
329,192,268620,1,2,0:0:0:0:
256,192,268699,1,0,0:0:0:0:
402,192,268778,1,0,0:0:0:0:
109,192,268778,1,0,0:0:0:0:
329,192,268778,1,0,0:0:0:0:
256,192,268857,1,0,0:0:0:0:
182,192,268936,1,0,0:0:0:0:
36,192,268936,1,0,0:0:0:0:
402,192,268936,1,8,0:0:0:0:
475,192,268936,1,2,0:0:0:0:
329,192,269015,1,0,0:0:0:0:
182,192,269094,1,0,0:0:0:0:
402,192,269094,1,0,0:0:0:0:
109,192,269094,1,0,0:0:0:0:
256,192,269173,1,0,0:0:0:0:
329,192,269252,1,0,0:0:0:0:
36,192,269252,1,0,0:0:0:0:
109,192,269252,1,0,0:0:0:0:
475,192,269252,1,0,0:0:0:50:LR_Snare Low Wet.wav
402,192,269331,1,0,0:0:0:0:
182,192,269331,1,0,0:0:0:0:
329,192,269410,1,0,0:0:0:0:
256,192,269410,1,0,0:0:0:0:
402,192,269489,1,0,0:0:0:0:
109,192,269489,1,0,0:0:0:0:
475,192,269489,1,0,0:0:0:50:LR_Snare Low Wet.wav
329,192,269568,1,0,0:0:0:0:
182,192,269568,1,0,0:0:0:0:
256,192,269568,1,4,0:0:0:0:
36,192,269568,1,8,0:0:0:0:
475,192,269647,1,0,0:0:0:0:
402,192,269647,1,0,0:0:0:0:
36,192,269726,1,0,0:0:0:0:
256,192,269726,1,0,0:0:0:0:
109,192,269726,1,0,0:0:0:50:LR_Snare Low Wet.wav
182,192,269805,1,0,0:0:0:0:
329,192,269805,1,0,0:0:0:0:
402,192,269805,1,0,0:0:0:50:LR_Snare Low Wet.wav
36,192,269884,1,0,0:0:0:0:
256,192,269884,1,0,0:0:0:0:
475,192,269884,1,0,0:0:0:50:LR_Snare Low Wet.wav
109,192,269884,1,4,0:0:0:0:
329,192,269962,1,0,0:0:0:0:
182,192,270041,1,0,0:0:0:0:
36,192,270041,1,0,0:0:0:0:
402,192,270041,1,0,0:0:0:0:
256,192,270120,1,0,0:0:0:0:
475,192,270199,1,0,0:0:0:0:
109,192,270199,1,0,0:0:0:0:
329,192,270199,1,0,0:0:0:0:
402,192,270199,1,8,0:0:0:0:
36,192,270199,1,0,0:0:0:50:LR_Snare Low Wet.wav
256,192,270278,1,0,0:0:0:0:
475,192,270357,1,0,0:0:0:0:
402,192,270357,1,0,0:0:0:0:
182,192,270357,1,0,0:0:0:0:
109,192,270436,1,0,0:0:0:0:
256,192,270515,1,0,0:0:0:0:
182,192,270515,1,0,0:0:0:0:
36,192,270515,1,0,0:0:0:0:
329,192,270515,1,0,0:0:0:0:
475,192,270515,1,0,0:0:0:50:LR_Snare Low Wet.wav
402,192,270594,1,0,0:0:0:0:
182,192,270673,1,0,0:0:0:0:
109,192,270673,1,0,0:0:0:0:
475,192,270673,1,0,0:0:0:0:
256,192,270752,1,0,0:0:0:0:
36,192,270831,1,0,0:0:0:0:
109,192,270831,1,0,0:0:0:0:
475,192,270831,1,0,0:0:0:0:
402,192,270831,1,0,0:0:0:50:LR_Snare Low Wet.wav
329,192,270831,1,8,0:0:0:0:
182,192,270910,1,0,0:0:0:0:
109,192,270989,1,0,0:0:0:0:
36,192,270989,1,0,0:0:0:0:
329,192,270989,1,0,0:0:0:0:
256,192,271068,1,0,0:0:0:0:
182,192,271147,1,0,0:0:0:0:
475,192,271147,1,0,0:0:0:0:
402,192,271147,1,0,0:0:0:0:
36,192,271147,1,0,0:0:0:0:
329,192,271147,1,0,0:0:0:50:LR_Snare Low Wet.wav
256,192,271226,1,0,0:0:0:0:
329,192,271305,1,0,0:0:0:0:
475,192,271305,1,0,0:0:0:0:
109,192,271305,1,0,0:0:0:0:
182,192,271384,1,0,0:0:0:0:
402,192,271462,1,0,0:0:0:0:
475,192,271462,1,0,0:0:0:0:
36,192,271462,1,0,0:0:0:0:
256,192,271462,1,8,0:0:0:0:
109,192,271462,1,0,0:0:0:50:LR_Snare Low Wet.wav
329,192,271541,1,0,0:0:0:0:
182,192,271620,1,0,0:0:0:0:
36,192,271620,1,0,0:0:0:0:
109,192,271620,1,0,0:0:0:0:
256,192,271699,1,0,0:0:0:0:
36,192,271778,1,0,0:0:0:0:
475,192,271778,1,0,0:0:0:0:
329,192,271778,1,0,0:0:0:0:
109,192,271778,1,0,0:0:0:0:
402,192,271778,1,0,0:0:0:50:LR_Snare Low Wet.wav
182,192,271857,1,0,0:0:0:0:
402,192,271936,1,0,0:0:0:0:
475,192,271936,1,0,0:0:0:0:
329,192,271936,1,0,0:0:0:0:
256,192,272015,1,0,0:0:0:0:
475,192,272094,1,0,0:0:0:0:
182,192,272094,1,0,0:0:0:0:
109,192,272094,1,0,0:0:0:0:
402,192,272094,1,8,0:0:0:0:
36,192,272094,1,0,0:0:0:50:LR_Snare Low Wet.wav
329,192,272173,1,0,0:0:0:0:
109,192,272252,1,0,0:0:0:0:
182,192,272252,1,0,0:0:0:0:
256,192,272252,1,0,0:0:0:0:
36,192,272252,1,0,0:0:0:50:LR_Snare Low Wet.wav
329,192,272331,1,0,0:0:0:0:
36,192,272410,1,0,0:0:0:0:
109,192,272410,1,0,0:0:0:0:
402,192,272410,1,0,0:0:0:0:
475,192,272410,1,0,0:0:0:0:
256,192,272410,1,0,0:0:0:50:LR_Snare Low Wet.wav
182,192,272489,1,0,0:0:0:0:
36,192,272568,1,0,0:0:0:0:
475,192,272568,1,0,0:0:0:0:
329,192,272568,1,0,0:0:0:0:
256,192,272647,1,0,0:0:0:0:
182,192,272726,1,0,0:0:0:0:
402,192,272726,1,0,0:0:0:0:
36,192,272726,1,0,0:0:0:0:
109,192,272726,1,8,0:0:0:0:
475,192,272726,1,0,0:0:0:50:LR_Snare Low Wet.wav
329,192,272805,1,0,0:0:0:0:
475,192,272884,1,0,0:0:0:0:
109,192,272884,1,0,0:0:0:0:
256,192,272884,1,0,0:0:0:0:
402,192,272962,1,0,0:0:0:0:
36,192,273041,1,0,0:0:0:0:
182,192,273041,1,0,0:0:0:0:
475,192,273041,1,0,0:0:0:0:
109,192,273041,1,0,0:0:0:0:
329,192,273041,1,0,0:0:0:50:LR_Snare Low Wet.wav
256,192,273120,1,0,0:0:0:0:
36,192,273199,1,0,0:0:0:0:
182,192,273199,1,0,0:0:0:0:
402,192,273199,1,0,0:0:0:0:
256,192,273278,1,0,0:0:0:0:
475,192,273357,1,0,0:0:0:0:
36,192,273357,1,0,0:0:0:0:
402,192,273357,1,0,0:0:0:0:
329,192,273357,1,8,0:0:0:0:
109,192,273357,1,0,0:0:0:50:LR_Snare Low Wet.wav
182,192,273436,1,0,0:0:0:0:
256,192,273515,1,0,0:0:0:0:
329,192,273515,1,0,0:0:0:0:
475,192,273515,1,0,0:0:0:0:
182,192,273594,1,0,0:0:0:0:
36,192,273673,1,0,0:0:0:0:
109,192,273673,1,0,0:0:0:0:
402,192,273673,1,0,0:0:0:0:
475,192,273673,1,0,0:0:0:0:
256,192,273673,1,0,0:0:0:50:LR_Snare Low Wet.wav
329,192,273752,1,0,0:0:0:0:
182,192,273831,1,0,0:0:0:0:
36,192,273831,1,0,0:0:0:0:
402,192,273831,1,0,0:0:0:0:
256,192,273910,1,0,0:0:0:0:
36,192,273989,1,0,0:0:0:0:
182,192,273989,1,0,0:0:0:0:
475,192,273989,1,0,0:0:0:0:
329,192,273989,1,8,0:0:0:0:
109,192,273989,1,0,0:0:0:50:LR_Snare Low Wet.wav
256,192,274068,1,0,0:0:0:0:
182,192,274147,1,0,0:0:0:0:
402,192,274147,1,0,0:0:0:0:
475,192,274147,1,0,0:0:0:0:
329,192,274226,1,0,0:0:0:0:
182,192,274305,1,0,0:0:0:0:
36,192,274305,1,0,0:0:0:0:
402,192,274305,1,0,0:0:0:0:
475,192,274305,1,0,0:0:0:0:
109,192,274305,1,0,0:0:0:50:LR_Snare Low Wet.wav
256,192,274384,1,0,0:0:0:0:
402,192,274462,1,0,0:0:0:0:
182,192,274462,1,0,0:0:0:0:
109,192,274462,1,0,0:0:0:0:
329,192,274462,1,0,0:0:0:50:LR_Snare Low Wet.wav
256,192,274541,1,0,0:0:0:0:
36,192,274620,1,0,0:0:0:0:
475,192,274620,1,0,0:0:0:0:
182,192,274620,1,0,0:0:0:0:
402,192,274620,1,0,0:0:0:50:LR_Snare Low Wet.wav
109,192,274620,1,8,0:0:0:0:
329,192,274699,1,0,0:0:0:0:
36,192,274778,1,0,0:0:0:0:
256,192,274778,1,0,0:0:0:0:
402,192,274778,1,0,0:0:0:0:
109,192,274778,1,0,0:0:0:50:LR_Snare Low Wet.wav
329,192,274857,1,0,0:0:0:0:
402,192,274936,1,0,0:0:0:0:
475,192,274936,1,0,0:0:0:0:
109,192,274936,1,0,0:0:0:0:
36,192,274936,1,4,0:0:0:0:
182,192,274936,1,0,0:0:0:50:LR_Snare Low Wet.wav
256,192,275015,1,0,0:0:0:0:
109,192,275094,1,0,0:0:0:0:
36,192,275094,1,0,0:0:0:0:
329,192,275094,1,0,0:0:0:0:
475,192,275094,1,0,0:0:0:50:LR_Snare Low Wet.wav
182,192,275173,1,0,0:0:0:0:
475,192,275252,1,0,0:0:0:0:
36,192,275252,1,0,0:0:0:0:
402,192,275252,1,0,0:0:0:0:
329,192,275252,1,8,0:0:0:0:
256,192,275252,1,0,0:0:0:50:LR_Snare Low Wet.wav
182,192,275331,1,0,0:0:0:0:
329,192,275410,1,0,0:0:0:0:
475,192,275410,1,0,0:0:0:0:
36,192,275410,1,0,0:0:0:0:
109,192,275410,1,0,0:0:0:50:LR_Snare Low Wet.wav
256,192,275489,1,0,0:0:0:0:
402,192,275568,1,0,0:0:0:0:
329,192,275568,1,0,0:0:0:0:
475,192,275568,1,0,0:0:0:0:
109,192,275568,1,0,0:0:0:0:
36,192,275568,1,4,0:0:0:0:
182,192,275568,1,0,0:0:0:50:LR_Snare Low Wet.wav
256,192,275647,1,0,0:0:0:0:
402,192,275726,1,0,0:0:0:0:
36,192,275726,1,0,0:0:0:0:
109,192,275726,1,0,0:0:0:0:
182,192,275726,1,0,0:0:0:50:LR_Snare Low Wet.wav
256,192,275805,1,0,0:0:0:0:
109,192,275884,1,0,0:0:0:0:
36,192,275884,1,0,0:0:0:0:
329,192,275884,1,0,0:0:0:0:
475,192,275884,1,8,0:0:0:0:
402,192,275884,1,0,0:0:0:50:LR_Snare Low Wet.wav
182,192,275962,1,0,0:0:0:0:
256,192,276041,1,0,0:0:0:0:
475,192,276041,1,0,0:0:0:0:
402,192,276041,1,0,0:0:0:50:LR_Snare Low Wet.wav
182,192,276120,1,0,0:0:0:0:
329,192,276120,1,0,0:0:0:50:LR_Snare Low Wet.wav
475,192,276199,1,0,0:0:0:0:
402,192,276199,1,0,0:0:0:0:
256,192,276199,1,0,0:0:0:0:
36,192,276199,1,0,0:0:0:50:LR_Snare Low Wet.wav
109,192,276199,1,4,0:0:0:0:
182,192,276278,1,0,0:0:0:0:
36,192,276357,1,0,0:0:0:0:
109,192,276357,1,0,0:0:0:0:
256,192,276357,1,0,0:0:0:0:
329,192,276357,1,0,0:0:0:50:LR_Snare Low Wet.wav
182,192,276436,1,0,0:0:0:0:
329,192,276515,1,0,0:0:0:0:
256,192,276515,1,0,0:0:0:0:
402,192,276515,1,8,0:0:0:0:
36,192,276515,1,0,0:0:0:50:LR_Snare Low Wet.wav
475,192,276515,1,4,0:0:0:0:
109,192,276594,1,0,0:0:0:0:
402,192,276673,1,0,0:0:0:0:
475,192,276673,1,0,0:0:0:0:
329,192,276673,1,0,0:0:0:0:
36,192,276673,1,0,0:0:0:50:LR_Snare Low Wet.wav
182,192,276752,1,0,0:0:0:0:
256,192,276752,1,0,0:0:0:50:LR_Snare Low Wet.wav
475,192,276831,1,0,0:0:0:0:
329,192,276831,1,0,0:0:0:0:
402,192,276831,1,0,0:0:0:0:
36,192,276831,1,0,0:0:0:50:LR_Snare Low Wet.wav
109,192,276831,1,4,0:0:0:0:
256,192,276910,1,0,0:0:0:0:
182,192,276989,1,0,0:0:0:0:
109,192,276989,1,0,0:0:0:0:
36,192,276989,1,0,0:0:0:0:
402,192,276989,1,0,0:0:0:50:LR_Snare Low Wet.wav
329,192,277068,1,0,0:0:0:0:
182,192,277147,1,0,0:0:0:0:
475,192,277147,1,0,0:0:0:0:
109,192,277147,1,0,0:0:0:0:
402,192,277147,1,0,0:0:0:50:LR_Snare Low Wet.wav
256,192,277147,1,8,0:0:0:0:
329,192,277226,1,0,0:0:0:0:
109,192,277305,1,0,0:0:0:0:
36,192,277305,1,0,0:0:0:0:
256,192,277305,1,0,0:0:0:50:LR_Snare Low Wet.wav
329,192,277384,1,0,0:0:0:0:
182,192,277384,1,0,0:0:0:50:LR_Snare Low Wet.wav
402,192,277462,1,0,0:0:0:0:
256,192,277462,1,0,0:0:0:0:
475,192,277462,1,0,0:0:0:0:
36,192,277462,1,4,0:0:0:0:
109,192,277462,1,0,0:0:0:50:LR_Snare Low Wet.wav
329,192,277541,1,0,0:0:0:0:
256,192,277620,1,0,0:0:0:0:
475,192,277620,1,0,0:0:0:0:
402,192,277620,1,0,0:0:0:50:LR_Snare Low Wet.wav
36,192,277699,1,0,0:0:0:0:
182,192,277699,1,0,0:0:0:50:LR_Snare Low Wet.wav
109,192,277778,1,0,0:0:0:0:
256,192,277778,1,0,0:0:0:0:
475,192,277778,1,4,0:0:0:0:
402,192,277778,1,0,0:0:0:50:LR_Snare Low Wet.wav
329,192,277778,1,8,0:0:0:0:
182,192,277857,1,0,0:0:0:0:
475,192,277936,1,0,0:0:0:0:
36,192,277936,1,0,0:0:0:0:
402,192,277936,1,0,0:0:0:50:LR_Snare Low Wet.wav
256,192,278015,1,0,0:0:0:0:
329,192,278015,1,0,0:0:0:50:LR_Snare Low Wet.wav
36,192,278094,1,0,0:0:0:0:
182,192,278094,1,0,0:0:0:0:
475,192,278094,1,0,0:0:0:0:
402,192,278094,1,4,0:0:0:0:
109,192,278094,1,0,0:0:0:50:LR_Snare Low Wet.wav
329,192,278173,1,0,0:0:0:0:
256,192,278173,1,0,0:0:0:50:LR_Snare Low Wet.wav
109,192,278252,1,0,0:0:0:0:
182,192,278252,1,0,0:0:0:0:
36,192,278252,1,0,0:0:0:50:LR_Snare Low Wet.wav
402,192,278331,1,0,0:0:0:0:
475,192,278331,1,0,0:0:0:50:LR_Snare Low Wet.wav
256,192,278410,1,0,0:0:0:0:
109,192,278410,1,0,0:0:0:0:
36,192,278410,1,8,0:0:0:0:
329,192,278410,1,4,0:0:0:0:
182,192,278410,1,0,0:0:0:50:LR_Snare Low Wet.wav
256,192,278568,1,0,0:0:0:0:
475,192,278568,1,0,0:0:0:0:
182,192,278568,1,0,0:0:0:0:
402,192,278568,1,0,0:0:0:50:LR_Snare Low Wet.wav
36,192,278726,1,0,0:0:0:0:
109,192,278726,1,0,0:0:0:0:
402,192,278726,1,4,0:0:0:0:
475,192,278726,1,0,0:0:0:50:LR_Snare Low Wet.wav
256,192,278805,1,0,0:0:0:0:
329,192,278805,1,0,0:0:0:0:
182,192,278805,1,0,0:0:0:50:LR_Snare Low Wet.wav
36,192,278884,1,0,0:0:0:50:LR_Snare Low Wet.wav
182,192,278962,1,0,0:0:0:0:
256,192,278962,1,0,0:0:0:0:
329,192,278962,1,0,0:0:0:50:LR_Snare Low Wet.wav
36,192,279041,1,0,0:0:0:0:
109,192,279041,1,8,0:0:0:0:
475,192,279041,1,4,0:0:0:0:
402,192,279041,1,0,0:0:0:50:LR_Snare Low Wet.wav
256,192,279120,1,0,0:0:0:0:
182,192,279120,1,0,0:0:0:50:LR_Snare Low Wet.wav
329,192,279199,1,0,0:0:0:0:
475,192,279199,1,0,0:0:0:0:
402,192,279199,1,0,0:0:0:50:LR_Snare Low Wet.wav
36,192,279278,1,0,0:0:0:0:
109,192,279278,1,0,0:0:0:50:LR_Snare Low Wet.wav
402,192,279357,1,0,0:0:0:0:
256,192,279357,1,0,0:0:0:0:
329,192,279357,1,4,0:0:0:0:
475,192,279357,1,0,0:0:0:50:LR_Snare Low Wet.wav
182,192,279410,1,0,0:0:0:50:LR_Snare Low Wet.wav
109,192,279462,1,0,0:0:0:50:LR_Snare Low Wet.wav
36,192,279515,1,0,0:0:0:0:
329,192,279515,1,0,0:0:0:50:LR_Snare Low Wet.wav
256,192,279568,1,0,0:0:0:50:LR_Snare Low Wet.wav
182,192,279620,1,0,0:0:0:50:LR_Snare Low Wet.wav
475,192,279673,1,0,0:0:0:0:
36,192,279673,1,0,0:0:0:50:LR_Snare Low Wet.wav
109,192,279673,1,8,0:0:0:0:
402,192,279673,1,4,0:0:0:0:
329,192,279726,1,0,0:0:0:50:LR_Snare Low Wet.wav
256,192,279778,1,0,0:0:0:50:LR_Snare Low Wet.wav
182,192,279831,1,0,0:0:0:0:
402,192,279831,1,0,0:0:0:50:LR_Snare Low Wet.wav
329,192,279884,1,0,0:0:0:50:LR_Snare Low Wet.wav
256,192,279936,1,0,0:0:0:50:LR_Snare Low Wet.wav
475,192,279989,1,0,0:0:0:0:
402,192,279989,1,0,0:0:0:0:
109,192,279989,1,2,0:0:0:0:
182,192,279989,128,4,280068:0:0:0:0:
36,192,279989,1,0,0:0:0:50:LR_Snare Low Wet.wav
256,192,280147,128,0,280226:0:0:0:0:
475,192,280305,1,0,0:0:0:0:
329,192,280305,128,0,280384:0:0:0:0:
36,192,280305,1,0,0:0:0:0:
182,192,280305,1,0,0:0:0:50:LR_Snare Low Wet.wav
182,192,280462,128,0,280541:0:0:0:0:
329,192,280620,1,0,0:0:0:0:
36,192,280620,1,0,0:0:0:0:
475,192,280620,128,0,280699:0:0:0:0:
182,192,280620,1,0,0:0:0:50:LR_Snare Low Wet.wav
402,192,280778,128,0,280857:0:0:0:0:
36,192,280936,1,0,0:0:0:0:
329,192,280936,128,0,281015:0:0:0:0:
182,192,280936,1,0,0:0:0:0:
475,192,280936,1,0,0:0:0:50:LR_Snare Low Wet.wav
109,192,281094,1,0,0:0:0:0:
256,192,281094,128,0,281173:0:0:0:0:
402,192,281094,1,2,0:0:0:0:
475,192,281252,1,0,0:0:0:0:
402,192,281252,1,0,0:0:0:0:
329,192,281252,1,0,0:0:0:0:
109,192,281252,1,0,0:0:0:0:
36,192,281252,128,4,281331:0:0:0:0:
182,192,281252,1,0,0:0:0:50:LR_Snare Low Wet.wav
109,192,281410,128,0,281489:0:0:0:0:
36,192,281568,1,0,0:0:0:0:
329,192,281568,1,0,0:0:0:0:
475,192,281568,1,0,0:0:0:0:
182,192,281568,128,0,281647:0:0:0:50:LR_Snare Low Wet.wav
36,192,281726,128,0,281805:0:0:0:0:
36,192,281884,1,0,0:0:0:0:
475,192,281884,1,0,0:0:0:0:
182,192,281884,128,0,281962:0:0:0:0:
329,192,281884,1,0,0:0:0:50:LR_Snare Low Wet.wav
256,192,282041,128,0,282120:0:0:0:0:
329,192,282199,128,0,282278:0:0:0:0:
182,192,282199,1,0,0:0:0:0:
475,192,282199,1,2,0:0:0:0:
36,192,282199,1,0,0:0:0:50:LR_Snare Low Wet.wav
256,192,282357,1,0,0:0:0:0:
402,192,282357,128,0,282436:0:0:0:0:
109,192,282357,1,2,0:0:0:0:
182,192,282436,1,2,0:0:0:0:
256,192,282515,1,0,0:0:0:0:
402,192,282515,1,0,0:0:0:0:
109,192,282515,1,0,0:0:0:0:
329,192,282515,128,0,282594:0:0:0:0:
36,192,282515,1,4,0:0:0:0:
475,192,282515,1,0,0:0:0:50:LR_Snare Low Wet.wav
256,192,282673,128,0,282752:0:0:0:0:
182,192,282673,1,0,0:0:0:0:
36,192,282831,1,0,0:0:0:0:
182,192,282831,128,0,282910:0:0:0:0:
475,192,282831,1,0,0:0:0:0:
329,192,282831,1,0,0:0:0:50:LR_Snare Low Wet.wav
256,192,282989,1,0,0:0:0:0:
329,192,282989,128,0,283068:0:0:0:0:
329,192,283147,1,0,0:0:0:0:
36,192,283147,128,0,283226:0:0:0:0:
475,192,283147,1,0,0:0:0:0:
182,192,283147,1,0,0:0:0:50:LR_Snare Low Wet.wav
109,192,283305,128,0,283384:0:0:0:0:
402,192,283305,1,0,0:0:0:0:
256,192,283462,1,0,0:0:0:0:
109,192,283462,1,0,0:0:0:0:
182,192,283462,128,0,283541:0:0:0:30:LR4_SnareKKF.wav
36,192,283462,1,0,0:0:0:50:LR_Snare Low Wet.wav
329,192,283502,1,0,0:0:0:30:LR4_SnareKKF.wav
402,192,283541,1,0,0:0:0:30:LR4_SnareKKF.wav
475,192,283581,1,0,0:0:0:30:LR4_SnareKKF.wav
109,192,283620,1,0,0:0:0:0:
36,192,283620,1,0,0:0:0:0:
256,192,283620,128,2,283699:0:0:0:0:
182,192,283699,1,2,0:0:0:0:
36,192,283778,1,0,0:0:0:0:
475,192,283778,128,0,283857:0:0:0:0:
109,192,283778,1,0,0:0:0:0:
329,192,283778,1,0,0:0:0:0:
256,192,283778,1,4,0:0:0:0:
402,192,283778,1,0,0:0:0:50:LR_Snare Low Wet.wav
402,192,283936,128,0,284015:0:0:0:0:
182,192,283936,1,0,0:0:0:0:
329,192,284094,128,0,284173:0:0:0:0:
475,192,284094,1,0,0:0:0:0:
182,192,284094,1,0,0:0:0:0:
36,192,284094,1,0,0:0:0:50:LR_Snare Low Wet.wav
475,192,284252,128,0,284331:0:0:0:0:
256,192,284252,1,0,0:0:0:0:
329,192,284410,128,0,284489:0:0:0:0:
475,192,284410,1,0,0:0:0:0:
36,192,284410,1,0,0:0:0:0:
182,192,284410,1,2,0:0:0:0:
109,192,284410,1,0,0:0:0:50:LR_Snare Low Wet.wav
402,192,284568,1,0,0:0:0:0:
256,192,284568,128,0,284647:0:0:0:0:
475,192,284726,1,0,0:0:0:0:
182,192,284726,128,0,284805:0:0:0:0:
329,192,284726,1,0,0:0:0:0:
109,192,284726,1,0,0:0:0:50:LR_Snare Low Wet.wav
36,192,284726,1,2,0:0:0:0:
109,192,284884,128,0,284962:0:0:0:0:
402,192,284884,1,0,0:0:0:0:
256,192,284884,1,0,0:0:0:0:
36,192,285041,128,0,285594:0:0:0:0:
329,192,285041,128,0,285120:0:0:0:0:
475,192,285041,128,0,285120:0:0:0:0:
256,192,285041,1,2,0:0:0:0:
109,192,285041,128,0,285436:0:0:0:50:LR_Snare Low Wet.wav
182,192,285041,128,4,285278:0:0:0:0:
475,192,285199,1,0,0:0:0:0:
256,192,285199,128,0,285278:0:0:0:0:
402,192,285199,128,0,285278:0:0:0:50:LR_Snare Low Wet.wav
182,192,285357,128,0,285436:0:0:0:0:
329,192,285357,128,0,285436:0:0:0:0:
402,192,285357,1,2,0:0:0:0:
475,192,285357,1,0,0:0:0:50:LR_Snare Low Wet.wav
475,192,285515,1,0,0:0:0:0:
402,192,285515,1,0,0:0:0:0:
109,192,285515,128,0,285594:0:0:0:0:
256,192,285515,128,0,285594:0:0:0:50:LR_Snare Low Wet.wav
475,192,285673,128,0,286226:0:0:0:0:
402,192,285673,128,0,286068:0:0:0:0:
256,192,285673,1,0,0:0:0:0:
36,192,285673,128,2,285752:0:0:0:0:
182,192,285673,128,0,285752:0:0:0:50:LR_Snare Low Wet.wav
329,192,285673,128,4,285910:0:0:0:0:
256,192,285831,128,0,285910:0:0:0:0:
36,192,285831,1,0,0:0:0:0:
109,192,285831,128,0,285910:0:0:0:50:LR_Snare Low Wet.wav
36,192,285989,1,0,0:0:0:0:
329,192,285989,128,0,286068:0:0:0:0:
109,192,285989,1,2,0:0:0:0:
182,192,285989,128,0,286068:0:0:0:50:LR_Snare Low Wet.wav
402,192,286147,128,0,286226:0:0:0:0:
256,192,286147,128,0,286226:0:0:0:0:
36,192,286147,1,2,0:0:0:0:
109,192,286147,1,0,0:0:0:50:LR_Snare Low Wet.wav
256,192,286305,1,0,0:0:0:0:
329,192,286305,1,0,0:0:0:0:
475,192,286305,1,0,0:0:0:0:
36,192,286305,128,4,286541:0:0:0:0:
109,192,286305,128,0,286502:0:0:0:50:LR_Snare Low Wet.wav
182,192,286305,128,2,286462:0:0:0:0:
475,192,286462,1,0,0:0:0:0:
329,192,286462,1,0,0:0:0:50:LR_Snare Low Wet.wav
402,192,286462,1,2,0:0:0:0:
256,192,286541,1,0,0:0:0:0:
402,192,286620,1,0,0:0:0:0:
109,192,286620,1,0,0:0:0:0:
475,192,286620,1,0,0:0:0:0:
36,192,286620,1,0,0:0:0:50:LR_Snare Low Wet.wav
182,192,286620,1,2,0:0:0:0:
475,192,286778,1,0,0:0:0:0:
36,192,286778,1,0,0:0:0:0:
329,192,286778,1,0,0:0:0:30:LR4_SnareKKF.wav
256,192,286818,1,0,0:0:0:30:LR4_SnareKKF.wav
182,192,286857,1,0,0:0:0:30:LR4_SnareKKF.wav
109,192,286897,1,0,0:0:0:30:LR4_SnareKKF.wav
329,192,286936,128,0,287094:0:0:0:0:
256,192,286936,1,0,0:0:0:0:
36,192,286936,1,2,0:0:0:0:
402,192,286936,128,0,287134:0:0:0:50:LR_Snare Low Wet.wav
475,192,286936,128,4,287173:0:0:0:0:
36,192,287094,1,0,0:0:0:0:
109,192,287094,1,2,0:0:0:0:
182,192,287094,1,0,0:0:0:50:LR_Snare Low Wet.wav
256,192,287173,1,0,0:0:0:0:
329,192,287252,1,0,0:0:0:0:
475,192,287252,1,0,0:0:0:0:
36,192,287252,1,0,0:0:0:30:LR4_SnareKKF.wav
109,192,287291,1,0,0:0:0:30:LR4_SnareKKF.wav
402,192,287331,1,0,0:0:0:0:
182,192,287331,1,0,0:0:0:30:LR4_SnareKKF.wav
36,192,287410,1,0,0:0:0:0:
256,192,287410,1,0,0:0:0:0:
475,192,287410,1,0,0:0:0:30:LR4_SnareKKF.wav
109,192,287489,1,0,0:0:0:30:LR4_SnareKKF.wav
402,192,287568,1,0,0:0:0:0:
475,192,287568,1,0,0:0:0:50:LR_Snare Low Wet.wav
182,192,287568,1,2,0:0:0:0:
329,192,287568,1,4,0:0:0:0:
109,192,287647,1,0,0:0:0:0:
36,192,287647,1,0,0:0:0:0:
256,192,287647,1,0,0:0:0:50:LR_Snare Low Wet.wav
475,192,287726,1,0,0:0:0:0:
402,192,287726,1,0,0:0:0:0:
182,192,287726,1,0,0:0:0:50:LR_Snare Low Wet.wav
329,192,287805,1,0,0:0:0:0:
256,192,287805,1,0,0:0:0:0:
109,192,287805,1,0,0:0:0:50:LR_Snare Low Wet.wav
402,192,287884,1,0,0:0:0:0:
475,192,287884,1,2,0:0:0:0:
36,192,287884,1,4,0:0:0:0:
182,192,287884,1,0,0:0:0:50:LR_Snare Low Wet.wav
329,192,287962,1,0,0:0:0:0:
256,192,287962,1,0,0:0:0:0:
109,192,287962,1,0,0:0:0:50:LR_Snare Low Wet.wav
475,192,288041,1,0,0:0:0:0:
182,192,288041,1,0,0:0:0:0:
36,192,288041,1,0,0:0:0:50:LR_Snare Low Wet.wav
402,192,288120,1,0,0:0:0:0:
256,192,288120,1,0,0:0:0:0:
329,192,288120,1,0,0:0:0:50:LR_Snare Low Wet.wav
475,192,288199,1,0,0:0:0:0:
182,192,288199,1,0,0:0:0:50:LR_Snare Low Wet.wav
36,192,288199,1,4,0:0:0:0:
109,192,288199,1,2,0:0:0:0:
329,192,288278,1,0,0:0:0:0:
256,192,288278,1,0,0:0:0:0:
402,192,288278,1,0,0:0:0:50:LR_Snare Low Wet.wav
182,192,288357,1,0,0:0:0:0:
109,192,288357,1,0,0:0:0:0:
36,192,288357,1,0,0:0:0:50:LR_Snare Low Wet.wav
402,192,288436,1,0,0:0:0:0:
475,192,288436,1,0,0:0:0:0:
329,192,288436,1,0,0:0:0:50:LR_Snare Low Wet.wav
182,192,288515,1,0,0:0:0:0:
256,192,288515,1,0,0:0:0:0:
36,192,288515,1,0,0:0:0:30:LR4_SnareKKF.wav
109,192,288515,1,4,0:0:0:0:
329,192,288555,1,0,0:0:0:30:LR4_SnareKKF.wav
475,192,288594,1,0,0:0:0:0:
402,192,288594,1,0,0:0:0:30:LR4_SnareKKF.wav
109,192,288673,1,0,0:0:0:0:
36,192,288673,1,0,0:0:0:50:LR_Snare Low Wet.wav
182,192,288673,1,2,0:0:0:0:
329,192,288752,1,0,0:0:0:0:
256,192,288752,1,2,0:0:0:0:
402,192,288752,1,0,0:0:0:50:LR_Snare Low Wet.wav
36,192,288831,1,0,0:0:0:0:
182,192,288831,1,0,0:0:0:50:LR_Snare Low Wet.wav
109,192,288831,1,2,0:0:0:0:
475,192,288831,1,4,0:0:0:0:
402,192,288884,1,0,0:0:0:50:LR_Snare Low Wet.wav
329,192,288936,1,0,0:0:0:50:LR_Snare Low Wet.wav
109,192,288989,1,0,0:0:0:0:
475,192,288989,1,0,0:0:0:0:
182,192,288989,1,0,0:0:0:50:LR_Snare Low Wet.wav
36,192,288989,1,2,0:0:0:0:
256,192,289041,1,0,0:0:0:50:LR_Snare Low Wet.wav
329,192,289094,1,0,0:0:0:50:LR_Snare Low Wet.wav
109,192,289147,1,0,0:0:0:0:
36,192,289147,1,0,0:0:0:50:LR_Snare Low Wet.wav
475,192,289147,1,2,0:0:0:0:
402,192,289147,1,4,0:0:0:0:
182,192,289199,1,0,0:0:0:50:LR_Snare Low Wet.wav
256,192,289252,1,0,0:0:0:50:LR_Snare Low Wet.wav
475,192,289305,1,0,0:0:0:0:
36,192,289305,1,0,0:0:0:0:
329,192,289305,1,0,0:0:0:0:
109,192,289305,1,0,0:0:0:50:LR_Snare Low Wet.wav
182,192,289357,1,0,0:0:0:50:LR_Snare Low Wet.wav
256,192,289410,1,0,0:0:0:50:LR_Snare Low Wet.wav
475,192,289462,1,0,0:0:0:0:
402,192,289462,1,0,0:0:0:50:LR_Snare Low Wet.wav
36,192,289462,1,2,0:0:0:0:
329,192,289462,1,4,0:0:0:0:
109,192,289515,1,0,0:0:0:50:LR_Snare Low Wet.wav
182,192,289568,1,0,0:0:0:50:LR_Snare Low Wet.wav
329,192,289620,1,0,0:0:0:0:
402,192,289620,1,0,0:0:0:0:
256,192,289620,1,0,0:0:0:50:LR_Snare Low Wet.wav
475,192,289620,1,2,0:0:0:0:
182,192,289673,1,0,0:0:0:50:LR_Snare Low Wet.wav
109,192,289726,1,0,0:0:0:50:LR_Snare Low Wet.wav
475,192,289778,1,0,0:0:0:0:
329,192,289778,1,0,0:0:0:50:LR_Snare Low Wet.wav
402,192,289778,1,2,0:0:0:0:
36,192,289778,1,4,0:0:0:0:
256,192,289831,1,0,0:0:0:50:LR_Snare Low Wet.wav
182,192,289884,1,0,0:0:0:50:LR_Snare Low Wet.wav
402,192,289936,1,0,0:0:0:0:
475,192,289936,1,0,0:0:0:0:
36,192,289936,1,2,0:0:0:0:
109,192,289936,1,0,0:0:0:50:LR_Snare Low Wet.wav
329,192,289989,1,0,0:0:0:50:LR_Snare Low Wet.wav
256,192,290041,1,0,0:0:0:50:LR_Snare Low Wet.wav
36,192,291357,128,0,291594:0:0:0:0:
109,192,291357,128,0,291910:0:0:0:0:
475,192,291357,128,0,291594:0:0:0:0:
402,192,291357,128,0,291436:0:0:0:100:twinkling.wav
329,192,291357,128,0,291436:0:0:0:70:LR_CymbalWWT.wav
182,192,291357,128,2,291436:0:0:0:0:
256,192,291515,128,0,291752:0:0:0:0:
182,192,291515,128,0,291594:0:0:0:0:
402,192,291515,128,0,291594:0:0:0:0:
402,192,291673,128,0,292068:0:0:0:0:
329,192,291673,128,0,291752:0:0:0:0:
475,192,291673,128,2,291752:0:0:0:0:
36,192,291673,128,8,291752:0:0:0:0:
36,192,291831,128,0,291910:0:0:0:0:
475,192,291831,128,0,292068:0:0:0:0:
256,192,291831,128,0,291910:0:0:0:0:
256,192,291989,128,0,292541:0:0:0:0:
36,192,291989,128,0,292226:0:0:0:0:
182,192,291989,128,0,292068:0:0:0:0:
109,192,291989,128,0,292068:0:0:0:0:
329,192,291989,128,2,292068:0:0:0:0:
475,192,292147,128,0,292226:0:0:0:0:
182,192,292147,128,0,292384:0:0:0:0:
329,192,292147,128,0,292226:0:0:0:0:
36,192,292305,128,0,292541:0:0:0:0:
475,192,292305,128,0,292541:0:0:0:0:
109,192,292305,128,8,292384:0:0:0:0:
402,192,292305,128,2,292384:0:0:0:0:
402,192,292462,128,0,292857:0:0:0:0:
182,192,292462,128,0,292541:0:0:0:0:
329,192,292462,128,0,292541:0:0:0:0:
36,192,292620,128,0,292857:0:0:0:0:
109,192,292620,128,0,293173:0:0:0:0:
475,192,292620,128,0,292699:0:0:0:0:
256,192,292620,128,2,292857:0:0:0:0:
475,192,292778,128,0,292857:0:0:0:0:
182,192,292778,128,0,293015:0:0:0:0:
329,192,292778,128,0,292857:0:0:0:0:
36,192,292936,128,0,293015:0:0:0:0:
256,192,292936,128,0,293015:0:0:0:0:
402,192,292936,128,8,293331:0:0:0:0:
475,192,292936,128,2,293173:0:0:0:0:
182,192,293094,128,0,293173:0:0:0:0:
329,192,293094,128,0,293173:0:0:0:0:
109,192,293252,128,0,293331:0:0:0:0:
475,192,293252,128,0,293331:0:0:0:0:
256,192,293252,128,0,293805:0:0:0:0:
36,192,293252,128,2,293489:0:0:0:0:
329,192,293410,128,0,293489:0:0:0:0:
182,192,293410,128,0,293489:0:0:0:0:
475,192,293410,128,0,293647:0:0:0:0:
36,192,293568,128,0,293805:0:0:0:0:
402,192,293568,128,0,293805:0:0:0:0:
109,192,293568,128,8,293647:0:0:0:0:
182,192,293568,128,2,293647:0:0:0:0:
475,192,293726,128,0,293805:0:0:0:0:
182,192,293726,128,0,293962:0:0:0:0:
329,192,293726,128,0,293805:0:0:0:0:
475,192,293884,128,0,294120:0:0:0:0:
256,192,293884,128,0,293962:0:0:0:0:
402,192,293884,128,0,293962:0:0:0:0:
109,192,293884,128,2,294120:0:0:0:0:
182,192,294041,128,0,294120:0:0:0:0:
329,192,294041,128,0,294436:0:0:0:0:
36,192,294041,128,0,294278:0:0:0:0:
402,192,294199,128,0,294278:0:0:0:0:
475,192,294199,128,0,294752:0:0:0:0:
109,192,294199,128,8,294436:0:0:0:0:
256,192,294199,128,2,294278:0:0:0:0:
402,192,294357,128,0,294436:0:0:0:0:
36,192,294357,128,0,294436:0:0:0:0:
182,192,294357,128,0,294594:0:0:0:0:
109,192,294515,128,0,294594:0:0:0:0:
329,192,294515,128,0,294752:0:0:0:0:
256,192,294515,128,0,294594:0:0:0:0:
36,192,294515,128,2,294752:0:0:0:0:
182,192,294673,128,0,294752:0:0:0:0:
256,192,294673,128,0,295068:0:0:0:0:
402,192,294673,128,0,294752:0:0:0:0:
109,192,294831,128,0,295068:0:0:0:0:
402,192,294831,128,0,295226:0:0:0:0:
36,192,294831,128,8,294910:0:0:0:0:
475,192,294831,128,2,295068:0:0:0:0:
182,192,294989,128,0,295068:0:0:0:0:
329,192,294989,128,0,295068:0:0:0:0:
36,192,294989,128,0,295068:0:0:0:0:
256,192,295147,128,0,295226:0:0:0:0:
109,192,295147,128,0,295541:0:0:0:0:
36,192,295147,128,0,295384:0:0:0:0:
475,192,295147,128,2,295384:0:0:0:0:
182,192,295305,128,0,295384:0:0:0:0:
402,192,295305,128,0,295541:0:0:0:0:
256,192,295384,128,0,295462:0:0:0:0:
329,192,295462,128,0,295699:0:0:0:0:
475,192,295462,128,0,295699:0:0:0:0:
182,192,295462,128,2,295699:0:0:0:0:
36,192,295462,128,8,295699:0:0:0:0:
256,192,295620,128,0,295857:0:0:0:0:
109,192,295778,128,0,296015:0:0:0:0:
475,192,295778,128,0,296015:0:0:0:0:
36,192,295778,128,0,295857:0:0:0:0:
329,192,295778,128,0,295857:0:0:0:0:
402,192,295778,128,2,296015:0:0:0:0:
36,192,295936,128,0,296015:0:0:0:0:
256,192,295936,128,0,296173:0:0:0:0:
182,192,295936,128,0,296015:0:0:0:0:
36,192,296094,128,0,296331:0:0:0:0:
475,192,296094,128,0,296173:0:0:0:0:
182,192,296094,128,0,296331:0:0:0:0:
329,192,296094,128,8,296331:0:0:0:0:
109,192,296094,128,2,296173:0:0:0:0:
402,192,296252,128,0,296331:0:0:0:0:
256,192,296252,128,0,296331:0:0:0:0:
475,192,296252,128,0,296331:0:0:0:0:
329,192,296410,128,0,296647:0:0:0:0:
475,192,296410,128,0,296489:0:0:0:0:
36,192,296410,128,0,296489:0:0:0:0:
256,192,296410,128,0,296962:0:0:0:0:
182,192,296410,128,2,296489:0:0:0:0:
109,192,296568,128,0,296647:0:0:0:0:
402,192,296568,128,0,296647:0:0:0:0:
475,192,296568,128,0,296647:0:0:0:0:
475,192,296726,128,0,296962:0:0:0:0:
182,192,296726,128,0,296805:0:0:0:0:
402,192,296726,128,8,296962:0:0:0:0:
36,192,296726,128,2,296962:0:0:0:0:
109,192,296884,128,0,296962:0:0:0:0:
182,192,296884,128,0,296962:0:0:0:0:
329,192,296884,128,0,297120:0:0:0:0:
36,192,297041,128,0,297278:0:0:0:0:
256,192,297041,128,0,297120:0:0:0:0:
109,192,297041,128,0,297278:0:0:0:0:
402,192,297041,128,2,297278:0:0:0:0:
256,192,297199,128,0,297436:0:0:0:0:
182,192,297199,128,0,297278:0:0:0:0:
475,192,297199,128,0,297278:0:0:0:0:
36,192,297357,128,0,297436:0:0:0:0:
402,192,297357,128,0,297594:0:0:0:0:
109,192,297357,128,8,297594:0:0:0:0:
475,192,297357,128,2,297594:0:0:0:0:
329,192,297515,128,0,297594:0:0:0:0:
182,192,297515,128,0,297594:0:0:0:0:
36,192,297515,128,0,297910:0:0:0:0:
402,192,297673,128,0,297910:0:0:0:0:
256,192,297673,128,0,297752:0:0:0:0:
109,192,297673,128,0,297910:0:0:0:0:
475,192,297673,128,2,297752:0:0:0:0:
329,192,297831,128,0,298068:0:0:0:0:
182,192,297831,128,0,297910:0:0:0:0:
475,192,297831,128,0,298068:0:0:0:0:
402,192,297989,128,0,298226:0:0:0:0:
36,192,297989,128,0,298226:0:0:0:0:
256,192,297989,128,8,298226:0:0:0:0:
109,192,297989,128,2,298068:0:0:0:0:
475,192,298147,128,0,298226:0:0:0:0:
329,192,298147,128,0,298384:0:0:0:0:
182,192,298147,128,0,298384:0:0:0:0:
36,192,298305,128,0,298384:0:0:0:0:
109,192,298305,128,0,298541:0:0:0:0:
475,192,298305,128,0,298541:0:0:0:0:
256,192,298305,128,2,298384:0:0:0:0:
36,192,298462,128,0,298857:0:0:0:0:
182,192,298462,128,0,298541:0:0:0:0:
329,192,298462,128,0,298699:0:0:0:0:
256,192,298620,128,0,298699:0:0:0:0:
475,192,298620,128,0,298857:0:0:0:0:
402,192,298620,128,8,298699:0:0:0:0:
109,192,298620,128,2,298857:0:0:0:0:
182,192,298778,128,0,298857:0:0:0:0:
329,192,298778,128,0,298857:0:0:0:0:
475,192,298936,128,0,299094:0:0:0:0:
36,192,298936,128,0,299094:0:0:0:0:
256,192,298936,128,2,299015:0:0:0:0:
109,192,299015,128,0,299173:0:0:0:0:
402,192,299015,128,0,299252:0:0:0:0:
182,192,299094,128,0,299252:0:0:0:0:
329,192,299094,128,0,299173:0:0:0:0:
475,192,299173,128,0,299331:0:0:0:0:
256,192,299173,128,0,299331:0:0:0:0:
36,192,299252,128,2,299410:0:0:0:0:
329,192,299252,128,8,299410:0:0:0:0:
109,192,299331,128,0,299568:0:0:0:0:
402,192,299331,128,0,299568:0:0:0:0:
182,192,299410,128,0,299489:0:0:0:0:
475,192,299410,128,0,299489:0:0:0:0:
329,192,299489,128,0,299647:0:0:0:0:
36,192,299489,128,0,299647:0:0:0:0:
256,192,299568,128,2,299726:0:0:0:0:
182,192,299647,128,0,299805:0:0:0:0:
475,192,299647,128,0,299805:0:0:0:0:
109,192,299726,128,0,299962:0:0:0:0:
402,192,299726,128,0,299962:0:0:0:0:
329,192,299805,128,0,299884:0:0:0:0:
36,192,299805,128,0,299884:0:0:0:0:
182,192,299884,128,8,300041:0:0:0:0:
475,192,299884,128,2,300041:0:0:0:0:
256,192,299962,128,0,300120:0:0:0:0:
329,192,300041,128,0,300199:0:0:0:0:
36,192,300041,128,0,300199:0:0:0:0:
109,192,300120,128,0,300357:0:0:0:0:
402,192,300120,128,0,300357:0:0:0:0:
182,192,300199,128,0,300278:0:0:0:0:
475,192,300199,128,2,300278:0:0:0:0:
329,192,300278,128,0,300436:0:0:0:0:
36,192,300278,128,0,300436:0:0:0:0:
256,192,300357,128,0,300515:0:0:0:0:
182,192,300436,128,0,300594:0:0:0:0:
475,192,300436,128,0,300594:0:0:0:0:
402,192,300515,128,8,300752:0:0:0:0:
109,192,300515,128,2,300752:0:0:0:0:
36,192,300594,128,0,300673:0:0:0:0:
329,192,300594,128,0,300673:0:0:0:0:
182,192,300673,128,0,300831:0:0:0:0:
475,192,300673,128,0,300910:0:0:0:0:
256,192,300752,128,0,300910:0:0:0:0:
329,192,300831,128,0,300910:0:0:0:0:
36,192,300831,128,0,300910:0:0:0:0:
402,192,300831,128,0,300910:0:0:0:0:
109,192,300831,128,2,300910:0:0:0:0:
182,192,300989,1,0,0:0:0:0:
402,192,300989,1,0,0:0:0:0:
256,192,301068,1,0,0:0:0:0:
475,192,301147,1,0,0:0:0:0:
109,192,301147,1,0,0:0:0:0:
402,192,301147,1,4,0:0:0:0:
329,192,301147,1,8,0:0:0:0:
36,192,301147,1,2,0:0:0:0:
182,192,301305,1,0,0:0:0:0:
475,192,301305,1,0,0:0:0:0:
329,192,301305,1,0,0:0:0:0:
109,192,301305,1,2,0:0:0:0:
36,192,301305,1,4,0:0:0:0:
109,192,301462,128,0,301541:0:0:0:0:
182,192,301462,128,0,301541:0:0:0:0:
329,192,301462,128,0,301541:0:0:0:0:
475,192,301462,128,0,301699:0:0:0:0:
402,192,301462,128,4,302015:0:0:0:0:
36,192,301462,128,2,301699:0:0:0:0:
109,192,301620,128,0,301699:0:0:0:0:
329,192,301620,128,0,301699:0:0:0:0:
256,192,301620,128,0,301857:0:0:0:0:
182,192,301778,128,0,301857:0:0:0:0:
475,192,301778,128,0,301857:0:0:0:0:
36,192,301778,128,8,301857:0:0:0:0:
109,192,301778,128,2,302173:0:0:0:0:
475,192,301936,128,0,302015:0:0:0:0:
36,192,301936,128,0,302173:0:0:0:0:
256,192,301936,128,0,302015:0:0:0:0:
402,192,302094,128,0,302173:0:0:0:0:
475,192,302094,128,0,302331:0:0:0:0:
329,192,302094,128,0,302173:0:0:0:0:
256,192,302094,128,0,302647:0:0:0:0:
182,192,302094,128,2,302173:0:0:0:0:
182,192,302252,128,0,302331:0:0:0:0:
36,192,302252,128,0,302331:0:0:0:0:
329,192,302252,128,0,302489:0:0:0:0:
36,192,302410,128,0,302647:0:0:0:0:
402,192,302410,128,0,302489:0:0:0:0:
109,192,302410,128,8,302489:0:0:0:0:
475,192,302410,128,2,302647:0:0:0:0:
329,192,302568,128,0,302647:0:0:0:0:
109,192,302568,128,0,302962:0:0:0:0:
182,192,302568,128,0,302647:0:0:0:0:
475,192,302726,128,0,302962:0:0:0:0:
402,192,302726,128,0,303278:0:0:0:0:
36,192,302726,128,0,302805:0:0:0:0:
256,192,302726,128,2,302962:0:0:0:0:
36,192,302884,128,0,302962:0:0:0:0:
329,192,302884,128,0,303120:0:0:0:0:
182,192,302884,128,0,302962:0:0:0:0:
36,192,303041,128,0,303278:0:0:0:0:
475,192,303041,128,0,303120:0:0:0:0:
256,192,303041,128,8,303120:0:0:0:0:
109,192,303041,128,2,303436:0:0:0:0:
182,192,303199,128,0,303278:0:0:0:0:
329,192,303199,128,0,303278:0:0:0:0:
36,192,303357,128,0,303436:0:0:0:0:
402,192,303357,128,0,303436:0:0:0:0:
256,192,303357,128,0,303910:0:0:0:0:
475,192,303357,128,2,303594:0:0:0:0:
182,192,303515,128,0,303594:0:0:0:0:
329,192,303515,128,0,303594:0:0:0:0:
36,192,303515,128,0,303752:0:0:0:0:
475,192,303673,128,0,303910:0:0:0:0:
402,192,303673,128,0,303752:0:0:0:0:
329,192,303673,128,8,303752:0:0:0:0:
109,192,303673,128,2,303910:0:0:0:0:
329,192,303831,128,0,304068:0:0:0:0:
182,192,303831,128,0,303910:0:0:0:0:
36,192,303831,128,0,303910:0:0:0:0:
402,192,303989,128,0,304226:0:0:0:0:
109,192,303989,128,0,304068:0:0:0:0:
256,192,303989,128,0,304068:0:0:0:0:
36,192,303989,128,2,304226:0:0:0:0:
109,192,304147,128,0,304541:0:0:0:0:
475,192,304147,128,0,304384:0:0:0:0:
329,192,304147,128,0,304226:0:0:0:0:
256,192,304305,128,0,304384:0:0:0:0:
402,192,304305,128,0,304541:0:0:0:0:
36,192,304305,128,8,304857:0:0:0:0:
182,192,304305,128,2,304384:0:0:0:0:
182,192,304462,128,0,304541:0:0:0:0:
475,192,304462,128,0,304541:0:0:0:0:
329,192,304462,128,0,304699:0:0:0:0:
402,192,304620,128,0,304699:0:0:0:0:
182,192,304620,128,0,304857:0:0:0:0:
256,192,304620,128,0,304699:0:0:0:0:
475,192,304620,128,2,304857:0:0:0:0:
256,192,304778,128,0,305173:0:0:0:0:
109,192,304778,128,0,304857:0:0:0:0:
329,192,304778,128,0,304857:0:0:0:0:
475,192,304936,128,0,305015:0:0:0:0:
36,192,304936,128,0,305173:0:0:0:0:
402,192,304936,128,8,305173:0:0:0:0:
109,192,304936,128,2,305331:0:0:0:0:
329,192,305094,128,0,305173:0:0:0:0:
182,192,305094,128,0,305173:0:0:0:0:
475,192,305094,128,0,305173:0:0:0:0:
475,192,305252,128,0,305489:0:0:0:0:
36,192,305252,128,0,305489:0:0:0:0:
256,192,305252,128,0,305331:0:0:0:0:
402,192,305252,128,2,305647:0:0:0:0:
329,192,305410,128,0,305489:0:0:0:0:
109,192,305410,128,0,305647:0:0:0:0:
256,192,305489,128,0,305568:0:0:0:0:
475,192,305568,128,0,305805:0:0:0:0:
36,192,305568,128,0,305805:0:0:0:0:
329,192,305568,128,8,305805:0:0:0:0:
182,192,305568,128,2,305805:0:0:0:0:
256,192,305726,128,0,305962:0:0:0:0:
329,192,305884,128,0,305962:0:0:0:0:
402,192,305884,128,0,306120:0:0:0:0:
36,192,305884,128,0,305962:0:0:0:0:
475,192,305884,128,0,306120:0:0:0:0:
109,192,305884,128,2,306120:0:0:0:0:
36,192,306041,128,0,306120:0:0:0:0:
182,192,306041,128,0,306120:0:0:0:0:
256,192,306041,128,0,306278:0:0:0:0:
109,192,306199,128,0,306278:0:0:0:0:
475,192,306199,128,0,306278:0:0:0:0:
36,192,306199,128,0,306436:0:0:0:0:
329,192,306199,128,8,306436:0:0:0:0:
182,192,306199,128,2,306436:0:0:0:0:
402,192,306357,128,0,306436:0:0:0:0:
475,192,306357,128,0,306436:0:0:0:0:
256,192,306357,128,0,306436:0:0:0:0:
329,192,306515,128,0,306594:0:0:0:0:
256,192,306515,128,0,307068:0:0:0:0:
475,192,306515,128,0,306594:0:0:0:0:
182,192,306515,128,4,306752:0:0:0:0:
36,192,306515,128,2,306594:0:0:0:0:
402,192,306673,128,0,306752:0:0:0:0:
109,192,306673,128,0,306752:0:0:0:0:
36,192,306673,128,0,306752:0:0:0:0:
475,192,306831,128,0,307068:0:0:0:0:
329,192,306831,128,0,307068:0:0:0:0:
182,192,306831,128,8,306910:0:0:0:0:
36,192,306831,128,2,307068:0:0:0:0:
109,192,306989,128,0,307068:0:0:0:0:
402,192,306989,128,0,307068:0:0:0:0:
182,192,306989,128,0,307226:0:0:0:0:
36,192,307147,128,0,307384:0:0:0:0:
109,192,307147,128,0,307384:0:0:0:0:
256,192,307147,128,0,307226:0:0:0:0:
402,192,307147,128,2,307384:0:0:0:0:
329,192,307305,128,0,307384:0:0:0:0:
475,192,307305,128,0,307384:0:0:0:0:
256,192,307305,128,0,307541:0:0:0:0:
402,192,307462,128,0,307699:0:0:0:0:
36,192,307462,128,0,307541:0:0:0:0:
109,192,307462,128,2,307699:0:0:0:0:
475,192,307462,128,8,307699:0:0:0:0:
36,192,307620,128,0,307699:0:0:0:0:
256,192,307620,128,0,307857:0:0:0:0:
182,192,307620,128,0,307699:0:0:0:0:
109,192,307778,128,0,308015:0:0:0:0:
475,192,307778,128,0,308015:0:0:0:0:
182,192,307778,128,0,308173:0:0:0:0:
329,192,307778,128,2,308015:0:0:0:0:
402,192,307936,128,0,308015:0:0:0:0:
36,192,307936,128,0,308015:0:0:0:0:
256,192,307936,128,0,308015:0:0:0:0:
402,192,308094,128,0,308331:0:0:0:0:
109,192,308094,128,0,308489:0:0:0:0:
256,192,308094,128,8,308331:0:0:0:0:
36,192,308094,128,2,308331:0:0:0:0:
475,192,308252,128,0,308331:0:0:0:0:
329,192,308252,128,0,308331:0:0:0:0:
182,192,308252,128,0,308331:0:0:0:0:
182,192,308410,128,0,308647:0:0:0:0:
36,192,308410,128,0,308489:0:0:0:0:
329,192,308410,128,0,308647:0:0:0:0:
475,192,308410,128,2,308962:0:0:0:0:
402,192,308568,128,0,308647:0:0:0:0:
256,192,308568,128,0,308647:0:0:0:0:
36,192,308568,128,0,308962:0:0:0:0:
402,192,308726,128,8,308962:0:0:0:0:
256,192,308726,128,2,308805:0:0:0:0:
109,192,308726,128,4,308962:0:0:0:0:
182,192,308884,128,0,308962:0:0:0:0:
329,192,308884,128,0,308962:0:0:0:0:
36,192,309041,128,0,309120:0:0:0:0:
256,192,309041,1,0,0:0:0:0:
475,192,309041,128,2,309199:0:0:0:0:
109,192,309041,128,4,309120:0:0:0:0:
402,192,309120,128,0,309357:0:0:0:0:
36,192,309199,1,0,0:0:0:0:
329,192,309199,128,0,309278:0:0:0:0:
109,192,309199,1,2,0:0:0:0:
182,192,309278,1,0,0:0:0:0:
475,192,309278,128,0,309436:0:0:0:0:
36,192,309357,128,0,309436:0:0:0:0:
109,192,309357,128,0,309515:0:0:0:0:
329,192,309357,128,8,309436:0:0:0:0:
256,192,309357,128,2,309436:0:0:0:0:
182,192,309436,128,0,309594:0:0:0:0:
256,192,309515,128,0,309673:0:0:0:0:
402,192,309515,1,0,0:0:0:0:
475,192,309515,1,2,0:0:0:0:
329,192,309594,128,0,309752:0:0:0:0:
36,192,309673,128,0,309831:0:0:0:0:
182,192,309673,1,0,0:0:0:0:
402,192,309673,128,4,309752:0:0:0:0:
475,192,309673,128,2,309752:0:0:0:0:
109,192,309752,128,0,309989:0:0:0:0:
402,192,309831,1,0,0:0:0:0:
475,192,309831,1,0,0:0:0:0:
182,192,309831,128,2,309910:0:0:0:0:
36,192,309910,128,0,310068:0:0:0:0:
329,192,309910,1,0,0:0:0:0:
256,192,309989,128,0,310068:0:0:0:0:
182,192,309989,128,0,310068:0:0:0:0:
475,192,309989,128,8,310068:0:0:0:0:
402,192,309989,128,2,310147:0:0:0:0:
329,192,310068,128,0,310226:0:0:0:0:
36,192,310147,1,0,0:0:0:0:
256,192,310147,128,0,310305:0:0:0:0:
109,192,310147,1,2,0:0:0:0:
182,192,310226,128,0,310305:0:0:0:0:
36,192,310305,1,0,0:0:0:0:
329,192,310305,1,0,0:0:0:0:
475,192,310305,1,0,0:0:0:0:
402,192,310305,1,4,0:0:0:0:
109,192,310305,1,2,0:0:0:0:
402,192,310462,1,0,0:0:0:0:
475,192,310462,1,0,0:0:0:0:
36,192,310462,1,2,0:0:0:0:
256,192,310541,1,0,0:0:0:0:
329,192,310541,1,0,0:0:0:0:
109,192,310541,1,2,0:0:0:0:
475,192,310620,1,0,0:0:0:0:
402,192,310620,1,0,0:0:0:0:
182,192,310620,1,4,0:0:0:0:
36,192,310620,1,2,0:0:0:0:
182,192,310778,1,0,0:0:0:0:
475,192,310778,1,0,0:0:0:0:
402,192,310778,1,2,0:0:0:0:
36,192,310857,1,0,0:0:0:0:
329,192,310857,1,0,0:0:0:0:
109,192,310857,1,2,0:0:0:0:
256,192,310936,1,0,0:0:0:30:LR_Snare Low Wet.wav
475,192,310936,1,4,0:0:0:0:
402,192,310976,1,0,0:0:0:30:LR_Snare Low Wet.wav
329,192,311015,1,0,0:0:0:0:
109,192,311015,1,0,0:0:0:30:LR_Snare Low Wet.wav
182,192,311055,1,0,0:0:0:30:LR_Snare Low Wet.wav
475,192,311094,1,0,0:0:0:0:
36,192,311094,1,0,0:0:0:0:
256,192,311094,1,0,0:0:0:0:
402,192,311094,1,2,0:0:0:0:
329,192,311173,1,0,0:0:0:0:
182,192,311173,1,0,0:0:0:0:
109,192,311173,1,2,0:0:0:0:
36,192,311252,1,0,0:0:0:0:
256,192,311252,1,2,0:0:0:0:
475,192,311252,1,4,0:0:0:0:
402,192,311331,1,0,0:0:0:0:
182,192,311331,1,4,0:0:0:0:
109,192,311331,1,2,0:0:0:0:
256,192,311410,1,0,0:0:0:0:
36,192,311410,1,4,0:0:0:0:
329,192,311410,1,2,0:0:0:0:
475,192,311489,1,0,0:0:0:0:
109,192,311489,1,4,0:0:0:0:
402,192,311489,1,2,0:0:0:0:
36,192,311568,1,0,0:0:0:0:
329,192,311568,1,2,0:0:0:0:
256,192,311568,1,0,0:0:0:70:LR_CymbalWWT.wav
182,192,311568,128,0,311805:0:0:0:100:twinkling.wav
402,192,311647,1,0,0:0:0:0:
109,192,311726,128,0,311805:0:0:0:0:
329,192,311726,128,0,311962:0:0:0:0:
475,192,311726,1,0,0:0:0:0:
36,192,311726,128,0,311805:0:0:0:0:
256,192,311805,1,0,0:0:0:0:
402,192,311884,128,0,311962:0:0:0:0:
475,192,311884,128,0,312120:0:0:0:0:
36,192,311884,128,8,312041:0:0:0:0:
109,192,311884,128,2,311962:0:0:0:0:
182,192,311962,128,0,312041:0:0:0:0:
256,192,311962,128,0,312120:0:0:0:0:
109,192,312041,128,0,312120:0:0:0:0:
329,192,312041,128,0,312199:0:0:0:0:
36,192,312120,128,0,312357:0:0:0:0:
402,192,312120,128,0,312278:0:0:0:0:
182,192,312199,128,0,312436:0:0:0:0:
109,192,312199,128,0,312278:0:0:0:0:
475,192,312199,128,2,312278:0:0:0:0:
256,192,312278,128,0,312357:0:0:0:0:
109,192,312357,128,0,312515:0:0:0:0:
402,192,312357,128,0,312436:0:0:0:0:
475,192,312357,128,0,312436:0:0:0:0:
36,192,312436,128,0,312594:0:0:0:0:
329,192,312436,128,0,312515:0:0:0:0:
182,192,312515,128,0,312594:0:0:0:0:
475,192,312515,128,8,312594:0:0:0:0:
256,192,312515,128,2,312752:0:0:0:0:
329,192,312594,1,0,0:0:0:0:
475,192,312673,1,0,0:0:0:0:
109,192,312673,128,0,312752:0:0:0:0:
402,192,312673,128,0,312910:0:0:0:0:
36,192,312673,128,0,312752:0:0:0:0:
182,192,312752,1,0,0:0:0:0:
109,192,312831,128,0,313068:0:0:0:0:
329,192,312831,128,0,312910:0:0:0:0:
475,192,312831,128,0,312910:0:0:0:0:
36,192,312831,1,2,0:0:0:0:
256,192,312910,1,0,0:0:0:0:
402,192,312989,128,0,313068:0:0:0:0:
36,192,312989,128,0,313068:0:0:0:0:
182,192,312989,128,0,313226:0:0:0:0:
329,192,312989,1,0,0:0:0:0:
256,192,313068,1,0,0:0:0:0:
36,192,313147,128,0,313384:0:0:0:0:
475,192,313147,128,0,313305:0:0:0:0:
402,192,313147,128,2,313226:0:0:0:0:
109,192,313147,128,8,313226:0:0:0:0:
329,192,313226,128,0,313305:0:0:0:0:
256,192,313226,128,0,313384:0:0:0:0:
182,192,313305,128,0,313462:0:0:0:0:
402,192,313305,128,0,313384:0:0:0:0:
475,192,313384,128,0,313620:0:0:0:0:
109,192,313384,128,0,313541:0:0:0:0:
402,192,313462,128,0,313541:0:0:0:0:
36,192,313462,128,0,313541:0:0:0:0:
329,192,313462,128,2,313699:0:0:0:0:
256,192,313541,128,0,313620:0:0:0:0:
36,192,313620,128,0,313699:0:0:0:0:
402,192,313620,128,0,313778:0:0:0:0:
109,192,313620,128,0,313699:0:0:0:0:
182,192,313699,128,0,313778:0:0:0:0:
475,192,313699,128,0,313857:0:0:0:0:
36,192,313778,128,0,313857:0:0:0:0:
329,192,313778,128,8,313857:0:0:0:0:
256,192,313778,128,2,314015:0:0:0:0:
182,192,313857,1,0,0:0:0:0:
475,192,313936,128,0,314015:0:0:0:0:
109,192,313936,128,0,314173:0:0:0:0:
36,192,313936,1,0,0:0:0:0:
402,192,313936,128,0,314015:0:0:0:0:
329,192,314015,1,0,0:0:0:0:
402,192,314094,128,0,314331:0:0:0:0:
256,192,314094,1,0,0:0:0:0:
36,192,314094,128,0,314173:0:0:0:0:
182,192,314094,128,2,314173:0:0:0:0:
329,192,314173,1,0,0:0:0:0:
256,192,314252,128,0,314410:0:0:0:0:
475,192,314252,128,0,314331:0:0:0:0:
109,192,314252,1,0,0:0:0:0:
36,192,314252,128,0,314331:0:0:0:0:
182,192,314331,1,0,0:0:0:0:
475,192,314410,128,0,314568:0:0:0:0:
36,192,314410,128,0,314647:0:0:0:0:
109,192,314410,128,0,314489:0:0:0:0:
402,192,314410,128,2,314489:0:0:0:0:
329,192,314410,128,8,314568:0:0:0:0:
256,192,314489,128,0,314647:0:0:0:0:
182,192,314568,128,0,314726:0:0:0:0:
109,192,314647,128,0,314805:0:0:0:0:
329,192,314647,128,0,314805:0:0:0:0:
36,192,314726,128,0,314805:0:0:0:0:
402,192,314726,128,0,314884:0:0:0:0:
475,192,314726,128,2,314962:0:0:0:0:
256,192,314805,128,0,314884:0:0:0:0:
109,192,314884,128,0,314962:0:0:0:0:
36,192,314884,128,0,314962:0:0:0:0:
329,192,314884,128,0,314962:0:0:0:0:
182,192,314962,128,0,315041:0:0:0:0:
402,192,314962,128,0,315041:0:0:0:0:
36,192,315041,128,0,315120:0:0:0:0:
475,192,315041,128,0,315120:0:0:0:0:
256,192,315041,128,2,315278:0:0:0:0:
329,192,315041,128,8,315120:0:0:0:0:
182,192,315120,1,0,0:0:0:0:
475,192,315199,1,0,0:0:0:0:
36,192,315199,128,0,315278:0:0:0:0:
109,192,315199,128,0,315436:0:0:0:0:
402,192,315199,128,0,315278:0:0:0:0:
329,192,315278,1,0,0:0:0:0:
182,192,315357,128,0,315436:0:0:0:0:
36,192,315357,128,0,315436:0:0:0:0:
475,192,315357,128,0,315594:0:0:0:0:
256,192,315357,1,2,0:0:0:0:
402,192,315436,1,0,0:0:0:0:
182,192,315515,1,0,0:0:0:0:
329,192,315515,128,0,315752:0:0:0:0:
109,192,315515,128,0,315594:0:0:0:0:
36,192,315515,128,0,315594:0:0:0:0:
256,192,315594,1,0,0:0:0:0:
36,192,315673,128,0,315831:0:0:0:0:
109,192,315673,128,0,315752:0:0:0:0:
402,192,315673,128,0,315752:0:0:0:0:
182,192,315673,128,8,315831:0:0:0:0:
475,192,315673,128,2,315910:0:0:0:0:
256,192,315752,128,0,315910:0:0:0:0:
329,192,315831,128,0,315989:0:0:0:0:
402,192,315910,128,0,316068:0:0:0:0:
182,192,315910,128,0,316068:0:0:0:0:
109,192,315989,128,0,316068:0:0:0:0:
36,192,315989,128,0,316226:0:0:0:0:
475,192,315989,128,2,316068:0:0:0:0:
256,192,316068,128,0,316147:0:0:0:0:
402,192,316147,128,0,316384:0:0:0:0:
475,192,316147,128,0,316226:0:0:0:0:
182,192,316147,128,0,316226:0:0:0:0:
109,192,316226,128,0,316305:0:0:0:0:
329,192,316226,128,0,316305:0:0:0:0:
182,192,316305,128,0,316384:0:0:0:0:
475,192,316305,128,0,316384:0:0:0:0:
36,192,316305,128,8,316384:0:0:0:0:
256,192,316305,128,2,316541:0:0:0:0:
329,192,316384,1,0,0:0:0:0:
109,192,316462,128,0,316699:0:0:0:0:
402,192,316462,128,0,316541:0:0:0:0:
475,192,316462,128,0,316541:0:0:0:0:
36,192,316462,128,0,316541:0:0:0:0:
182,192,316541,1,0,0:0:0:0:
36,192,316620,128,0,316699:0:0:0:0:
329,192,316620,128,0,316699:0:0:0:0:
475,192,316620,128,4,316857:0:0:0:0:
256,192,316620,128,2,316699:0:0:0:0:
402,192,316699,1,0,0:0:0:0:
36,192,316778,128,0,316857:0:0:0:0:
109,192,316778,128,0,316857:0:0:0:0:
256,192,316778,1,0,0:0:0:0:
182,192,316778,128,0,317015:0:0:0:0:
329,192,316857,1,0,0:0:0:0:
402,192,316936,128,0,317015:0:0:0:0:
36,192,316936,128,0,317173:0:0:0:0:
256,192,316936,128,0,317094:0:0:0:0:
475,192,316936,128,8,317015:0:0:0:0:
109,192,316936,128,2,317015:0:0:0:0:
329,192,317015,128,0,317173:0:0:0:0:
402,192,317094,128,0,317252:0:0:0:0:
109,192,317094,128,0,317331:0:0:0:0:
182,192,317173,128,0,317252:0:0:0:0:
475,192,317173,128,0,317410:0:0:0:0:
256,192,317252,128,0,317410:0:0:0:0:
36,192,317252,128,2,317410:0:0:0:0:
182,192,317331,128,0,317489:0:0:0:0:
402,192,317331,128,0,317489:0:0:0:0:
329,192,317410,128,0,317568:0:0:0:0:
109,192,317410,128,0,317568:0:0:0:0:
36,192,317489,128,0,317568:0:0:0:0:
256,192,317489,128,0,317647:0:0:0:0:
475,192,317568,128,0,317805:0:0:0:0:
402,192,317568,128,8,317647:0:0:0:0:
182,192,317568,128,2,317647:0:0:0:0:
36,192,317647,1,0,0:0:0:0:
182,192,317726,128,0,317805:0:0:0:0:
329,192,317726,128,0,317962:0:0:0:0:
109,192,317726,1,0,0:0:0:0:
402,192,317726,128,0,317805:0:0:0:0:
256,192,317805,1,0,0:0:0:0:
36,192,317884,128,0,318120:0:0:0:0:
182,192,317884,1,0,0:0:0:0:
109,192,317884,128,0,317962:0:0:0:0:
475,192,317884,128,2,317962:0:0:0:0:
256,192,317962,1,0,0:0:0:0:
402,192,318041,128,0,318120:0:0:0:0:
329,192,318041,128,0,318278:0:0:0:0:
109,192,318041,128,0,318120:0:0:0:0:
475,192,318041,1,0,0:0:0:0:
182,192,318120,1,0,0:0:0:0:
475,192,318199,128,0,318436:0:0:0:0:
402,192,318199,128,0,318278:0:0:0:0:
36,192,318199,128,0,318278:0:0:0:0:
256,192,318199,128,8,318357:0:0:0:0:
109,192,318199,128,2,318278:0:0:0:0:
182,192,318278,128,0,318436:0:0:0:0:
402,192,318357,128,0,318594:0:0:0:0:
109,192,318357,128,0,318515:0:0:0:0:
329,192,318436,128,0,318515:0:0:0:0:
36,192,318436,128,0,318673:0:0:0:0:
256,192,318515,128,0,318673:0:0:0:0:
475,192,318515,128,2,318673:0:0:0:0:
329,192,318594,128,0,318752:0:0:0:0:
109,192,318594,128,0,318752:0:0:0:0:
402,192,318673,128,0,318831:0:0:0:0:
182,192,318673,128,0,318831:0:0:0:0:
256,192,318752,128,0,318910:0:0:0:0:
475,192,318752,128,0,318831:0:0:0:0:
329,192,318831,128,0,318910:0:0:0:0:
109,192,318831,128,8,318910:0:0:0:0:
36,192,318831,128,2,319068:0:0:0:0:
402,192,318910,1,0,0:0:0:0:
475,192,318989,1,0,0:0:0:0:
109,192,318989,128,0,319068:0:0:0:0:
182,192,318989,128,0,319068:0:0:0:0:
329,192,318989,128,0,319226:0:0:0:0:
256,192,319068,1,0,0:0:0:0:
36,192,319147,128,0,319226:0:0:0:0:
402,192,319147,128,0,319305:0:0:0:0:
475,192,319147,128,4,319384:0:0:0:0:
109,192,319147,128,2,319305:0:0:0:0:
182,192,319226,128,0,319384:0:0:0:0:
256,192,319305,128,0,319462:0:0:0:0:
36,192,319305,128,0,319384:0:0:0:0:
36,192,319462,128,0,319699:0:0:0:0:
402,192,319462,128,0,319620:0:0:0:0:
109,192,319462,128,4,319620:0:0:0:0:
475,192,319462,128,8,319541:0:0:0:0:
182,192,319462,128,2,319541:0:0:0:0:
329,192,319541,128,0,319699:0:0:0:0:
256,192,319620,128,0,319778:0:0:0:0:
475,192,319620,128,0,319699:0:0:0:0:
182,192,319778,128,0,319936:0:0:0:0:
109,192,319778,128,0,319857:0:0:0:0:
36,192,319778,128,0,319857:0:0:0:0:
475,192,319778,128,2,319857:0:0:0:0:
329,192,319778,128,4,319857:0:0:0:0:
402,192,319857,128,0,319936:0:0:0:0:
256,192,319857,128,0,320015:0:0:0:0:
475,192,319936,128,0,320015:0:0:0:0:
329,192,319936,128,0,320094:0:0:0:0:
109,192,319936,128,4,320015:0:0:0:0:
36,192,319936,128,2,320015:0:0:0:0:
182,192,320015,128,0,320094:0:0:0:0:
402,192,320015,128,0,320173:0:0:0:0:
109,192,320094,128,4,320173:0:0:0:0:
475,192,320094,128,8,320173:0:0:0:0:
36,192,320094,128,2,320173:0:0:0:0:
256,192,320173,128,0,320331:0:0:0:0:
182,192,320173,128,2,320252:0:0:0:0:
329,192,320173,128,4,320252:0:0:0:0:
402,192,320252,128,0,320331:0:0:0:0:
475,192,320252,128,0,320331:0:0:0:0:
109,192,320252,128,2,320331:0:0:0:0:
36,192,320252,128,4,320331:0:0:0:0:
329,192,320331,128,4,320410:0:0:0:0:
182,192,320331,128,2,320410:0:0:0:0:
402,192,320410,1,0,0:0:0:0:
36,192,320410,1,0,0:0:0:0:
475,192,320410,1,0,0:0:0:0:
256,192,320410,1,4,0:0:0:0:
109,192,320410,1,2,0:0:0:0:
256,192,320568,1,0,0:0:0:0:
109,192,320568,1,0,0:0:0:0:
182,192,320568,1,0,0:0:0:0:
329,192,320568,1,4,0:0:0:0:
402,192,320568,1,2,0:0:0:0:
256,192,320884,1,0,0:0:0:0:
109,192,320884,1,0,0:0:0:0:
402,192,320884,1,0,0:0:0:0:
475,192,320884,1,4,0:0:0:0:
36,192,320884,1,2,0:0:0:0:
402,192,321199,1,0,0:0:0:0:
256,192,321199,1,2,0:0:0:0:
109,192,321199,1,4,0:0:0:0:
402,192,321278,1,0,0:0:0:0:
256,192,321278,1,4,0:0:0:0:
109,192,321278,1,2,0:0:0:0:
182,192,321357,1,0,0:0:0:0:
329,192,321357,1,0,0:0:0:0:
36,192,321357,1,4,0:0:0:0:
475,192,321357,1,2,0:0:0:0:
109,192,321436,1,0,0:0:0:0:
402,192,321436,1,0,0:0:0:0:
182,192,321515,1,0,0:0:0:0:
36,192,321515,1,0,0:0:0:0:
329,192,321515,1,4,0:0:0:0:
475,192,321515,1,2,0:0:0:0:
256,192,321594,1,0,0:0:0:0:
109,192,321673,1,0,0:0:0:0:
182,192,321673,1,0,0:0:0:0:
475,192,321673,1,0,0:0:0:0:
36,192,321673,1,2,0:0:0:0:
402,192,321673,1,0,0:0:0:70:LR_CymbalWWT.wav
329,192,321752,1,0,0:0:0:0:
109,192,321831,1,0,0:0:0:0:
256,192,321831,1,0,0:0:0:0:
329,192,321910,1,0,0:0:0:0:
36,192,321989,1,0,0:0:0:0:
182,192,321989,1,0,0:0:0:0:
475,192,321989,1,0,0:0:0:0:
402,192,321989,1,0,0:0:0:70:LR_CymbalWWT.wav
256,192,322068,1,0,0:0:0:0:
402,192,322147,1,0,0:0:0:0:
329,192,322147,1,4,0:0:0:0:
475,192,322147,1,2,0:0:0:0:
182,192,322226,1,0,0:0:0:0:
36,192,322226,1,4,0:0:0:0:
109,192,322226,1,2,0:0:0:0:
256,192,322305,1,0,0:0:0:0:
475,192,322305,1,0,0:0:0:0:
402,192,322305,1,4,0:0:0:0:
329,192,322305,1,2,0:0:0:0:
36,192,322384,1,0,0:0:0:0:
475,192,322462,1,0,0:0:0:0:
329,192,322462,1,0,0:0:0:0:
402,192,322462,1,4,0:0:0:0:
182,192,322462,1,2,0:0:0:0:
109,192,322541,1,0,0:0:0:0:
475,192,322620,1,0,0:0:0:0:
182,192,322620,1,0,0:0:0:0:
329,192,322620,1,0,0:0:0:0:
36,192,322620,1,4,0:0:0:0:
256,192,322620,1,2,0:0:0:0:
402,192,322699,1,0,0:0:0:0:
109,192,322778,1,0,0:0:0:0:
256,192,322778,1,0,0:0:0:0:
182,192,322778,1,0,0:0:0:0:
329,192,322857,1,0,0:0:0:0:
475,192,322936,1,0,0:0:0:0:
36,192,322936,1,0,0:0:0:0:
402,192,322936,1,0,0:0:0:0:
256,192,322936,1,4,0:0:0:0:
109,192,322936,1,2,0:0:0:0:
182,192,323015,1,0,0:0:0:0:
329,192,323094,1,0,0:0:0:0:
36,192,323094,1,0,0:0:0:0:
109,192,323173,1,0,0:0:0:0:
182,192,323252,1,0,0:0:0:0:
475,192,323252,1,0,0:0:0:0:
402,192,323252,1,0,0:0:0:0:
329,192,323331,1,0,0:0:0:0:
256,192,323410,1,0,0:0:0:0:
36,192,323410,1,4,0:0:0:0:
109,192,323410,1,2,0:0:0:0:
182,192,323489,1,0,0:0:0:0:
329,192,323489,1,2,0:0:0:0:
402,192,323489,1,4,0:0:0:0:
475,192,323568,1,0,0:0:0:0:
36,192,323568,1,4,0:0:0:0:
256,192,323568,1,2,0:0:0:0:
109,192,323647,1,0,0:0:0:0:
182,192,323647,1,4,0:0:0:0:
329,192,323647,1,2,0:0:0:0:
402,192,323726,1,0,0:0:0:0:
256,192,323726,1,4,0:0:0:0:
475,192,323726,1,2,0:0:0:0:
36,192,323805,1,0,0:0:0:0:
182,192,323805,1,4,0:0:0:0:
109,192,323805,1,2,0:0:0:0:
475,192,323884,1,0,0:0:0:0:
329,192,323884,1,0,0:0:0:0:
256,192,323884,1,0,0:0:0:30:LR4_SnareKKF.wav
182,192,323923,1,0,0:0:0:30:LR4_SnareKKF.wav
402,192,323962,1,0,0:0:0:0:
109,192,323962,1,0,0:0:0:30:LR4_SnareKKF.wav
36,192,324002,1,0,0:0:0:30:LR4_SnareKKF.wav
182,192,324041,1,0,0:0:0:0:
256,192,324041,1,4,0:0:0:0:
329,192,324041,1,2,0:0:0:0:
402,192,324120,1,0,0:0:0:0:
475,192,324120,1,2,0:0:0:0:
109,192,324120,1,4,0:0:0:0:
182,192,324199,1,0,0:0:0:0:
329,192,324199,1,0,0:0:0:0:
256,192,324199,1,4,0:0:0:0:
36,192,324199,1,2,0:0:0:0:
402,192,324278,1,0,0:0:0:0:
36,192,324357,1,0,0:0:0:0:
256,192,324357,1,0,0:0:0:0:
109,192,324357,1,0,0:0:0:0:
475,192,324357,1,0,0:0:0:0:
182,192,324357,1,2,0:0:0:0:
329,192,324436,1,0,0:0:0:0:
36,192,324515,1,0,0:0:0:0:
182,192,324515,1,0,0:0:0:0:
402,192,324515,1,8,0:0:0:0:
475,192,324515,1,4,0:0:0:0:
109,192,324515,1,2,0:0:0:0:
256,192,324594,1,0,0:0:0:0:
109,192,324673,1,0,0:0:0:0:
329,192,324673,1,0,0:0:0:0:
256,192,324752,1,0,0:0:0:0:
402,192,324831,1,0,0:0:0:0:
182,192,324831,1,0,0:0:0:0:
475,192,324831,1,0,0:0:0:0:
109,192,324831,1,2,0:0:0:0:
36,192,324831,1,4,0:0:0:0:
256,192,324910,1,0,0:0:0:0:
402,192,324989,1,0,0:0:0:0:
475,192,324989,1,0,0:0:0:0:
36,192,324989,1,0,0:0:0:0:
329,192,324989,1,0,0:0:0:0:
109,192,324989,1,2,0:0:0:0:
182,192,325068,1,0,0:0:0:0:
475,192,325147,1,0,0:0:0:0:
402,192,325147,1,0,0:0:0:0:
36,192,325147,1,8,0:0:0:0:
256,192,325147,1,4,0:0:0:0:
109,192,325147,1,2,0:0:0:0:
329,192,325226,1,0,0:0:0:0:
109,192,325305,1,0,0:0:0:0:
36,192,325305,1,0,0:0:0:0:
402,192,325384,1,0,0:0:0:0:
475,192,325384,1,0,0:0:0:0:
256,192,325384,1,2,0:0:0:0:
109,192,325462,1,0,0:0:0:0:
182,192,325462,1,0,0:0:0:0:
475,192,325462,1,0,0:0:0:0:
36,192,325462,1,4,0:0:0:0:
329,192,325462,1,2,0:0:0:0:
256,192,325541,1,0,0:0:0:0:
475,192,325620,1,0,0:0:0:0:
109,192,325620,1,0,0:0:0:0:
36,192,325620,1,0,0:0:0:30:LR4_SnareKKF.wav
182,192,325660,1,0,0:0:0:30:LR4_SnareKKF.wav
256,192,325699,1,0,0:0:0:0:
329,192,325699,1,0,0:0:0:30:LR4_SnareKKF.wav
402,192,325739,1,0,0:0:0:30:LR4_SnareKKF.wav
475,192,325778,1,0,0:0:0:0:
182,192,325778,1,8,0:0:0:0:
36,192,325778,1,4,0:0:0:0:
109,192,325778,1,2,0:0:0:0:
256,192,325857,1,0,0:0:0:0:
329,192,325857,1,2,0:0:0:0:
402,192,325936,1,0,0:0:0:0:
475,192,325936,1,0,0:0:0:0:
36,192,325936,1,0,0:0:0:30:LR4_SnareKKF.wav
329,192,325976,1,0,0:0:0:30:LR4_SnareKKF.wav
256,192,326015,1,0,0:0:0:0:
182,192,326015,1,0,0:0:0:30:LR4_SnareKKF.wav
109,192,326055,1,0,0:0:0:30:LR4_SnareKKF.wav
36,192,326094,1,0,0:0:0:0:
329,192,326094,1,0,0:0:0:0:
475,192,326094,1,4,0:0:0:0:
402,192,326094,1,2,0:0:0:0:
182,192,326173,1,0,0:0:0:0:
109,192,326173,1,0,0:0:0:0:
256,192,326173,1,2,0:0:0:0:
402,192,326252,1,0,0:0:0:0:
36,192,326252,1,0,0:0:0:0:
475,192,326252,1,2,0:0:0:0:
329,192,326331,1,0,0:0:0:0:
182,192,326331,1,0,0:0:0:0:
256,192,326331,1,2,0:0:0:0:
36,192,326410,1,8,0:0:0:0:
109,192,326410,1,0,0:0:0:30:LR4_SnareKKF.wav
475,192,326410,1,4,0:0:0:0:
182,192,326449,1,0,0:0:0:30:LR4_SnareKKF.wav
329,192,326489,1,0,0:0:0:0:
256,192,326489,1,0,0:0:0:30:LR4_SnareKKF.wav
402,192,326528,1,0,0:0:0:30:LR4_SnareKKF.wav
475,192,326568,1,0,0:0:0:0:
109,192,326568,1,4,0:0:0:0:
36,192,326568,1,2,0:0:0:0:
182,192,326647,1,0,0:0:0:0:
256,192,326647,1,4,0:0:0:0:
402,192,326647,1,2,0:0:0:0:
36,192,326726,1,0,0:0:0:0:
329,192,326726,1,0,0:0:0:0:
109,192,326726,1,4,0:0:0:0:
475,192,326726,1,2,0:0:0:0:
256,192,326805,1,0,0:0:0:0:
402,192,326805,1,0,0:0:0:0:
182,192,326805,1,2,0:0:0:0:
329,192,326884,1,0,0:0:0:0:
36,192,326884,1,2,0:0:0:0:
109,192,326962,1,0,0:0:0:0:
182,192,326962,1,0,0:0:0:0:
475,192,326962,1,2,0:0:0:0:
329,192,327041,1,0,0:0:0:0:
256,192,327041,1,8,0:0:0:0:
36,192,327041,1,4,0:0:0:0:
402,192,327041,1,2,0:0:0:0:
329,192,327199,1,0,0:0:0:0:
475,192,327199,1,0,0:0:0:0:
109,192,327199,1,2,0:0:0:0:
182,192,327278,1,4,0:0:0:0:
402,192,327278,1,2,0:0:0:0:
256,192,327357,1,0,0:0:0:0:
36,192,327357,1,0,0:0:0:0:
109,192,327357,1,0,0:0:0:0:
475,192,327357,1,2,0:0:0:0:
182,192,327436,1,0,0:0:0:0:
402,192,327436,1,0,0:0:0:0:
329,192,327436,1,2,0:0:0:0:
109,192,327515,1,0,0:0:0:0:
36,192,327515,1,0,0:0:0:0:
256,192,327515,1,2,0:0:0:0:
329,192,327594,1,0,0:0:0:0:
475,192,327594,1,0,0:0:0:0:
402,192,327594,1,2,0:0:0:0:
182,192,327673,1,0,0:0:0:30:LR4_SnareKKF.wav
36,192,327673,1,4,0:0:0:0:
256,192,327712,1,0,0:0:0:30:LR4_SnareKKF.wav
329,192,327752,1,0,0:0:0:0:
109,192,327752,1,0,0:0:0:30:LR4_SnareKKF.wav
402,192,327791,1,0,0:0:0:30:LR4_SnareKKF.wav
475,192,327831,1,0,0:0:0:0:
182,192,327831,1,4,0:0:0:0:
256,192,327831,1,2,0:0:0:0:
36,192,327910,1,0,0:0:0:0:
329,192,327910,1,0,0:0:0:0:
109,192,327910,1,2,0:0:0:0:
256,192,327989,1,0,0:0:0:0:
475,192,327989,1,0,0:0:0:0:
402,192,327989,1,4,0:0:0:0:
182,192,327989,1,2,0:0:0:0:
402,192,328147,1,0,0:0:0:0:
36,192,328147,1,0,0:0:0:0:
475,192,328147,1,0,0:0:0:30:LR4_SnareKKF.wav
256,192,328186,1,0,0:0:0:30:LR4_SnareKKF.wav
182,192,328226,1,0,0:0:0:0:
329,192,328226,1,0,0:0:0:30:LR4_SnareKKF.wav
109,192,328265,1,0,0:0:0:30:LR4_SnareKKF.wav
475,192,328305,1,0,0:0:0:0:
256,192,328305,1,8,0:0:0:0:
402,192,328305,1,4,0:0:0:0:
36,192,328305,1,2,0:0:0:0:
109,192,328462,1,0,0:0:0:0:
36,192,328462,1,0,0:0:0:0:
475,192,328462,1,0,0:0:0:30:LR4_SnareKKF.wav
256,192,328502,1,0,0:0:0:30:LR4_SnareKKF.wav
329,192,328541,1,0,0:0:0:0:
182,192,328541,1,0,0:0:0:30:LR4_SnareKKF.wav
402,192,328581,1,0,0:0:0:30:LR4_SnareKKF.wav
475,192,328620,1,0,0:0:0:0:
256,192,328620,1,0,0:0:0:0:
36,192,328620,1,4,0:0:0:0:
109,192,328620,1,2,0:0:0:0:
402,192,328699,1,0,0:0:0:0:
329,192,328699,1,2,0:0:0:0:
182,192,328778,1,0,0:0:0:0:
36,192,328778,1,0,0:0:0:0:
109,192,328778,1,0,0:0:0:30:LR4_SnareKKF.wav
256,192,328857,1,0,0:0:0:30:LR4_SnareKKF.wav
109,192,328936,1,0,0:0:0:0:
329,192,328936,1,0,0:0:0:0:
36,192,328936,1,2,0:0:0:0:
475,192,328936,1,8,0:0:0:0:
402,192,328936,1,4,0:0:0:0:
182,192,329015,1,0,0:0:0:0:
402,192,329094,1,0,0:0:0:0:
475,192,329094,1,0,0:0:0:0:
109,192,329094,1,0,0:0:0:0:
329,192,329094,1,2,0:0:0:0:
256,192,329173,1,0,0:0:0:0:
109,192,329252,1,0,0:0:0:0:
402,192,329252,1,0,0:0:0:0:
329,192,329252,1,0,0:0:0:0:
475,192,329252,1,4,0:0:0:0:
36,192,329252,1,2,0:0:0:0:
182,192,329331,1,0,0:0:0:0:
475,192,329410,1,0,0:0:0:0:
256,192,329410,1,0,0:0:0:0:
36,192,329410,1,0,0:0:0:0:
329,192,329410,1,2,0:0:0:0:
109,192,329489,1,0,0:0:0:0:
402,192,329568,1,0,0:0:0:0:
475,192,329568,1,0,0:0:0:0:
256,192,329568,1,8,0:0:0:0:
182,192,329568,1,4,0:0:0:0:
36,192,329568,1,2,0:0:0:0:
329,192,329647,1,0,0:0:0:0:
182,192,329726,1,0,0:0:0:0:
402,192,329726,1,0,0:0:0:0:
109,192,329726,1,2,0:0:0:0:
256,192,329805,1,0,0:0:0:0:
109,192,329884,1,0,0:0:0:0:
36,192,329884,1,0,0:0:0:0:
329,192,329884,1,0,0:0:0:0:
182,192,329884,1,4,0:0:0:0:
475,192,329884,1,2,0:0:0:0:
256,192,329962,1,0,0:0:0:0:
329,192,330041,1,0,0:0:0:0:
475,192,330041,1,0,0:0:0:0:
109,192,330041,1,0,0:0:0:0:
36,192,330041,1,2,0:0:0:0:
182,192,330120,1,0,0:0:0:0:
36,192,330199,1,0,0:0:0:0:
256,192,330199,1,8,0:0:0:0:
402,192,330199,1,4,0:0:0:0:
475,192,330199,1,2,0:0:0:0:
109,192,330278,1,0,0:0:0:0:
475,192,330357,1,0,0:0:0:0:
402,192,330357,1,0,0:0:0:0:
256,192,330357,1,0,0:0:0:0:
182,192,330357,1,2,0:0:0:0:
329,192,330436,1,0,0:0:0:0:
36,192,330515,1,0,0:0:0:0:
182,192,330515,1,0,0:0:0:0:
109,192,330515,1,2,0:0:0:0:
475,192,330515,1,4,0:0:0:0:
256,192,330594,1,0,0:0:0:0:
329,192,330594,1,2,0:0:0:0:
402,192,330673,1,0,0:0:0:0:
475,192,330673,1,0,0:0:0:0:
182,192,330673,1,2,0:0:0:0:
36,192,330752,1,0,0:0:0:0:
109,192,330752,1,2,0:0:0:0:
329,192,330831,1,0,0:0:0:0:
256,192,330831,1,0,0:0:0:0:
475,192,330831,1,8,0:0:0:0:
182,192,330831,1,4,0:0:0:0:
402,192,330831,1,2,0:0:0:0:
109,192,330910,1,0,0:0:0:0:
36,192,330910,1,2,0:0:0:0:
402,192,330989,1,0,0:0:0:0:
475,192,330989,1,0,0:0:0:0:
329,192,330989,1,2,0:0:0:0:
256,192,331068,1,0,0:0:0:0:
182,192,331068,1,2,0:0:0:0:
329,192,331147,1,0,0:0:0:0:
475,192,331147,1,0,0:0:0:0:
402,192,331147,1,0,0:0:0:0:
109,192,331147,1,4,0:0:0:0:
36,192,331147,1,2,0:0:0:0:
182,192,331226,1,0,0:0:0:0:
256,192,331226,1,2,0:0:0:0:
329,192,331305,1,0,0:0:0:0:
402,192,331305,1,0,0:0:0:0:
475,192,331305,1,2,0:0:0:0:
36,192,331384,1,0,0:0:0:0:
109,192,331384,1,2,0:0:0:0:
182,192,331462,1,0,0:0:0:0:
329,192,331462,1,0,0:0:0:0:
402,192,331462,1,8,0:0:0:0:
256,192,331462,1,2,0:0:0:0:
475,192,331462,1,4,0:0:0:0:
36,192,331541,1,0,0:0:0:0:
109,192,331541,1,2,0:0:0:0:
402,192,331620,1,0,0:0:0:0:
475,192,331620,1,0,0:0:0:0:
256,192,331620,1,2,0:0:0:0:
182,192,331699,1,0,0:0:0:0:
36,192,331699,1,2,0:0:0:0:
329,192,331773,1,0,0:0:0:100:twinkling.wav
402,192,331930,1,0,0:0:0:0:
475,192,332088,1,0,0:0:0:0:
256,192,332246,1,0,0:0:0:0:
36,192,332562,1,0,0:0:0:0:
182,192,332720,1,0,0:0:0:0:
256,192,332878,1,0,0:0:0:0:
329,192,333036,1,0,0:0:0:0:
182,192,333509,1,0,0:0:0:0:
182,192,333667,1,0,0:0:0:0:
109,192,333825,1,0,0:0:0:0:
256,192,333983,1,0,0:0:0:0:
182,192,334141,1,0,0:0:0:0:
329,192,334299,1,0,0:0:0:0:
475,192,334457,1,0,0:0:0:0:
402,192,334615,1,0,0:0:0:0:
256,192,335088,1,0,0:0:0:0:
329,192,335246,1,0,0:0:0:0:
182,192,335404,1,0,0:0:0:0:
109,192,335720,1,0,0:0:0:0:
182,192,335878,1,0,0:0:0:0:
36,192,336036,1,0,0:0:0:0:
182,192,336194,1,0,0:0:0:0:
109,192,336351,1,0,0:0:0:0:
329,192,336509,1,0,0:0:0:0:
256,192,336667,1,0,0:0:0:0:
182,192,336825,1,0,0:0:0:0:
329,192,336981,1,0,0:0:0:0:
402,192,337137,1,0,0:0:0:0:
475,192,337293,1,0,0:0:0:0:
109,192,337606,1,0,0:0:0:0:
256,192,337762,1,0,0:0:0:0:
329,192,337918,1,0,0:0:0:0:
402,192,338075,1,0,0:0:0:0:
256,192,338543,1,0,0:0:0:0:
256,192,338700,1,0,0:0:0:0:
109,192,338856,1,0,0:0:0:0:
329,192,339012,1,0,0:0:0:0:
182,192,339168,1,0,0:0:0:0:
402,192,339325,1,0,0:0:0:0:
256,192,339481,1,0,0:0:0:0:
109,192,339637,1,0,0:0:0:0:
182,192,340106,1,0,0:0:0:0:
329,192,340262,1,0,0:0:0:0:
256,192,340418,1,0,0:0:0:0:
36,192,340575,1,0,0:0:0:0:
182,192,340731,1,0,0:0:0:0:
402,192,340887,1,0,0:0:0:0:
256,192,341043,1,0,0:0:0:0:
475,192,341200,1,0,0:0:0:0:
402,192,341356,1,0,0:0:0:0:
329,192,341512,1,0,0:0:0:0:
256,192,341668,1,0,0:0:0:0:
182,192,341825,1,0,0:0:0:0:
36,192,341991,1,0,0:0:0:0:
109,192,342158,1,0,0:0:0:0:
182,192,342325,1,0,0:0:0:0:
329,192,342658,1,0,0:0:0:0:
109,192,342825,1,0,0:0:0:0:
182,192,342991,1,0,0:0:0:0:
256,192,343158,1,0,0:0:0:0:
402,192,343663,1,0,0:0:0:0:
402,192,343832,1,0,0:0:0:0:
256,192,344008,1,0,0:0:0:0:
329,192,344184,1,0,0:0:0:0:
182,192,344361,1,0,0:0:0:0:
36,192,344537,1,0,0:0:0:0:
109,192,344724,1,0,0:0:0:0:
182,192,344912,1,0,0:0:0:0:
329,192,345474,1,0,0:0:0:0:
182,192,345662,1,0,0:0:0:0:
402,192,345849,1,0,0:0:0:0:
182,192,346266,1,0,0:0:0:0:
329,192,346474,1,0,0:0:0:0:
109,192,346682,1,0,0:0:0:0:
256,192,346891,1,0,0:0:0:0:
36,192,347099,1,0,0:0:0:0:
109,192,347307,1,0,0:0:0:0:
182,192,347516,1,0,0:0:0:0:
256,192,347724,1,0,0:0:0:0:
475,192,347947,1,0,0:0:0:0:
329,192,348171,1,0,0:0:0:0:
402,192,348395,1,0,0:0:0:0:
109,192,348853,1,0,0:0:0:0:
329,192,349087,1,0,0:0:0:0:
402,192,349322,1,0,0:0:0:0:
182,192,349556,1,0,0:0:0:0:
256,192,350306,1,0,0:0:0:0:
182,192,350556,1,0,0:0:0:0:
329,192,350806,1,0,0:0:0:0:
109,192,351056,1,0,0:0:0:0:
182,192,351319,1,0,0:0:0:0:
329,192,351582,1,0,0:0:0:0:
182,192,351854,1,0,0:0:0:0:
36,192,352127,1,0,0:0:0:0:
402,192,352987,1,0,0:0:0:0:
329,192,353287,1,0,0:0:0:0:
256,192,353587,1,0,0:0:0:0:
182,192,354508,1,0,0:0:0:0:
