osu file format v14

[General]
AudioFilename: Natsu - Regression -HARDCORE-.mp3
AudioLeadIn: 0
PreviewTime: 115107
Countdown: 0
SampleSet: Normal
StackLeniency: 0.7
Mode: 0
LetterboxInBreaks: 1
WidescreenStoryboard: 1

[Editor]
DistanceSpacing: 1
BeatDivisor: 4
GridSize: 4
TimelineZoom: 2.2

[Metadata]
Title:Regression
TitleUnicode:Regression
Artist:Natsu
ArtistUnicode:なつ
Creator:AdveNt
Version:Pure Culmination
Source:東方紺珠伝 ~ Legacy of Lunatic Kingdom.
Tags:なつさん 東方Project touhou ピュアヒューリーズ ~ 心の在処 Pure Furies Whereabouts of the Heart junko kanjuden 純狐 video game instrumental hardcore electronic
BeatmapID:1602415
BeatmapSetID:366759

[Difficulty]
HPDrainRate:6
CircleSize:4
OverallDifficulty:9.2
ApproachRate:9.5
SliderMultiplier:2
SliderTickRate:1

[Events]
//Background and Video events
0,0,"15daf2aa87cca76df456c0e73682149b.jpg",0,0
//Break Periods
2,156359,165001
//Storyboard Layer 0 (Background)
//Storyboard Layer 1 (Fail)
//Storyboard Layer 2 (Pass)
//Storyboard Layer 3 (Foreground)
//Storyboard Layer 4 (Overlay)
//Storyboard Sound Samples

[TimingPoints]
1865,631.578947368421,4,2,1,70,1,0
2180,-100,4,2,1,40,0,0
2496,-100,4,2,1,50,0,0
2812,-100,4,2,1,60,0,0
3128,-100,4,2,1,5,0,0
3315,631.578947368421,4,2,1,70,1,0
3315,-100,4,2,1,70,0,0
12157,631.578947368421,4,2,1,70,1,0
12157,-100,4,2,1,70,0,0
13420,315.789473684211,4,1,1,70,1,0
32370,421.052631578947,4,1,1,70,1,0
32405,-100,4,1,1,5,0,0
32580,-100,4,1,1,70,0,0
32615,-100,4,1,1,5,0,0
32790,-100,4,1,1,70,0,0
32826,-100,4,1,1,5,0,0
33001,-100,4,1,1,70,0,0
33036,-100,4,1,1,5,0,0
33211,-100,4,1,1,70,0,0
33247,-100,4,1,1,5,0,0
33422,-100,4,1,1,70,0,0
33457,-100,4,1,1,5,0,0
33633,421.052631578947,4,2,1,60,1,0
33633,-133.333333333333,4,2,1,75,0,0
53843,-100,4,1,1,70,0,0
53844,315.789473684211,4,1,1,70,1,0
75317,-100,4,2,1,60,0,0
95528,-100,4,1,1,70,0,0
115738,-83.3333333333333,4,1,1,90,0,1
124738,-83.3333333333333,4,1,1,5,0,1
124817,-83.3333333333333,4,1,1,90,0,1
124975,-83.3333333333333,4,1,1,5,0,1
125054,-83.3333333333333,4,1,1,90,0,1
125212,-83.3333333333333,4,1,1,5,0,1
125291,-83.3333333333333,4,1,1,90,0,1
125449,-83.3333333333333,4,1,1,5,0,1
125528,-83.3333333333333,4,1,1,90,0,1
156159,-100,4,1,1,70,0,0
166265,-200,4,2,1,50,0,0
173844,-100,4,1,1,70,0,0
176370,-83.3333333333333,4,1,1,90,0,1
196580,-100,4,2,1,60,0,0
206686,-100,4,1,1,70,0,0
216791,-66.6666666666667,4,1,1,85,0,1
226896,-200,4,1,1,85,0,1
227212,-66.6666666666667,4,1,1,85,0,1
237001,-100,4,2,1,60,0,0
258475,-100,4,1,1,70,0,0
259738,-100,4,1,1,70,0,0
289896,-200,4,1,1,30,0,0
290922,-200,4,1,1,5,0,0
291001,-133.333333333333,4,1,1,25,0,0
291238,-133.333333333333,4,1,1,5,0,0
291317,-83.3333333333333,4,1,1,90,0,1
331733,631.578947368421,4,2,1,60,1,0
331733,-66.6666666666667,4,2,1,55,0,0
336785,625,4,2,1,50,1,0
336785,-66.6666666666667,4,2,1,50,0,0
341785,666.666666666666,4,2,1,40,1,0
341785,-83.3333333333333,4,2,1,40,0,0
343118,674.157303370787,4,2,1,40,1,0
343792,705.882352941176,4,2,1,40,1,0
344497,749.999999999999,4,2,1,40,1,0
346226,833.333333333332,4,2,1,40,1,0
347684,895.522388059701,4,2,1,30,1,0
348579,937.5,4,2,1,30,1,0
349516,1000,4,2,1,30,1,0
351016,1052.63157894737,4,2,1,30,1,0
351542,1090.90909090909,4,2,1,30,1,0
352947,1200,4,2,1,30,1,0
354468,3157.89473684211,4,2,1,30,1,0

[Colours]
Combo1 : 255,255,128
Combo2 : 232,0,0
Combo3 : 255,197,62
Combo4 : 255,0,128

[HitObjects]
256,192,1865,12,0,3128,0:0:0:0:
179,203,3315,6,0,P|320:235|241:165,1,350,6|0,2:0|0:0,0:0:0:0:
287,178,4578,6,0,P|146:210|225:140,1,350,2|0,2:0|0:0,0:0:0:0:
178,153,5841,6,0,P|291:223|225:112,1,350,2|0,2:0|0:0,0:0:0:0:
234,110,7104,6,0,B|217:204|217:204|245:285|245:285|227:326|227:326|286:276|371:263,1,350,2|0,2:0|0:0,0:0:0:0:
326,342,8367,6,0,P|406:290|277:311,1,350,2|0,2:0|0:0,0:0:0:0:
264,271,9630,6,0,P|184:219|313:240,1,350,2|0,2:0|0:0,0:0:0:0:
325,200,10893,6,0,P|415:106|288:137,1,350,2|0,2:0|0:0,0:0:0:0:
252,258,12157,6,0,B|267:264|267:264|309:264,2,33.3333333333333,2|2|2,2:0|2:0|2:0,0:0:0:0:
188,167,12472,2,0,B|173:161|173:161|131:161,2,33.3333333333333,2|2|2,2:0|2:0|2:0,0:0:0:0:
306,341,12788,1,2,2:0:0:0:
336,330,12893,2,0,P|352:307|357:279,1,33.3333333333333,2|2,2:0|2:0,0:0:0:0:
132,84,13104,1,2,2:0:0:0:
101,94,13209,2,0,P|84:116|79:144,1,33.3333333333333,2|2,2:0|2:0,0:0:0:0:
310,61,13420,5,4,3:1:0:0:
176,278,13577,1,2,0:2:0:0:
176,278,13656,1,2,0:2:0:0:
176,278,13735,2,0,B|225:306|225:306|279:292,1,100,8|0,0:0|0:0,0:0:0:0:
429,224,14051,1,0,3:1:0:0:
277,195,14209,1,0,0:0:0:0:
479,157,14367,1,8,0:0:0:0:
267,295,14525,1,0,0:0:0:0:
471,353,14683,5,0,3:1:0:0:
362,91,14841,1,2,0:2:0:0:
362,91,14920,1,2,0:2:0:0:
362,91,14998,2,0,B|315:67|315:67|250:78,1,100,8|0,0:0|0:0,0:0:0:0:
68,172,15314,1,0,3:1:0:0:
177,57,15472,1,0,0:0:0:0:
155,266,15630,1,8,0:0:0:0:
70,60,15788,1,0,0:0:0:0:
44,313,15946,5,0,3:1:0:0:
44,313,16262,2,0,P|156:274|253:314,1,200,8|0,0:0|3:1,0:0:0:0:
352,346,16735,1,0,0:0:0:0:
212,196,16893,1,8,0:0:0:0:
460,176,17051,1,0,0:0:0:0:
338,68,17209,6,0,L|349:175,1,100,0|0,3:1|0:0,0:0:0:0:
197,335,17525,2,0,L|208:220,1,100,8|0,0:0|0:0,0:0:0:0:
449,121,17841,2,0,P|449:225|344:277,1,200,2|10,3:1|0:1,0:0:0:0:
112,222,18314,1,2,0:1:0:0:
348,167,18472,5,2,3:1:0:0:
261,335,18630,1,2,0:2:0:0:
261,335,18709,1,2,0:2:0:0:
261,335,18788,1,8,0:0:0:0:
207,90,18946,1,0,0:0:0:0:
376,274,19104,2,0,P|424:286|477:261,1,100,0|0,3:1|0:0,0:0:0:0:
136,110,19420,2,0,P|88:98|35:123,1,100,8|0,0:0|0:0,0:0:0:0:
88,264,19735,5,0,3:1:0:0:
310,91,19893,1,2,0:2:0:0:
310,91,19972,1,2,0:2:0:0:
310,91,20051,1,8,0:0:0:0:
42,116,20209,1,0,0:0:0:0:
283,233,20367,2,0,L|300:170,1,50,0|0,3:1|0:0,0:0:0:0:
197,160,20525,2,0,L|203:199,3,25,8|0|0|0,0:0|0:0|0:0|0:0,0:0:0:0:
223,321,20683,1,8,0:0:0:0:
272,318,20761,1,8,0:0:0:0:
322,316,20840,1,8,0:0:0:0:
372,313,20919,1,8,0:0:0:0:
422,311,20998,5,2,3:1:0:0:
292,92,21156,1,0,0:0:0:0:
129,268,21314,1,8,0:0:0:0:
331,222,21472,1,0,0:0:0:0:
137,119,21630,1,2,3:1:0:0:
218,348,21788,1,0,0:0:0:0:
405,117,21946,1,8,0:0:0:0:
206,198,22104,1,0,0:0:0:0:
416,295,22262,5,2,3:1:0:0:
306,169,22420,1,0,0:0:0:0:
416,295,22577,1,10,0:1:0:0:
235,325,22735,1,0,0:0:0:0:
306,169,22893,1,2,3:1:0:0:
476,147,23051,1,0,0:0:0:0:
306,169,23209,1,10,0:0:0:0:
356,26,23367,1,0,0:0:0:0:
476,147,23525,5,6,3:1:0:0:
184,60,23683,1,2,0:2:0:0:
184,60,23762,1,2,0:2:0:0:
184,60,23841,2,0,L|165:178,1,100,8|0,0:0|0:0,0:0:0:0:
137,298,24156,1,0,3:1:0:0:
79,169,24314,1,0,0:0:0:0:
231,233,24472,1,8,0:0:0:0:
51,342,24630,1,0,0:0:0:0:
243,150,24788,6,0,P|301:188|315:248,1,100,0|2,3:1|0:2,0:0:0:0:
241,325,25025,1,2,0:2:0:0:
241,325,25104,2,0,P|221:257|247:212,1,100,8|0,0:0|0:0,0:0:0:0:
443,57,25420,2,0,P|402:121|354:128,1,100,0|0,3:1|0:0,0:0:0:0:
110,161,25735,1,8,0:0:0:0:
92,143,25813,1,0,0:0:0:0:
81,120,25892,1,0,0:0:0:0:
77,96,25971,1,0,0:0:0:0:
81,71,26051,6,0,L|224:58,1,100,0|0,3:1|0:0,0:0:0:0:
409,119,26367,2,0,P|471:77|380:85,1,200,8|0,0:0|3:1,0:0:0:0:
248,99,26841,1,0,0:0:0:0:
74,46,26998,1,8,0:0:0:0:
248,99,27156,1,0,0:0:0:0:
446,38,27314,6,0,B|457:107|457:107|445:152|445:152|464:250,1,200,0|8,3:1|0:0,0:0:0:0:
483,349,27788,1,0,0:0:0:0:
483,349,27946,2,0,B|419:305|363:391|259:315,1,200,0|10,3:1|0:1,0:0:0:0:
113,266,28420,2,0,L|93:193,1,50,2|0,0:1|0:0,0:0:0:0:
207,66,28577,5,14,3:1:0:0:
214,76,28655,1,8,0:0:0:0:
219,87,28734,1,8,0:0:0:0:
224,98,28813,1,8,0:0:0:0:
228,110,28892,1,8,0:0:0:0:
230,123,28971,1,8,0:0:0:0:
231,135,29050,1,8,0:0:0:0:
230,148,29129,1,8,0:0:0:0:
229,160,29209,2,0,P|219:193|222:229,3,50,8|8|8|8,3:1|0:0|0:0|0:0,0:0:0:0:
309,312,29525,2,0,P|319:279|316:243,3,50,8|8|8|8,0:0|0:0|0:0|0:0,0:0:0:0:
171,312,29841,6,0,L|246:329,1,50,10|8,3:1|0:0,0:0:0:0:
399,201,29998,1,8,0:0:0:0:
399,201,30077,1,8,0:0:0:0:
399,201,30156,2,0,L|317:184,3,50,8|8|8|8,0:0|0:0|0:0|0:0,0:0:0:0:
440,297,30472,1,8,3:1:0:0:
459,281,30550,1,8,0:0:0:0:
474,261,30629,1,8,0:0:0:0:
485,239,30708,1,8,0:0:0:0:
491,214,30788,1,8,0:0:0:0:
493,190,30866,1,8,0:0:0:0:
488,165,30945,1,8,0:0:0:0:
479,142,31024,1,8,0:0:0:0:
464,123,31104,6,0,L|348:103,1,100,10|8,3:1|0:0,0:0:0:0:
202,218,31341,1,8,0:0:0:0:
202,218,31420,2,0,L|426:198,1,200,10|10,0:0|3:1,0:0:0:0:
81,290,31893,1,8,0:0:0:0:
44,78,32051,1,10,0:0:0:0:
81,290,32209,1,8,0:0:0:0:
303,211,32370,6,0,L|306:237,1,16.6666666666667,14|0,3:1|0:0,0:0:0:0:
104,168,32580,2,0,L|75:157,1,16.6666666666667,0|0,3:1|0:0,0:0:0:0:
256,42,32791,2,0,L|281:22,1,16.6666666666667,0|0,3:1|0:0,0:0:0:0:
193,319,33001,6,0,L|197:351,1,16.6666666666667,0|0,3:1|0:0,0:0:0:0:
122,75,33212,2,0,L|93:64,1,16.6666666666667,0|0,3:1|0:0,0:0:0:0:
374,129,33422,2,0,L|399:109,1,16.6666666666667,0|0,3:1|0:0,0:0:0:0:
109,308,33633,6,0,L|85:211,2,75.0000028610231,6|0|0,0:0|0:0|0:0,0:0:0:0:
90,235,34264,1,0,0:0:0:0:
426,78,34475,2,0,L|416:173,2,75.0000028610231,2|0|0,0:0|0:0|0:0,0:0:0:0:
418,152,35106,1,0,0:0:0:0:
267,241,35317,5,2,0:0:0:0:
477,252,35527,1,0,0:0:0:0:
247,239,35738,1,0,0:0:0:0:
462,253,35948,1,0,0:0:0:0:
225,40,36159,1,2,0:0:0:0:
226,224,36370,1,0,0:0:0:0:
225,126,36580,1,0,0:0:0:0:
224,318,36791,1,0,0:0:0:0:
343,119,37001,5,2,0:0:0:0:
125,297,37212,1,0,0:0:0:0:
135,93,37422,1,0,0:0:0:0:
382,308,37633,1,0,0:0:0:0:
351,111,37843,5,2,0:0:0:0:
111,307,38054,1,0,0:0:0:0:
122,83,38264,1,0,0:0:0:0:
394,319,38475,1,0,0:0:0:0:
53,192,38685,5,2,0:0:0:0:
256,211,38896,1,0,0:0:0:0:
149,85,39106,1,0,0:0:0:0:
146,291,39317,1,0,0:0:0:0:
73,178,39527,5,2,0:0:0:0:
276,197,39738,1,0,0:0:0:0:
169,71,39948,1,0,0:0:0:0:
166,277,40159,1,0,0:0:0:0:
419,182,40369,5,2,0:0:0:0:
219,137,40580,1,0,0:0:0:0:
292,324,40791,1,0,0:0:0:0:
338,63,41001,1,0,0:0:0:0:
119,153,41212,6,0,L|99:135,2,18.7500007152558,2|0|0,3:1|3:0|3:0,0:0:0:0:
119,153,41422,2,0,L|27:145,1,75.0000028610231,0|2,3:0|3:1,0:0:0:0:
289,253,41843,2,0,L|309:235,2,18.7500007152558,2|0|0,3:1|3:0|3:0,0:0:0:0:
289,253,42053,2,0,L|381:245,1,75.0000028610231,0|2,3:0|3:1,0:0:0:0:
471,235,42475,5,0,3:0:0:0:
471,235,42685,1,0,3:0:0:0:
183,44,42896,2,0,P|140:78|133:93,1,37.5000014305115,2|0,3:1|3:1,0:0:0:0:
211,118,43106,2,0,P|191:136|178:152,1,37.5000014305115,2|0,3:1|3:1,0:0:0:0:
252,183,43317,2,0,P|242:233|247:265,1,75.0000028610231,2|2,3:1|3:1,0:0:0:0:
302,318,43633,1,2,3:1:0:0:
302,318,43738,6,0,B|344:308|344:308|380:320,1,75.0000028610231,2|0,3:1|0:0,0:0:0:0:
65,327,44159,2,0,L|59:217,1,75.0000028610231,8|0,0:0|0:0,0:0:0:0:
456,52,44580,5,0,3:1:0:0:
456,52,44791,1,0,0:0:0:0:
456,52,45001,2,0,L|462:162,1,75.0000028610231,8|0,0:0|0:0,0:0:0:0:
91,143,45422,5,0,3:1:0:0:
91,143,45633,1,0,0:0:0:0:
91,143,45843,2,0,P|113:108|166:86,1,75.0000028610231,8|0,0:0|0:0,0:0:0:0:
421,241,46264,5,0,3:1:0:0:
421,241,46475,1,0,0:0:0:0:
421,241,46685,2,0,P|399:276|346:298,1,75.0000028610231,8|0,0:0|0:0,0:0:0:0:
286,194,47106,5,0,3:1:0:0:
478,318,47317,1,0,0:0:0:0:
282,267,47527,2,0,P|281:206|299:170,1,75.0000028610231,8|0,0:0|0:0,0:0:0:0:
338,81,47948,1,0,3:1:0:0:
422,241,48159,2,0,L|374:237,1,37.5000014305115,8|0,0:0|0:0,0:0:0:0:
336,318,48369,2,0,L|272:322,1,37.5000014305115,8|0,0:0|0:0,0:0:0:0:
200,203,48580,2,0,L|150:197,1,37.5000014305115,8|0,0:0|0:0,0:0:0:0:
126,311,48791,6,0,L|34:318,1,75.0000028610231,2|0,3:1|0:0,0:0:0:0:
166,109,49212,1,8,0:0:0:0:
274,300,49422,1,0,0:0:0:0:
76,202,49633,2,0,L|71:98,1,75.0000028610231,0|0,3:1|0:0,0:0:0:0:
273,235,50054,1,8,0:0:0:0:
46,280,50264,1,0,0:0:0:0:
260,109,50475,2,0,L|358:141,1,75.0000028610231,0|0,3:1|0:0,0:0:0:0:
158,258,50896,1,8,0:0:0:0:
168,51,51106,1,0,0:0:0:0:
250,289,51317,6,0,P|195:348|115:337,1,150.000005722046,2|0,3:1|0:0,0:0:0:0:
262,95,51948,2,0,P|317:36|397:47,1,150.000005722046,2|0,0:1|3:1,0:0:0:0:
441,184,52580,2,0,P|384:170|347:136,1,75.0000028610231,2|2,3:1|3:1,0:0:0:0:
371,161,52896,2,0,P|312:147|274:154,1,75.0000028610231,2|0,3:1|0:0,0:0:0:0:
298,148,53212,2,0,P|240:174|175:157,1,112.500004291535,2|2,3:1|3:1,0:0:0:0:
101,119,53633,1,2,3:1:0:0:
101,119,53738,1,2,3:1:0:0:
101,119,53844,6,0,B|75:174|75:174|79:230,1,100,2|0,3:1|0:0,0:0:0:0:
310,344,54159,2,0,B|336:289|336:289|332:233,1,100,8|0,0:0|0:0,0:0:0:0:
268,78,54475,1,0,3:1:0:0:
159,251,54633,1,0,0:0:0:0:
159,251,54712,1,0,0:0:0:0:
159,251,54791,2,0,P|211:282|259:280,1,100,8|0,0:0|0:0,0:0:0:0:
422,231,55107,1,0,3:1:0:0:
268,78,55265,1,0,0:0:0:0:
268,78,55344,1,0,0:0:0:0:
268,78,55422,2,0,L|251:192,1,100,8|0,0:0|0:0,0:0:0:0:
336,321,55738,2,0,B|407:304|422:351|486:343,2,150,0|0|0,3:1|0:0|0:0,0:0:0:0:
109,109,56370,5,0,3:1:0:0:
167,278,56528,1,0,0:0:0:0:
167,278,56607,1,0,0:0:0:0:
167,278,56686,2,0,P|214:246|224:171,1,100,8|0,0:0|0:0,0:0:0:0:
212,69,57001,1,0,3:1:0:0:
268,303,57159,2,0,L|318:303,1,50
436,288,57317,2,0,P|397:269|374:191,1,100,8|0,0:0|0:0,0:0:0:0:
359,59,57633,5,0,3:1:0:0:
76,112,57791,1,0,0:0:0:0:
76,112,57870,1,0,0:0:0:0:
76,112,57949,2,0,P|108:177|151:195,1,100,8|0,0:0|0:0,0:0:0:0:
447,208,58265,1,0,3:1:0:0:
171,120,58422,1,8,0:0:0:0:
451,99,58580,1,8,0:0:0:0:
97,264,58738,1,8,0:0:0:0:
333,348,58896,6,0,B|343:307|343:307|333:277|333:277|340:211,1,100,2|0,3:1|0:0,0:0:0:0:
343,119,59212,1,8,0:0:0:0:
443,265,59370,1,0,0:0:0:0:
443,265,59449,1,0,0:0:0:0:
443,265,59528,1,0,3:1:0:0:
146,297,59686,1,0,0:0:0:0:
146,297,59765,1,0,0:0:0:0:
146,297,59844,2,0,B|88:308|88:308|39:287,1,100,8|0,0:0|0:0,0:0:0:0:
111,74,60159,6,0,L|103:176,1,100,0|0,3:1|0:0,0:0:0:0:
200,182,60396,1,0,0:0:0:0:
200,182,60475,2,0,P|266:172|311:186,1,100,8|0,0:0|0:0,0:0:0:0:
403,231,60791,6,0,L|411:333,1,100,0|0,3:1|0:0,0:0:0:0:
314,339,61028,1,0,0:0:0:0:
314,339,61107,2,0,P|248:329|203:343,1,100,8|0,0:0|0:0,0:0:0:0:
32,233,61422,5,2,3:1:0:0:
216,336,61580,1,0,0:0:0:0:
47,343,61738,1,8,0:0:0:0:
247,174,61896,1,0,0:0:0:0:
107,180,62054,2,0,P|44:148|36:62,2,150,0|0|0,3:1|0:0|0:0,0:0:0:0:
321,96,62686,6,0,L|399:86,1,50,2|0,3:1|0:0,0:0:0:0:
335,200,62844,1,0,3:1:0:0:
335,200,62922,1,0,3:1:0:0:
335,200,63001,2,0,L|253:197,1,50,10|0,0:0|0:0,0:0:0:0:
428,187,63159,1,0,3:1:0:0:
428,187,63238,1,0,3:1:0:0:
428,187,63317,2,0,L|436:227,6,25,2|0|0|0|0|0|0,3:1|0:0|0:0|0:0|3:1|0:0|3:1,0:0:0:0:
236,106,63633,1,10,0:0:0:0:
198,137,63711,1,2,3:1:0:0:
180,183,63790,1,2,3:1:0:0:
187,232,63869,1,2,3:1:0:0:
217,272,63949,6,0,B|276:290|276:290|338:268,1,100,2|0,3:1|0:0,0:0:0:0:
476,59,64265,2,0,B|417:41|417:41|355:63,1,100,8|0,0:0|0:0,0:0:0:0:
308,164,64580,1,0,3:1:0:0:
461,195,64738,1,0,0:0:0:0:
461,195,64817,1,0,0:0:0:0:
461,195,64896,1,8,0:0:0:0:
265,52,65054,1,0,0:0:0:0:
392,81,65212,6,0,B|408:124|408:124|366:158|379:238,2,150,0|0|0,3:1|0:0|0:0,0:0:0:0:
294,281,65844,2,0,P|357:330|447:303,2,150,0|0|0,3:1|0:0|0:0,0:0:0:0:
205,158,66475,2,0,P|123:117|46:130,2,150,2|0|0,3:1|0:0|0:0,0:0:0:0:
167,340,67107,2,0,B|114:315|114:315|121:188,2,150,0|0|0,3:1|0:0|0:0,0:0:0:0:
438,306,67738,6,0,L|481:311,4,25,2|0|0|0|0,3:1|0:0|0:0|0:0|0:0,0:0:0:0:
395,212,68054,2,0,L|428:185,4,25,10|0|0|0|0,0:0|0:0|0:0|0:0|0:0,0:0:0:0:
318,128,68370,2,0,L|323:84,6,25,2|0|0|0|0|0|0,3:1|0:0|0:0|0:0|0:0|0:0|0:0,0:0:0:0:
277,215,68686,1,10,0:0:0:0:
227,211,68764,1,2,3:1:0:0:
177,208,68843,1,2,3:1:0:0:
127,204,68922,1,2,3:1:0:0:
77,201,69001,6,0,P|54:130|89:49,2,150,2|0|0,3:1|0:0|0:0,0:0:0:0:
277,323,69633,1,0,3:1:0:0:
342,114,69791,1,0,0:0:0:0:
342,114,69870,1,0,0:0:0:0:
342,114,69949,1,10,3:1:0:0:
190,160,70107,1,10,3:1:0:0:
430,270,70265,6,0,B|456:222|456:222|448:161,1,100,2|0,3:1|0:0,0:0:0:0:
281,45,70580,2,0,B|255:93|255:93|263:154,1,100,8|0,0:0|0:0,0:0:0:0:
394,74,70896,1,2,3:1:0:0:
146,54,71054,1,2,3:1:0:0:
253,273,71212,1,2,3:1:0:0:
253,273,71291,1,2,3:1:0:0:
253,273,71370,1,2,3:1:0:0:
379,203,71528,5,2,3:1:0:0:
122,142,71686,1,2,3:1:0:0:
186,341,71844,1,2,3:1:0:0:
278,91,72001,1,2,3:1:0:0:
392,311,72159,1,2,3:1:0:0:
60,229,72317,1,2,3:1:0:0:
399,131,72475,1,2,3:1:0:0:
291,348,72633,1,2,3:1:0:0:
149,111,72791,6,0,L|174:53,1,50,2|0,3:1|0:0,0:0:0:0:
222,186,72949,1,0,0:0:0:0:
222,186,73028,1,0,0:0:0:0:
222,186,73107,2,0,L|157:229,1,50,2|0,3:1|0:0,0:0:0:0:
249,100,73265,2,0,L|299:123,1,50
96,236,73422,5,0,3:1:0:0:
96,236,73501,1,0,3:1:0:0:
96,236,73580,2,0,L|83:162,1,50,0|0,3:1|3:1,0:0:0:0:
300,208,73738,1,0,3:1:0:0:
297,232,73816,1,0,3:1:0:0:
295,257,73895,1,0,3:1:0:0:
293,282,73974,1,0,3:1:0:0:
256,192,74054,12,4,75317,3:2:0:0:
470,165,75633,5,2,0:0:0:0:
452,193,75711,1,2,0:0:0:0:
426,214,75790,1,2,0:0:0:0:
396,227,75869,1,2,0:0:0:0:
363,231,75949,5,2,0:0:0:0:
330,224,76027,1,2,0:0:0:0:
301,208,76107,1,2,0:0:0:0:
276,185,76185,1,2,0:0:0:0:
246,169,76265,5,2,0:0:0:0:
214,161,76343,1,2,0:0:0:0:
181,159,76422,1,2,0:0:0:0:
149,165,76501,1,2,0:0:0:0:
118,179,76580,5,2,0:0:0:0:
118,179,76896,1,2,0:0:0:0:
118,179,76975,2,0,B|124:226|124:226|105:291,1,100,2|2,0:0|0:0,0:0:0:0:
186,353,77212,1,2,0:0:0:0:
209,327,77317,2,0,L|302:312,1,66.6666666666667,2|2,0:0|0:0,0:0:0:0:
405,283,77528,1,2,0:0:0:0:
424,311,77633,2,0,L|504:321,1,66.6666666666667,2|2,0:0|0:0,0:0:0:0:
334,231,77844,5,2,0:0:0:0:
304,223,77949,2,0,L|294:152,1,66.6666666666667,2|2,0:0|0:0,0:0:0:0:
225,196,78159,1,2,0:0:0:0:
205,174,78265,2,0,L|223:95,1,66.6666666666667,2|2,0:0|0:0,0:0:0:0:
141,113,78475,1,2,0:0:0:0:
134,86,78580,2,0,L|177:21,1,66.6666666666667,2|2,0:0|0:0,0:0:0:0:
43,138,78791,2,0,P|15:119|-2:85,2,66.6666666666667,2|2|2,0:0|0:0|0:0,0:0:0:0:
121,203,79107,6,0,P|134:269|110:303,1,100,2|2,0:0|0:0,0:0:0:0:
201,339,79344,1,2,0:0:0:0:
201,339,79422,2,0,P|258:330|304:337,1,100,2|2,0:0|0:0,0:0:0:0:
438,347,79738,1,2,0:0:0:0:
438,347,79817,1,2,0:0:0:0:
438,347,79896,2,0,B|452:264|452:264|424:216|424:216|436:144,1,200,2|2,0:0|0:0,0:0:0:0:
439,73,80370,5,2,0:0:0:0:
439,73,80791,1,2,0:0:0:0:
379,42,80896,1,2,0:0:0:0:
282,67,81001,1,2,0:0:0:0:
282,67,81317,2,0,P|305:160|282:199,1,133.333333333333,2|2,0:0|0:0,0:0:0:0:
195,358,81633,6,0,P|172:265|195:226,1,133.333333333333,2|0,0:0|0:0,0:0:0:0:
302,199,81949,1,2,0:0:0:0:
302,199,82054,1,2,0:0:0:0:
302,199,82159,1,2,0:0:0:0:
302,199,82265,2,0,B|349:189|349:189|371:218|371:218|426:207,2,133.333333333333,2|2|2,0:0|0:0|0:0,0:0:0:0:
71,314,82896,5,2,0:0:0:0:
175,216,83107,1,2,0:0:0:0:
44,153,83317,1,2,0:0:0:0:
162,66,83528,2,0,P|256:77|312:174,1,200,2|2,0:0|0:0,0:0:0:0:
310,159,84001,1,0,0:0:0:0:
229,351,84159,5,2,0:0:0:0:
209,376,84265,2,0,L|137:361,1,66.6666666666667,2|2,0:0|0:0,0:0:0:0:
289,288,84475,1,2,0:0:0:0:
309,317,84580,2,0,L|381:302,1,66.6666666666667,2|2,0:0|0:0,0:0:0:0:
401,194,84791,5,2,0:0:0:0:
383,163,84896,2,0,L|311:178,1,66.6666666666667,2|2,0:0|0:0,0:0:0:0:
211,225,85107,1,2,0:0:0:0:
196,256,85212,2,0,L|124:241,1,66.6666666666667,2|2,0:0|0:0,0:0:0:0:
72,321,85422,6,0,P|42:233|103:152,1,200,6|2,3:2|0:0,0:0:0:0:
131,174,85817,1,2,0:0:0:0:
167,184,85896,1,2,0:0:0:0:
204,183,85975,1,2,0:0:0:0:
239,170,86054,5,2,0:0:0:0:
279,140,86132,1,2,0:0:0:0:
327,130,86211,1,2,0:0:0:0:
376,139,86290,1,2,0:0:0:0:
416,168,86370,5,2,0:0:0:0:
419,193,86448,1,2,0:0:0:0:
421,218,86527,1,2,0:0:0:0:
423,243,86606,1,2,0:0:0:0:
425,268,86686,6,0,P|358:327|288:310,1,150,2|0,0:0|0:0,0:0:0:0:
226,272,87001,1,2,0:0:0:0:
226,272,87080,2,0,B|268:232|268:232|271:148,1,100,2|2,0:0|0:0,0:0:0:0:
195,121,87317,6,0,L|191:195,1,50,2|0,0:0|0:0,0:0:0:0:
343,237,87475,2,0,L|347:163,1,50,2|0,0:0|0:0,0:0:0:0:
184,113,87633,6,0,L|180:187,1,50,2|0,0:0|0:0,0:0:0:0:
332,229,87791,2,0,L|336:155,1,50,2|0,0:0|0:0,0:0:0:0:
97,215,87949,5,2,0:0:0:0:
239,241,88107,1,2,0:0:0:0:
184,113,88265,1,2,0:0:0:0:
120,315,88422,2,0,B|184:315|184:315|228:337|228:337|328:335,2,200,2|2|2,0:0|0:0|0:0,0:0:0:0:
120,315,89370,5,2,0:0:0:0:
53,200,89528,1,2,0:0:0:0:
117,68,89686,1,2,0:0:0:0:
193,206,89844,2,0,P|120:225|40:189,2,150,8|8|8,0:0|0:0|0:0,0:0:0:0:
281,131,90396,1,8,0:0:0:0:
281,131,90475,6,0,P|358:122|414:143,1,100,8|0,0:0|0:0,0:0:0:0:
400,316,90791,2,0,P|350:261|350:214,1,100,8|0,0:0|0:0,0:0:0:0:
202,51,91107,2,0,L|76:44,1,100,8|0,0:0|0:0,0:0:0:0:
180,309,91422,2,0,P|234:275|257:218,1,100,8|0,0:0|0:0,0:0:0:0:
298,60,91738,5,8,0:0:0:0:
117,200,92054,1,8,0:0:0:0:
440,248,92370,1,8,0:0:0:0:
222,91,92686,1,8,0:0:0:0:
209,217,92844,1,8,0:0:0:0:
194,336,93001,6,0,P|138:338|89:319,1,100,8|8,0:0|0:0,0:0:0:0:
346,210,93317,2,0,P|402:208|451:227,1,100,8|8,0:0|0:0,0:0:0:0:
296,324,93633,1,8,0:0:0:0:
272,314,93711,1,8,0:0:0:0:
252,300,93790,1,8,0:0:0:0:
235,282,93869,1,8,0:0:0:0:
222,260,93949,1,8,0:0:0:0:
215,236,94027,1,8,0:0:0:0:
213,211,94106,1,8,0:0:0:0:
216,187,94185,1,8,0:0:0:0:
225,163,94265,6,0,L|267:114,1,50,0|0,3:0|3:0,0:0:0:0:
378,227,94422,2,0,L|304:222,1,50,0|0,3:0|3:0,0:0:0:0:
113,211,94580,2,0,L|122:122,3,50,8|0|0|8,0:0|3:0|3:0|0:0,0:0:0:0:
38,94,94896,6,0,L|36:144,1,50,0|8,3:0|0:0,0:0:0:0:
182,282,95054,2,0,L|185:185,1,50,8|8,0:0|0:0,0:0:0:0:
39,291,95212,1,0,3:0:0:0:
39,291,95291,1,8,0:0:0:0:
39,291,95370,2,0,L|36:356,1,50,8|8,0:0|0:0,0:0:0:0:
340,315,95528,6,0,L|347:204,1,100,6|0,3:1|0:0,0:0:0:0:
472,119,95765,1,0,0:0:0:0:
472,119,95844,2,0,L|486:256,1,100,8|0,0:0|0:0,0:0:0:0:
395,74,96159,6,0,P|421:44|508:41,1,100,0|0,3:1|0:0,0:0:0:0:
346,215,96396,1,0,0:0:0:0:
346,215,96475,2,0,P|296:243|211:230,1,100,8|0,0:0|0:0,0:0:0:0:
49,173,96791,6,0,L|54:44,1,100,0|0,3:1|0:0,0:0:0:0:
122,252,97028,1,0,0:0:0:0:
122,252,97107,2,0,L|131:359,1,100,8|0,0:0|0:0,0:0:0:0:
254,245,97422,1,0,3:1:0:0:
28,287,97580,1,0,0:0:0:0:
326,329,97738,1,8,0:0:0:0:
353,287,97816,1,0,0:0:0:0:
361,238,97895,1,0,0:0:0:0:
346,191,97974,1,0,0:0:0:0:
313,154,98054,6,0,P|263:140|211:155,1,100,0|0,3:1|0:0,0:0:0:0:
128,248,98291,1,0,0:0:0:0:
128,248,98370,2,0,P|52:240|16:200,1,100,8|0,0:0|0:0,0:0:0:0:
104,52,98686,6,0,L|96:176,1,100,0|0,3:1|0:0,0:0:0:0:
232,328,98922,1,0,0:0:0:0:
232,328,99001,2,0,L|220:208,1,100,8|0,0:0|0:0,0:0:0:0:
244,88,99317,6,0,P|300:104|368:96,1,100,0|0,3:1|0:0,0:0:0:0:
194,166,99554,1,0,0:0:0:0:
194,166,99633,2,0,P|138:150|70:158,1,100,8|0,0:0|0:0,0:0:0:0:
177,287,99949,1,0,3:1:0:0:
164,58,100107,1,0,0:0:0:0:
164,58,100186,1,0,0:0:0:0:
164,58,100265,1,10,0:0:0:0:
18,205,100422,1,0,3:1:0:0:
18,205,100501,1,0,3:1:0:0:
18,205,100580,6,0,P|92:235|135:233,1,100,2|0,3:1|0:0,0:0:0:0:
252,207,100817,1,0,0:0:0:0:
252,207,100896,2,0,P|333:197|387:205,1,100,8|0,0:0|0:0,0:0:0:0:
473,115,101212,6,0,P|418:100|360:99,1,100,0|0,3:1|0:0,0:0:0:0:
231,115,101449,1,0,0:0:0:0:
231,115,101528,2,0,P|149:139|115:137,1,100,8|0,0:0|0:0,0:0:0:0:
43,76,101844,6,0,L|29:196,1,100,0|0,3:1|0:0,0:0:0:0:
147,319,102080,1,0,0:0:0:0:
147,319,102159,2,0,L|139:194,1,100,8|0,0:0|0:0,0:0:0:0:
41,295,102475,1,0,3:1:0:0:
345,332,102633,1,0,0:0:0:0:
315,60,102791,1,8,0:0:0:0:
269,78,102869,1,0,0:0:0:0:
236,116,102948,1,0,0:0:0:0:
224,164,103027,1,0,0:0:0:0:
235,212,103107,6,0,P|266:257|320:279,1,100,0|0,3:1|0:0,0:0:0:0:
413,240,103344,1,0,0:0:0:0:
413,240,103422,2,0,P|469:257|510:295,1,100,8|0,0:0|0:0,0:0:0:0:
84,322,103738,6,0,P|52:239|62:183,1,100,0|0,3:1|0:0,0:0:0:0:
156,137,103975,1,0,0:0:0:0:
156,137,104054,2,0,P|151:221|118:259,1,100,10|0,0:0|0:0,0:0:0:0:
20,112,104370,5,2,3:1:0:0:
448,80,104607,1,2,3:1:0:0:
271,306,104844,1,2,3:1:0:0:
163,52,105080,1,2,3:1:0:0:
459,175,105317,2,0,L|425:228,1,50,10|0,3:1|0:0,0:0:0:0:
391,295,105475,2,0,L|345:263,1,50,2|0,3:1|3:0,0:0:0:0:
371,56,105633,6,0,P|369:129|328:173,1,100,2|0,3:1|0:0,0:0:0:0:
272,184,105870,1,0,0:0:0:0:
272,184,105949,2,0,P|199:186|155:227,1,100,8|0,0:0|0:0,0:0:0:0:
48,318,106265,6,0,L|37:179,1,100,0|0,3:1|0:0,0:0:0:0:
122,72,106501,1,0,0:0:0:0:
122,72,106580,2,0,L|113:182,1,100,8|0,0:0|0:0,0:0:0:0:
174,281,106896,6,0,P|226:267|292:280,1,100,0|0,3:1|0:0,0:0:0:0:
362,315,107133,1,0,0:0:0:0:
362,315,107212,2,0,P|414:329|480:316,1,100,8|0,0:0|0:0,0:0:0:0:
415,144,107528,6,0,L|419:281,1,100,0|0,3:1|0:0,0:0:0:0:
300,149,107765,1,0,0:0:0:0:
300,149,107844,2,0,L|296:12,1,100,8|0,0:0|3:1,0:0:0:0:
415,144,108159,5,2,3:1:0:0:
213,67,108317,1,0,0:0:0:0:
177,246,108475,2,0,P|240:292|283:295,1,100,8|0,0:0|0:0,0:0:0:0:
489,219,108791,1,0,3:1:0:0:
282,200,108949,1,0,3:1:0:0:
358,345,109107,1,8,0:0:0:0:
388,305,109185,1,0,0:0:0:0:
405,258,109264,1,0,3:1:0:0:
407,208,109343,1,0,3:1:0:0:
393,160,109422,5,2,3:1:0:0:
60,199,109659,1,2,3:1:0:0:
306,294,109896,1,2,3:1:0:0:
200,59,110133,1,2,3:1:0:0:
98,327,110370,1,10,3:1:0:0:
98,327,110449,1,0,3:1:0:0:
98,327,110528,1,2,3:1:0:0:
98,327,110607,1,0,3:0:0:0:
98,327,110686,6,0,P|140:343|205:338,1,100,2|8,3:1|0:0,0:0:0:0:
371,237,111001,1,8,0:0:0:0:
174,256,111159,1,8,0:0:0:0:
475,240,111317,6,0,P|456:198|407:156,1,100,2|8,3:1|0:0,0:0:0:0:
218,111,111632,1,8,0:0:0:0:
371,237,111790,1,8,0:0:0:0:
221,7,111949,6,0,P|179:25|137:74,1,100,2|8,3:1|0:0,0:0:0:0:
92,264,112265,1,8,0:0:0:0:
218,111,112422,1,8,0:0:0:0:
32,121,112580,5,2,3:1:0:0:
246,318,112738,1,8,0:0:0:0:
246,318,112817,1,0,0:0:0:0:
246,318,112896,1,10,0:0:0:0:
323,109,113054,1,8,0:0:0:0:
323,109,113133,1,8,0:0:0:0:
323,109,113212,6,0,L|326:42,3,50,10|8|8|8,0:0|0:0|0:0|0:0,0:0:0:0:
188,230,113528,2,0,L|191:297,3,50,10|8|8|8,0:0|0:0|0:0|0:0,0:0:0:0:
112,179,113844,5,10,0:0:0:0:
139,153,113922,1,8,0:0:0:0:
173,138,114001,1,8,0:0:0:0:
210,135,114080,1,8,0:0:0:0:
246,145,114159,1,10,0:0:0:0:
273,170,114238,1,8,0:0:0:0:
307,185,114317,1,8,0:0:0:0:
344,188,114396,1,8,0:0:0:0:
380,178,114475,6,0,L|434:147,3,50,10|8|8|8,0:0|0:0|0:0|0:0,0:0:0:0:
325,82,114791,2,0,L|294:28,3,50,10|8|8|8,0:0|0:0|0:0|0:0,0:0:0:0:
213,122,115107,2,0,B|174:113|145:120|145:120|124:141|124:141|94:146|58:135,2,150,2|2|2,3:1|3:1|3:1,0:0:0:0:
452,132,115738,5,6,3:1:0:0:
213,122,115896,1,0,3:0:0:0:
366,251,116054,1,8,0:0:0:0:
366,251,116133,1,0,3:0:0:0:
366,251,116212,2,0,L|354:166,1,59.9999981689454,0|0,3:0|3:0,0:0:0:0:
311,67,116370,1,0,3:1:0:0:
311,67,116449,1,0,3:0:0:0:
311,67,116528,2,0,L|300:153,1,59.9999981689454,0|0,3:0|3:0,0:0:0:0:
250,250,116686,1,8,0:0:0:0:
207,224,116765,1,0,3:0:0:0:
159,211,116843,1,0,3:0:0:0:
109,215,116922,1,0,3:0:0:0:
62,232,117001,5,0,3:1:0:0:
170,340,117159,1,0,3:0:0:0:
180,76,117317,1,8,0:0:0:0:
180,76,117396,1,0,3:0:0:0:
180,76,117475,2,0,L|98:66,1,59.9999981689454,0|0,3:0|3:0,0:0:0:0:
301,135,117633,1,0,3:1:0:0:
301,135,117712,1,0,3:0:0:0:
301,135,117791,2,0,L|397:124,1,59.9999981689454,0|0,3:0|3:0,0:0:0:0:
207,158,117949,1,8,0:0:0:0:
205,207,118027,1,0,3:0:0:0:
203,257,118106,1,0,3:0:0:0:
201,307,118185,1,0,3:0:0:0:
199,357,118265,5,0,3:1:0:0:
371,234,118422,1,0,3:0:0:0:
107,181,118580,1,8,0:0:0:0:
107,181,118659,1,0,3:0:0:0:
107,181,118738,2,0,L|97:261,1,59.9999981689454,0|0,3:0|3:0,0:0:0:0:
285,324,118896,1,0,3:1:0:0:
285,324,118975,1,0,3:0:0:0:
285,324,119054,2,0,L|277:248,1,59.9999981689454,0|0,3:0|3:0,0:0:0:0:
9,268,119212,1,8,0:0:0:0:
39,307,119291,1,0,3:0:0:0:
84,327,119369,1,0,3:0:0:0:
133,323,119449,1,0,3:0:0:0:
175,297,119527,5,0,3:1:0:0:
212,90,119686,1,0,3:0:0:0:
48,157,119844,1,8,0:0:0:0:
48,157,119922,1,0,3:0:0:0:
48,157,120001,1,0,3:0:0:0:
354,237,120159,1,0,3:1:0:0:
325,72,120317,1,0,3:0:0:0:
121,266,120475,1,10,0:0:0:0:
404,329,120633,1,2,3:1:0:0:
404,329,120712,1,0,3:0:0:0:
404,329,120791,6,0,P|456:281|457:200,1,119.999996337891,2|0,3:1|3:0,0:0:0:0:
414,75,121107,1,8,0:0:0:0:
242,183,121265,1,0,3:0:0:0:
465,234,121422,1,0,3:1:0:0:
283,63,121580,1,0,3:0:0:0:
465,234,121738,1,8,0:0:0:0:
235,304,121896,1,0,3:1:0:0:
368,102,122054,5,0,3:1:0:0:
390,292,122212,1,0,3:0:0:0:
176,147,122370,1,8,0:0:0:0:
140,337,122528,1,0,3:0:0:0:
383,96,122686,5,0,3:1:0:0:
405,286,122844,1,0,3:0:0:0:
191,141,123002,1,8,0:0:0:0:
155,331,123160,1,0,3:1:0:0:
320,180,123317,5,2,3:1:0:0:
72,104,123475,1,0,3:0:0:0:
72,104,123554,1,0,3:0:0:0:
72,104,123633,1,8,0:0:0:0:
248,268,123791,1,0,3:0:0:0:
264,56,123949,1,0,3:1:0:0:
84,244,124107,1,0,3:0:0:0:
84,244,124186,1,0,3:0:0:0:
84,244,124265,1,8,0:0:0:0:
428,212,124422,1,0,3:1:0:0:
168,96,124580,6,0,P|144:172|184:236,1,119.999996337891,2|0,3:1|3:0,0:0:0:0:
216,340,124817,2,0,P|240:264|200:200,1,119.999996337891,2|0,3:1|0:0,0:0:0:0:
180,96,125054,6,0,P|156:172|196:236,1,119.999996337891,2|0,3:1|3:1,0:0:0:0:
228,340,125291,2,0,P|252:264|212:200,1,119.999996337891,2|0,3:1|3:0,0:0:0:0:
48,215,125528,1,10,3:1:0:0:
77,213,125606,1,2,3:1:0:0:
107,211,125685,1,2,3:1:0:0:
137,209,125764,1,2,3:1:0:0:
167,207,125844,6,0,L|300:196,1,119.999996337891,2|0,3:1|3:0,0:0:0:0:
436,96,126159,1,8,0:0:0:0:
406,94,126237,1,0,3:0:0:0:
376,93,126316,1,0,3:0:0:0:
376,336,126475,1,0,3:1:0:0:
379,306,126553,1,0,3:0:0:0:
382,276,126632,1,0,3:0:0:0:
385,246,126711,1,0,3:0:0:0:
388,216,126791,1,8,0:0:0:0:
268,308,126949,1,0,3:1:0:0:
488,216,127107,6,0,P|448:144|408:124,1,119.999996337891,0|0,3:1|3:0,0:0:0:0:
200,238,127422,1,8,0:0:0:0:
229,236,127500,1,0,3:0:0:0:
259,235,127579,1,0,3:1:0:0:
125,89,127738,1,0,3:1:0:0:
123,118,127817,1,0,3:0:0:0:
121,148,127895,1,0,3:0:0:0:
119,178,127974,1,0,3:0:0:0:
117,208,128054,1,8,0:0:0:0:
249,103,128212,1,0,3:1:0:0:
31,289,128370,6,0,L|179:303,1,119.999996337891,0|0,3:1|3:0,0:0:0:0:
386,206,128686,1,8,0:0:0:0:
357,204,128765,1,0,3:0:0:0:
327,203,128843,1,0,3:1:0:0:
434,299,129001,1,0,3:1:0:0:
460,284,129080,1,0,3:0:0:0:
479,262,129158,1,0,3:0:0:0:
490,234,129237,1,0,3:0:0:0:
491,204,129316,1,8,0:0:0:0:
397,78,129475,1,0,3:1:0:0:
166,73,129633,6,0,L|164:146,1,59.9999981689454,2|0,3:1|3:0,0:0:0:0:
327,203,129791,2,0,L|328:125,1,59.9999981689454,2|0,3:1|3:0,0:0:0:0:
83,143,129949,2,0,P|114:198|174:213,1,119.999996337891,10|0,0:0|3:1,0:0:0:0:
359,59,130265,2,0,L|285:54,1,59.9999981689454,2|0,3:1|3:0,0:0:0:0:
416,177,130422,2,0,L|484:169,1,59.9999981689454,2|0,3:1|3:0,0:0:0:0:
327,203,130580,1,10,3:1:0:0:
324,232,130658,1,2,3:1:0:0:
321,262,130737,1,2,3:1:0:0:
319,292,130816,1,2,3:1:0:0:
316,322,130896,5,2,3:1:0:0:
477,273,131054,1,0,3:0:0:0:
214,143,131212,1,8,0:0:0:0:
444,56,131370,1,0,3:0:0:0:
185,322,131528,5,0,3:1:0:0:
134,78,131686,1,0,3:0:0:0:
64,295,131844,1,8,0:0:0:0:
365,231,132001,1,0,3:1:0:0:
134,78,132159,6,0,P|46:73|2:85,1,119.999996337891,2|0,3:1|3:0,0:0:0:0:
378,306,132475,2,0,P|466:311|510:299,1,119.999996337891,8|0,0:0|3:1,0:0:0:0:
262,85,132791,2,0,B|241:249|241:249|295:147,1,239.999992675781,0|10,3:1|0:0,0:0:0:0:
136,130,133265,1,2,3:1:0:0:
162,348,133422,5,2,3:1:0:0:
162,348,133501,1,0,3:0:0:0:
162,348,133580,2,0,L|235:343,1,59.9999981689454,0|0,3:0|3:0,0:0:0:0:
378,259,133738,1,10,0:0:0:0:
378,259,133817,1,0,3:0:0:0:
378,259,133896,2,0,L|305:254,1,59.9999981689454,0|0,3:1|3:0,0:0:0:0:
222,105,134054,2,0,L|211:176,1,59.9999981689454,2|0,3:1|3:0,0:0:0:0:
311,110,134212,2,0,P|273:35|201:22,2,119.999996337891,2|8|2,3:1|0:0|3:1,0:0:0:0:
148,242,134686,5,2,3:1:0:0:
148,242,134765,1,0,3:1:0:0:
148,242,134844,2,0,L|82:232,1,59.9999981689454,8|0,3:1|3:0,0:0:0:0:
287,351,135001,1,2,3:1:0:0:
287,351,135080,1,0,3:1:0:0:
287,351,135159,2,0,L|353:341,1,59.9999981689454,8|0,3:1|0:0,0:0:0:0:
450,275,135317,6,0,L|443:194,1,59.9999981689454,10|0,3:1|0:0,0:0:0:0:
357,204,135475,2,0,L|371:140,1,59.9999981689454,10|0,3:1|0:0,0:0:0:0:
264,144,135633,1,10,3:1:0:0:
273,115,135711,1,2,3:1:0:0:
282,86,135790,1,2,3:1:0:0:
291,58,135869,1,2,3:1:0:0:
300,29,135949,6,0,P|359:26|431:32,1,119.999996337891,6|0,3:1|3:0,0:0:0:0:
131,261,136265,1,8,0:0:0:0:
131,261,136344,1,0,3:0:0:0:
131,261,136422,2,0,P|94:259|57:239,1,59.9999981689454,0|0,3:0|3:0,0:0:0:0:
215,101,136580,1,0,3:1:0:0:
216,130,136659,1,0,3:0:0:0:
217,160,136737,1,0,3:0:0:0:
219,190,136817,1,0,3:0:0:0:
220,220,136895,1,8,0:0:0:0:
222,250,136974,1,0,3:0:0:0:
223,280,137053,1,0,3:0:0:0:
225,310,137132,1,0,3:0:0:0:
226,340,137212,6,0,P|308:336|363:314,1,119.999996337891,0|0,3:1|3:0,0:0:0:0:
352,142,137528,1,8,0:0:0:0:
352,142,137607,1,0,3:0:0:0:
352,142,137686,2,0,P|325:160|303:223,1,59.9999981689454,0|0,3:0|3:0,0:0:0:0:
485,271,137844,1,0,3:1:0:0:
481,241,137922,1,0,3:0:0:0:
478,211,138001,1,0,3:0:0:0:
475,181,138080,1,0,3:0:0:0:
472,151,138159,1,8,0:0:0:0:
469,121,138238,1,0,3:0:0:0:
465,92,138317,1,0,3:0:0:0:
462,62,138396,1,0,3:0:0:0:
459,32,138475,6,0,P|395:27|336:42,1,119.999996337891,0|0,3:1|3:0,0:0:0:0:
241,268,138791,1,8,0:0:0:0:
241,268,138870,1,0,3:0:0:0:
241,268,138949,2,0,P|272:276|325:270,1,59.9999981689454,0|0,3:0|3:0,0:0:0:0:
265,139,139107,1,0,3:1:0:0:
237,127,139185,1,0,3:0:0:0:
208,120,139264,1,0,3:0:0:0:
178,115,139343,1,0,3:0:0:0:
148,113,139422,1,8,0:0:0:0:
118,115,139501,1,0,3:0:0:0:
89,120,139580,1,0,3:0:0:0:
60,128,139659,1,0,3:0:0:0:
32,140,139738,6,0,L|20:259,1,119.999996337891,0|0,3:1|3:0,0:0:0:0:
348,277,140054,1,8,0:0:0:0:
348,277,140132,1,0,3:0:0:0:
348,277,140212,2,0,L|344:201,1,59.9999981689454,0|0,3:0|3:0,0:0:0:0:
161,253,140370,1,0,3:1:0:0:
161,253,140448,1,0,3:0:0:0:
161,253,140528,2,0,L|165:329,1,59.9999981689454,0|0,3:0|3:0,0:0:0:0:
441,335,140686,2,0,L|437:231,1,59.9999981689454,10|0,0:0|3:0,0:0:0:0:
253,186,140844,2,0,L|248:267,1,59.9999981689454,2|0,3:1|3:0,0:0:0:0:
413,81,141001,6,0,B|360:51|360:51|266:50,1,119.999996337891,2|0,3:1|3:0,0:0:0:0:
99,303,141317,2,0,B|152:333|152:333|246:334,1,119.999996337891,8|0,0:0|3:0,0:0:0:0:
414,161,141633,1,0,3:1:0:0:
205,241,141791,1,0,3:0:0:0:
205,241,141870,1,0,3:0:0:0:
205,241,141949,1,8,0:0:0:0:
411,337,142107,1,0,3:1:0:0:
286,106,142265,5,0,3:1:0:0:
262,317,142422,1,0,3:0:0:0:
387,183,142580,1,8,0:0:0:0:
186,149,142738,1,0,3:0:0:0:
357,278,142896,1,0,3:1:0:0:
286,106,143054,1,0,3:0:0:0:
178,253,143212,1,8,0:0:0:0:
282,207,143370,1,0,3:1:0:0:
210,66,143528,5,0,3:1:0:0:
260,329,143686,1,0,3:0:0:0:
260,329,143765,1,0,3:0:0:0:
260,329,143844,2,0,P|337:336|371:294,1,119.999996337891,8|0,0:0|3:1,0:0:0:0:
293,115,144159,2,0,L|293:202,1,59.9999981689454,2|0,3:1|3:0,0:0:0:0:
436,265,144317,2,0,L|433:185,1,59.9999981689454,2|0,3:1|3:0,0:0:0:0:
284,109,144475,2,0,L|284:196,1,59.9999981689454,10|0,0:0|3:0,0:0:0:0:
427,259,144633,2,0,L|424:179,1,59.9999981689454,2|0,3:1|3:0,0:0:0:0:
193,66,144791,6,0,B|87:52|87:52|104:88,1,119.999996337891,2|0,3:1|3:1,0:0:0:0:
167,336,145107,2,0,B|273:350|273:350|256:314,1,119.999996337891,2|0,3:1|3:1,0:0:0:0:
60,177,145422,1,2,3:1:0:0:
31,337,145580,1,0,3:1:0:0:
195,243,145738,2,0,L|184:168,1,59.9999981689454,0|0,3:1|3:0,0:0:0:0:
76,59,145896,1,0,3:1:0:0:
76,59,145975,1,0,3:1:0:0:
76,59,146054,6,0,L|58:193,1,119.999996337891,2|0,3:1|3:1,0:0:0:0:
317,347,146370,2,0,L|304:216,1,119.999996337891,2|0,3:1|3:1,0:0:0:0:
176,312,146686,1,0,3:1:0:0:
440,316,146844,1,2,3:1:0:0:
176,312,147001,1,2,3:1:0:0:
440,316,147159,1,2,3:1:0:0:
272,80,147317,5,2,3:1:0:0:
270,109,147395,1,0,3:1:0:0:
268,139,147474,1,0,3:1:0:0:
266,169,147554,1,0,3:0:0:0:
264,199,147633,2,0,L|258:278,1,59.9999981689454,0|0,3:1|3:1,0:0:0:0:
355,320,147791,2,0,L|350:218,1,59.9999981689454,0|0,3:1|3:0,0:0:0:0:
167,144,147949,5,2,3:1:0:0:
167,144,148028,1,0,3:0:0:0:
167,144,148107,2,0,L|160:237,1,59.9999981689454,0|0,3:1|3:0,0:0:0:0:
362,120,148265,1,0,3:1:0:0:
362,120,148344,1,0,3:0:0:0:
362,120,148423,2,0,L|355:27,1,59.9999981689454,0|0,3:1|3:1,0:0:0:0:
70,211,148580,5,2,3:1:0:0:
374,271,148738,1,2,3:1:0:0:
228,44,148896,1,2,3:1:0:0:
228,44,148975,1,0,3:0:0:0:
228,44,149054,1,2,3:1:0:0:
211,314,149212,1,2,3:1:0:0:
413,135,149370,1,2,3:1:0:0:
100,143,149528,1,2,3:1:0:0:
100,143,149607,1,0,3:0:0:0:
100,143,149686,1,2,3:1:0:0:
401,306,149844,6,0,L|410:223,1,59.9999981689454,2|0,3:1|3:0,0:0:0:0:
309,176,150001,2,0,L|312:246,1,59.9999981689454,0|0,3:1|3:1,0:0:0:0:
93,284,150159,2,0,L|84:201,1,59.9999981689454,2|0,3:1|3:0,0:0:0:0:
185,154,150317,2,0,L|182:224,1,59.9999981689454,0|0,3:1|3:1,0:0:0:0:
113,79,150475,1,10,0:0:0:0:
137,61,150553,1,8,0:0:0:0:
165,51,150632,1,0,3:1:0:0:
195,49,150711,1,0,3:1:0:0:
224,55,150791,2,0,L|257:87,2,29.9999990844727,10|0|0,0:0|0:0|0:0,0:0:0:0:
335,42,150949,2,0,L|335:87,2,29.9999990844727,10|0|0,0:0|0:0|0:0,0:0:0:0:
439,68,151107,5,2,3:1:0:0:
432,97,151185,1,0,3:1:0:0:
425,126,151264,1,0,3:1:0:0:
419,155,151343,1,0,3:1:0:0:
412,185,151422,2,0,L|385:311,1,119.999996337891,0|2,3:1|3:1,0:0:0:0:
262,168,151738,1,2,3:1:0:0:
262,168,151817,1,0,3:1:0:0:
262,168,151896,2,0,L|359:158,1,59.9999981689454,0|0,3:1|3:1,0:0:0:0:
203,254,152054,1,0,3:1:0:0:
203,254,152133,1,0,3:1:0:0:
203,254,152212,2,0,L|127:192,1,59.9999981689454,2|0,3:1|3:0,0:0:0:0:
301,262,152370,5,2,3:1:0:0:
301,262,152449,1,0,3:1:0:0:
301,262,152528,2,0,L|296:341,1,59.9999981689454,0|0,3:1|3:0,0:0:0:0:
85,282,152686,1,2,3:1:0:0:
72,255,152765,1,0,3:1:0:0:
68,225,152843,1,0,3:1:0:0:
73,196,152922,1,0,3:0:0:0:
88,169,153001,5,2,3:1:0:0:
100,142,153080,1,0,3:1:0:0:
104,112,153159,1,0,3:1:0:0:
99,83,153238,1,0,3:1:0:0:
84,56,153317,2,0,L|-5:49,1,59.9999981689454,2|0,3:1|3:1,0:0:0:0:
212,170,153475,2,0,L|288:163,1,59.9999981689454,2|0,3:1|3:0,0:0:0:0:
197,51,153633,5,2,3:1:0:0:
157,274,153791,1,0,3:1:0:0:
389,109,153949,1,2,3:1:0:0:
419,304,154107,1,0,3:1:0:0:
274,155,154265,5,2,3:1:0:0:
474,113,154422,1,0,3:1:0:0:
271,267,154580,1,2,3:1:0:0:
76,183,154738,1,0,3:1:0:0:
286,35,154896,5,2,3:1:0:0:
377,334,155133,1,2,3:1:0:0:
38,218,155370,1,2,3:1:0:0:
423,94,155607,1,2,3:1:0:0:
232,335,155844,1,2,3:1:0:0:
222,179,156001,1,2,3:1:0:0:
379,247,156159,5,4,3:1:0:0:
45,241,166265,6,0,B|96:206|175:238|175:238|225:212|225:212|285:281|384:245,1,350,2|0,2:0|0:0,0:0:0:0:
309,178,167528,2,0,P|305:316|462:256,1,350,2|0,2:0|0:0,0:0:0:0:
459,271,168791,2,0,B|392:248|320:276|320:276|278:230|278:230|208:297|138:269,1,350,2|0,2:0|0:0,0:0:0:0:
146,272,170054,2,0,B|184:185|184:185|152:122|152:122|176:59|176:59|112:93|55:55,1,350,2|0,2:0|0:0,0:0:0:0:
64,60,171317,2,0,P|67:134|37:212,1,150,2|0,2:0|0:0,0:0:0:0:
296,341,171949,2,0,P|293:267|323:189,1,150,2|0,0:0|0:0,0:0:0:0:
426,141,172580,6,0,L|487:136,1,50,2|0,2:0|0:0,0:0:0:0:
318,196,172896,2,0,L|257:191,1,50,2|0,0:0|0:0,0:0:0:0:
425,267,173212,2,0,L|486:262,1,50,2|0,0:0|0:0,0:0:0:0:
317,322,173528,2,0,L|256:317,1,50,2|0,0:0|0:0,0:0:0:0:
464,356,173844,5,10,0:1:0:0:
186,237,174001,1,0,3:1:0:0:
186,237,174080,1,0,3:1:0:0:
186,237,174159,1,0,3:1:0:0:
371,140,174317,1,10,0:1:0:0:
317,322,174475,1,0,3:1:0:0:
317,322,174554,1,0,3:1:0:0:
317,322,174633,1,0,3:1:0:0:
206,80,174791,1,10,0:1:0:0:
459,208,174949,1,2,3:1:0:0:
92,315,175107,6,0,P|49:266|49:217,1,100,2|0,3:1|0:0,0:0:0:0:
269,170,175422,2,0,P|312:219|312:268,1,100,10|0,0:0|0:0,0:0:0:0:
132,226,175738,1,10,0:0:0:0:
132,226,175817,2,0,L|128:100,1,100,10|0,0:0|3:1,0:0:0:0:
127,35,176054,1,10,0:0:0:0:
28,169,176212,1,0,3:0:0:0:
182,327,176370,5,6,3:1:0:0:
210,336,176448,1,0,3:0:0:0:
240,339,176527,1,0,3:0:0:0:
270,338,176607,1,0,3:0:0:0:
299,331,176686,1,8,0:0:0:0:
327,321,176764,1,0,3:0:0:0:
356,316,176843,1,0,3:0:0:0:
386,316,176922,1,0,3:0:0:0:
416,320,177001,6,0,L|488:357,1,59.9999981689454,0|0,3:1|3:0,0:0:0:0:
479,247,177159,2,0,L|482:170,1,59.9999981689454,0|0,3:0|3:0,0:0:0:0:
345,88,177317,2,0,L|343:163,1,59.9999981689454,8|0,0:0|3:0,0:0:0:0:
312,243,177475,2,0,L|240:206,1,59.9999981689454,0|0,3:0|3:0,0:0:0:0:
92,48,177633,5,0,3:1:0:0:
73,71,177711,1,0,3:0:0:0:
57,96,177790,1,0,3:0:0:0:
46,124,177869,1,0,3:0:0:0:
39,153,177948,1,8,0:0:0:0:
36,183,178028,1,0,3:0:0:0:
38,213,178106,1,0,3:0:0:0:
44,242,178185,1,0,3:0:0:0:
55,271,178265,6,0,L|129:263,1,59.9999981689454,0|0,3:1|3:0,0:0:0:0:
253,258,178422,2,0,L|266:338,1,59.9999981689454,0|0,3:0|3:0,0:0:0:0:
375,150,178580,2,0,L|301:142,1,59.9999981689454,8|0,0:0|3:0,0:0:0:0:
177,137,178738,2,0,L|164:217,1,59.9999981689454,0|0,3:0|3:0,0:0:0:0:
368,244,178896,5,0,3:1:0:0:
258,65,179054,1,0,3:0:0:0:
157,283,179212,1,8,0:0:0:0:
157,283,179291,1,0,0:0:0:0:
157,283,179370,1,0,3:0:0:0:
355,73,179528,1,0,3:1:0:0:
93,159,179686,1,0,3:0:0:0:
317,332,179844,1,8,0:0:0:0:
317,332,179922,1,0,0:0:0:0:
317,332,180001,1,0,3:0:0:0:
251,92,180159,5,0,3:1:0:0:
251,92,180238,1,0,3:0:0:0:
251,92,180317,2,0,P|209:81|174:80,1,59.9999981689454,0|0,3:0|3:0,0:0:0:0:
304,200,180475,1,8,0:0:0:0:
304,200,180554,1,0,3:0:0:0:
304,200,180633,2,0,P|346:211|381:212,1,59.9999981689454,0|0,3:0|3:0,0:0:0:0:
196,197,180791,5,0,3:1:0:0:
196,197,180870,1,0,3:0:0:0:
196,197,180949,2,0,P|185:239|184:274,1,59.9999981689454,0|0,3:0|3:0,0:0:0:0:
356,105,181107,1,8,0:0:0:0:
356,105,181186,1,0,3:0:0:0:
356,105,181265,2,0,P|367:63|368:28,1,59.9999981689454,8|0,3:1|3:0,0:0:0:0:
101,297,181422,6,0,P|138:337|244:331,1,119.999996337891,2|0,3:1|3:0,0:0:0:0:
428,255,181738,1,8,0:0:0:0:
428,255,181817,1,0,3:0:0:0:
428,255,181896,1,0,3:0:0:0:
240,168,182054,1,0,3:1:0:0:
390,329,182212,1,0,3:0:0:0:
352,112,182370,1,8,0:0:0:0:
213,266,182528,1,0,3:1:0:0:
452,110,182686,6,0,P|422:48|354:21,1,119.999996337891,0|0,3:1|3:0,0:0:0:0:
50,121,183001,2,0,P|80:183|148:210,1,119.999996337891,8|0,0:0|3:0,0:0:0:0:
392,196,183317,1,0,3:1:0:0:
148,118,183475,1,0,3:0:0:0:
302,319,183633,1,8,0:0:0:0:
323,64,183791,1,0,3:1:0:0:
114,294,183949,5,0,3:1:0:0:
315,183,184107,1,0,3:0:0:0:
125,68,184265,1,8,0:0:0:0:
125,68,184344,1,0,3:0:0:0:
125,68,184422,2,0,L|111:167,1,59.9999981689454,0|0,3:0|3:0,0:0:0:0:
220,77,184580,5,0,3:1:0:0:
19,148,184738,1,0,3:0:0:0:
201,245,184896,1,8,0:0:0:0:
201,245,184975,1,0,3:0:0:0:
201,245,185054,2,0,L|215:146,1,59.9999981689454,0|0,3:1|3:0,0:0:0:0:
19,319,185212,5,0,3:1:0:0:
48,320,185290,1,0,3:0:0:0:
78,321,185369,1,0,3:0:0:0:
108,322,185449,1,0,3:1:0:0:
138,324,185528,2,0,L|225:329,3,59.9999981689454,8|0|0|0,0:0|3:0|3:1|3:0,0:0:0:0:
290,331,185844,2,0,L|377:336,3,59.9999981689454,0|0|0|0,3:1|3:0|3:1|3:0,0:0:0:0:
455,340,186159,1,10,3:1:0:0:
455,340,186238,1,0,3:1:0:0:
455,340,186317,1,0,3:1:0:0:
455,340,186396,1,0,3:1:0:0:
455,340,186475,6,0,B|474:277|474:277|460:205,1,119.999996337891,2|0,3:1|3:0,0:0:0:0:
357,77,186791,1,8,0:0:0:0:
357,77,186870,1,0,3:0:0:0:
357,77,186949,2,0,L|289:65,1,59.9999981689454,0|0,3:0|3:0,0:0:0:0:
188,175,187107,1,0,3:1:0:0:
217,173,187186,1,0,3:0:0:0:
247,171,187264,1,0,3:0:0:0:
277,169,187344,1,0,3:0:0:0:
307,167,187422,1,8,0:0:0:0:
179,67,187580,1,0,3:1:0:0:
135,315,187738,6,0,B|198:334|198:334|270:320,1,119.999996337891,0|0,3:1|3:0,0:0:0:0:
398,217,188054,1,8,0:0:0:0:
398,217,188133,1,0,3:0:0:0:
398,217,188212,2,0,L|410:149,1,59.9999981689454,0|0,3:1|3:0,0:0:0:0:
300,48,188370,1,0,3:1:0:0:
301,77,188448,1,0,3:0:0:0:
303,107,188527,1,0,3:0:0:0:
305,137,188606,1,0,3:0:0:0:
307,167,188685,1,8,0:0:0:0:
408,39,188843,1,0,3:1:0:0:
119,71,189001,6,0,B|100:134|100:134|114:206,1,119.999996337891,2|0,3:1|3:0,0:0:0:0:
217,334,189317,1,8,0:0:0:0:
217,334,189396,1,0,3:0:0:0:
217,334,189475,2,0,L|285:346,1,59.9999981689454,0|0,3:1|3:0,0:0:0:0:
386,236,189633,1,0,3:1:0:0:
357,237,189711,1,0,3:0:0:0:
327,239,189790,1,0,3:0:0:0:
297,241,189869,1,0,3:0:0:0:
267,243,189949,1,8,0:0:0:0:
395,344,190106,1,0,3:1:0:0:
351,67,190265,6,0,B|288:48|288:48|216:62,1,119.999996337891,2|0,3:1|3:1,0:0:0:0:
88,165,190581,1,8,0:0:0:0:
88,165,190659,1,0,3:0:0:0:
88,165,190738,2,0,L|76:233,1,59.9999981689454,0|0,3:1|3:0,0:0:0:0:
183,329,190896,1,2,3:1:0:0:
183,329,190975,1,0,3:0:0:0:
183,329,191054,2,0,L|171:261,1,59.9999981689454,0|0,3:1|3:0,0:0:0:0:
21,313,191212,2,0,L|80:315,1,59.9999981689454,10|0,3:1|3:0,0:0:0:0:
245,188,191370,2,0,L|164:189,1,59.9999981689454,8|0,3:1|3:1,0:0:0:0:
325,326,191528,6,0,P|380:273|386:198,1,119.999996337891,2|0,3:1|0:0,0:0:0:0:
152,71,191844,2,0,P|97:124|91:199,1,119.999996337891,8|0,0:0|0:0,0:0:0:0:
171,324,192159,1,8,0:0:0:0:
173,160,192317,1,8,0:0:0:0:
53,316,192475,1,8,0:0:0:0:
282,269,192633,1,8,0:0:0:0:
231,55,192791,6,0,L|92:35,1,119.999996337891,2|0,3:1|0:0,0:0:0:0:
337,158,193107,2,0,L|480:151,1,119.999996337891,8|0,0:0|0:0,0:0:0:0:
206,175,193422,1,8,0:0:0:0:
206,175,193501,1,0,0:0:0:0:
206,175,193580,2,0,L|199:317,2,119.999996337891,8|10|8,0:0|0:0|0:0,0:0:0:0:
215,29,194054,5,10,0:0:0:0:
215,29,194212,1,8,0:0:0:0:
317,184,194370,1,8,0:0:0:0:
81,124,194528,1,8,0:0:0:0:
393,95,194686,1,10,0:0:0:0:
415,133,194764,1,8,0:0:0:0:
422,177,194843,1,8,0:0:0:0:
411,220,194922,1,8,0:0:0:0:
385,257,195001,1,10,0:0:0:0:
347,280,195080,1,8,0:0:0:0:
303,287,195159,1,8,0:0:0:0:
259,276,195238,1,8,0:0:0:0:
223,250,195317,6,0,P|154:228|83:247,1,119.999996337891,10|0,0:0|0:0,0:0:0:0:
369,346,195633,2,0,P|438:368|509:349,1,119.999996337891,10|0,0:0|0:0,0:0:0:0:
273,144,195949,1,10,0:0:0:0:
270,179,196028,1,10,0:0:0:0:
436,283,196186,1,10,0:0:0:0:
433,248,196265,2,0,L|425:125,1,119.999996337891,10|10,0:0|0:0,0:0:0:0:
419,34,196580,5,2,0:0:0:0:
419,34,196896,2,0,P|375:23|336:24,2,66.6666666666667,2|2|2,0:0|0:0|0:0,0:0:0:0:
355,101,197212,2,0,P|298:99|216:135,1,133.333333333333,2|2,0:0|0:0,0:0:0:0:
159,177,197528,1,2,0:0:0:0:
159,177,197844,6,0,P|163:249|101:297,1,133.333333333333,2|0,0:0|0:0,0:0:0:0:
21,222,198159,2,0,P|67:212|88:218,2,66.6666666666667,2|2|2,0:0|0:0|0:0,0:0:0:0:
58,340,198475,2,0,P|135:364|185:347,1,133.333333333333,2|2,0:0|0:0,0:0:0:0:
276,289,198791,2,0,P|353:265|403:282,1,133.333333333333,2|0,0:0|0:0,0:0:0:0:
464,339,199107,6,0,L|470:198,1,133.333333333333,2|2,0:0|0:0,0:0:0:0:
385,83,199422,2,0,L|379:224,1,133.333333333333,2|2,0:0|0:0,0:0:0:0:
453,326,199738,2,0,L|459:185,1,133.333333333333,2|2,0:0|0:0,0:0:0:0:
374,70,200054,2,0,L|368:211,1,133.333333333333,2|2,0:0|0:0,0:0:0:0:
298,306,200370,6,0,P|260:315|215:314,2,66.6666666666667,2|2|2,0:0|0:0|0:0,0:0:0:0:
244,234,200686,2,0,P|210:213|179:180,2,66.6666666666667,2|2|2,0:0|0:0|0:0,0:0:0:0:
265,147,201001,1,2,0:0:0:0:
258,131,201106,1,2,0:0:0:0:
254,115,201211,1,2,0:0:0:0:
252,98,201316,1,2,0:0:0:0:
253,82,201422,1,2,0:0:0:0:
257,66,201527,1,2,0:0:0:0:
263,50,201633,6,0,P|338:37|409:56,1,133.333333333333,2|0,0:0|0:0,0:0:0:0:
474,116,201949,2,0,L|481:201,2,66.6666666666667,2|2|2,0:0|0:0|0:0,0:0:0:0:
404,36,202265,2,0,P|338:23|273:37,1,133.333333333333,2|2,0:0|0:0,0:0:0:0:
186,128,202580,2,0,P|120:140|55:126,1,133.333333333333,2|0,0:0|0:0,0:0:0:0:
117,46,202896,5,2,0:0:0:0:
117,46,203212,2,0,L|112:121,2,66.6666666666667,2|2|2,0:0|0:0|0:0,0:0:0:0:
216,191,203528,2,0,L|218:56,1,133.333333333333,2|2,0:0|0:0,0:0:0:0:
94,215,203844,2,0,L|92:350,1,133.333333333333,2|0,0:0|0:0,0:0:0:0:
92,348,204159,6,0,P|144:312|231:319,1,133.333333333333,2|2,0:0|0:0,0:0:0:0:
396,310,204475,2,0,P|344:346|257:339,1,133.333333333333,2|2,0:0|0:0,0:0:0:0:
91,332,204791,2,0,P|142:295|229:302,1,133.333333333333,2|2,0:0|0:0,0:0:0:0:
394,293,205107,2,0,P|342:329|255:322,1,133.333333333333,2|2,0:0|0:0,0:0:0:0:
260,231,205422,6,0,B|230:160|294:165|254:96,1,133.333333333333,2|0,0:0|0:0,0:0:0:0:
197,50,205738,1,2,0:0:0:0:
197,50,205844,1,2,0:0:0:0:
197,50,205949,1,2,0:0:0:0:
197,50,206054,2,0,B|157:48|129:29|129:29|83:58|83:58|54:32|-7:25,1,200,2|2,0:0|0:0,0:0:0:0:
13,118,206686,6,0,L|5:267,1,133.333333333333,8|0,3:1|0:0,0:0:0:0:
19,343,207001,1,2,0:2:0:0:
63,369,207107,1,2,0:2:0:0:
119,365,207212,1,2,0:2:0:0:
166,343,207317,2,0,P|228:329|309:337,1,133.333333333333,2|2,0:2|0:2,0:0:0:0:
384,278,207633,2,0,P|331:248|253:240,1,133.333333333333,2|0,0:2|0:0,0:0:0:0:
166,188,207949,6,0,B|149:123|149:123|178:45,1,133.333333333333,2|0,1:2|0:0,0:0:0:0:
365,28,208265,1,2,0:2:0:0:
375,78,208370,1,2,0:2:0:0:
351,110,208475,1,2,0:2:0:0:
367,150,208580,2,0,B|384:215|384:215|355:293,1,133.333333333333,2|2,0:2|0:2,0:0:0:0:
257,310,208896,2,0,P|174:301|116:310,1,133.333333333333,2|0,0:2|0:0,0:0:0:0:
39,338,209212,6,0,L|27:196,1,133.333333333333,2|2,1:2|0:2,0:0:0:0:
120,101,209528,2,0,L|115:248,1,133.333333333333,2|2,0:2|0:2,0:0:0:0:
52,51,209844,2,0,P|112:21|183:37,1,133.333333333333,2|2,0:2|0:2,0:0:0:0:
436,147,210159,2,0,P|376:177|305:161,1,133.333333333333,2|2,0:2|0:2,0:0:0:0:
240,46,210475,5,2,0:2:0:0:
358,98,210580,1,2,0:2:0:0:
238,171,210686,1,2,0:2:0:0:
240,46,210791,2,0,P|287:23|324:22,2,66.6666666666667,2|2|2,0:2|0:2|0:2,0:0:0:0:
240,46,211107,2,0,P|259:103|238:172,1,133.333333333333,2|2,3:2|3:2,0:0:0:0:
130,324,211422,2,0,P|111:267|132:198,1,133.333333333333,2|2,3:2|3:2,0:0:0:0:
252,329,211738,5,2,3:1:0:0:
49,158,212370,1,2,3:1:0:0:
384,63,212896,1,2,3:1:0:0:
384,63,213001,2,0,P|373:125|294:149,1,133.333333333333,2|0,3:1|0:0,0:0:0:0:
356,231,213317,2,0,P|431:186|456:125,1,133.333333333333,2|0,3:1|0:0,0:0:0:0:
293,76,213633,2,0,P|255:58|160:75,1,133.333333333333,2|0,3:1|0:0,0:0:0:0:
167,70,213949,1,0,0:0:0:0:
199,230,214159,1,2,3:1:0:0:
199,230,214265,6,0,P|228:200|241:157,2,66.6666666666667,2|0|0,3:1|0:0|0:0,0:0:0:0:
128,295,214580,2,0,P|86:270|-6:269,1,133.333333333333,2|0,3:1|0:0,0:0:0:0:
48,342,214896,2,0,B|83:280|83:280|71:190,1,133.333333333333,2|2,3:1|3:1,0:0:0:0:
40,94,215212,1,2,3:1:0:0:
40,94,215317,1,2,3:1:0:0:
40,94,215422,1,2,3:1:0:0:
40,94,215528,6,0,L|112:83,2,66.6666666666667,2|0|0,3:1|3:1|3:1,0:0:0:0:
172,162,215844,2,0,L|244:173,2,66.6666666666667,2|0|0,3:1|3:1|3:1,0:0:0:0:
293,83,216159,2,0,L|318:78,10,16.6666666666667,2|0|0|0|0|0|0|0|0|0|0,3:1|0:0|0:0|0:0|0:0|0:0|0:0|0:0|0:0|0:0|0:0,0:0:0:0:
364,179,216475,1,2,3:1:0:0:
386,177,216580,1,2,3:1:0:0:
408,176,216685,1,2,3:1:0:0:
430,175,216791,6,0,P|474:267|419:354,1,200.000007629395,6|0,3:1|0:0,0:0:0:0:
204,136,217107,1,8,3:3:0:0:
278,214,217212,1,0,0:0:0:0:
173,236,217317,1,0,0:0:0:0:
204,136,217422,2,0,B|359:113|359:113|306:145,1,200.000007629395,8|0,3:3|0:0,0:0:0:0:
407,22,217738,2,0,P|451:114|396:201,1,200.000007629395,8|0,3:3|0:0,0:0:0:0:
217,245,218054,6,0,P|102:210|36:278,1,200.000007629395,8|0,3:3|0:0,0:0:0:0:
132,297,218370,1,8,3:3:0:0:
210,125,218475,1,0,0:0:0:0:
132,297,218580,1,0,0:0:0:0:
210,125,218686,2,0,P|325:160|391:92,1,200.000007629395,8|0,3:3|0:0,0:0:0:0:
292,67,219001,2,0,L|325:311,1,200.000007629395,8|0,3:3|0:0,0:0:0:0:
454,339,219317,6,0,L|247:327,1,200.000007629395,8|0,3:3|0:0,0:0:0:0:
47,223,219633,2,0,L|249:238,1,200.000007629395,8|0,3:3|0:0,0:0:0:0:
446,226,219949,6,0,L|239:238,1,200.000007629395,8|0,3:3|0:0,0:0:0:0:
54,342,220265,2,0,L|256:327,1,200.000007629395,8|0,3:3|0:0,0:0:0:0:
408,301,220580,5,8,3:3:0:0:
438,325,220686,2,0,L|446:217,1,100.000003814697
351,200,220896,1,8,3:3:0:0:
320,229,221001,2,0,L|312:121,1,100.000003814697
417,87,221212,1,8,3:3:0:0:
363,48,221317,1,8,3:3:0:0:
298,38,221422,1,8,3:3:0:0:
235,59,221527,1,8,3:3:0:0:
181,97,221633,1,8,3:3:0:0:
116,107,221738,1,8,3:3:0:0:
53,86,221844,6,0,P|104:44|163:152,1,200.000007629395,2|0,3:1|0:0,0:0:0:0:
174,222,222159,1,8,3:3:0:0:
174,222,222265,1,0,0:0:0:0:
174,222,222370,1,0,0:0:0:0:
174,222,222475,2,0,P|277:275|374:220,1,200.000007629395,8|0,3:3|0:0,0:0:0:0:
349,247,222791,2,0,B|329:170|369:115|369:115|406:122|427:156,1,200.000007629395,8|0,3:3|0:0,0:0:0:0:
443,218,223107,6,0,B|375:227|345:163|345:163|298:163|270:196,1,200.000007629395,8|0,3:3|0:0,0:0:0:0:
211,285,223422,1,8,3:3:0:0:
211,285,223528,1,0,0:0:0:0:
211,285,223633,1,0,0:0:0:0:
211,285,223738,2,0,B|154:248|99:238|99:238|77:192|95:132,1,200.000007629395,8|0,3:3|0:0,0:0:0:0:
88,162,224054,2,0,B|121:100|73:30|73:30|32:47|16:97,1,200.000007629395,8|0,3:3|0:0,0:0:0:0:
170,170,224370,6,0,P|246:122|356:170,1,200.000007629395,2|2,3:2|3:2,0:0:0:0:
424,194,224686,2,0,P|485:166|505:110,2,100.000003814697,2|0|0,3:2|0:0|0:0,0:0:0:0:
346,40,225001,2,0,L|332:252,1,200.000007629395,2|2,3:2|3:2,0:0:0:0:
190,304,225317,2,0,P|109:280|54:293,2,100.000003814697,2|2|2,3:2|3:2|3:2,0:0:0:0:
342,357,225633,6,0,B|446:351|446:351|495:257,1,200.000007629395,2|0,3:2|0:0,0:0:0:0:
181,37,225949,2,0,B|77:43|77:43|28:137,1,200.000007629395,2|0,3:2|0:0,0:0:0:0:
216,351,226265,2,0,L|225:142,1,200.000007629395,2|0,3:2|0:0,0:0:0:0:
133,230,226580,2,0,P|259:256|325:177,1,200.000007629395
384,140,226896,6,0,P|414:130|455:132,1,66.6666666666667
411,240,227212,5,2,3:1:0:0:
448,130,227317,1,0,0:0:0:0:
505,209,227422,1,0,0:0:0:0:
411,240,227528,2,0,B|307:271|307:271|196:220,1,200.000007629395,8|0,3:3|0:0,0:0:0:0:
113,137,227844,2,0,B|56:109|38:16|38:16|32:105,1,200.000007629395,8|0,3:3|0:0,0:0:0:0:
34,68,228159,6,0,B|89:64|119:52|119:52|161:71|161:71|197:60|235:62,1,200.000007629395,8|0,3:3|0:0,0:0:0:0:
430,40,228475,1,8,3:3:0:0:
240,63,228580,1,0,0:0:0:0:
417,42,228686,1,0,0:0:0:0:
255,64,228791,2,0,B|251:232|251:232|277:176,1,200.000007629395,8|0,3:3|0:0,0:0:0:0:
264,203,229107,2,0,B|209:199|179:187|179:187|137:206|137:206|101:195|63:197,1,200.000007629395,8|0,3:3|3:0,0:0:0:0:
407,327,229422,6,0,B|455:242|455:242|426:124,1,200.000007629395,8|0,3:3|0:0,0:0:0:0:
430,142,229738,2,0,B|382:227|382:227|411:345,1,200.000007629395,8|0,3:3|0:0,0:0:0:0:
406,326,230054,6,0,B|321:374|321:374|203:345,1,200.000007629395,8|0,3:3|0:0,0:0:0:0:
221,349,230370,2,0,B|122:307|122:307|13:336,1,200.000007629395,8|0,3:3|0:0,0:0:0:0:
33,330,230686,6,0,P|106:358|161:334,2,100.000003814697,2|0|2,3:2|0:0|3:2,0:0:0:0:
130,232,231001,2,0,P|201:200|223:144,2,100.000003814697,0|0|2,3:2|0:0|3:2,0:0:0:0:
124,118,231317,2,0,P|152:45|128:-10,1,100.000003814697,0|0,3:2|0:0,0:0:0:0:
47,42,231528,2,0,P|18:114|43:169,1,100.000003814697,2|0,3:2|0:0,0:0:0:0:
135,139,231738,2,0,P|163:66|139:11,1,100.000003814697,2|0,3:2|0:0,0:0:0:0:
34,20,231949,6,0,P|-2:92|19:218,1,200.000007629395,8|0,3:3|0:0,0:0:0:0:
221,346,232265,1,8,3:3:0:0:
163,244,232370,1,0,0:0:0:0:
100,349,232475,1,0,0:0:0:0:
221,346,232580,2,0,B|279:328|279:328|365:359|365:359|418:345,1,200.000007629395,2|0,3:2|0:0,0:0:0:0:
492,294,232896,1,2,3:2:0:0:
492,294,233107,1,2,3:2:0:0:
492,294,233212,6,0,P|408:217|435:118,1,200.000007629395,2|0,3:2|3:2,0:0:0:0:
493,102,233528,2,0,P|453:66|404:60,2,100.000003814697,2|0|0,3:2|0:0|0:0,0:0:0:0:
418,140,233844,1,2,3:2:0:0:
356,162,233949,1,2,3:2:0:0:
290,152,234054,1,2,3:2:0:0:
238,112,234159,2,0,P|117:93|28:148,1,200.000007629395,2|2,3:2|3:2,0:0:0:0:
50,125,234475,6,0,L|31:328,1,200.000007629395,2|2,3:2|3:2,0:0:0:0:
31,324,234791,2,0,P|81:275|214:293,1,200.000007629395,2|0,3:2|0:0,0:0:0:0:
317,336,235107,2,0,P|374:346|428:323,2,100.000003814697,2|2|2,3:2|3:2|3:2,0:0:0:0:
203,284,235422,2,0,L|200:64,1,200.000007629395,2|0,3:2|0:0,0:0:0:0:
94,136,235738,5,2,3:2:0:0:
148,175,235843,1,8,3:3:0:0:
213,185,235948,1,8,3:3:0:0:
276,164,236053,1,2,3:2:0:0:
330,126,236159,1,8,3:3:0:0:
395,116,236264,1,8,3:3:0:0:
458,137,236370,6,0,P|469:189|437:238,1,100.000003814697,2|0,3:2|0:0,0:0:0:0:
356,349,236580,2,0,P|345:297|377:248,1,100.000003814697,2|0,3:2|0:0,0:0:0:0:
491,351,236791,1,2,3:2:0:0:
315,122,239528,5,2,0:2:0:0:
42,219,239844,5,2,0:0:0:0:
60,191,239922,1,2,0:0:0:0:
86,170,240001,1,2,0:0:0:0:
116,157,240080,1,2,0:0:0:0:
149,153,240159,5,2,0:0:0:0:
182,160,240238,1,2,0:0:0:0:
211,176,240318,1,2,0:0:0:0:
236,199,240396,1,2,0:0:0:0:
266,215,240476,5,2,0:0:0:0:
298,223,240554,1,2,0:0:0:0:
331,225,240633,1,2,0:0:0:0:
363,219,240712,1,2,0:0:0:0:
394,205,240791,5,2,0:0:0:0:
394,205,241107,1,2,0:0:0:0:
394,205,241186,2,0,B|388:252|388:252|407:317,1,100,2|2,0:0|0:0,0:0:0:0:
334,350,241422,1,2,0:0:0:0:
320,324,241528,2,0,L|227:309,1,66.6666666666667,2|2,0:0|0:0,0:0:0:0:
138,348,241738,1,2,0:0:0:0:
152,374,241844,2,0,L|245:389,1,66.6666666666667,2|2,0:0|0:0,0:0:0:0:
83,282,242054,5,2,0:0:0:0:
49,305,242159,2,0,L|39:238,1,66.6666666666667,2|2,0:0|0:0,0:0:0:0:
81,170,242370,1,2,0:0:0:0:
40,162,242475,2,0,L|80:108,1,66.6666666666667,2|2,0:0|0:0,0:0:0:0:
152,81,242686,1,2,0:0:0:0:
128,46,242791,2,0,L|194:36,1,66.6666666666667,2|2,0:0|0:0,0:0:0:0:
263,80,243001,1,2,0:0:0:0:
271,38,243106,2,0,L|324:78,1,66.6666666666667,2|2,0:0|0:0,0:0:0:0:
350,185,243318,6,0,P|416:198|450:174,1,100,2|2,0:0|0:0,0:0:0:0:
512,79,243554,1,2,0:0:0:0:
512,79,243633,2,0,P|446:66|412:90,1,100,2|2,0:0|0:0,0:0:0:0:
214,277,243949,1,2,0:0:0:0:
214,277,244028,1,2,0:0:0:0:
214,277,244107,2,0,B|200:194|200:194|228:146|228:146|216:74,1,200,2|2,0:0|0:0,0:0:0:0:
106,74,244580,5,2,0:0:0:0:
106,74,245002,1,2,0:0:0:0:
165,43,245107,1,2,0:0:0:0:
260,72,245212,1,2,0:0:0:0:
260,72,245528,2,0,P|237:165|260:204,1,133.333333333333,2|2,0:0|0:0,0:0:0:0:
391,360,245844,6,0,P|414:267|391:228,1,133.333333333333,2|0,0:0|0:0,0:0:0:0:
262,204,246160,1,2,0:0:0:0:
262,204,246265,1,2,0:0:0:0:
262,204,246370,1,2,0:0:0:0:
262,204,246476,2,0,B|217:201|217:201|186:217|186:217|130:212,2,133.333333333333,2|2|2,0:0|0:0|0:0,0:0:0:0:
467,188,247107,5,2,0:0:0:0:
301,269,247318,1,2,0:0:0:0:
445,349,247528,1,2,0:0:0:0:
374,102,247739,2,0,P|280:113|224:210,1,200,2|2,0:0|0:0,0:0:0:0:
225,195,248212,1,2,0:0:0:0:
270,340,248370,5,2,0:0:0:0:
290,365,248476,2,0,L|362:350,1,66.6666666666667,2|2,0:0|0:0,0:0:0:0:
195,303,248686,1,2,0:0:0:0:
175,332,248791,2,0,L|103:317,1,66.6666666666667,2|2,0:0|0:0,0:0:0:0:
96,174,249002,5,2,0:0:0:0:
114,143,249107,2,0,L|186:158,1,66.6666666666667,2|2,0:0|0:0,0:0:0:0:
355,264,249318,1,2,0:0:0:0:
340,233,249423,2,0,L|268:248,1,66.6666666666667,2|2,0:0|0:0,0:0:0:0:
436,324,249633,6,0,P|466:236|405:155,1,200,2|2,3:2|0:0,0:0:0:0:
377,177,250028,1,2,0:0:0:0:
341,187,250107,1,2,0:0:0:0:
304,186,250186,1,2,0:0:0:0:
269,173,250265,5,2,0:0:0:0:
229,143,250343,1,2,0:0:0:0:
181,133,250422,1,2,0:0:0:0:
132,142,250501,1,2,0:0:0:0:
92,171,250580,1,2,0:0:0:0:
71,202,250658,1,2,0:0:0:0:
64,238,250737,1,2,0:0:0:0:
69,275,250816,1,2,0:0:0:0:
88,308,250896,6,0,P|155:367|225:350,1,150,2|0,0:0|0:0,0:0:0:0:
286,298,251212,1,2,0:0:0:0:
286,298,251291,2,0,B|244:258|244:258|241:174,1,100,2|2,0:0|0:0,0:0:0:0:
317,147,251528,6,0,L|321:221,1,50,2|0,0:0|0:0,0:0:0:0:
169,263,251686,2,0,L|165:189,1,50,2|0,0:0|0:0,0:0:0:0:
328,139,251844,6,0,L|332:213,1,50,2|0,0:0|0:0,0:0:0:0:
180,255,252002,2,0,L|176:181,1,50,2|0,0:0|0:0,0:0:0:0:
416,222,252160,5,2,3:2:0:0:
260,264,252318,1,2,0:0:0:0:
328,139,252476,1,2,3:2:0:0:
390,328,252633,2,0,B|326:328|326:328|285:351|285:351|182:348,2,200,2|2|2,0:0|0:0|0:0,0:0:0:0:
390,328,253580,5,2,0:0:0:0:
379,196,253738,1,2,3:2:0:0:
264,272,253896,1,2,0:0:0:0:
464,258,254054,1,2,3:2:0:0:
477,236,254132,1,2,0:2:0:0:
484,213,254211,1,2,0:2:0:0:
486,188,254290,1,2,0:2:0:0:
482,163,254369,1,2,0:2:0:0:
473,140,254448,1,2,0:2:0:0:
458,120,254527,1,2,0:2:0:0:
439,104,254606,1,2,0:2:0:0:
416,93,254686,6,0,B|372:77|372:77|290:82,1,100,0|2,3:2|0:0,0:0:0:0:
124,137,255001,1,0,3:2:0:0:
309,182,255159,1,2,0:0:0:0:
215,73,255317,2,0,L|210:186,1,100,0|2,3:2|0:0,0:0:0:0:
355,340,255633,2,0,L|344:227,1,100,0|2,3:2|0:0,0:0:0:0:
243,312,255949,5,0,3:2:0:0:
449,262,256107,1,2,0:0:0:0:
243,312,256265,1,0,3:2:0:0:
351,135,256422,1,2,0:0:0:0:
355,340,256580,1,0,3:2:0:0:
214,131,256738,1,2,0:0:0:0:
456,176,256896,1,0,3:2:0:0:
243,312,257054,1,2,0:0:0:0:
246,30,257212,5,0,3:2:0:0:
270,40,257290,1,0,3:2:0:0:
290,54,257369,1,0,3:2:0:0:
307,72,257448,1,0,3:2:0:0:
320,94,257527,1,0,3:2:0:0:
327,118,257606,1,0,3:2:0:0:
329,143,257685,1,0,3:2:0:0:
326,167,257764,1,0,3:2:0:0:
317,191,257844,6,0,L|275:240,1,50,0|0,3:2|3:2,0:0:0:0:
164,127,258001,2,0,L|238:132,1,50,0|0,3:2|3:2,0:0:0:0:
414,195,258159,2,0,L|405:284,3,50,0|0|0|0,3:2|3:2|3:2|3:2,0:0:0:0:
488,105,258475,6,0,L|490:155,1,50,0|0,3:0|0:0,0:0:0:0:
283,297,258633,2,0,L|280:200,1,50,2|2,2:2|2:2,0:0:0:0:
479,301,258791,1,8,0:0:0:0:
479,301,258870,1,0,0:0:0:0:
479,301,258949,2,0,L|482:366,1,50,2|8,2:2|0:0,0:0:0:0:
197,285,259107,5,0,3:0:0:0:
197,285,259186,1,8,0:0:0:0:
197,285,259265,2,0,B|169:292|169:292|113:275,1,50,8|8,0:0|0:0,0:0:0:0:
301,119,259422,1,2,2:0:0:0:
301,119,259501,1,8,0:0:0:0:
301,119,259580,2,0,B|329:112|329:112|385:129,1,50,8|8,0:0|0:0,0:0:0:0:
450,200,259738,5,6,3:1:0:0:
207,197,259896,1,0,0:0:0:0:
207,197,259975,1,0,0:0:0:0:
207,197,260054,2,0,P|172:124|195:67,1,100,8|0,0:0|0:0,0:0:0:0:
351,210,260370,2,0,P|386:283|363:340,1,100,0|0,3:1|0:0,0:0:0:0:
285,335,260607,1,0,0:0:0:0:
285,335,260686,2,0,B|234:320|234:320|155:342,1,100,8|0,0:0|0:0,0:0:0:0:
52,288,261001,5,0,3:1:0:0:
271,107,261159,1,0,0:0:0:0:
271,107,261238,1,0,0:0:0:0:
271,107,261317,2,0,L|408:93,1,100,8|0,0:0|0:0,0:0:0:0:
217,192,261633,2,0,L|80:178,1,100,0|0,3:1|0:0,0:0:0:0:
191,86,261949,1,8,0:0:0:0:
236,294,262107,1,0,0:0:0:0:
35,228,262265,6,0,P|27:147|54:106,1,100,0|0,3:1|0:0,0:0:0:0:
115,58,262501,1,0,0:0:0:0:
115,58,262580,2,0,B|156:37|156:37|232:49,1,100,8|0,0:0|0:0,0:0:0:0:
379,134,262896,1,0,3:1:0:0:
209,152,263054,1,0,0:0:0:0:
209,152,263133,1,0,0:0:0:0:
209,152,263212,1,8,0:0:0:0:
293,29,263370,1,0,0:0:0:0:
410,255,263528,6,0,P|360:279|297:275,1,100,0|0,3:1|0:0,0:0:0:0:
115,176,263844,2,0,P|165:152|228:156,1,100,8|0,0:0|0:0,0:0:0:0:
410,255,264159,2,0,L|424:332,1,50,0|0,3:1|0:0,0:0:0:0:
324,148,264317,1,0,0:0:0:0:
324,148,264396,1,0,0:0:0:0:
324,148,264475,2,0,L|328:73,2,50,8|0|0,0:0|0:0|0:0,0:0:0:0:
272,322,264791,5,0,3:1:0:0:
447,170,264949,1,0,0:0:0:0:
447,170,265028,1,0,0:0:0:0:
447,170,265107,1,8,0:0:0:0:
204,129,265265,1,0,0:0:0:0:
392,259,265422,2,0,P|479:268|507:253,1,100,0|0,3:1|0:0,0:0:0:0:
255,64,265738,2,0,P|168:55|140:70,1,100,8|0,0:0|0:0,0:0:0:0:
123,298,266054,6,0,P|178:253|190:205,1,100,0|0,3:1|0:0,0:0:0:0:
100,119,266291,1,0,0:0:0:0:
100,119,266370,2,0,P|91:158|117:224,1,100,8|0,0:0|0:0,0:0:0:0:
267,246,266686,2,0,P|312:191|360:179,1,100,0|0,3:1|0:0,0:0:0:0:
446,269,266923,1,0,0:0:0:0:
446,269,267002,2,0,P|407:278|341:252,1,100,8|0,0:0|0:0,0:0:0:0:
280,58,267317,6,0,L|413:49,1,100,0|0,3:1|0:0,0:0:0:0:
458,127,267554,1,0,0:0:0:0:
458,127,267633,2,0,L|356:125,1,100,8|0,0:0|0:0,0:0:0:0:
194,57,267949,2,0,L|61:48,1,100,0|0,3:1|0:0,0:0:0:0:
16,126,268186,1,0,0:0:0:0:
16,126,268265,2,0,L|118:124,1,100,8|0,0:0|0:0,0:0:0:0:
293,120,268580,6,0,P|331:169|336:219,2,100,0|0|8,3:1|0:0|0:0,0:0:0:0:
220,227,269054,1,0,0:0:0:0:
212,68,269212,2,0,P|324:34|363:55,2,150,8|8|10,3:1|3:1|3:1,0:0:0:0:
154,172,269765,1,10,3:1:0:0:
154,172,269844,6,0,P|90:182|51:168,1,100,2|0,3:1|0:0,0:0:0:0:
34,68,270159,1,8,0:0:0:0:
226,250,270317,1,0,0:0:0:0:
42,348,270475,2,0,P|35:286|59:240,1,100,0|0,3:1|0:0,0:0:0:0:
318,226,270791,1,8,0:0:0:0:
117,306,270949,1,0,0:0:0:0:
249,55,271107,6,0,L|247:171,1,100,0|0,3:1|0:0,0:0:0:0:
117,306,271422,2,0,L|122:174,1,100,8|0,0:0|0:0,0:0:0:0:
282,292,271738,1,0,3:1:0:0:
35,252,271896,1,0,0:0:0:0:
249,50,272054,1,8,0:0:0:0:
249,50,272212,1,8,3:1:0:0:
249,50,272370,6,0,L|362:39,1,100,2|0,3:1|0:0,0:0:0:0:
471,184,272686,2,0,L|336:172,1,100,8|0,0:0|0:0,0:0:0:0:
469,82,273001,1,0,3:1:0:0:
471,313,273159,1,0,0:0:0:0:
469,82,273317,1,8,0:0:0:0:
231,167,273475,1,0,0:0:0:0:
371,175,273633,6,0,P|385:104|370:57,1,100,0|0,3:1|0:0,0:0:0:0:
141,209,273949,2,0,P|127:280|142:327,1,100,8|0,0:0|0:0,0:0:0:0:
378,292,274265,1,0,3:1:0:0:
216,264,274422,1,8,0:0:0:0:
378,292,274580,1,8,0:0:0:0:
216,264,274738,1,8,0:0:0:0:
378,292,274896,6,0,B|441:297|441:297|479:274,1,100,2|8,3:1|0:0,0:0:0:0:
362,142,275212,1,8,0:0:0:0:
292,313,275370,1,8,0:0:0:0:
447,198,275528,1,2,3:1:0:0:
184,106,275686,1,8,0:0:0:0:
322,233,275844,1,8,0:0:0:0:
332,58,276001,1,8,0:0:0:0:
332,58,276080,1,8,0:0:0:0:
332,58,276159,5,2,3:1:0:0:
82,205,276317,1,8,0:0:0:0:
82,205,276396,1,8,0:0:0:0:
82,205,276475,1,8,0:0:0:0:
390,278,276633,1,8,0:0:0:0:
390,278,276712,1,8,0:0:0:0:
390,278,276791,1,2,3:1:0:0:
185,68,276949,1,8,0:0:0:0:
216,295,277107,1,10,0:0:0:0:
185,68,277265,1,8,0:0:0:0:
379,149,277422,5,10,3:1:0:0:
91,148,277580,1,8,0:0:0:0:
91,148,277659,1,8,0:0:0:0:
91,148,277738,2,0,P|56:95|63:54,1,100,10|8,3:1|0:0,0:0:0:0:
430,69,278054,1,10,3:1:0:0:
454,97,278132,1,8,0:0:0:0:
468,131,278211,1,8,0:0:0:0:
470,169,278290,1,8,0:0:0:0:
459,204,278370,2,0,P|400:213|337:199,1,100,10|8,3:1|0:0,0:0:0:0:
165,73,278686,5,10,3:1:0:0:
209,53,278764,1,8,0:0:0:0:
257,64,278843,1,8,0:0:0:0:
288,102,278922,1,8,0:0:0:0:
289,151,279001,1,10,3:1:0:0:
278,199,279079,1,8,0:0:0:0:
292,246,279158,1,8,0:0:0:0:
327,281,279237,1,8,0:0:0:0:
375,295,279317,6,0,L|434:282,5,33.3333333333333,10|0|0|0|0|0,3:1|3:0|3:0|3:0|3:0|3:0,0:0:0:0:
243,342,279633,2,0,L|185:329,5,33.3333333333333,10|0|0|0|0|0,3:1|3:0|3:0|3:0|3:0|3:0,0:0:0:0:
370,198,279949,5,10,3:1:0:0:
52,152,281212,5,10,3:1:0:0:
395,68,282475,5,10,3:1:0:0:
228,278,283738,5,10,3:1:0:0:
219,39,285001,5,10,3:1:0:0:
219,39,285159,1,8,0:0:0:0:
344,234,285317,1,8,0:0:0:0:
344,234,285475,1,8,0:0:0:0:
104,186,285633,1,10,3:1:0:0:
104,186,285791,1,8,0:0:0:0:
399,97,285949,1,8,0:0:0:0:
399,97,286107,1,8,0:0:0:0:
192,314,286265,6,0,L|184:246,1,50,10|0,3:1|0:0,0:0:0:0:
266,152,286422,1,8,0:0:0:0:
266,152,286580,2,0,L|265:273,1,100,8|8,0:0|0:0,0:0:0:0:
173,303,286896,6,0,L|165:235,1,50,10|0,3:1|0:0,0:0:0:0:
247,141,287053,1,8,0:0:0:0:
247,141,287212,2,0,L|246:262,1,100,8|8,0:0|0:0,0:0:0:0:
218,341,287528,5,10,3:1:0:0:
218,341,287607,1,8,0:0:0:0:
218,341,287686,2,0,L|145:329,1,50,8|8,0:0|0:0,0:0:0:0:
321,244,287844,1,10,3:1:0:0:
321,244,287923,1,8,0:0:0:0:
321,244,288002,2,0,L|394:232,1,50,8|8,0:0|0:0,0:0:0:0:
222,154,288159,1,10,3:1:0:0:
222,154,288238,1,8,0:0:0:0:
222,154,288317,2,0,L|210:227,1,50,8|8,0:0|0:0,0:0:0:0:
332,137,288475,1,10,3:1:0:0:
332,137,288554,1,8,0:0:0:0:
332,137,288633,2,0,L|320:64,1,50,8|8,0:0|0:0,0:0:0:0:
145,64,288791,6,0,B|134:65|128:80|179:104,1,50,10|0,3:1|0:0,0:0:0:0:
145,64,288949,2,0,B|130:49|116:82|123:124,1,50,10|0,3:1|0:0,0:0:0:0:
145,64,289107,2,0,B|137:56|104:67|87:101,1,50,10|0,3:1|0:0,0:0:0:0:
145,64,289265,2,0,P|120:46|92:45,1,50,10|0,3:1|0:0,0:0:0:0:
195,62,289422,2,0,P|196:40|177:3,1,50,10|0,3:1|0:0,0:0:0:0:
260,166,289580,2,0,P|286:158|313:135,1,50,10|0,3:1|0:0,0:0:0:0:
171,264,289738,2,0,P|192:292|236:309,1,50,10|0,3:1|0:0,0:0:0:0:
31,176,289896,2,0,P|13:200|115:174,1,325,10|0,3:1|0:0,0:0:0:0:
118,177,291001,6,0,B|162:183|162:183|200:167|200:167|257:173,1,112.500004291535,2|0,0:2|0:0,0:0:0:0:
285,223,291317,6,0,P|302:179|298:148,1,59.9999981689454,6|0,3:1|3:0,0:0:0:0:
76,33,291475,1,0,3:0:0:0:
76,33,291554,1,0,3:0:0:0:
76,33,291633,2,0,P|59:77|63:108,1,59.9999981689454,8|0,0:0|3:0,0:0:0:0:
379,174,291791,2,0,P|368:129|341:97,1,59.9999981689454,0|0,3:0|3:0,0:0:0:0:
144,234,291949,5,0,3:1:0:0:
152,262,292027,1,0,3:0:0:0:
167,288,292106,1,0,3:0:0:0:
188,309,292185,1,0,3:0:0:0:
214,325,292265,1,8,0:0:0:0:
242,333,292344,1,0,3:0:0:0:
272,335,292422,1,0,3:0:0:0:
301,329,292501,1,0,3:0:0:0:
328,315,292580,6,0,P|344:293|355:253,1,59.9999981689454,0|0,3:1|3:0,0:0:0:0:
240,154,292738,1,0,3:0:0:0:
240,154,292817,1,0,3:0:0:0:
240,154,292896,2,0,P|244:210|265:239,1,59.9999981689454,8|0,0:0|3:0,0:0:0:0:
445,310,293054,2,0,P|460:286|468:236,1,59.9999981689454,0|0,3:0|3:0,0:0:0:0:
320,70,293212,5,0,3:1:0:0:
294,54,293290,1,0,3:0:0:0:
265,46,293369,1,0,3:0:0:0:
235,45,293448,1,0,3:0:0:0:
206,51,293527,1,8,0:0:0:0:
179,65,293607,1,0,3:0:0:0:
157,84,293685,1,0,3:0:0:0:
140,109,293765,1,0,3:0:0:0:
129,137,293844,6,0,P|121:169|121:211,1,59.9999981689454,0|0,3:1|3:0,0:0:0:0:
323,342,294001,1,0,3:0:0:0:
323,342,294080,1,0,3:0:0:0:
323,342,294159,2,0,P|346:255|325:196,1,119.999996337891,8|0,0:0|3:0,0:0:0:0:
240,136,294475,1,0,3:1:0:0:
176,328,294633,1,0,3:0:0:0:
176,328,294712,1,0,3:0:0:0:
176,328,294791,1,8,0:0:0:0:
439,263,294949,1,0,3:0:0:0:
87,69,295107,6,0,L|80:142,1,59.9999981689454,0|0,3:1|3:0,0:0:0:0:
172,236,295265,1,0,3:0:0:0:
172,236,295344,1,0,3:0:0:0:
172,236,295422,2,0,L|166:111,1,119.999996337891,8|0,0:0|3:0,0:0:0:0:
28,288,295738,1,0,3:1:0:0:
412,297,295896,1,0,3:0:0:0:
253,63,296054,1,8,0:0:0:0:
132,345,296212,1,0,3:1:0:0:
481,270,296370,5,0,3:1:0:0:
481,270,296449,1,0,3:0:0:0:
481,270,296528,2,0,P|453:235|424:228,1,59.9999981689454,0|0,3:0|3:0,0:0:0:0:
239,253,296686,5,8,0:0:0:0:
210,263,296764,1,0,3:0:0:0:
181,266,296843,1,0,3:0:0:0:
151,262,296922,1,0,3:0:0:0:
124,250,297001,1,0,3:1:0:0:
100,232,297080,1,0,3:0:0:0:
81,209,297159,1,0,3:0:0:0:
69,181,297238,1,0,3:0:0:0:
64,152,297317,2,0,L|77:79,1,59.9999981689454,8|0,0:0|3:0,0:0:0:0:
312,74,297475,2,0,L|328:151,1,59.9999981689454,8|0,3:1|3:0,0:0:0:0:
188,187,297633,6,0,L|196:103,1,59.9999981689454,0|0,3:1|3:0,0:0:0:0:
427,136,297791,2,0,L|439:208,1,59.9999981689454,0|0,3:0|3:0,0:0:0:0:
299,335,297949,2,0,L|303:251,1,59.9999981689454,8|0,0:0|3:0,0:0:0:0:
110,151,298107,1,0,3:0:0:0:
106,180,298186,1,0,3:0:0:0:
102,210,298264,1,0,3:1:0:0:
98,240,298343,1,0,3:0:0:0:
94,269,298422,2,0,L|177:270,1,59.9999981689454,0|0,3:0|3:0,0:0:0:0:
247,185,298580,2,0,L|169:187,1,59.9999981689454,8|0,0:0|3:0,0:0:0:0:
259,329,298738,2,0,L|259:249,1,59.9999981689454,8|0,3:1|3:0,0:0:0:0:
125,61,298896,5,0,3:1:0:0:
125,61,298975,1,0,3:0:0:0:
125,61,299054,2,0,L|118:134,1,59.9999981689454,0|0,3:0|3:0,0:0:0:0:
343,209,299212,1,8,0:0:0:0:
343,209,299291,1,0,3:0:0:0:
343,209,299370,2,0,L|336:136,1,59.9999981689454,0|0,3:0|3:0,0:0:0:0:
278,45,299528,5,0,3:1:0:0:
278,45,299607,1,0,3:0:0:0:
278,45,299686,2,0,L|205:52,1,59.9999981689454,0|0,3:0|3:0,0:0:0:0:
145,242,299844,1,8,0:0:0:0:
145,242,299922,1,0,3:0:0:0:
145,242,300002,2,0,L|218:235,1,59.9999981689454,8|0,3:1|3:0,0:0:0:0:
386,130,300159,6,0,P|366:106|321:80,1,59.9999981689454,0|0,3:1|3:0,0:0:0:0:
194,62,300317,2,0,P|170:82|144:127,1,59.9999981689454,0|0,3:0|3:1,0:0:0:0:
126,254,300475,2,0,P|146:278|191:304,1,59.9999981689454,8|0,0:0|3:0,0:0:0:0:
318,322,300633,2,0,P|342:302|368:257,1,59.9999981689454,0|0,3:1|3:0,0:0:0:0:
256,192,300791,5,0,3:1:0:0:
256,192,300870,1,0,3:0:0:0:
256,192,300949,2,0,P|240:227|228:281,1,59.9999981689454,0|0,3:1|3:0,0:0:0:0:
312,116,301107,2,0,P|289:84|248:47,1,59.9999981689454,10|0,3:1|3:1,0:0:0:0:
338,206,301265,2,0,P|376:202|429:185,1,59.9999981689454,10|0,3:1|3:1,0:0:0:0:
185,100,301422,5,2,3:1:0:0:
155,97,301500,1,0,3:0:0:0:
125,94,301579,1,0,3:0:0:0:
95,92,301658,1,0,3:0:0:0:
65,89,301738,2,0,P|28:134|30:177,1,59.9999981689454,8|0,0:0|3:0,0:0:0:0:
219,319,301896,2,0,P|220:272|211:240,1,59.9999981689454,0|0,3:0|3:0,0:0:0:0:
8,319,302054,5,0,3:1:0:0:
8,319,302133,1,0,3:0:0:0:
8,319,302212,2,0,P|34:339|90:352,1,59.9999981689454,0|0,3:0|3:0,0:0:0:0:
185,192,302370,1,8,0:0:0:0:
185,192,302449,1,0,3:0:0:0:
185,192,302528,2,0,P|140:178|100:179,1,59.9999981689454,8|0,3:1|3:0,0:0:0:0:
377,337,302686,5,0,3:1:0:0:
392,311,302765,1,0,3:0:0:0:
401,282,302843,1,0,3:0:0:0:
402,252,302922,1,0,3:0:0:0:
396,223,303001,2,0,P|387:189|356:157,1,59.9999981689454,8|0,0:0|3:0,0:0:0:0:
257,300,303159,2,0,P|266:328|297:366,1,59.9999981689454,0|0,3:1|3:0,0:0:0:0:
300,216,303317,5,0,3:1:0:0:
300,216,303396,1,0,3:0:0:0:
300,216,303475,2,0,L|217:200,1,59.9999981689454,0|0,3:0|3:0,0:0:0:0:
423,359,303633,1,8,0:0:0:0:
423,359,303712,1,0,3:0:0:0:
423,359,303791,2,0,L|506:350,1,59.9999981689454,8|0,3:1|3:0,0:0:0:0:
189,118,303949,5,0,3:1:0:0:
157,149,304027,1,0,3:0:0:0:
142,191,304106,1,0,3:0:0:0:
146,236,304185,1,0,3:0:0:0:
168,275,304265,2,0,L|248:284,1,59.9999981689454,8|0,0:0|3:0,0:0:0:0:
392,336,304422,2,0,L|325:340,1,59.9999981689454,0|0,3:1|3:0,0:0:0:0:
108,339,304580,5,0,3:1:0:0:
108,339,304659,1,0,3:0:0:0:
108,339,304738,2,0,P|85:301|84:267,1,59.9999981689454,0|0,3:0|3:0,0:0:0:0:
273,131,304896,2,0,P|251:169|222:187,1,59.9999981689454,8|0,0:0|3:0,0:0:0:0:
10,103,305054,2,0,P|54:102|84:118,1,59.9999981689454,8|0,3:1|3:0,0:0:0:0:
301,257,305212,5,0,3:1:0:0:
301,257,305291,1,0,3:0:0:0:
301,257,305370,2,0,P|340:257|381:235,1,59.9999981689454,0|0,3:1|3:0,0:0:0:0:
439,41,305528,1,8,0:0:0:0:
424,98,305607,1,0,3:0:0:0:
388,146,305685,1,0,3:1:0:0:
337,177,305764,1,0,3:0:0:0:
278,185,305843,1,0,3:1:0:0:
220,174,305922,1,0,3:0:0:0:
171,141,306001,6,0,L|168:62,1,59.9999981689454,0|0,3:1|3:0,0:0:0:0:
288,33,306159,2,0,L|289:109,1,59.9999981689454,8|0,3:1|3:1,0:0:0:0:
53,148,306317,1,8,3:1:0:0:
52,88,306396,1,8,3:1:0:0:
52,28,306475,5,10,3:1:0:0:
278,185,306633,1,0,3:0:0:0:
90,320,306791,2,0,B|38:275|38:275|76:223,1,119.999996337891,8|0,0:0|3:0,0:0:0:0:
256,28,307107,1,0,3:1:0:0:
299,344,307265,1,0,3:0:0:0:
450,259,307422,2,0,B|502:214|502:214|464:162,1,119.999996337891,8|0,0:0|3:0,0:0:0:0:
256,28,307738,6,0,B|193:17|193:17|126:44,1,119.999996337891,2|0,3:1|3:0,3:0:0:0:
299,344,308054,2,0,B|362:355|362:355|429:328,1,119.999996337891,8|0,0:1|3:0,3:0:0:0:
396,100,308370,1,0,3:1:0:0:
255,191,308528,1,0,3:0:0:0:
113,281,308686,2,0,B|70:227|70:227|72:162,1,119.999996337891,10|0,0:0|3:0,0:0:0:0:
466,29,309001,6,0,B|498:84|498:84|484:156,1,119.999996337891,2|0,3:1|3:0,3:0:0:0:
378,256,309317,2,0,B|346:201|346:201|360:129,1,119.999996337891,8|0,3:1|3:0,3:0:0:0:
46,29,309633,6,0,B|14:84|14:84|28:156,1,119.999996337891,2|0,3:1|3:0,3:0:0:0:
134,256,309949,2,0,B|166:201|166:201|152:129,1,119.999996337891,8|0,3:1|3:0,3:0:0:0:
42,251,310265,5,2,3:1:0:0:
287,64,310422,1,8,3:1:0:0:
287,64,310501,1,8,3:1:0:0:
287,64,310580,1,10,3:1:0:0:
392,305,310738,1,8,3:1:0:0:
392,305,310817,1,0,0:0:0:0:
392,305,310896,2,0,L|395:354,6,29.9999990844727,10|0|0|0|8|0|0,3:1|0:0|0:0|0:0|3:1|0:0|0:0,0:0:0:0:
314,335,311212,5,10,3:1:0:0:
254,332,311290,1,2,3:1:0:0:
194,330,311369,1,2,3:1:0:0:
134,327,311448,1,2,3:1:0:0:
74,325,311528,6,0,P|46:274|62:194,1,119.999996337891,6|0,3:1|3:0,0:0:0:0:
438,0,311844,1,8,0:0:0:0:
438,59,311922,1,0,3:0:0:0:
414,114,312001,1,0,3:0:0:0:
365,159,312080,1,0,3:0:0:0:
295,178,312159,1,0,3:1:0:0:
219,157,312238,1,0,3:0:0:0:
169,96,312317,1,0,3:0:0:0:
210,62,312395,1,0,3:0:0:0:
263,51,312474,1,8,0:0:0:0:
309,61,312553,1,0,3:0:0:0:
344,87,312632,1,8,3:1:0:0:
360,113,312711,1,0,3:0:0:0:
367,136,312791,6,0,P|371:172|348:212,3,59.9999981689454,0|0|0|0,3:1|3:0|3:0|3:0,0:0:0:0:
310,258,313107,1,8,0:0:0:0:
283,204,313185,1,0,3:0:0:0:
237,168,313264,1,0,3:0:0:0:
178,156,313343,1,0,3:0:0:0:
113,167,313422,1,0,3:1:0:0:
57,211,313501,1,0,3:0:0:0:
27,283,313580,1,0,3:0:0:0:
75,304,313658,1,0,3:0:0:0:
120,287,313738,1,8,0:0:0:0:
147,256,313816,1,0,3:0:0:0:
154,220,313895,1,8,3:1:0:0:
146,191,313974,1,0,3:0:0:0:
134,169,314054,6,0,P|106:131|67:120,3,59.9999981689454,0|0|0|0,3:1|3:0|3:0|3:0,0:0:0:0:
19,92,314370,1,8,0:0:0:0:
19,151,314448,1,0,3:0:0:0:
43,206,314527,1,0,3:0:0:0:
92,251,314606,1,0,3:0:0:0:
162,270,314685,1,0,3:1:0:0:
238,249,314764,1,0,3:0:0:0:
288,188,314843,1,0,3:0:0:0:
247,154,314921,1,0,3:0:0:0:
194,143,315000,1,8,0:0:0:0:
148,153,315079,1,0,3:0:0:0:
113,179,315158,1,8,3:1:0:0:
97,205,315237,1,0,3:0:0:0:
90,228,315317,6,0,P|86:264|109:304,3,59.9999981689454,0|0|0|0,3:1|3:0|3:0|3:0,0:0:0:0:
152,338,315633,1,8,0:0:0:0:
179,284,315711,1,0,3:0:0:0:
225,248,315790,1,0,3:0:0:0:
284,236,315869,1,0,3:0:0:0:
349,247,315948,1,0,3:1:0:0:
405,291,316027,1,0,3:0:0:0:
435,363,316106,1,0,3:0:0:0:
387,384,316186,1,0,3:0:0:0:
342,367,316264,1,8,0:0:0:0:
315,336,316344,1,0,3:0:0:0:
308,300,316421,1,8,3:1:0:0:
316,271,316500,1,0,3:0:0:0:
331,251,316580,6,0,P|367:222|408:223,1,59.9999981689454,0|0,3:1|3:0,0:0:0:0:
485,67,316738,1,0,3:0:0:0:
485,67,316817,1,0,3:0:0:0:
485,67,316896,2,0,P|444:48|386:60,1,59.9999981689454,8|0,0:0|3:0,0:0:0:0:
193,125,317054,1,0,3:0:0:0:
137,146,317133,1,0,3:0:0:0:
77,140,317212,1,0,3:1:0:0:
27,106,317291,1,0,3:0:0:0:
6,49,317370,2,0,P|19:14|65:-10,1,59.9999981689454,0|0,3:0|3:0,0:0:0:0:
102,239,317528,2,0,P|65:244|20:217,1,59.9999981689454,8|0,3:1|3:0,0:0:0:0:
248,62,317686,2,0,P|271:90|269:143,1,59.9999981689454,8|0,3:1|3:0,0:0:0:0:
157,262,317844,6,0,P|117:247|73:218,1,59.9999981689454,0|0,3:1|3:0,0:0:0:0:
355,196,318001,2,0,P|395:211|439:240,1,59.9999981689454,0|0,3:0|3:0,0:0:0:0:
224,117,318159,2,0,P|239:77|268:33,1,59.9999981689454,8|0,0:0|3:0,0:0:0:0:
282,328,318317,1,0,3:0:0:0:
277,342,318395,1,0,3:0:0:0:
272,356,318474,1,0,3:1:0:0:
265,369,318554,1,0,3:0:0:0:
258,383,318632,1,0,3:0:0:0:
109,113,318791,1,8,0:0:0:0:
425,178,318949,1,8,3:1:0:0:
81,329,319107,6,0,B|54:273|54:273|74:181,1,119.999996337891,2|0,3:1|3:0,0:0:0:0:
425,178,319422,2,0,B|452:234|452:234|432:326,1,119.999996337891,10|0,0:0|3:0,0:0:0:0:
186,156,319738,1,2,3:1:0:0:
348,91,319896,1,2,3:1:0:0:
211,263,320054,1,10,0:0:0:0:
151,261,320133,1,2,3:1:0:0:
102,228,320211,1,2,3:1:0:0:
78,174,320290,1,2,3:1:0:0:
87,115,320370,5,2,3:1:0:0:
378,234,320528,1,2,3:1:0:0:
67,341,320844,1,2,3:1:0:0:
67,341,321159,1,2,3:1:0:0:
67,341,321238,1,0,3:1:0:0:
67,341,321317,2,0,L|55:264,1,59.9999981689454,10|0,3:1|3:1,0:0:0:0:
186,193,321475,2,0,L|178:273,1,59.9999981689454,2|0,3:1|3:1,0:0:0:0:
56,95,321633,6,0,L|211:73,1,119.999996337891,2|0,3:1|3:0,0:0:0:0:
384,218,321949,1,8,0:0:0:0:
103,216,322107,1,2,3:1:0:0:
306,56,322265,2,0,L|307:123,1,59.9999981689454,2|0,3:1|3:0,0:0:0:0:
212,240,322422,1,2,3:1:0:0:
212,240,322501,1,0,3:0:0:0:
212,240,322580,2,0,L|218:105,1,119.999996337891,10|10,0:0|3:1,0:0:0:0:
304,274,322896,6,0,P|254:325|173:320,1,119.999996337891,2|0,3:1|3:0,0:0:0:0:
103,216,323212,1,8,0:0:0:0:
397,225,323370,1,2,3:1:0:0:
397,225,323449,1,0,3:0:0:0:
397,225,323528,2,0,L|406:299,1,59.9999981689454,2|0,3:1|3:0,0:0:0:0:
338,152,323686,2,0,L|262:125,1,59.9999981689454,0|0,3:0|3:0,0:0:0:0:
423,129,323844,2,0,L|480:78,1,59.9999981689454,8|0,0:0|3:0,0:0:0:0:
226,42,324001,1,10,3:1:0:0:
226,42,324080,1,2,3:1:0:0:
226,42,324159,5,2,3:1:0:0:
223,257,324317,1,0,3:0:0:0:
355,70,324475,1,10,0:1:0:0:
85,92,324633,1,0,3:1:0:0:
395,261,324791,1,2,3:1:0:0:
226,42,324949,1,0,3:0:0:0:
127,329,325107,1,10,0:0:0:0:
421,148,325265,1,8,3:1:0:0:
154,189,325422,5,2,3:1:0:0:
352,328,325580,1,0,3:1:0:0:
252,101,325738,1,10,0:0:0:0:
218,78,325817,1,0,3:0:0:0:
180,67,325896,1,0,3:1:0:0:
140,68,325974,1,0,3:0:0:0:
102,80,326053,1,2,3:1:0:0:
70,103,326132,1,0,3:0:0:0:
45,134,326212,2,0,L|31:212,1,59.9999981689454,0|0,3:1|3:0,0:0:0:0:
123,271,326370,2,0,L|129:188,1,59.9999981689454,10|0,3:1|3:0,0:0:0:0:
229,188,326528,2,0,L|227:261,1,59.9999981689454,8|0,3:1|3:1,0:0:0:0:
335,294,326686,6,0,L|324:181,1,59.9999981689454,2|0,3:1|3:0,0:0:0:0:
237,55,326844,1,0,3:0:0:0:
237,55,326922,1,0,3:0:0:0:
237,55,327001,2,0,P|272:118|350:125,1,119.999996337891,10|0,3:1|3:0,0:0:0:0:
401,36,327317,6,0,L|288:47,1,59.9999981689454,2|0,3:1|3:1,0:0:0:0:
152,267,327475,1,0,3:1:0:0:
152,267,327553,1,0,3:1:0:0:
152,267,327633,2,0,P|215:232|222:154,1,119.999996337891,10|0,3:1|3:1,0:0:0:0:
135,108,327949,6,0,L|130:186,1,59.9999981689454,10|0,3:1|3:0,0:0:0:0:
54,117,328107,2,0,L|-12:73,1,59.9999981689454,8|0,3:1|3:1,0:0:0:0:
86,35,328265,2,0,L|156:0,1,59.9999981689454,10|0,3:1|3:0,0:0:0:0:
430,204,328422,2,0,P|355:234|312:216,2,119.999996337891,0|2|0,3:1|3:1|3:1,0:0:0:0:
361,63,328896,1,10,3:1:0:0:
361,93,328974,1,0,3:0:0:0:
361,123,329054,1,2,3:1:0:0:
151,321,329212,5,2,3:1:0:0:
151,291,329291,1,0,3:0:0:0:
151,261,329370,2,0,L|150:172,1,59.9999981689454,8|0,3:1|3:1,0:0:0:0:
234,98,329528,1,2,3:1:0:0:
234,128,329606,1,0,3:0:0:0:
234,158,329686,2,0,L|233:247,1,59.9999981689454,8|0,3:1|3:1,0:0:0:0:
26,164,329844,1,2,3:1:0:0:
47,142,329922,1,0,3:0:0:0:
68,121,330001,2,0,L|130:57,1,59.9999981689454,8|0,3:1|3:1,0:0:0:0:
400,188,330159,1,2,3:1:0:0:
378,209,330237,1,0,3:0:0:0:
357,231,330317,2,0,L|294:294,1,59.9999981689454,8|0,3:1|3:1,0:0:0:0:
139,306,330475,5,2,3:1:0:0:
70,293,330553,1,0,3:1:0:0:
20,243,330632,1,8,3:1:0:0:
8,173,330711,1,0,3:1:0:0:
37,108,330790,1,2,3:1:0:0:
97,71,330869,1,0,3:1:0:0:
167,75,330949,1,8,3:1:0:0:
224,118,331027,1,0,3:1:0:0:
247,185,331107,1,2,3:1:0:0:
261,253,331186,1,0,3:1:0:0:
311,304,331265,1,8,3:1:0:0:
381,316,331344,1,0,3:1:0:0:
446,287,331422,1,2,3:1:0:0:
483,227,331501,1,0,3:1:0:0:
479,156,331580,1,8,3:1:0:0:
436,100,331659,1,0,3:1:0:0:
369,77,331733,5,6,0:2:0:0:
172,180,331890,1,2,0:2:0:0:
261,253,332048,2,0,P|285:211|273:160,1,75.0000028610231,2|2,0:2|0:2,0:0:0:0:
284,185,332523,5,2,0:2:0:0:
405,292,332680,1,2,0:2:0:0:
215,349,332838,2,0,P|178:299|180:259,1,75.0000028610231,2|2,0:2|0:2,0:0:0:0:
178,296,333469,5,2,0:2:0:0:
327,214,333627,2,0,P|370:202|400:212,1,75.0000028610231,2|2,0:2|0:2,0:2:0:0:
192,111,333943,2,0,P|149:99|119:109,1,75.0000028610231,2|2,0:2|0:2,0:2:0:0:
304,32,334259,6,0,L|297:122,1,75.0000028610231,2|2,0:2|0:2,0:0:0:0:
239,183,334575,2,0,L|222:338,1,150.000005722046,2|0,0:2|0:0,0:0:0:0:
35,102,335048,1,2,0:2:0:0:
198,110,335206,1,2,0:2:0:0:
108,256,335364,1,2,0:2:0:0:
108,256,335680,5,2,0:2:0:0:
198,110,335838,1,2,0:2:0:0:
25,107,335996,1,2,0:2:0:0:
108,256,336154,5,2,0:2:0:0:
118,86,336311,1,2,0:2:0:0:
197,213,336469,1,2,0:2:0:0:
26,208,336627,1,2,0:2:0:0:
291,52,336785,6,0,L|289:141,1,75.0000028610231,2|2,0:2|0:2,0:0:0:0:
113,160,337097,2,0,L|118:75,1,75.0000028610231,2|2,0:2|0:2,0:0:0:0:
304,61,337566,6,0,L|302:136,1,75.0000028610231,2|2,0:2|0:2,0:0:0:0:
126,169,337878,2,0,L|128:90,1,75.0000028610231,2|2,0:2|0:2,0:0:0:0:
127,94,338503,5,2,0:2:0:0:
220,262,338660,1,2,0:2:0:0:
39,259,338816,1,2,0:2:0:0:
220,262,338972,1,2,0:2:0:0:
39,259,339128,1,2,0:2:0:0:
286,197,339285,6,0,P|310:257|304:278,1,75.0000028610231,2|2,0:2|0:2,0:0:0:0:
260,335,339597,1,2,0:2:0:0:
286,197,340066,1,2,0:2:0:0:
389,290,340222,1,2,0:2:0:0:
260,335,340378,1,2,0:2:0:0:
260,335,340691,5,2,0:2:0:0:
349,234,340847,1,2,0:2:0:0:
303,122,341003,1,2,0:2:0:0:
197,118,341160,1,2,0:2:0:0:
143,190,341316,1,2,0:2:0:0:
168,260,341472,2,0,P|200:272|256:248,1,75.0000028610231,2|2,0:2|0:2,0:0:0:0:
470,217,341785,5,2,0:2:0:0:
301,187,341951,1,2,0:2:0:0:
406,356,342118,2,0,L|415:272,1,59.9999981689454,2|2,0:2|0:2,0:0:0:0:
402,179,342618,5,2,0:2:0:0:
233,149,342784,1,2,0:2:0:0:
314,306,342951,2,0,L|324:226,1,59.9999981689454,2|2,0:2|0:2,0:0:0:0:
143,80,343623,5,2,0:2:0:0:
143,80,343792,2,0,L|136:149,1,50,2|2,0:2|0:2,0:0:0:0:
243,270,344144,2,0,L|238:192,1,50,2|2,0:2|0:2,0:0:0:0:
62,251,344497,6,0,L|52:344,2,50,2|2|2,0:2|0:2|0:2,0:0:0:0:
394,154,345434,2,0,L|391:85,2,50,2|2|2,0:2|0:2|0:2,0:0:0:0:
269,130,346226,5,2,0:2:0:0:
368,272,346434,1,2,0:2:0:0:
201,282,346642,1,2,0:2:0:0:
269,130,346851,2,0,P|307:118|350:121,1,50,2|2,0:2|0:2,0:0:0:0:
201,282,347267,2,0,P|163:294|120:291,1,50,2|2,0:2|0:2,0:0:0:0:
82,173,347684,5,2,0:2:0:0:
56,310,347907,1,2,0:2:0:0:
248,220,348131,1,2,0:2:0:0:
273,346,348355,1,2,0:2:0:0:
88,171,348813,6,0,P|76:226|78:265,1,50,2|2,0:2|0:2,0:0:0:0:
346,307,349282,2,0,P|358:362|356:401,1,50,2|2,0:2|0:2,0:0:0:0:
214,116,350266,5,2,0:2:0:0:
217,267,350516,1,2,0:2:0:0:
348,186,350766,1,2,0:2:0:0:
143,55,351016,2,0,P|121:83|117:100,1,50,2|2,0:2|0:2,0:0:0:0:
416,271,351542,5,2,0:2:0:0:
416,271,351814,2,0,P|432:218|432:180,1,50,2|2,0:2|0:2,0:0:0:0:
209,130,352947,2,0,P|155:118|120:127,2,50,2|2|2,0:2|0:2|0:2,0:0:0:0:
256,192,354468,5,2,0:2:0:0:
