osu file format v14

[General]
AudioFilename: audio.mp3
AudioLeadIn: 0
PreviewTime: 56740
Countdown: 0
SampleSet: Normal
StackLeniency: 0.7
Mode: 1
LetterboxInBreaks: 0
WidescreenStoryboard: 1

[Editor]
DistanceSpacing: 1.8
BeatDivisor: 2
GridSize: 32
TimelineZoom: 1.8

[Metadata]
Title:Sana no Outa. (Angeart J-Core Edit)
TitleUnicode:さなのおうた。(Angeart J-Core Edit)
Artist:Natori Sana
ArtistUnicode:名取さな
Creator:KTYN
Version:Jerry's Muzukashii
Source:
Tags:KitajimaYN seren58 jerry xavy x_a_v_y japanese Electronic Hardcore バーチャル YouTuber バーチャルサナトリウム もっちゃん motchan Remix Bootleg オリジナルソング Original Song virtual vtuber
BeatmapID:2714466
BeatmapSetID:1298908

[Difficulty]
HPDrainRate:6
CircleSize:5
OverallDifficulty:5
ApproachRate:5
SliderMultiplier:1.4
SliderTickRate:1

[Events]
//Background and Video events
0,0,"BG natori.png",0,0
//Break Periods
//Storyboard Layer 0 (Background)
//Storyboard Layer 1 (Fail)
//Storyboard Layer 2 (Pass)
//Storyboard Layer 3 (Foreground)
//Storyboard Layer 4 (Overlay)
//Storyboard Sound Samples

[TimingPoints]
1240,315.789473684211,4,1,0,80,1,0
1240,-125,4,1,0,80,0,0
11187,-100,4,1,0,80,0,0
45608,-133.333333333333,4,1,0,80,0,0
51608,-117.647058823529,4,1,0,80,0,0
54134,-100,4,1,0,80,0,0
56818,-100,4,1,0,80,0,1
75766,-100,4,1,0,80,0,0
77029,-100,4,1,0,80,0,1
87845,-133.333333333333,4,1,0,80,0,1
88397,-133.333333333333,4,1,0,80,0,0
92740,-100,4,1,0,80,0,0
97397,-133.333333333333,4,1,0,80,0,0
107503,-117.647058823529,4,1,0,80,0,0
113503,-111.111111111111,4,1,0,80,0,0
114766,-105.263157894737,4,1,0,80,0,0
116029,-100,4,1,0,80,0,0
118713,-100,4,1,0,80,0,1
137661,-100,4,1,0,80,0,0
138924,-100,4,1,0,80,0,1
149029,-100,4,1,0,80,0,0
158029,-133.333333333333,4,1,0,80,0,0
164029,-117.647058823529,4,1,0,80,0,0
166634,-100,4,1,0,80,0,0
186924,-100,4,1,0,80,0,1
200818,-100,4,1,0,80,0,0
212187,-100,4,1,0,80,0,1
232082,-125,4,1,0,80,0,1
232397,-125,4,1,0,80,0,0
242345,-100,4,1,0,80,0,0

[HitObjects]
256,192,1240,5,0,0:0:0:0:
256,192,1555,1,8,0:0:0:0:
256,192,1713,1,0,0:0:0:0:
256,192,2029,1,8,0:0:0:0:
256,192,2345,1,8,0:0:0:0:
256,192,2818,1,0,0:0:0:0:
256,192,3134,1,8,0:0:0:0:
256,192,3292,1,0,0:0:0:0:
256,192,3450,1,0,0:0:0:0:
256,192,3608,1,8,0:0:0:0:
256,192,3766,1,0,0:0:0:0:
256,192,4082,1,8,0:0:0:0:
256,192,4240,1,0,0:0:0:0:
256,192,4555,1,8,0:0:0:0:
256,192,4871,1,8,0:0:0:0:
256,192,5345,1,0,0:0:0:0:
256,192,5661,1,8,0:0:0:0:
256,192,5818,1,0,0:0:0:0:
256,192,5976,1,8,0:0:0:0:
256,192,6134,1,0,0:0:0:0:
256,192,6292,1,0,0:0:0:0:
256,192,6608,1,8,0:0:0:0:
256,192,6766,1,0,0:0:0:0:
256,192,7082,1,8,0:0:0:0:
256,192,7397,1,8,0:0:0:0:
256,192,7871,1,0,0:0:0:0:
256,192,8187,1,8,0:0:0:0:
256,192,8345,1,0,0:0:0:0:
256,192,8503,1,0,0:0:0:0:
256,192,8661,1,8,0:0:0:0:
256,192,8818,1,0,0:0:0:0:
256,192,9134,1,8,0:0:0:0:
256,192,9292,1,0,0:0:0:0:
256,192,9608,1,8,0:0:0:0:
256,192,9924,1,8,0:0:0:0:
256,192,10397,5,0,0:0:0:0:
256,192,10713,1,8,0:0:0:0:
256,192,10871,1,8,0:0:0:0:
256,192,11029,1,0,0:0:0:0:
256,192,11345,1,0,0:0:0:0:
256,192,11661,1,8,0:0:0:0:
256,192,11976,1,0,0:0:0:0:
256,192,12134,1,0,0:0:0:0:
256,192,12292,1,8,0:0:0:0:
256,192,12608,1,0,0:0:0:0:
256,192,12924,1,8,0:0:0:0:
256,192,13082,1,8,0:0:0:0:
256,192,13555,1,8,0:0:0:0:
256,192,13871,1,0,0:0:0:0:
256,192,14187,1,8,0:0:0:0:
256,192,14503,1,0,0:0:0:0:
256,192,14661,1,0,0:0:0:0:
256,192,14818,1,8,0:0:0:0:
256,192,15134,1,8,0:0:0:0:
256,192,15450,1,0,0:0:0:0:
256,192,15608,1,8,0:0:0:0:
256,192,16082,1,8,0:0:0:0:
256,192,16397,1,0,0:0:0:0:
256,192,16713,1,8,0:0:0:0:
256,192,17029,1,0,0:0:0:0:
256,192,17187,1,0,0:0:0:0:
256,192,17345,1,8,0:0:0:0:
256,192,17661,1,0,0:0:0:0:
256,192,17976,1,8,0:0:0:0:
256,192,18134,1,8,0:0:0:0:
256,192,18608,5,8,0:0:0:0:
256,192,18924,1,0,0:0:0:0:
256,192,19240,1,8,0:0:0:0:
256,192,19555,1,0,0:0:0:0:
256,192,19713,1,8,0:0:0:0:
256,192,19871,1,0,0:0:0:0:
256,192,20029,1,12,0:0:0:0:
256,192,20345,1,12,0:0:0:0:
256,192,20661,1,12,0:0:0:0:
256,192,21134,5,8,0:0:0:0:
256,192,21292,1,0,0:0:0:0:
256,192,21450,1,0,0:0:0:0:
256,192,21766,1,8,0:0:0:0:
256,192,22082,1,8,0:0:0:0:
256,192,22240,1,0,0:0:0:0:
256,192,22397,1,8,0:0:0:0:
256,192,22555,1,8,0:0:0:0:
256,192,22871,1,8,0:0:0:0:
256,192,23029,1,8,0:0:0:0:
256,192,23187,1,0,0:0:0:0:
256,192,23503,1,0,0:0:0:0:
256,192,23661,1,8,0:0:0:0:
256,192,23818,1,0,0:0:0:0:
256,192,23976,1,0,0:0:0:0:
256,192,24292,1,8,0:0:0:0:
256,192,24608,1,0,0:0:0:0:
256,192,24766,1,0,0:0:0:0:
256,192,24924,1,8,0:0:0:0:
256,192,25082,12,0,26187,0:0:0:0:
256,192,26503,5,0,0:0:0:0:
256,192,26818,1,0,0:0:0:0:
256,192,26976,1,8,0:0:0:0:
256,192,27292,1,8,0:0:0:0:
256,192,27608,1,8,0:0:0:0:
256,192,27924,1,0,0:0:0:0:
256,192,28397,1,8,0:0:0:0:
256,192,28713,1,8,0:0:0:0:
256,192,28871,1,0,0:0:0:0:
256,192,29029,1,0,0:0:0:0:
256,192,29345,1,8,0:0:0:0:
256,192,29503,1,8,0:0:0:0:
256,192,29818,1,8,0:0:0:0:
256,192,30134,1,0,0:0:0:0:
256,192,30450,1,0,0:0:0:0:
256,192,30608,1,8,0:0:0:0:
256,192,30766,1,8,0:0:0:0:
256,192,30924,1,0,0:0:0:0:
256,192,31082,1,8,0:0:0:0:
256,192,31555,5,0,0:0:0:0:
256,192,31871,1,8,0:0:0:0:
256,192,32029,1,0,0:0:0:0:
256,192,32187,1,8,0:0:0:0:
256,192,32345,1,8,0:0:0:0:
256,192,32661,1,0,0:0:0:0:
256,192,32976,1,8,0:0:0:0:
256,192,33134,1,0,0:0:0:0:
256,192,33292,1,8,0:0:0:0:
256,192,33608,1,0,0:0:0:0:
256,192,33924,1,0,0:0:0:0:
256,192,34082,1,0,0:0:0:0:
256,192,34397,1,8,0:0:0:0:
256,192,34555,1,8,0:0:0:0:
256,192,34871,1,8,0:0:0:0:
256,192,35187,12,0,35976,0:0:0:0:
256,192,36608,5,0,0:0:0:0:
256,192,36924,1,8,0:0:0:0:
256,192,37082,1,8,0:0:0:0:
256,192,37397,1,0,0:0:0:0:
256,192,37713,1,8,0:0:0:0:
256,192,38029,1,8,0:0:0:0:
256,192,38187,1,8,0:0:0:0:
256,192,38345,1,0,0:0:0:0:
256,192,38503,1,8,0:0:0:0:
256,192,38818,1,8,0:0:0:0:
256,192,38976,1,0,0:0:0:0:
256,192,39134,1,0,0:0:0:0:
256,192,39450,1,8,0:0:0:0:
256,192,39608,1,0,0:0:0:0:
256,192,39924,1,8,0:0:0:0:
256,192,40240,1,0,0:0:0:0:
256,192,40555,1,0,0:0:0:0:
256,192,40713,1,8,0:0:0:0:
256,192,40871,1,8,0:0:0:0:
256,192,41029,1,0,0:0:0:0:
256,192,41187,1,8,0:0:0:0:
256,192,41661,5,0,0:0:0:0:
256,192,41976,1,8,0:0:0:0:
256,192,42134,1,8,0:0:0:0:
256,192,42450,1,8,0:0:0:0:
256,192,42766,1,0,0:0:0:0:
256,192,43082,1,8,0:0:0:0:
256,192,43240,1,8,0:0:0:0:
256,192,43555,1,0,0:0:0:0:
256,192,43713,1,8,0:0:0:0:
256,192,43871,1,0,0:0:0:0:
256,192,44187,1,0,0:0:0:0:
256,192,44503,1,8,0:0:0:0:
256,192,44661,1,0,0:0:0:0:
256,192,44976,1,8,0:0:0:0:
256,192,45292,12,0,46397,0:0:0:0:
256,192,46713,5,0,0:0:0:0:
256,192,47029,1,8,0:0:0:0:
256,192,47187,1,0,0:0:0:0:
256,192,47503,1,8,0:0:0:0:
256,192,47818,1,0,0:0:0:0:
256,192,48134,1,8,0:0:0:0:
256,192,48450,1,8,0:0:0:0:
256,192,48924,1,8,0:0:0:0:
256,192,49082,1,0,0:0:0:0:
256,192,49240,1,0,0:0:0:0:
256,192,49555,1,8,0:0:0:0:
256,192,49713,1,0,0:0:0:0:
256,192,50029,1,8,0:0:0:0:
256,192,50345,1,0,0:0:0:0:
256,192,50818,5,8,0:0:0:0:
256,192,50976,1,0,0:0:0:0:
256,192,51134,1,8,0:0:0:0:
256,192,51292,1,8,0:0:0:0:
256,192,51450,1,0,0:0:0:0:
256,192,51766,1,0,0:0:0:0:
256,192,52082,1,8,0:0:0:0:
256,192,52397,1,8,0:0:0:0:
256,192,52713,1,0,0:0:0:0:
256,192,53029,1,8,0:0:0:0:
256,192,53345,1,8,0:0:0:0:
256,192,53661,1,0,0:0:0:0:
256,192,53976,1,8,0:0:0:0:
256,192,54292,1,8,0:0:0:0:
256,192,54450,1,8,0:0:0:0:
256,192,54608,1,8,0:0:0:0:
256,192,54766,1,8,0:0:0:0:
224,96,54924,2,0,P|288:96|256:96,4,70
256,192,56818,5,0,0:0:0:0:
256,192,56976,1,8,0:0:0:0:
256,192,57055,1,8,0:0:0:0:
256,192,57134,1,8,0:0:0:0:
256,192,57292,1,0,0:0:0:0:
256,192,57450,1,0,0:0:0:0:
256,192,57608,1,8,0:0:0:0:
256,192,57766,1,0,0:0:0:0:
256,192,57924,1,8,0:0:0:0:
256,192,58240,1,0,0:0:0:0:
256,192,58555,1,8,0:0:0:0:
256,192,58871,1,8,0:0:0:0:
256,192,59029,1,8,0:0:0:0:
256,192,59187,1,0,0:0:0:0:
256,192,59345,1,0,0:0:0:0:
256,192,59503,1,8,0:0:0:0:
256,192,59582,1,8,0:0:0:0:
256,192,59661,1,8,0:0:0:0:
256,192,59818,1,0,0:0:0:0:
256,192,59976,1,0,0:0:0:0:
256,192,60134,1,8,0:0:0:0:
256,192,60292,1,0,0:0:0:0:
256,192,60450,1,8,0:0:0:0:
256,192,60766,1,8,0:0:0:0:
256,192,61082,1,0,0:0:0:0:
256,192,61555,5,8,0:0:0:0:
256,192,61713,1,0,0:0:0:0:
256,192,61871,1,0,0:0:0:0:
256,192,62029,1,8,0:0:0:0:
256,192,62108,1,8,0:0:0:0:
256,192,62187,1,8,0:0:0:0:
256,192,62345,1,8,0:0:0:0:
256,192,62503,1,0,0:0:0:0:
256,192,62661,1,8,0:0:0:0:
256,192,62976,1,0,0:0:0:0:
256,192,63292,1,0,0:0:0:0:
256,192,63608,1,0,0:0:0:0:
256,192,63924,1,0,0:0:0:0:
256,192,64082,1,8,0:0:0:0:
256,192,64240,1,0,0:0:0:0:
256,192,64397,1,0,0:0:0:0:
256,192,64713,1,8,0:0:0:0:
256,192,65029,1,0,0:0:0:0:
256,192,65187,1,0,0:0:0:0:
256,192,65345,1,8,0:0:0:0:
256,192,65661,1,12,0:0:0:0:
256,192,65818,1,12,0:0:0:0:
256,192,65976,1,4,0:0:0:0:
256,192,66134,1,12,0:0:0:0:
256,192,66924,5,0,0:0:0:0:
256,192,67082,1,8,0:0:0:0:
256,192,67161,1,8,0:0:0:0:
256,192,67240,1,8,0:0:0:0:
256,192,67397,1,0,0:0:0:0:
256,192,67555,1,0,0:0:0:0:
256,192,67713,1,8,0:0:0:0:
256,192,67871,1,0,0:0:0:0:
256,192,68029,1,8,0:0:0:0:
256,192,68345,1,0,0:0:0:0:
256,192,68661,1,8,0:0:0:0:
256,192,68976,1,8,0:0:0:0:
256,192,69134,1,8,0:0:0:0:
256,192,69292,1,0,0:0:0:0:
256,192,69450,1,0,0:0:0:0:
256,192,69608,1,8,0:0:0:0:
256,192,69687,1,8,0:0:0:0:
256,192,69766,1,8,0:0:0:0:
256,192,69924,1,0,0:0:0:0:
256,192,70082,1,0,0:0:0:0:
256,192,70240,1,8,0:0:0:0:
256,192,70397,1,0,0:0:0:0:
256,192,70555,1,8,0:0:0:0:
256,192,70871,1,8,0:0:0:0:
256,192,71187,1,0,0:0:0:0:
256,192,71503,1,8,0:0:0:0:
256,192,71976,5,0,0:0:0:0:
256,192,72292,1,8,0:0:0:0:
256,192,72450,1,0,0:0:0:0:
256,192,72608,1,8,0:0:0:0:
256,192,72766,1,8,0:0:0:0:
256,192,73082,1,0,0:0:0:0:
256,192,73397,1,8,0:0:0:0:
256,192,73555,1,0,0:0:0:0:
256,192,73713,1,8,0:0:0:0:
256,192,73871,1,0,0:0:0:0:
256,192,74029,1,0,0:0:0:0:
256,192,74345,1,8,0:0:0:0:
256,192,74503,1,0,0:0:0:0:
256,192,74661,1,0,0:0:0:0:
256,192,74818,1,0,0:0:0:0:
256,192,74976,1,0,0:0:0:0:
256,192,75134,1,8,0:0:0:0:
256,192,75292,1,8,0:0:0:0:
256,192,75450,1,8,0:0:0:0:
256,192,75608,1,0,0:0:0:0:
256,192,75766,1,8,0:0:0:0:
256,192,77029,5,0,0:0:0:0:
256,192,77187,1,0,0:0:0:0:
256,192,77345,1,8,0:0:0:0:
256,192,77503,1,0,0:0:0:0:
256,192,77818,1,0,0:0:0:0:
256,192,78134,1,8,0:0:0:0:
256,192,78450,1,8,0:0:0:0:
256,192,78766,1,8,0:0:0:0:
256,192,79082,1,0,0:0:0:0:
256,192,79397,1,0,0:0:0:0:
256,192,79555,1,8,0:0:0:0:
256,192,79713,1,0,0:0:0:0:
256,192,80029,1,8,0:0:0:0:
256,192,80187,1,8,0:0:0:0:
256,192,80345,1,0,0:0:0:0:
256,192,80661,1,8,0:0:0:0:
256,192,80976,1,8,0:0:0:0:
256,192,81292,1,8,0:0:0:0:
256,192,81608,1,8,0:0:0:0:
256,192,81766,1,8,0:0:0:0:
256,192,81924,1,0,0:0:0:0:
256,192,82082,1,0,0:0:0:0:
256,192,82555,5,0,0:0:0:0:
256,192,82713,1,8,0:0:0:0:
256,192,82871,1,8,0:0:0:0:
256,192,83029,1,0,0:0:0:0:
256,192,83187,1,8,0:0:0:0:
256,192,83503,1,8,0:0:0:0:
256,192,83661,1,8,0:0:0:0:
256,192,83818,1,0,0:0:0:0:
256,192,84134,1,0,0:0:0:0:
256,192,84292,1,0,0:0:0:0:
256,192,84450,1,0,0:0:0:0:
256,192,84608,1,8,0:0:0:0:
256,192,84766,1,8,0:0:0:0:
256,192,84924,1,0,0:0:0:0:
256,192,85082,1,8,0:0:0:0:
256,192,85240,1,0,0:0:0:0:
256,192,85397,1,0,0:0:0:0:
256,192,85555,1,0,0:0:0:0:
256,192,85713,1,8,0:0:0:0:
256,192,86029,1,8,0:0:0:0:
256,192,86345,1,8,0:0:0:0:
256,192,86661,1,8,0:0:0:0:
256,192,86976,1,8,0:0:0:0:
256,192,87134,1,0,0:0:0:0:
256,192,87292,1,8,0:0:0:0:
256,192,87450,1,0,0:0:0:0:
256,192,87608,1,8,0:0:0:0:
256,192,87766,12,0,88082,0:0:0:0:
256,192,88397,5,0,0:0:0:0:
256,192,88713,1,0,0:0:0:0:
256,192,88871,1,0,0:0:0:0:
256,192,89187,1,0,0:0:0:0:
256,192,89503,1,0,0:0:0:0:
256,192,90924,5,0,0:0:0:0:
256,192,91240,1,0,0:0:0:0:
256,192,91397,1,0,0:0:0:0:
256,192,91713,1,0,0:0:0:0:
256,192,92029,1,0,0:0:0:0:
256,192,92503,5,8,0:0:0:0:
256,192,92818,1,0,0:0:0:0:
256,192,92976,1,0,0:0:0:0:
256,192,93134,1,12,0:0:0:0:
256,192,93450,1,0,0:0:0:0:
256,192,93766,1,0,0:0:0:0:
256,192,93924,1,0,0:0:0:0:
256,192,94082,1,8,0:0:0:0:
256,192,94240,1,8,0:0:0:0:
256,192,94397,1,0,0:0:0:0:
256,192,94555,1,8,0:0:0:0:
256,192,94713,1,0,0:0:0:0:
256,192,94871,1,0,0:0:0:0:
256,192,95187,1,8,0:0:0:0:
256,192,95503,1,8,0:0:0:0:
256,192,95661,1,8,0:0:0:0:
256,192,95818,1,0,0:0:0:0:
256,192,95976,1,0,0:0:0:0:
256,192,96292,1,8,0:0:0:0:
256,192,96450,1,0,0:0:0:0:
256,192,96766,1,8,0:0:0:0:
256,192,97082,12,0,97871,0:0:0:0:
256,192,98503,5,0,0:0:0:0:
256,192,98976,1,0,0:0:0:0:
256,192,99134,1,8,0:0:0:0:
256,192,99292,1,8,0:0:0:0:
256,192,99608,1,0,0:0:0:0:
256,192,99766,1,0,0:0:0:0:
256,192,100082,1,8,0:0:0:0:
256,192,100397,1,8,0:0:0:0:
256,192,100555,1,0,0:0:0:0:
256,192,100713,1,0,0:0:0:0:
256,192,100871,1,8,0:0:0:0:
256,192,101029,1,0,0:0:0:0:
256,192,101503,1,0,0:0:0:0:
256,192,101661,1,8,0:0:0:0:
256,192,101818,1,8,0:0:0:0:
256,192,102134,1,0,0:0:0:0:
256,192,102292,1,0,0:0:0:0:
256,192,102608,1,8,0:0:0:0:
256,192,102766,1,0,0:0:0:0:
256,192,102924,1,0,0:0:0:0:
256,192,103082,1,8,0:0:0:0:
256,192,103555,5,0,0:0:0:0:
256,192,104029,1,0,0:0:0:0:
256,192,104187,1,8,0:0:0:0:
256,192,104345,1,8,0:0:0:0:
256,192,104661,1,0,0:0:0:0:
256,192,104818,1,0,0:0:0:0:
256,192,105134,1,8,0:0:0:0:
256,192,105292,1,0,0:0:0:0:
256,192,105450,1,0,0:0:0:0:
256,192,105608,1,8,0:0:0:0:
256,192,105766,1,8,0:0:0:0:
256,192,105924,1,0,0:0:0:0:
256,192,106082,1,0,0:0:0:0:
256,192,106397,1,8,0:0:0:0:
256,192,106555,1,0,0:0:0:0:
256,192,106871,1,0,0:0:0:0:
256,192,107187,12,0,107976,0:0:0:0:
256,192,108608,5,0,0:0:0:0:
256,192,108924,1,8,0:0:0:0:
256,192,109082,1,0,0:0:0:0:
256,192,109397,1,8,0:0:0:0:
256,192,109713,1,0,0:0:0:0:
256,192,109871,1,0,0:0:0:0:
256,192,110029,1,8,0:0:0:0:
256,192,110108,1,8,0:0:0:0:
256,192,110187,1,8,0:0:0:0:
256,192,110345,1,0,0:0:0:0:
256,192,110661,1,8,0:0:0:0:
256,192,110818,1,8,0:0:0:0:
256,192,110976,1,0,0:0:0:0:
256,192,111134,1,0,0:0:0:0:
256,192,111450,1,8,0:0:0:0:
256,192,111608,1,0,0:0:0:0:
256,192,112082,5,8,0:0:0:0:
256,192,112240,1,0,0:0:0:0:
256,192,112397,1,0,0:0:0:0:
256,192,112555,1,8,0:0:0:0:
256,192,112634,1,8,0:0:0:0:
256,192,112713,1,8,0:0:0:0:
256,192,112871,1,0,0:0:0:0:
256,192,113029,1,8,0:0:0:0:
256,192,113187,1,8,0:0:0:0:
256,192,113345,1,0,0:0:0:0:
256,192,113661,1,0,0:0:0:0:
256,192,113976,1,0,0:0:0:0:
256,192,114292,1,0,0:0:0:0:
256,192,114608,1,0,0:0:0:0:
256,192,114924,1,8,0:0:0:0:
256,192,115240,1,8,0:0:0:0:
256,192,115555,1,8,0:0:0:0:
256,192,115871,1,8,0:0:0:0:
256,192,116187,1,0,0:0:0:0:
256,192,116345,1,0,0:0:0:0:
256,192,116503,1,0,0:0:0:0:
256,192,116661,1,0,0:0:0:0:
224,96,116818,2,0,L|320:96,4,70
256,192,118713,5,0,0:0:0:0:
256,192,118871,1,0,0:0:0:0:
256,192,119029,1,8,0:0:0:0:
256,192,119187,1,0,0:0:0:0:
256,192,119503,1,8,0:0:0:0:
256,192,119818,1,8,0:0:0:0:
256,192,120134,1,0,0:0:0:0:
256,192,120450,1,8,0:0:0:0:
256,192,120766,1,8,0:0:0:0:
256,192,120845,1,8,0:0:0:0:
256,192,120924,1,8,0:0:0:0:
256,192,121082,1,8,0:0:0:0:
256,192,121240,1,0,0:0:0:0:
256,192,121397,1,8,0:0:0:0:
256,192,121555,1,8,0:0:0:0:
256,192,121713,1,0,0:0:0:0:
256,192,122029,1,8,0:0:0:0:
256,192,122345,1,8,0:0:0:0:
256,192,122661,1,0,0:0:0:0:
256,192,122976,1,0,0:0:0:0:
256,192,123292,1,8,0:0:0:0:
256,192,123371,1,8,0:0:0:0:
256,192,123450,1,8,0:0:0:0:
256,192,123608,1,8,0:0:0:0:
256,192,123766,1,0,0:0:0:0:
256,192,124082,1,8,0:0:0:0:
256,192,124240,1,8,0:0:0:0:
256,192,124397,1,0,0:0:0:0:
256,192,124555,1,8,0:0:0:0:
256,192,124871,1,0,0:0:0:0:
256,192,125187,1,0,0:0:0:0:
256,192,125503,1,8,0:0:0:0:
256,192,126134,5,0,0:0:0:0:
256,192,126292,1,8,0:0:0:0:
256,192,126450,1,0,0:0:0:0:
256,192,126608,1,8,0:0:0:0:
256,192,126766,1,8,0:0:0:0:
256,192,126924,1,0,0:0:0:0:
256,192,127082,1,0,0:0:0:0:
256,192,127240,1,8,0:0:0:0:
256,192,127555,1,12,0:0:0:0:
256,192,127713,1,12,0:0:0:0:
256,192,127871,1,4,0:0:0:0:
256,192,128029,1,4,0:0:0:0:
256,192,128818,5,0,0:0:0:0:
256,192,128976,1,0,0:0:0:0:
256,192,129134,1,8,0:0:0:0:
256,192,129292,1,0,0:0:0:0:
256,192,129608,1,8,0:0:0:0:
256,192,129924,1,8,0:0:0:0:
256,192,130240,1,0,0:0:0:0:
256,192,130555,1,8,0:0:0:0:
256,192,130871,1,8,0:0:0:0:
256,192,130950,1,8,0:0:0:0:
256,192,131029,1,8,0:0:0:0:
256,192,131187,1,8,0:0:0:0:
256,192,131345,1,0,0:0:0:0:
256,192,131503,1,0,0:0:0:0:
256,192,131661,1,8,0:0:0:0:
256,192,131818,1,0,0:0:0:0:
256,192,132134,1,8,0:0:0:0:
256,192,132450,1,8,0:0:0:0:
256,192,132766,1,0,0:0:0:0:
256,192,133082,1,0,0:0:0:0:
256,192,133397,1,8,0:0:0:0:
256,192,133476,1,8,0:0:0:0:
256,192,133555,1,8,0:0:0:0:
256,192,133713,1,8,0:0:0:0:
256,192,133871,1,0,0:0:0:0:
256,192,134187,1,8,0:0:0:0:
256,192,134345,1,0,0:0:0:0:
256,192,134661,1,8,0:0:0:0:
256,192,134976,1,0,0:0:0:0:
256,192,135292,1,8,0:0:0:0:
256,192,135450,1,0,0:0:0:0:
256,192,135608,1,8,0:0:0:0:
256,192,135924,1,0,0:0:0:0:
256,192,136397,1,0,0:0:0:0:
256,192,136555,1,0,0:0:0:0:
256,192,136713,1,0,0:0:0:0:
256,192,136871,1,0,0:0:0:0:
256,192,137029,1,8,0:0:0:0:
256,192,137187,1,8,0:0:0:0:
256,192,137345,1,8,0:0:0:0:
256,192,137503,1,8,0:0:0:0:
256,192,137661,1,4,0:0:0:0:
256,192,138924,5,0,0:0:0:0:
256,192,139082,1,8,0:0:0:0:
256,192,139397,1,0,0:0:0:0:
256,192,139555,1,0,0:0:0:0:
256,192,139713,1,8,0:0:0:0:
256,192,139871,1,8,0:0:0:0:
256,192,140029,1,0,0:0:0:0:
256,192,140345,1,8,0:0:0:0:
256,192,140503,1,8,0:0:0:0:
256,192,140661,1,0,0:0:0:0:
256,192,140818,1,8,0:0:0:0:
256,192,140976,1,0,0:0:0:0:
256,192,141292,1,8,0:0:0:0:
256,192,141608,1,0,0:0:0:0:
256,192,141766,1,8,0:0:0:0:
256,192,141924,1,0,0:0:0:0:
256,192,142082,1,8,0:0:0:0:
256,192,142240,1,8,0:0:0:0:
256,192,142555,1,8,0:0:0:0:
256,192,143187,5,0,0:0:0:0:
256,192,143345,1,0,0:0:0:0:
256,192,143503,1,8,0:0:0:0:
256,192,143661,1,8,0:0:0:0:
256,192,143818,1,0,0:0:0:0:
256,192,144134,1,0,0:0:0:0:
256,192,144450,1,8,0:0:0:0:
256,192,144766,1,8,0:0:0:0:
256,192,144924,1,8,0:0:0:0:
256,192,145082,1,0,0:0:0:0:
256,192,145240,1,8,0:0:0:0:
256,192,145555,1,0,0:0:0:0:
256,192,145871,1,8,0:0:0:0:
256,192,146029,1,0,0:0:0:0:
256,192,146187,1,8,0:0:0:0:
256,192,146345,1,8,0:0:0:0:
256,192,146503,1,0,0:0:0:0:
256,192,146976,1,8,0:0:0:0:
256,192,147292,1,8,0:0:0:0:
256,192,147608,1,0,0:0:0:0:
256,192,148397,5,8,0:0:0:0:
256,192,148713,1,0,0:0:0:0:
256,192,149029,1,0,0:0:0:0:
256,192,149345,1,8,0:0:0:0:
256,192,149661,1,0,0:0:0:0:
256,192,149976,1,8,0:0:0:0:
256,192,150134,1,0,0:0:0:0:
256,192,150292,1,0,0:0:0:0:
256,192,150608,1,8,0:0:0:0:
256,192,150924,1,0,0:0:0:0:
256,192,151240,1,8,0:0:0:0:
256,192,151397,1,8,0:0:0:0:
256,192,151555,1,0,0:0:0:0:
256,192,151871,1,8,0:0:0:0:
256,192,152187,1,0,0:0:0:0:
256,192,152503,1,8,0:0:0:0:
256,192,152661,1,0,0:0:0:0:
256,192,152818,1,0,0:0:0:0:
256,192,153134,1,8,0:0:0:0:
256,192,153450,1,0,0:0:0:0:
256,192,153766,1,8,0:0:0:0:
256,192,153924,1,8,0:0:0:0:
256,192,154082,1,0,0:0:0:0:
256,192,154555,1,8,0:0:0:0:
256,192,154713,1,0,0:0:0:0:
256,192,155029,1,8,0:0:0:0:
256,192,155345,1,0,0:0:0:0:
256,192,155818,1,8,0:0:0:0:
256,192,155976,1,0,0:0:0:0:
256,192,156292,1,8,0:0:0:0:
256,192,156608,1,0,0:0:0:0:
256,192,156924,1,8,0:0:0:0:
256,192,157240,1,0,0:0:0:0:
256,192,157555,1,8,0:0:0:0:
256,192,157871,1,0,0:0:0:0:
256,192,159134,5,0,0:0:0:0:
256,192,159450,1,8,0:0:0:0:
256,192,159608,1,0,0:0:0:0:
256,192,159924,1,8,0:0:0:0:
256,192,160240,1,8,0:0:0:0:
256,192,161345,5,8,0:0:0:0:
256,192,161661,1,0,0:0:0:0:
256,192,161976,1,8,0:0:0:0:
256,192,162134,1,0,0:0:0:0:
256,192,162450,1,8,0:0:0:0:
256,192,162766,1,8,0:0:0:0:
256,192,164187,5,0,0:0:0:0:
256,192,164345,1,8,0:0:0:0:
256,192,164503,1,8,0:0:0:0:
256,192,164661,1,0,0:0:0:0:
256,192,164818,1,8,0:0:0:0:
256,192,164976,1,0,0:0:0:0:
256,192,165134,1,0,0:0:0:0:
256,192,165292,1,8,0:0:0:0:
256,192,165450,1,0,0:0:0:0:
256,192,165608,1,8,0:0:0:0:
256,192,165766,1,8,0:0:0:0:
256,192,165924,1,0,0:0:0:0:
256,192,166082,1,8,0:0:0:0:
256,192,166240,1,0,0:0:0:0:
256,192,166397,1,8,0:0:0:0:
256,192,166555,1,8,0:0:0:0:
224,96,166713,2,0,L|320:96,6,70
256,192,167976,1,4,0:0:0:0:
256,192,169240,5,0,0:0:0:0:
256,192,169555,1,8,0:0:0:0:
256,192,169871,1,0,0:0:0:0:
256,192,170029,1,0,0:0:0:0:
256,192,170345,1,8,0:0:0:0:
256,192,170661,1,8,0:0:0:0:
256,192,170818,1,8,0:0:0:0:
256,192,170976,1,0,0:0:0:0:
256,192,171450,5,8,0:0:0:0:
256,192,171608,1,0,0:0:0:0:
256,192,171766,1,0,0:0:0:0:
256,192,172082,1,8,0:0:0:0:
256,192,172397,1,0,0:0:0:0:
256,192,172713,1,8,0:0:0:0:
256,192,172871,1,8,0:0:0:0:
256,192,173187,1,0,0:0:0:0:
256,192,173345,1,8,0:0:0:0:
256,192,173503,1,0,0:0:0:0:
256,192,173976,5,8,0:0:0:0:
256,192,174134,1,0,0:0:0:0:
256,192,174292,1,0,0:0:0:0:
256,192,174608,1,8,0:0:0:0:
256,192,174924,1,0,0:0:0:0:
256,192,175240,1,8,0:0:0:0:
256,192,175397,1,8,0:0:0:0:
256,192,175555,1,0,0:0:0:0:
256,192,175871,1,8,0:0:0:0:
256,192,176187,1,0,0:0:0:0:
256,192,176503,1,8,0:0:0:0:
256,192,176661,1,0,0:0:0:0:
256,192,176818,1,0,0:0:0:0:
256,192,177134,1,8,0:0:0:0:
256,192,177450,1,0,0:0:0:0:
256,192,177608,1,8,0:0:0:0:
256,192,177766,1,8,0:0:0:0:
256,192,177924,1,0,0:0:0:0:
256,192,178082,1,8,0:0:0:0:
256,192,178397,1,8,0:0:0:0:
256,192,178713,1,8,0:0:0:0:
256,192,178871,1,8,0:0:0:0:
256,192,179029,1,8,0:0:0:0:
256,192,179187,1,0,0:0:0:0:
256,192,179345,1,8,0:0:0:0:
256,192,179503,1,0,0:0:0:0:
256,192,179661,1,8,0:0:0:0:
256,192,179818,1,0,0:0:0:0:
256,192,179976,1,8,0:0:0:0:
256,192,180134,1,8,0:0:0:0:
256,192,180292,1,8,0:0:0:0:
256,192,180450,1,8,0:0:0:0:
224,128,180608,2,0,L|320:128,8,70
256,192,183134,5,0,0:0:0:0:
256,192,184397,5,0,0:0:0:0:
256,192,185661,5,0,0:0:0:0:
256,192,185976,1,8,0:0:0:0:
256,192,186134,1,0,0:0:0:0:
256,192,186450,1,0,0:0:0:0:
256,192,186608,1,8,0:0:0:0:
256,192,186766,1,0,0:0:0:0:
256,192,186924,1,0,0:0:0:0:
256,192,187240,1,8,0:0:0:0:
256,192,187397,1,0,0:0:0:0:
256,192,187555,1,0,0:0:0:0:
256,192,187871,1,8,0:0:0:0:
256,192,188029,1,0,0:0:0:0:
256,192,188345,1,8,0:0:0:0:
256,192,188503,1,8,0:0:0:0:
256,192,188661,1,0,0:0:0:0:
256,192,188976,1,8,0:0:0:0:
256,192,189134,1,8,0:0:0:0:
256,192,189292,1,0,0:0:0:0:
256,192,189450,1,0,0:0:0:0:
256,192,189766,1,0,0:0:0:0:
256,192,190082,1,8,0:0:0:0:
256,192,190397,1,8,0:0:0:0:
256,192,190713,1,0,0:0:0:0:
256,192,190871,1,8,0:0:0:0:
256,192,191029,1,8,0:0:0:0:
256,192,191187,1,0,0:0:0:0:
256,192,191976,5,0,0:0:0:0:
256,192,192134,1,8,0:0:0:0:
256,192,192213,1,8,0:0:0:0:
256,192,192292,1,8,0:0:0:0:
256,192,192450,1,0,0:0:0:0:
256,192,192608,1,0,0:0:0:0:
256,192,192766,1,8,0:0:0:0:
256,192,192924,1,0,0:0:0:0:
256,192,193082,1,8,0:0:0:0:
256,192,193397,1,0,0:0:0:0:
256,192,193713,1,8,0:0:0:0:
256,192,194029,1,8,0:0:0:0:
256,192,194187,1,8,0:0:0:0:
256,192,194345,1,0,0:0:0:0:
256,192,194503,1,8,0:0:0:0:
256,192,194661,1,8,0:0:0:0:
256,192,194740,1,8,0:0:0:0:
256,192,194818,1,8,0:0:0:0:
256,192,194976,1,0,0:0:0:0:
256,192,195134,1,0,0:0:0:0:
256,192,195292,1,8,0:0:0:0:
256,192,195608,1,8,0:0:0:0:
256,192,195924,1,0,0:0:0:0:
256,192,196240,1,0,0:0:0:0:
256,192,196555,1,8,0:0:0:0:
256,192,197029,5,0,0:0:0:0:
256,192,197345,1,8,0:0:0:0:
256,192,197503,1,8,0:0:0:0:
256,192,197661,1,0,0:0:0:0:
256,192,197818,1,8,0:0:0:0:
256,192,198134,1,0,0:0:0:0:
256,192,198450,1,8,0:0:0:0:
256,192,198608,1,8,0:0:0:0:
256,192,198766,1,0,0:0:0:0:
256,192,198924,1,8,0:0:0:0:
256,192,199082,1,0,0:0:0:0:
256,192,199397,1,8,0:0:0:0:
256,192,199555,1,0,0:0:0:0:
256,192,199713,1,0,0:0:0:0:
256,192,199871,1,0,0:0:0:0:
256,192,200029,1,0,0:0:0:0:
256,192,200187,1,8,0:0:0:0:
256,192,200345,1,8,0:0:0:0:
256,192,200503,1,8,0:0:0:0:
256,192,200661,1,8,0:0:0:0:
256,192,200818,1,4,0:0:0:0:
256,192,202082,5,0,0:0:0:0:
256,192,202555,1,0,0:0:0:0:
256,192,202871,1,0,0:0:0:0:
256,192,203187,1,0,0:0:0:0:
256,192,204134,5,8,0:0:0:0:
256,192,204292,1,8,0:0:0:0:
256,192,204450,1,0,0:0:0:0:
256,192,204608,1,0,0:0:0:0:
256,192,205871,5,0,0:0:0:0:
256,192,207134,5,0,0:0:0:0:
256,192,207766,5,8,0:0:0:0:
256,192,208397,5,0,0:0:0:0:
256,192,209029,5,8,0:0:0:0:
256,192,209661,5,0,0:0:0:0:
256,192,209976,1,0,0:0:0:0:
256,192,210292,1,0,0:0:0:0:
256,192,210608,1,0,0:0:0:0:
256,192,210924,1,0,0:0:0:0:
256,192,211082,1,0,0:0:0:0:
256,192,211240,1,0,0:0:0:0:
256,192,211397,1,0,0:0:0:0:
224,64,211555,2,0,L|320:64,2,70
256,192,212187,5,0,0:0:0:0:
256,192,212503,1,8,0:0:0:0:
256,192,212661,1,0,0:0:0:0:
256,192,212976,1,0,0:0:0:0:
256,192,213292,5,8,0:0:0:0:
256,192,213608,1,8,0:0:0:0:
256,192,213924,1,8,0:0:0:0:
256,192,214240,5,0,0:0:0:0:
256,192,214555,1,0,0:0:0:0:
256,192,214713,1,8,0:0:0:0:
256,192,214871,1,0,0:0:0:0:
256,192,215187,1,8,0:0:0:0:
256,192,215345,1,8,0:0:0:0:
256,192,215503,1,0,0:0:0:0:
256,192,215818,1,8,0:0:0:0:
256,192,216134,1,8,0:0:0:0:
256,192,216450,1,8,0:0:0:0:
256,192,216924,1,8,0:0:0:0:
256,192,217082,1,0,0:0:0:0:
256,192,217240,1,0,0:0:0:0:
256,192,217713,5,8,0:0:0:0:
256,192,217871,1,8,0:0:0:0:
256,192,218029,1,0,0:0:0:0:
256,192,218187,1,0,0:0:0:0:
256,192,218345,1,8,0:0:0:0:
256,192,218661,1,8,0:0:0:0:
256,192,218818,1,8,0:0:0:0:
256,192,218976,1,0,0:0:0:0:
256,192,219292,1,0,0:0:0:0:
256,192,219450,1,8,0:0:0:0:
256,192,219608,1,0,0:0:0:0:
256,192,219766,1,8,0:0:0:0:
256,192,219924,1,0,0:0:0:0:
256,192,220240,1,8,0:0:0:0:
256,192,220397,1,8,0:0:0:0:
256,192,220555,1,0,0:0:0:0:
256,192,220713,1,0,0:0:0:0:
256,192,220871,1,8,0:0:0:0:
256,192,221187,1,8,0:0:0:0:
256,192,221503,1,8,0:0:0:0:
256,192,221818,1,8,0:0:0:0:
256,192,222292,5,0,0:0:0:0:
256,192,222608,1,8,0:0:0:0:
256,192,222766,1,0,0:0:0:0:
256,192,223082,1,0,0:0:0:0:
256,192,223397,1,8,0:0:0:0:
256,192,223713,1,8,0:0:0:0:
256,192,224029,1,8,0:0:0:0:
256,192,224345,1,0,0:0:0:0:
256,192,224661,1,8,0:0:0:0:
256,192,224740,1,8,0:0:0:0:
256,192,224818,1,8,0:0:0:0:
256,192,224976,1,8,0:0:0:0:
256,192,225292,1,8,0:0:0:0:
256,192,225371,1,8,0:0:0:0:
256,192,225450,1,8,0:0:0:0:
256,192,225608,1,0,0:0:0:0:
256,192,225924,1,0,0:0:0:0:
256,192,226240,1,8,0:0:0:0:
256,192,226555,1,8,0:0:0:0:
256,192,226871,1,8,0:0:0:0:
256,192,226950,1,8,0:0:0:0:
256,192,227029,1,8,0:0:0:0:
256,192,227187,1,8,0:0:0:0:
256,192,227345,1,0,0:0:0:0:
256,192,227818,5,0,0:0:0:0:
256,192,227976,1,8,0:0:0:0:
256,192,228134,1,0,0:0:0:0:
256,192,228292,1,0,0:0:0:0:
256,192,228450,1,8,0:0:0:0:
256,192,228766,1,8,0:0:0:0:
256,192,228845,1,8,0:0:0:0:
256,192,228924,1,8,0:0:0:0:
256,192,229082,1,0,0:0:0:0:
256,192,229397,1,0,0:0:0:0:
256,192,229555,1,8,0:0:0:0:
256,192,229713,1,0,0:0:0:0:
256,192,229871,1,8,0:0:0:0:
256,192,230029,1,8,0:0:0:0:
256,192,230187,1,0,0:0:0:0:
256,192,230345,1,8,0:0:0:0:
256,192,230503,1,8,0:0:0:0:
256,192,230661,1,0,0:0:0:0:
256,192,230818,1,0,0:0:0:0:
256,192,230976,1,8,0:0:0:0:
256,192,231292,1,8,0:0:0:0:
256,192,231608,1,8,0:0:0:0:
256,192,231924,1,8,0:0:0:0:
256,192,232397,5,0,0:0:0:0:
256,192,232713,1,8,0:0:0:0:
256,192,232871,1,0,0:0:0:0:
256,192,233187,1,8,0:0:0:0:
256,192,233503,1,8,0:0:0:0:
256,192,233976,5,0,0:0:0:0:
256,192,234292,1,8,0:0:0:0:
256,192,234608,1,8,0:0:0:0:
256,192,234766,1,0,0:0:0:0:
256,192,234924,1,0,0:0:0:0:
256,192,235240,1,8,0:0:0:0:
256,192,235397,1,0,0:0:0:0:
256,192,235713,1,8,0:0:0:0:
256,192,236029,1,8,0:0:0:0:
256,192,236503,5,8,0:0:0:0:
256,192,236818,1,8,0:0:0:0:
256,192,237134,1,8,0:0:0:0:
256,192,237292,1,0,0:0:0:0:
256,192,237450,1,0,0:0:0:0:
256,192,237766,1,8,0:0:0:0:
256,192,237924,1,0,0:0:0:0:
256,192,238240,1,8,0:0:0:0:
256,192,238555,1,8,0:0:0:0:
256,192,239029,5,0,0:0:0:0:
256,192,239345,1,8,0:0:0:0:
256,192,239661,1,8,0:0:0:0:
256,192,239818,1,0,0:0:0:0:
256,192,239976,1,0,0:0:0:0:
256,192,240292,1,8,0:0:0:0:
256,192,240450,1,0,0:0:0:0:
256,192,240766,1,8,0:0:0:0:
256,192,241082,1,8,0:0:0:0:
256,192,241555,5,8,0:0:0:0:
256,192,241871,1,8,0:0:0:0:
256,192,242029,1,0,0:0:0:0:
256,192,242187,1,8,0:0:0:0:
256,192,242503,1,0,0:0:0:0:
256,192,242818,1,8,0:0:0:0:
256,192,243134,1,0,0:0:0:0:
256,192,243292,1,0,0:0:0:0:
256,192,243450,1,8,0:0:0:0:
256,192,243608,1,8,0:0:0:0:
256,192,243766,1,0,0:0:0:0:
256,192,244082,1,8,0:0:0:0:
256,192,244240,1,8,0:0:0:0:
256,192,244713,5,8,0:0:0:0:
256,192,244871,1,0,0:0:0:0:
256,192,245029,1,0,0:0:0:0:
256,192,245345,1,8,0:0:0:0:
256,192,245661,1,0,0:0:0:0:
256,192,245818,1,0,0:0:0:0:
256,192,245976,1,8,0:0:0:0:
256,192,246134,1,0,0:0:0:0:
256,192,246292,1,8,0:0:0:0:
256,192,246608,1,8,0:0:0:0:
256,192,246766,1,8,0:0:0:0:
256,192,247240,5,8,0:0:0:0:
256,192,247397,1,0,0:0:0:0:
256,192,247555,1,0,0:0:0:0:
256,192,247871,1,8,0:0:0:0:
256,192,248187,1,0,0:0:0:0:
256,192,248345,1,0,0:0:0:0:
256,192,248503,1,8,0:0:0:0:
256,192,248661,1,8,0:0:0:0:
256,192,248818,1,0,0:0:0:0:
256,192,249134,1,8,0:0:0:0:
256,192,249292,1,8,0:0:0:0:
256,192,249766,5,8,0:0:0:0:
256,192,249924,1,0,0:0:0:0:
256,192,250082,1,0,0:0:0:0:
256,192,250397,1,8,0:0:0:0:
256,192,250713,1,0,0:0:0:0:
256,192,250871,1,0,0:0:0:0:
256,192,251029,1,8,0:0:0:0:
256,192,251187,1,0,0:0:0:0:
256,192,251345,1,8,0:0:0:0:
